osu file format v14

[General]
AudioFilename: audio.mp3
AudioLeadIn: 0
PreviewTime: 40161
Countdown: 0
SampleSet: Soft
StackLeniency: 0.7
Mode: 0
LetterboxInBreaks: 0
WidescreenStoryboard: 0

[Editor]
DistanceSpacing: 1.6
BeatDivisor: 16
GridSize: 4
TimelineZoom: 3.099999

[Metadata]
Title:Battle Spirit
TitleUnicode:バトルスピリット
Artist:Yoshino Aoki
ArtistUnicode:青木佳乃
Creator:P o M u T a
Version:EX
Source:バトルネットワーク ロックマンエグゼ2
Tags:electronic video Kyshiro forte megaman Mega Man pomuta Battle Network Rockman EXE 2 capcom game boy advance airman quickman cutman shadowman protoman knightman magnetman freezeman bass gospel gba instrumental
BeatmapID:1008717
BeatmapSetID:472007

[Difficulty]
HPDrainRate:6
CircleSize:5
OverallDifficulty:8
ApproachRate:9.2
SliderMultiplier:2.39999990463257
SliderTickRate:1

[Events]
//Background and Video events
0,0,"2070867_p0.jpg",0,0
//Break Periods
//Storyboard Layer 0 (Background)
//Storyboard Layer 1 (Fail)
//Storyboard Layer 2 (Pass)
//Storyboard Layer 3 (Foreground)
//Storyboard Layer 4 (Overlay)
//Storyboard Sound Samples

[TimingPoints]
530,412.825099766066,4,2,1,60,1,0
530,-133.333333333333,4,2,1,60,0,0
3006,-100,4,2,1,70,0,0
3213,-100,4,2,1,80,0,0
3832,-133.333333333333,4,2,1,60,0,0
5483,-133.333333333333,4,2,1,70,0,0
5690,-100,4,2,1,100,0,0
6309,-133.333333333333,4,2,1,60,0,0
6722,-133.333333333333,4,2,1,70,0,0
7135,-100,4,2,1,80,0,0
9818,-100,4,2,1,90,0,0
10437,-100,4,2,1,80,0,0
16423,-100,4,2,1,90,0,0
17043,-100,4,2,1,80,0,0
20345,-100,4,2,1,85,0,0
23648,-100,4,2,1,50,0,0
24061,-100,4,2,1,60,0,0
24473,-100,4,2,1,70,0,0
24886,-100,4,2,1,80,0,0
25299,-100,4,2,1,85,0,0
32111,-111.111111111111,4,2,1,85,0,0
32317,-125,4,2,1,85,0,0
32523,-142.857142857143,4,2,1,85,0,0
32730,-142.857142857143,4,2,1,75,0,0
33143,-142.857142857143,4,2,1,80,0,0
33556,-100,4,2,1,85,0,0
38716,-100,4,2,1,90,0,0
39335,-200,4,2,1,80,0,0
40161,-100,4,2,1,80,0,0
53371,-100,4,2,1,85,0,1
56674,-100,4,2,1,50,0,1
57087,-100,4,2,1,60,0,1
57499,-100,4,2,1,70,0,1
57912,-100,4,2,1,80,0,1
58325,-100,4,2,1,85,0,1
65756,-100,4,2,1,75,0,1
66169,-100,4,2,1,80,0,1
66582,-100,4,2,1,85,0,0
71535,-100,4,2,1,80,0,0
72361,-100,4,2,1,60,0,0
72464,-200,4,2,1,60,0,0
72774,-200,4,2,1,70,0,0
73187,-200,4,2,1,100,0,0

[Colours]
Combo1 : 191,255,191
Combo2 : 136,136,255
Combo3 : 255,198,140
Combo4 : 210,166,255

[HitObjects]
161,205,530,6,0,P|145:163|148:119,1,89.9999998569489,6|0,0:0|0:0,0:0:0:0:
364,247,942,1,2,0:0:0:0:
364,247,1046,2,0,P|366:295|345:342,1,89.9999998569489,0|0,0:0|0:0,0:0:0:0:
316,183,1355,2,0,L|406:178,1,89.9999998569489,2|0,0:0|0:0,0:0:0:0:
392,35,1665,2,0,L|302:40,1,89.9999998569489,0|0,0:0|0:0,0:0:0:0:
309,112,1974,2,0,L|354:109,1,44.9999999284744,0|2,0:0|0:0,0:0:0:0:
241,73,2181,6,0,P|197:83|154:68,1,89.9999998569489,2|0,0:0|0:0,0:0:0:0:
98,17,2490,1,0,0:0:0:0:
10,107,2594,1,2,0:0:0:0:
14,125,2697,2,0,L|110:135,1,89.9999998569489,0|2,0:0|0:0,0:0:0:0:
196,225,3006,1,12,0:0:0:0:
214,313,3110,1,4,0:0:0:0:
154,380,3213,2,0,L|35:376,1,119.999995231628,8|0,0:3|0:0,0:0:0:0:
214,313,3522,2,0,L|333:309,1,119.999995231628,4|2,0:0|0:0,0:0:0:0:
390,344,3832,6,0,P|371:298|377:257,1,89.9999998569489,2|0,0:0|0:0,0:0:0:0:
404,198,4142,1,0,0:0:0:0:
457,57,4245,1,2,0:0:0:0:
464,40,4348,2,0,P|483:86|477:127,1,89.9999998569489,0|0,0:0|0:0,0:0:0:0:
390,96,4658,1,2,0:0:0:0:
265,8,4761,2,0,L|358:10,1,89.9999998569489,2|0,0:3|3:0,0:0:0:0:
196,44,5071,2,0,P|189:22|189:-9,1,44.9999999284744,2|0,0:0|0:0,0:0:0:0:
324,130,5277,2,0,P|322:152|316:174,1,44.9999999284744,2|0,0:3|3:0,0:0:0:0:
185,315,5483,6,0,L|140:312,1,44.9999999284744,8|4,0:3|0:3,0:0:0:0:
327,314,5690,2,0,L|388:311,1,59.9999976158143,4|2,0:2|0:0,0:0:0:0:
256,248,5896,1,8,0:0:0:0:
85,377,5999,2,0,P|56:318|71:263,1,119.999995231628,6|0,0:0|0:0,0:0:0:0:
125,188,6309,5,2,0:3:0:0:
150,162,6412,1,0,0:0:0:0:
156,126,6515,1,2,0:3:0:0:
146,91,6619,1,0,3:0:0:0:
123,63,6722,1,8,0:0:0:0:
158,59,6825,1,8,0:0:0:0:
194,55,6928,1,0,3:0:0:0:
229,52,7031,1,8,0:0:0:0:
301,94,7135,6,0,B|325:94|340:81|340:81|363:103|363:103|380:93|416:96,1,119.999995231629,6|0,0:0|3:0,0:0:0:0:
495,153,7444,2,0,P|437:159|389:197,1,119.999995231629,0|0,3:0|3:0,0:0:0:0:
273,335,7754,2,0,P|271:303|260:273,1,59.9999976158143,2|0,0:0|0:0,0:0:0:0:
52,188,7960,2,0,P|148:202|218:155,2,179.999992847443,2|0|2,0:3|3:0|0:0,0:0:0:0:
98,132,8683,1,0,0:0:0:0:
33,264,8786,6,0,L|23:324,1,59.9999976158143,2|0,3:0|3:0,0:0:0:0:
115,295,8992,2,0,L|123:359,1,59.9999976158143,2|0,0:0|3:0,0:0:0:0:
199,297,9199,1,8,0:0:0:0:
206,325,9302,1,0,3:0:0:0:
280,263,9405,1,2,0:0:0:0:
295,288,9508,1,0,0:0:0:0:
345,206,9612,6,0,L|402:223,1,59.9999976158143,2|0,0:3|3:0,0:0:0:0:
298,20,9818,2,0,L|309:139,1,119.999995231629,6|0,0:0|0:0,0:0:0:0:
214,20,10128,2,0,L|203:139,1,119.999995231629,6|0,0:0|0:0,0:0:0:0:
25,156,10437,6,0,P|83:155|135:190,1,119.999995231629,2|0,0:0|3:0,0:0:0:0:
25,156,10747,2,0,L|18:29,1,119.999995231629,0|0,3:0|3:0,0:0:0:0:
133,188,11057,2,0,L|129:248,1,59.9999976158143,2|0,0:0|0:0,0:0:0:0:
26,341,11263,1,2,0:3:0:0:
54,331,11366,1,0,3:0:0:0:
83,332,11469,1,2,0:0:0:0:
111,342,11573,2,0,B|147:363|147:363|186:342|230:353,1,119.999995231629,0|0,3:0|3:0,0:0:0:0:
294,369,11882,1,2,0:0:0:0:
476,242,12089,6,0,P|421:256|357:231,1,119.999995231629,2|2,0:3|0:0,0:0:0:0:
490,182,12398,2,0,L|499:310,1,119.999995231629,0|0,3:0|3:0,0:0:0:0:
363,294,12708,2,0,P|358:259|365:229,1,59.9999976158143,2|0,0:0|0:0,0:0:0:0:
411,145,12914,1,2,0:3:0:0:
381,151,13017,1,0,3:0:0:0:
307,126,13121,1,2,0:0:0:0:
277,132,13224,2,0,L|158:123,1,119.999995231629,2|10,0:3|0:0,0:0:0:0:
79,117,13533,1,0,3:0:0:0:
79,117,13740,6,0,P|71:89|77:55,1,59.9999976158143,2|0,0:0|3:0,0:0:0:0:
138,196,13946,2,0,P|71:189|20:215,1,119.999995231629,0|8,3:0|0:0,0:0:0:0:
197,244,14256,1,0,3:0:0:0:
252,183,14359,2,0,L|248:123,1,59.9999976158143,2|0,0:0|0:0,0:0:0:0:
399,254,14566,2,0,P|332:247|281:273,1,119.999995231629,2|2,0:3|0:0,0:0:0:0:
388,352,14875,2,0,L|512:340,1,119.999995231629,0|0,3:0|3:0,0:0:0:0:
303,362,15185,1,2,0:0:0:0:
503,200,15391,5,2,0:3:0:0:
497,229,15494,1,0,3:0:0:0:
431,160,15598,5,2,0:0:0:0:
437,189,15701,1,0,3:0:0:0:
498,106,15804,5,8,0:0:0:0:
492,135,15907,1,0,3:0:0:0:
426,66,16010,5,2,0:0:0:0:
432,95,16114,1,0,0:0:0:0:
356,78,16217,2,0,P|326:82|298:69,1,59.9999976158143,2|0,0:3|3:0,0:0:0:0:
252,141,16423,2,0,B|220:130|220:130|170:150|170:150|138:143,1,119.999995231629,6|0,0:0|0:0,0:0:0:0:
54,111,16733,2,0,B|86:122|86:122|136:102|136:102|168:109,1,119.999995231629,6|0,0:0|0:0,0:0:0:0:
221,244,17043,6,0,P|199:301|212:363,1,119.999995231629,2|0,0:0|3:0,0:0:0:0:
302,357,17352,2,0,P|312:299|291:244,1,119.999995231629,0|0,3:0|3:0,0:0:0:0:
86,222,17662,2,0,P|115:223|144:214,1,59.9999976158143,2|0,0:0|0:0,0:0:0:0:
247,46,17868,1,2,0:3:0:0:
234,73,17971,1,0,3:0:0:0:
232,102,18075,1,2,0:0:0:0:
240,130,18178,2,0,B|271:150|271:150|361:134,1,119.999995231629,0|0,3:0|3:0,0:0:0:0:
427,83,18487,2,0,P|428:54|414:24,1,59.9999976158143,2|0,0:0|0:0,0:0:0:0:
376,199,18694,6,0,L|505:214,1,119.999995231629,2|2,0:3|0:0,0:0:0:0:
320,327,19003,2,0,L|449:312,1,119.999995231629,0|0,3:0|3:0,0:0:0:0:
216,204,19313,6,0,L|280:211,1,59.9999976158143,2|0,0:0|0:0,0:0:0:0:
35,340,19519,2,0,P|13:293|28:225,1,119.999995231629,2|2,0:3|0:0,0:0:0:0:
34,44,19829,2,0,P|12:98|25:155,1,119.999995231629,0|10,3:0|0:0,0:0:0:0:
149,192,20139,2,0,L|87:192,1,59.9999976158143,0|8,3:0|0:0,0:0:0:0:
256,192,20345,6,0,P|334:201|378:181,1,119.999995231629,6|2,0:0|0:3,0:0:0:0:
420,134,20655,1,0,3:0:0:0:
415,61,20758,2,0,L|345:53,1,59.9999976158143,8|0,0:0|3:0,0:0:0:0:
420,134,20964,2,0,L|490:126,1,59.9999976158143,2|0,0:0|3:0,0:0:0:0:
496,306,21171,2,0,P|515:248|501:188,1,119.999995231629,2|2,0:3|0:0,0:0:0:0:
436,347,21480,1,0,3:0:0:0:
380,303,21584,2,0,L|319:309,1,59.9999976158143,8|0,0:0|3:0,0:0:0:0:
212,367,21790,2,0,L|272:362,1,59.9999976158143,2|0,0:0|3:0,0:0:0:0:
60,281,21996,6,0,P|117:303|179:286,1,119.999995231629,2|2,0:0|0:3,0:0:0:0:
225,240,22306,1,0,3:0:0:0:
111,325,22409,2,0,L|117:384,1,59.9999976158143,8|0,0:0|3:0,0:0:0:0:
225,240,22616,2,0,L|219:181,1,59.9999976158143,2|0,0:0|3:0,0:0:0:0:
80,42,22822,2,0,P|105:91|159:124,1,119.999995231629,2|2,0:3|0:0,0:0:0:0:
229,107,23132,1,0,3:0:0:0:
41,136,23235,2,0,L|34:202,1,59.9999976158143,8|8,0:0|0:0,0:0:0:0:
229,107,23441,2,0,L|222:47,1,59.9999976158143,2|8,0:0|0:0,0:0:0:0:
32,284,23648,5,2,0:0:0:0:
46,313,23751,1,0,3:0:0:0:
72,332,23854,1,2,0:3:0:0:
104,339,23957,1,0,3:0:0:0:
136,333,24061,1,8,0:0:0:0:
165,316,24164,1,0,3:0:0:0:
184,290,24267,2,0,L|177:224,1,59.9999976158143,2|0,0:0|3:0,0:0:0:0:
289,275,24473,6,0,L|282:334,1,59.9999976158143,2|0,0:3|3:0,0:0:0:0:
302,361,24680,1,2,0:0:0:0:
331,378,24783,1,0,3:0:0:0:
363,384,24886,1,8,0:0:0:0:
395,377,24989,1,0,3:0:0:0:
421,358,25093,1,2,0:0:0:0:
435,329,25196,1,0,3:0:0:0:
402,265,25299,6,0,P|375:284|363:311,1,59.9999976158143,2|2,0:0|0:3,0:0:0:0:
443,174,25505,2,0,P|456:200|481:216,1,59.9999976158143,2|0,0:3|3:0,0:0:0:0:
499,98,25712,1,8,0:0:0:0:
465,83,25815,1,0,3:0:0:0:
429,86,25918,1,2,0:0:0:0:
397,103,26021,1,0,3:0:0:0:
373,129,26125,1,2,0:3:0:0:
361,163,26228,1,2,0:3:0:0:
339,191,26331,1,2,0:0:0:0:
303,199,26434,1,0,3:0:0:0:
270,184,26537,2,0,L|202:186,1,59.9999976158143,8|0,0:0|3:0,0:0:0:0:
175,46,26744,2,0,L|243:48,1,59.9999976158143,2|2,0:3|0:0,0:0:0:0:
196,117,26950,5,2,0:0:0:0:
159,118,27054,1,0,3:0:0:0:
123,119,27157,1,2,0:3:0:0:
87,120,27260,1,0,3:0:0:0:
35,80,27363,2,0,P|27:53|33:17,1,59.9999976158143,8|0,0:0|3:0,0:0:0:0:
153,192,27570,2,0,P|161:219|155:255,1,59.9999976158143,2|0,0:0|3:0,0:0:0:0:
102,314,27776,5,2,0:3:0:0:
143,319,27879,1,0,3:0:0:0:
184,324,27982,1,2,0:0:0:0:
225,330,28086,1,0,3:0:0:0:
280,293,28189,2,0,P|283:263|273:232,1,59.9999976158143,8|0,0:0|3:0,0:0:0:0:
387,192,28395,2,0,L|327:192,1,59.9999976158143,2|0,0:0|3:0,0:0:0:0:
280,91,28602,6,0,P|283:120|273:152,1,59.9999976158143,2|0,0:0|3:0,0:0:0:0:
233,37,28808,1,2,0:3:0:0:
265,20,28911,1,0,3:0:0:0:
300,17,29014,1,8,0:0:0:0:
332,33,29118,1,0,3:0:0:0:
352,62,29221,1,2,0:0:0:0:
382,81,29324,1,0,3:0:0:0:
416,72,29427,6,0,L|476:66,1,59.9999976158143,2|0,0:3|3:0,0:0:0:0:
512,196,29634,2,0,L|452:190,1,59.9999976158143,2|0,0:0|3:0,0:0:0:0:
352,206,29840,1,8,0:0:0:0:
330,234,29943,1,8,0:0:0:0:
327,269,30046,1,2,0:0:0:0:
342,301,30150,1,8,0:0:0:0:
406,346,30253,6,0,L|470:341,1,59.9999976158143,2|0,0:0|3:0,0:0:0:0:
282,306,30459,2,0,L|341:301,1,59.9999976158143,2|0,0:3|3:0,0:0:0:0:
256,384,30666,2,0,L|320:379,1,59.9999976158143,8|0,0:0|3:0,0:0:0:0:
132,344,30872,2,0,L|191:339,1,59.9999976158143,2|0,0:0|3:0,0:0:0:0:
72,243,31079,2,0,P|61:273|68:302,1,59.9999976158143,2|0,0:3|3:0,0:0:0:0:
131,214,31285,1,2,0:0:0:0:
127,184,31388,1,0,3:0:0:0:
10,221,31491,1,8,0:0:0:0:
6,251,31595,1,0,3:0:0:0:
184,249,31698,2,0,P|195:219|188:190,1,59.9999976158143,2|0,0:0|3:0,0:0:0:0:
92,112,31904,6,0,L|33:123,1,59.9999976158143,2|0,0:0|3:0,0:0:0:0:
156,71,32111,6,0,L|215:81,1,53.9999962062837,2|0,0:3|3:0,0:0:0:0:
314,132,32317,6,0,L|254:142,1,47.9999980926514,8|0,0:0|3:0,0:0:0:0:
367,73,32523,6,0,L|426:83,1,41.9999970493318,2|0,0:0|3:0,0:0:0:0:
468,139,32730,5,2,0:0:0:0:
465,159,32799,1,2,0:0:0:0:
462,179,32867,1,2,0:0:0:0:
459,199,32936,1,2,0:0:0:0:
456,219,33005,1,2,0:0:0:0:
453,239,33074,1,2,0:0:0:0:
450,259,33143,2,0,L|458:295,6,27.9999980328879,10|2|2|2|2|2|2,0:0|0:0|0:0|0:0|0:0|0:0|0:0,0:0:0:0:
509,319,33659,6,0,P|448:309|403:341,1,119.999995231629,2|2,0:0|0:0,0:0:0:0:
320,381,33968,1,8,0:0:0:0:
313,262,34072,2,0,L|320:381,1,119.999995231629,2|2,0:0|0:0,0:0:0:0:
227,282,34381,1,2,0:0:0:0:
203,111,34484,2,0,L|165:224,1,119.999995231629,8|2,0:0|0:0,0:0:0:0:
114,146,34794,1,2,0:0:0:0:
84,140,34897,1,2,0:0:0:0:
48,216,35000,1,0,3:0:0:0:
78,210,35104,1,2,0:0:0:0:
108,286,35207,5,2,0:0:0:0:
78,291,35310,2,0,P|37:300|-1:368,1,119.999995231629,2|2,0:0|0:0,0:0:0:0:
179,319,35620,2,0,P|159:341|149:375,1,59.9999976158143,8|2,0:0|0:0,0:0:0:0:
258,307,35826,2,0,P|246:334|248:369,1,59.9999976158143,0|2,3:0|0:0,0:0:0:0:
312,254,36032,1,0,0:0:0:0:
362,200,36136,2,0,P|366:142|334:86,1,119.999995231629,8|4,0:3|0:3,0:0:0:0:
274,66,36445,1,2,0:0:0:0:
244,70,36548,1,2,0:0:0:0:
326,19,36652,2,0,L|388:23,1,59.9999976158143,0|2,3:0|0:0,0:0:0:0:
255,137,36858,5,2,0:0:0:0:
225,141,36961,2,0,L|98:132,1,119.999995231629,2|2,0:0|0:0,0:0:0:0:
47,210,37271,1,8,0:0:0:0:
2,125,37374,2,0,P|-11:65|10:9,1,119.999995231629,2|2,0:0|0:0,0:0:0:0:
53,225,37684,1,2,0:0:0:0:
172,203,37787,2,0,L|154:322,1,119.999995231629,8|4,0:3|0:3,0:0:0:0:
239,366,38097,5,2,0:0:0:0:
299,326,38200,1,0,3:0:0:0:
370,316,38303,1,2,0:0:0:0:
440,334,38406,1,2,0:0:0:0:
495,380,38509,6,0,L|504:320,2,59.9999976158143,8|4|4,0:3|0:3|0:0,0:0:0:0:
512,249,38819,1,2,0:0:0:0:
429,274,38922,2,0,L|440:334,1,59.9999976158143,8|6,0:0|0:0,0:0:0:0:
501,189,39129,2,0,L|511:248,1,59.9999976158143,0|0,3:0|0:0,0:0:0:0:
441,133,39335,5,2,0:3:0:0:
354,156,39438,2,0,P|389:159|422:147,1,59.9999976158143,2|0,0:3|3:3,0:0:0:0:
320,94,39748,5,8,0:0:0:0:
290,97,39851,1,8,0:0:0:0:
373,43,39954,1,0,3:0:0:0:
403,40,40058,1,8,0:0:0:0:
274,178,40161,6,0,P|224:176|170:218,1,119.999995231629,6|0,0:0|3:0,0:0:0:0:
19,225,40470,2,0,P|67:236|109:290,1,119.999995231629,0|0,3:0|3:0,0:0:0:0:
259,294,40780,2,0,L|234:360,1,59.9999976158143,2|0,0:0|0:0,0:0:0:0:
22,337,40986,1,2,0:3:0:0:
26,360,41090,2,0,B|63:374|63:374|150:353,1,119.999995231629,0|0,3:0|3:0,0:0:0:0:
170,217,41399,2,0,P|179:250|177:280,1,59.9999976158143,8|0,0:0|3:0,0:0:0:0:
94,150,41606,2,0,L|106:90,1,59.9999976158143,2|0,0:0|0:0,0:0:0:0:
8,260,41812,6,0,L|68:218,1,59.9999976158143,2|0,0:3|3:0,0:0:0:0:
26,160,42018,1,2,0:0:0:0:
170,217,42122,2,0,B|209:204|209:204|239:222|284:226,1,119.999995231629,0|0,3:0|3:0,0:0:0:0:
352,185,42431,2,0,P|354:156|341:126,1,59.9999976158143,2|0,0:0|0:0,0:0:0:0:
284,226,42638,1,2,0:3:0:0:
290,292,42741,1,0,3:0:0:0:
296,357,42844,2,0,B|256:348|256:348|225:366|225:366|182:353,1,119.999995231629,6|0,0:0|0:0,0:0:0:0:
353,316,43154,2,0,B|393:306|393:306|424:324|424:324|467:311,1,119.999995231629,6|0,0:0|0:0,0:0:0:0:
284,226,43463,6,0,B|251:215|251:215|216:233|168:211,1,119.999995231629,2|0,0:0|3:0,0:0:0:0:
352,185,43773,2,0,P|331:131|345:70,1,119.999995231629,0|0,3:0|3:0,0:0:0:0:
487,223,44083,2,0,P|448:232|418:228,1,59.9999976158143,2|0,0:0|0:0,0:0:0:0:
380,365,44289,1,2,0:3:0:0:
363,339,44392,1,0,3:0:0:0:
361,309,44495,1,2,0:0:0:0:
372,281,44599,2,0,P|308:297|259:274,1,119.999995231629,0|0,3:0|3:0,0:0:0:0:
435,319,44908,1,2,0:0:0:0:
77,319,45115,6,0,P|39:271|42:211,1,119.999995231629,2|2,0:3|0:0,0:0:0:0:
159,77,45424,2,0,P|197:125|194:185,1,119.999995231629,0|0,3:0|3:0,0:0:0:0:
23,76,45734,2,0,L|16:11,1,59.9999976158143,2|0,0:0|0:0,0:0:0:0:
76,143,45940,1,2,0:3:0:0:
46,143,46043,1,0,3:0:0:0:
165,181,46147,1,2,0:0:0:0:
195,181,46250,2,0,B|226:182|226:182|196:222|202:270,1,119.999995231629,0|10,3:0|0:0,0:0:0:0:
234,331,46559,1,0,3:0:0:0:
234,331,46766,6,0,P|201:331|170:345,1,59.9999976158143,2|0,0:0|3:0,0:0:0:0:
16,267,46972,2,0,L|142:279,1,119.999995231629,0|8,3:0|0:0,0:0:0:0:
17,341,47282,1,0,3:0:0:0:
103,201,47385,2,0,L|42:195,1,59.9999976158143,2|0,0:0|0:0,0:0:0:0:
102,116,47592,2,0,P|140:137|218:124,1,119.999995231629,2|2,0:3|0:0,0:0:0:0:
256,312,47901,2,0,L|256:192,1,119.999995231629,0|0,3:0|3:0,0:0:0:0:
196,374,48211,1,2,0:0:0:0:
196,374,48417,5,2,0:3:0:0:
166,370,48520,1,0,3:0:0:0:
295,373,48624,5,2,0:0:0:0:
265,377,48727,1,0,3:0:0:0:
387,344,48830,5,8,0:0:0:0:
359,355,48933,1,0,3:0:0:0:
463,286,49036,5,2,0:0:0:0:
438,303,49140,1,0,0:0:0:0:
506,220,49243,2,0,P|478:221|449:210,1,59.9999976158143,2|0,0:3|3:0,0:0:0:0:
384,123,49449,2,0,P|381:66|419:6,1,119.999995231629,6|0,0:0|0:0,0:0:0:0:
448,209,49759,2,0,P|374:203|330:227,1,119.999995231629,6|0,0:0|0:0,0:0:0:0:
256,341,50069,6,0,L|256:279,1,59.9999976158143,2|0,0:0|3:0,0:0:0:0:
179,314,50275,1,0,3:0:0:0:
109,257,50378,2,0,P|89:304|110:372,1,119.999995231629,0|0,3:0|3:0,0:0:0:0:
142,188,50688,2,0,P|114:182|84:186,1,59.9999976158143,2|0,0:0|0:0,0:0:0:0:
12,129,50894,2,0,P|-8:188|19:253,1,119.999995231629,2|2,0:3|0:0,0:0:0:0:
210,97,51204,2,0,L|91:104,1,119.999995231629,0|0,3:0|3:0,0:0:0:0:
256,192,51513,1,2,0:0:0:0:
256,192,51720,6,0,L|375:199,1,119.999995231629,2|2,0:3|0:0,0:0:0:0:
423,281,52029,2,0,L|296:272,1,119.999995231629,0|0,3:0|3:0,0:0:0:0:
335,122,52339,2,0,L|394:125,1,59.9999976158143,2|0,0:0|0:0,0:0:0:0:
256,192,52545,2,0,P|229:136|236:78,1,119.999995231629,2|2,0:3|0:0,0:0:0:0:
488,211,52855,2,0,P|516:265|509:323,1,119.999995231629,0|10,3:0|0:0,0:0:0:0:
321,101,53165,2,0,P|318:70|333:36,1,59.9999976158143,0|8,3:0|0:0,0:0:0:0:
432,300,53371,6,0,L|301:314,1,119.999995231629,6|2,0:0|0:3,0:0:0:0:
256,367,53681,1,0,3:0:0:0:
184,248,53784,2,0,L|196:308,1,59.9999976158143,8|0,0:0|3:0,0:0:0:0:
332,171,53990,2,0,L|320:229,1,59.9999976158143,2|0,0:0|3:0,0:0:0:0:
274,138,54197,2,0,L|409:130,1,119.999995231629,2|2,0:3|0:0,0:0:0:0:
202,144,54506,1,0,3:0:0:0:
107,73,54610,2,0,P|100:44|104:15,1,59.9999976158143,8|0,0:0|3:0,0:0:0:0:
12,172,54816,2,0,L|20:233,1,59.9999976158143,2|0,0:0|3:0,0:0:0:0:
164,258,55022,6,0,P|105:249|42:253,1,119.999995231629,2|2,0:0|0:3,0:0:0:0:
218,310,55332,1,0,3:0:0:0:
280,355,55435,2,0,P|310:357|339:354,1,59.9999976158143,8|0,0:0|3:0,0:0:0:0:
505,236,55642,2,0,P|475:233|445:237,1,59.9999976158143,2|0,0:0|3:0,0:0:0:0:
290,147,55848,2,0,P|343:168|408:153,1,119.999995231629,2|2,0:3|0:0,0:0:0:0:
352,74,56158,1,0,3:0:0:0:
275,240,56261,2,0,B|307:236|307:236|338:244,1,59.9999976158143,8|8,0:0|0:0,0:0:0:0:
354,15,56467,2,0,B|358:47|358:47|350:78,1,59.9999976158143,2|8,0:0|0:0,0:0:0:0:
160,73,56674,6,0,B|154:47|154:47|158:15,1,59.9999976158143,2|0,0:0|3:0,0:0:0:0:
220,151,56880,2,0,P|155:145|112:182,1,119.999995231629,2|8,0:3|0:0,0:0:0:0:
181,227,57190,1,0,3:0:0:0:
14,115,57293,2,0,P|52:123|80:119,1,59.9999976158143,2|0,0:0|3:0,0:0:0:0:
181,227,57499,1,2,0:3:0:0:
177,262,57603,1,0,3:0:0:0:
173,297,57706,1,2,0:0:0:0:
169,332,57809,1,0,3:0:0:0:
103,363,57912,2,0,L|98:300,1,59.9999976158143,8|0,0:0|3:0,0:0:0:0:
247,275,58119,2,0,L|252:338,1,59.9999976158143,2|0,0:0|3:0,0:0:0:0:
322,368,58325,5,2,0:0:0:0:
357,362,58428,1,2,0:3:0:0:
392,356,58531,1,2,0:3:0:0:
427,350,58635,1,0,3:0:0:0:
471,306,58738,5,8,0:0:0:0:
436,300,58841,1,0,3:0:0:0:
401,294,58944,1,2,0:0:0:0:
366,288,59047,1,0,3:0:0:0:
322,244,59151,6,0,P|354:241|383:226,1,59.9999976158143,2|2,0:3|0:3,0:0:0:0:
190,140,59357,2,0,P|160:142|133:154,1,59.9999976158143,2|0,0:0|3:0,0:0:0:0:
256,192,59563,1,8,0:0:0:0:
256,156,59667,1,0,3:0:0:0:
256,120,59770,1,2,0:3:0:0:
256,83,59873,1,2,0:0:0:0:
186,219,59976,6,0,P|183:251|190:279,1,59.9999976158143,2|0,0:0|3:0,0:0:0:0:
322,277,60183,2,0,P|329:248|326:219,1,59.9999976158143,2|0,0:3|3:0,0:0:0:0:
256,362,60389,2,0,L|256:299,2,59.9999976158143,8|0|2,0:0|3:0|0:0,0:0:0:0:
256,228,60699,1,0,3:0:0:0:
176,345,60802,2,0,L|111:325,1,59.9999976158143,2|0,0:3|3:0,0:0:0:0:
336,345,61008,2,0,L|401:325,1,59.9999976158143,2|0,0:0|3:0,0:0:0:0:
186,219,61215,2,0,L|176:160,1,59.9999976158143,8|0,0:0|3:0,0:0:0:0:
326,219,61421,2,0,L|336:160,1,59.9999976158143,2|0,0:0|3:0,0:0:0:0:
256,228,61628,5,2,0:0:0:0:
256,192,61731,1,0,3:0:0:0:
256,120,61834,1,2,0:3:0:0:
256,84,61937,1,0,3:0:0:0:
209,30,62040,2,0,P|175:26|145:35,1,59.9999976158143,8|0,0:0|3:0,0:0:0:0:
303,30,62247,2,0,P|337:26|367:35,1,59.9999976158143,2|0,0:0|3:0,0:0:0:0:
449,95,62453,5,2,0:3:0:0:
414,99,62556,1,0,3:0:0:0:
441,161,62660,1,2,0:0:0:0:
476,157,62763,1,0,3:0:0:0:
386,205,62866,2,0,L|326:199,1,59.9999976158143,8|8,0:0|0:0,0:0:0:0:
299,261,63073,2,0,L|359:267,1,59.9999976158143,2|8,0:0|0:0,0:0:0:0:
243,316,63279,5,2,0:0:0:0:
210,301,63382,1,0,3:0:0:0:
174,308,63485,1,2,0:3:0:0:
146,331,63589,1,0,3:0:0:0:
135,365,63692,2,0,L|68:360,1,59.9999976158143,8|0,0:0|3:0,0:0:0:0:
0,243,63898,2,0,L|67:238,1,59.9999976158143,2|0,0:0|3:0,0:0:0:0:
251,152,64105,1,2,0:3:0:0:
223,175,64208,1,0,3:0:0:0:
189,187,64311,1,2,0:0:0:0:
153,180,64414,1,0,3:0:0:0:
127,154,64517,2,0,L|121:95,1,59.9999976158143,8|0,0:0|3:0,0:0:0:0:
391,95,64724,2,0,L|385:154,1,59.9999976158143,2|0,0:0|3:0,0:0:0:0:
301,260,64930,6,0,P|332:261|361:276,1,59.9999976158143,2|0,0:0|3:0,0:0:0:0:
313,337,65137,1,2,0:3:0:0:
313,337,65240,1,0,3:0:0:0:
211,260,65343,2,0,P|180:261|151:276,1,59.9999976158143,8|0,0:0|3:0,0:0:0:0:
199,337,65549,1,2,0:0:0:0:
199,337,65653,1,0,3:0:0:0:
170,193,65756,5,2,0:0:0:0:
145,207,65825,1,2,0:0:0:0:
116,207,65893,1,2,0:0:0:0:
91,193,65962,1,2,0:0:0:0:
66,179,66031,1,2,0:0:0:0:
37,179,66100,1,2,0:0:0:0:
12,193,66169,2,0,P|2:214|6:238,6,39.9999984105428,10|2|2|2|2|2|2,0:0|0:0|0:0|0:0|0:0|0:0|0:0,0:0:0:0:
91,193,66685,6,0,L|79:74,1,119.999995231629,2|2,0:0|0:0,0:0:0:0:
11,80,66994,1,8,0:0:0:0:
145,66,67098,2,0,P|202:85|253:57,1,119.999995231629,2|2,0:0|0:0,0:0:0:0:
202,126,67407,1,2,0:0:0:0:
194,7,67510,2,0,L|202:126,1,119.999995231629,8|2,0:0|0:0,0:0:0:0:
247,182,67820,1,2,0:0:0:0:
247,182,67923,1,2,0:0:0:0:
319,182,68026,1,0,3:0:0:0:
319,182,68130,1,2,0:0:0:0:
380,144,68233,5,2,0:0:0:0:
380,144,68336,2,0,L|499:149,1,119.999995231629,2|2,0:0|0:0,0:0:0:0:
380,240,68646,1,8,0:0:0:0:
499,234,68749,2,0,L|380:240,1,119.999995231629,2|2,0:0|0:0,0:0:0:0:
320,286,69058,1,2,0:0:0:0:
260,332,69162,2,0,P|244:279|276:225,1,119.999995231629,8|4,0:3|0:3,0:0:0:0:
330,358,69471,2,0,L|396:353,1,59.9999976158143,2|2,0:0|0:0,0:0:0:0:
260,332,69678,2,0,L|194:337,1,59.9999976158143,0|2,3:0|0:0,0:0:0:0:
138,373,69884,5,2,0:0:0:0:
19,297,69987,2,0,L|140:301,1,119.999995231629,2|2,0:0|0:0,0:0:0:0:
24,222,70297,1,8,0:0:0:0:
143,146,70400,2,0,L|22:150,1,119.999995231629,2|2,0:0|0:0,0:0:0:0:
143,146,70710,1,2,0:0:0:0:
260,146,70813,2,0,B|223:153|223:153|179:140|179:140|141:146,1,119.999995231629,8|4,0:3|0:3,0:0:0:0:
318,132,71123,2,0,L|256:146,1,59.9999976158143,2|0,0:0|3:0,0:0:0:0:
376,118,71329,2,0,L|314:132,1,59.9999976158143,2|2,0:0|0:0,0:0:0:0:
376,52,71535,5,8,0:3:0:0:
376,184,71639,1,4,0:3:0:0:
446,118,71742,2,0,L|506:118,1,59.9999976158143,4|2,0:0|0:0,0:0:0:0:
358,203,71948,1,8,0:0:0:0:
220,194,72051,2,0,L|229:253,1,59.9999976158143,6|0,0:0|3:0,0:0:0:0:
170,328,72258,1,0,0:0:0:0:
170,328,72361,5,2,0:3:0:0:
262,359,72464,2,0,P|292:356|327:366,1,59.9999976158143,2|0,0:3|3:0,0:0:0:0:
438,315,72774,1,8,0:0:0:0:
420,314,72877,1,8,0:0:0:0:
402,313,72980,1,0,3:0:0:0:
383,312,73084,1,8,0:0:0:0:
501,320,73187,5,4,0:0:0:0:
