osu file format v14

[General]
AudioFilename: audio.mp3
AudioLeadIn: 0
PreviewTime: 40161
Countdown: 0
SampleSet: Soft
StackLeniency: 0.7
Mode: 0
LetterboxInBreaks: 0
WidescreenStoryboard: 0

[Editor]
DistanceSpacing: 1
BeatDivisor: 4
GridSize: 4
TimelineZoom: 1

[Metadata]
Title:Battle Spirit
TitleUnicode:バトルスピリット
Artist:Yoshino Aoki
ArtistUnicode:青木佳乃
Creator:P o M u T a
Version:Beginner
Source:バトルネットワーク ロックマンエグゼ2
Tags:electronic video Kyshiro forte megaman Mega Man pomuta Battle Network Rockman EXE 2 capcom game boy advance airman quickman cutman shadowman protoman knightman magnetman freezeman bass gospel gba instrumental
BeatmapID:1008715
BeatmapSetID:472007

[Difficulty]
HPDrainRate:1
CircleSize:2.5
OverallDifficulty:1
ApproachRate:3
SliderMultiplier:0.82
SliderTickRate:1

[Events]
//Background and Video events
0,0,"2070867_p0.jpg",0,0
//Break Periods
2,33755,38721
2,66782,71334
//Storyboard Layer 0 (Background)
//Storyboard Layer 1 (Fail)
//Storyboard Layer 2 (Pass)
//Storyboard Layer 3 (Foreground)
//Storyboard Layer 4 (Overlay)
//Storyboard Sound Samples

[TimingPoints]
530,412.825099766066,4,2,1,60,1,0
3006,-100,4,2,1,70,0,0
3832,-100,4,2,1,60,0,0
5483,-100,4,2,1,70,0,0
6309,-100,4,2,1,60,0,0
7135,-100,4,2,1,80,0,0
20345,-100,4,2,1,85,0,0
32730,-100,4,2,1,75,0,0
33143,-100,4,2,1,80,0,0
33556,-100,4,2,1,85,0,0
39335,-100,4,2,1,80,0,0
53371,-100,4,2,1,85,0,1
65756,-100,4,2,1,75,0,1
66169,-100,4,2,1,80,0,1
66582,-100,4,2,1,85,0,0
73187,-100,4,2,1,100,0,0

[Colours]
Combo1 : 191,255,191
Combo2 : 136,136,255
Combo3 : 255,198,140
Combo4 : 210,166,255

[HitObjects]
467,126,530,6,0,P|387:105|309:141,1,164,6|2,0:0|0:0,0:0:0:0:
197,248,2181,2,0,P|122:279|45:258,1,164,2|12,0:0|0:0,0:0:0:0:
9,97,3832,6,0,L|4:9,2,82,2|2|2,0:0|0:0|0:0,0:0:0:0:
168,134,5483,1,8,0:3:0:0:
321,192,6309,1,2,0:3:0:0:
168,250,7135,6,0,B|209:324|209:324|292:353,1,164,6|2,0:0|0:3,0:0:0:0:
365,338,8373,1,8,0:0:0:0:
425,282,8786,2,0,P|464:211|447:133,1,164,2|2,3:0|0:3,0:0:0:0:
305,50,10437,6,0,B|226:89|226:29|143:50,1,164,2|2,0:0|0:3,0:0:0:0:
33,168,12089,2,0,B|112:207|112:147|195:168,1,164,2|2,0:3|0:3,0:0:0:0:
350,207,13740,6,0,P|427:225|503:193,1,164,2|2,0:0|0:3,0:0:0:0:
501,111,14978,1,8,0:0:0:0:
461,38,15391,2,0,B|405:23|405:23|295:36,1,164,2|2,0:3|0:3,0:0:0:0:
170,136,17043,6,0,B|88:144|88:144|13:101,2,164,2|2|2,0:0|0:3|0:3,0:0:0:0:
249,157,19107,2,0,L|339:147,2,82,8|2|8,0:0|0:3|0:0,0:0:0:0:
191,215,20345,6,0,P|181:295|227:362,1,164,6|2,0:0|0:3,0:0:0:0:
345,248,21996,1,2,0:0:0:0:
333,84,22822,1,2,0:3:0:0:
493,46,23648,6,0,L|488:136,1,82,2|8,0:0|0:0,0:0:0:0:
421,175,24473,2,0,L|435:267,1,82,2|8,0:3|0:0,0:0:0:0:
380,319,25299,2,0,B|256:297|256:297|148:358,1,246,2|8,0:0|0:0,0:0:0:0:
69,356,26950,6,0,P|31:284|42:201,1,164,2|2,0:0|0:3,0:0:0:0:
105,53,28602,2,0,P|143:125|132:208,1,164,2|2,0:0|0:3,0:0:0:0:
256,313,30253,6,0,L|347:307,1,82,2|8,0:0|0:0,0:0:0:0:
419,298,31079,1,2,0:3:0:0:
495,153,31904,2,0,L|502:64,2,82,2|8|2,0:0|0:0|0:0,0:0:0:0:
423,192,33143,2,0,P|382:194|336:181,1,82,10|2,0:0|0:0,0:0:0:0:
455,344,40161,6,0,P|486:267|466:192,1,164,6|2,0:0|0:3,0:0:0:0:
394,151,41399,1,8,0:0:0:0:
320,186,41812,2,0,P|240:202|164:171,1,164,2|2,0:3|0:3,0:0:0:0:
30,79,43463,5,2,0:0:0:0:
11,241,44289,1,2,0:3:0:0:
167,192,45115,1,2,0:3:0:0:
148,354,45940,1,2,0:3:0:0:
295,282,46766,6,0,L|462:293,1,164,2|2,0:0|0:3,0:0:0:0:
504,224,48004,1,8,0:0:0:0:
482,145,48417,2,0,P|431:85|347:79,1,164,2|2,0:3|0:3,0:0:0:0:
233,193,50069,6,0,L|146:189,1,82,2|8,0:0|0:0,0:0:0:0:
69,188,50894,1,2,0:3:0:0:
9,341,51720,1,2,0:3:0:0:
157,269,52545,1,2,0:3:0:0:
304,340,53371,6,0,L|474:336,1,164,6|2,0:0|0:3,0:0:0:0:
333,242,55022,2,0,L|169:238,1,164,2|2,0:0|0:3,0:0:0:0:
58,359,56674,6,0,P|13:200|113:83,1,328,2|2,0:0|0:0,0:0:0:0:
256,155,59151,1,2,0:3:0:0:
256,237,59563,1,8,0:0:0:0:
308,300,59976,6,0,P|375:289|465:334,1,164,2|2,0:0|0:3,0:0:0:0:
512,175,61628,2,0,L|498:9,1,164,2|2,0:0|0:3,0:0:0:0:
350,83,63279,6,0,L|342:177,1,82,2|8,0:0|0:0,0:0:0:0:
334,246,64105,1,2,0:3:0:0:
191,325,64930,2,0,L|101:310,2,82,2|8|2,0:0|0:0|0:0,0:0:0:0:
256,273,66169,1,10,0:0:0:0:
256,192,66582,5,2,0:0:0:0:
256,192,72774,6,0,L|173:192,1,82,8|4,0:0|0:0,0:0:0:0:
