osu file format v14

[General]
AudioFilename: audio.mp3
AudioLeadIn: 0
PreviewTime: 67649
Countdown: 0
SampleSet: Normal
StackLeniency: 0.7
Mode: 0
LetterboxInBreaks: 0
WidescreenStoryboard: 0

[Editor]
DistanceSpacing: 1
BeatDivisor: 2
GridSize: 32
TimelineZoom: 1

[Metadata]
Title:In this unstable world
TitleUnicode:In this unstable world
Artist:Yoshiko
ArtistUnicode:Yoshiko
Creator:JalenThePSIKid
Version:Easy
Source:Love Live Sunshine
Tags:Lovelive Yoshiko Anime Solo Idol Sunshine
BeatmapID:2070056
BeatmapSetID:989568

[Difficulty]
HPDrainRate:2.5
CircleSize:3
OverallDifficulty:2.5
ApproachRate:5
SliderMultiplier:0.9
SliderTickRate:1

[Events]
//Background and Video events
0,0,"Angel Shards.jpg",0,0
//Break Periods
2,34150,36500
2,145482,160255
2,176655,192600
//Storyboard Layer 0 (Background)
//Storyboard Layer 1 (Fail)
//Storyboard Layer 2 (Pass)
//Storyboard Layer 3 (Foreground)
//Storyboard Layer 4 (Overlay)
//Storyboard Sound Samples

[TimingPoints]
15200,468.766623954997,4,1,0,100,1,0
67701,-100,4,1,0,100,0,1
90202,-100,4,1,0,100,0,0

[Colours]
Combo1 : 255,255,255
Combo2 : 0,0,0
Combo3 : 192,192,192
Combo4 : 0,0,128

[HitObjects]
115,82,15200,5,0,0:0:0:0:
314,86,16137,1,0,0:0:0:0:
314,286,17075,1,0,0:0:0:0:
114,286,18012,1,0,0:0:0:0:
118,85,18950,1,0,0:0:0:0:
267,217,19887,1,0,0:0:0:0:
430,101,20825,1,0,0:0:0:0:
231,79,21762,2,0,B|188:129|188:129|255:222,1,180
441,311,23637,5,0,0:0:0:0:
396,136,24575,2,0,P|392:84|354:72,1,90
276,99,25512,1,0,0:0:0:0:
129,203,26450,2,0,P|87:229|89:268,1,90
158,321,27387,1,0,0:0:0:0:
293,201,28325,2,0,L|366:144,1,90
433,88,29262,1,0,0:0:0:0:
256,192,30200,12,0,33950,0:0:0:0:
57,74,37700,6,0,P|162:102|243:134,1,180
310,165,39107,1,0,0:0:0:0:
320,258,39575,2,0,P|236:275|132:235,1,180
72,178,40982,1,0,0:0:0:0:
164,141,41450,1,0,0:0:0:0:
292,85,43325,6,0,L|401:86,1,90
391,186,44263,6,0,L|284:186,1,90
129,303,45669,6,0,P|77:294|61:249,1,90
63,174,46607,1,0,0:0:0:0:
121,105,47076,2,0,P|213:81|288:130,1,180
341,189,48482,1,0,0:0:0:0:
398,258,48951,1,0,0:0:0:0:
150,300,50826,6,0,B|56:300|56:300|56:104,1,270
142,98,52701,6,0,P|200:72|268:117,2,135
74,158,54576,2,0,P|61:180|93:286,1,135
303,332,56451,6,0,L|303:182,1,135
303,62,57857,1,0,0:0:0:0:
213,65,58326,2,0,P|176:123|204:195,1,135
407,250,60201,5,0,0:0:0:0:
272,250,60904,1,0,0:0:0:0:
181,250,61373,2,0,B|119:205|119:205|171:152,1,135
290,128,62779,1,0,0:0:0:0:
378,142,63248,2,0,B|412:190|412:190|354:263,1,135
245,313,64654,1,0,0:0:0:0:
154,315,65123,2,0,P|96:296|92:214,1,135
251,80,66998,5,0,0:0:0:0:
385,78,67701,1,0,0:0:0:0:
381,167,68170,1,0,0:0:0:0:
378,257,68639,2,0,P|337:305|292:309,1,90
223,309,69576,6,0,L|157:223,1,90
128,161,70514,1,0,0:0:0:0:
211,128,70983,1,0,0:0:0:0:
300,126,71451,6,0,B|380:189|380:189|347:267,1,180
270,304,72858,1,0,0:0:0:0:
180,311,73327,2,0,L|118:190,1,135
121,101,74498,2,0,L|183:100,1,45
256,97,75202,6,0,B|313:117|313:117|352:238,1,180
369,318,76608,1,0,0:0:0:0:
278,315,77077,1,0,0:0:0:0:
199,251,77545,1,0,0:0:0:0:
220,163,78014,2,0,P|291:157|321:171,2,90
135,194,79421,1,0,0:0:0:0:
53,232,79889,1,0,0:0:0:0:
119,304,80358,1,0,0:0:0:0:
210,305,80827,2,0,B|272:304|272:304|312:96,1,270
178,74,82936,5,0,0:0:0:0:
118,141,83405,2,0,B|77:209|77:209|124:268,1,135
235,307,84811,1,0,0:0:0:0:
323,288,85280,2,0,B|397:255|397:255|383:178,1,135
330,79,86686,1,0,0:0:0:0:
240,91,87155,2,0,P|178:129|180:188,1,135
256,192,88327,12,0,90202,0:0:0:0:
89,109,93952,5,0,0:0:0:0:
235,214,94890,1,0,0:0:0:0:
406,266,95827,2,0,L|421:168,1,90
427,87,96765,1,0,0:0:0:0:
247,87,97702,2,0,P|176:84|77:146,1,180
50,314,99577,6,0,P|127:309|158:293,1,90
228,304,100515,6,0,L|344:307,1,90
395,118,101687,6,0,P|428:188|348:324,1,225
177,301,103328,1,0,0:0:0:0:
109,264,103796,1,0,0:0:0:0:
55,197,104265,2,0,P|60:115|88:80,1,90
213,79,105203,2,0,B|216:191|216:191|379:191,1,270
394,300,107078,6,0,B|286:327|123:282,1,270
224,167,108953,1,0,0:0:0:0:
287,118,109422,1,0,0:0:0:0:
353,74,109890,1,0,0:0:0:0:
445,75,110359,2,0,L|450:195,1,90
452,301,111297,1,0,0:0:0:0:
374,305,111765,1,0,0:0:0:0:
297,305,112234,1,0,0:0:0:0:
201,310,112703,6,0,B|53:249|53:249|50:189,1,180
128,91,114109,1,0,0:0:0:0:
200,144,114578,1,0,0:0:0:0:
283,100,115047,1,0,0:0:0:0:
361,152,115516,1,0,0:0:0:0:
451,200,115984,2,0,B|451:318|451:318|447:322,1,90
333,324,116922,5,0,0:0:0:0:
236,323,117391,2,0,P|147:284|132:268,1,90
92,167,118328,1,0,0:0:0:0:
92,80,118797,1,0,0:0:0:0:
186,84,119266,2,0,L|306:85,2,90
92,85,120672,1,0,0:0:0:0:
91,192,121141,2,0,L|90:317,2,90
90,96,122547,1,0,0:0:0:0:
190,97,123016,2,0,L|296:168,1,90
392,229,123953,5,0,0:0:0:0:
450,156,124657,1,0,0:0:0:0:
440,60,125125,2,0,L|295:62,1,135
117,62,126532,1,0,0:0:0:0:
117,150,127000,2,0,L|114:289,1,135
223,337,128407,1,0,0:0:0:0:
318,326,128875,2,0,P|388:283|388:203,1,135
252,177,130750,2,0,L|181:175,1,45
70,175,131454,6,0,B|72:290|161:324|161:324|186:324,1,180
309,328,132626,2,0,P|387:320|416:269,1,135
420,190,133329,2,0,B|418:51|418:51|291:51,1,247.5
184,53,134969,5,0,0:0:0:0:
108,95,135204,1,0,0:0:0:0:
105,190,135673,2,0,L|229:190,1,112.5
299,195,136376,2,0,P|409:194|417:175,1,135
417,85,137079,2,0,B|248:86|248:86|194:117,1,225
144,156,138251,2,0,L|100:238,1,90
62,322,138954,6,0,L|324:322,1,247.5
412,326,140126,2,0,L|415:185,1,135
416,98,140829,2,0,L|146:98,1,270
80,102,142704,5,0,0:0:0:0:
81,190,143173,1,0,0:0:0:0:
143,251,143524,1,0,0:0:0:0:
214,311,143876,2,0,P|286:320|295:243,1,157.5
309,191,144579,1,0,0:0:0:0:
309,115,144931,1,0,0:0:0:0:
309,39,145282,1,0,0:0:0:0:
65,93,161455,5,0,0:0:0:0:
146,131,161923,1,0,0:0:0:0:
226,94,162392,1,0,0:0:0:0:
296,153,162861,2,0,P|348:192|438:178,2,157.5
226,94,164267,1,0,0:0:0:0:
146,131,164736,1,0,0:0:0:0:
65,93,165205,1,0,0:0:0:0:
60,198,165674,6,0,L|60:346,2,135
65,93,167080,1,0,0:0:0:0:
151,95,167549,1,0,0:0:0:0:
234,95,168017,1,0,0:0:0:0:
316,97,168486,2,0,L|460:97,2,135
208,98,169892,6,0,P|135:149|99:195,1,135
121,275,170830,2,0,P|191:318|254:306,1,135
330,262,171768,2,0,P|414:193|428:160,1,135
256,192,172705,12,0,176455,0:0:0:0:
47,48,193800,5,0,0:0:0:0:
48,133,194268,2,0,P|122:213|147:215,1,135
231,218,195206,1,0,0:0:0:0:
324,218,195675,2,0,L|465:217,2,135
229,220,197081,5,0,0:0:0:0:
138,220,197550,1,0,0:0:0:0:
61,164,198018,2,0,B|46:89|46:89|112:68,1,135
205,58,198956,2,0,P|299:60|402:114,1,202.5
434,194,200128,2,0,P|421:269|406:287,1,90
345,328,200831,5,0,0:0:0:0:
253,329,201300,1,0,0:0:0:0:
159,330,201769,1,0,0:0:0:0:
72,331,202237,2,0,L|72:258,1,67.5
73,180,202706,1,0,0:0:0:0:
164,182,203175,1,0,0:0:0:0:
264,186,203644,2,0,L|337:186,1,67.5
417,188,204112,1,0,0:0:0:0:
415,83,204581,5,0,0:0:0:0:
316,82,205050,2,0,L|208:82,1,90
125,83,205753,2,0,B|51:83|51:83|51:151,1,135
54,226,206456,2,0,P|105:280|409:215,1,405
408,120,208566,6,0,B|319:48|319:48|243:113|243:113|154:55|154:55|132:85,1,337.5
65,149,210441,5,0,0:0:0:0:
64,241,211027,1,0,0:0:0:0:
72,329,211378,2,0,L|151:309,1,67.5
238,295,212316,6,0,B|393:295|393:295|468:227|468:227|394:165|394:165|394:165,1,337.5
301,111,214191,6,0,P|227:74|119:109,1,202.5
68,141,215128,1,0,0:0:0:0:
68,228,215363,1,0,0:0:0:0:
191,232,216066,5,0,0:0:0:0:
270,233,216300,1,0,0:0:0:0:
373,234,216652,2,0,P|435:183|399:107,1,157.5
287,71,217941,6,0,P|196:58|149:282,1,360
223,296,219816,6,0,P|339:265|325:228,1,202.5
306,168,220988,1,0,0:0:0:0:
256,192,221457,12,0,223332,0:0:0:0:
74,79,227082,5,0,0:0:0:0:
75,162,227551,1,0,0:0:0:0:
78,246,228020,2,0,P|140:280|194:232,1,135
188,161,228957,1,0,0:0:0:0:
185,78,229426,1,0,0:0:0:0:
277,78,229895,2,0,L|423:78,2,135
188,80,231301,1,0,0:0:0:0:
191,169,231770,1,0,0:0:0:0:
265,225,232238,1,0,0:0:0:0:
256,192,232707,12,0,234582,0:0:0:0:
