osu file format v14

[General]
AudioFilename: audio.mp3
AudioLeadIn: 0
PreviewTime: 44639
Countdown: 1
SampleSet: Normal
StackLeniency: 0.7
Mode: 3
LetterboxInBreaks: 0
SpecialStyle: 0
WidescreenStoryboard: 0

[Editor]
DistanceSpacing: 1.2
BeatDivisor: 16
GridSize: 4
TimelineZoom: 1

[Metadata]
Title:Sake to Ikura to 893 to Musume ~TV Size~
TitleUnicode:Sake to Ikura to 893 to Musume ~TV Size~
Artist:Yoshiki Nakajima
ArtistUnicode:Yoshiki Nakajima
Creator:-Rifqii-
Version:KUE YO! KUE YO!
Source:
Tags:hinamatsuri ending opening anime opening
BeatmapID:1681812
BeatmapSetID:801178

[Difficulty]
HPDrainRate:5
CircleSize:4
OverallDifficulty:5
ApproachRate:5
SliderMultiplier:1.4
SliderTickRate:1

[Events]
//Background and Video events
0,0,"7e19bb45133d3a7ce299eee3de4eb3b8e795ba55_s2_n1.jpg",0,0
//Break Periods
//Storyboard Layer 0 (Background)
//Storyboard Layer 1 (Fail)
//Storyboard Layer 2 (Pass)
//Storyboard Layer 3 (Foreground)
//Storyboard Sound Samples

[TimingPoints]
1083,666.666666666667,4,1,0,79,1,0
12416,-100,4,2,0,79,0,0
13749,-100,4,1,0,64,0,0
86916,-100,4,2,0,79,0,0

[HitObjects]
448,192,1083,5,0,0:0:0:0:
320,192,1083,1,0,0:0:0:0:
192,192,1083,1,0,0:0:0:0:
64,192,1083,1,0,0:0:0:0:
192,192,1583,1,0,0:0:0:0:
320,192,1749,1,0,0:0:0:0:
448,192,1749,1,0,0:0:0:0:
64,192,2083,1,0,0:0:0:0:
448,192,2249,1,0,0:0:0:0:
192,192,2416,1,0,0:0:0:0:
320,192,2416,1,0,0:0:0:0:
64,192,2416,1,0,0:0:0:0:
320,192,2749,1,0,0:0:0:0:
448,192,2749,1,0,0:0:0:0:
192,192,3083,1,0,0:0:0:0:
64,192,3083,1,0,0:0:0:0:
448,192,3083,1,0,0:0:0:0:
320,192,3583,1,0,0:0:0:0:
192,192,3749,1,0,0:0:0:0:
64,192,3749,1,0,0:0:0:0:
448,192,4083,1,0,0:0:0:0:
64,192,4249,1,0,0:0:0:0:
320,192,4416,1,0,0:0:0:0:
192,192,4416,1,0,0:0:0:0:
448,192,4416,1,0,0:0:0:0:
320,192,4749,1,0,0:0:0:0:
64,192,4916,1,0,0:0:0:0:
320,192,5083,1,0,0:0:0:0:
448,192,5083,1,0,0:0:0:0:
320,192,5416,1,0,0:0:0:0:
192,192,5416,1,0,0:0:0:0:
320,192,5749,1,0,0:0:0:0:
448,192,5749,1,0,0:0:0:0:
64,192,5749,1,0,0:0:0:0:
320,192,6083,1,0,0:0:0:0:
192,192,6083,1,0,0:0:0:0:
64,192,6083,1,0,0:0:0:0:
320,192,6416,1,0,0:0:0:0:
448,192,6416,1,0,0:0:0:0:
64,192,6971,1,0,0:0:0:0:
192,192,7027,1,0,0:0:0:0:
448,192,7083,1,0,0:0:0:0:
320,192,7138,1,0,0:0:0:0:
320,192,7416,1,0,0:0:0:0:
448,192,7416,1,0,0:0:0:0:
448,192,7749,1,0,0:0:0:0:
192,192,7749,1,0,0:0:0:0:
64,192,7749,1,0,0:0:0:0:
320,192,8083,1,0,0:0:0:0:
64,192,8083,1,0,0:0:0:0:
448,192,8083,1,0,0:0:0:0:
320,192,8749,1,0,0:0:0:0:
448,192,8749,1,0,0:0:0:0:
192,192,8749,1,0,0:0:0:0:
64,192,8749,1,0,0:0:0:0:
320,192,9749,1,0,0:0:0:0:
192,192,10249,1,0,0:0:0:0:
64,192,10305,1,0,0:0:0:0:
320,192,10360,1,0,0:0:0:0:
448,192,10416,1,0,0:0:0:0:
64,192,10749,1,0,0:0:0:0:
320,192,10749,1,0,0:0:0:0:
192,192,11083,1,0,0:0:0:0:
448,192,11083,1,0,0:0:0:0:
320,192,11249,1,0,0:0:0:0:
192,192,11249,1,0,0:0:0:0:
64,192,11416,1,0,0:0:0:0:
320,192,11416,1,0,0:0:0:0:
192,192,11416,1,0,0:0:0:0:
320,192,11749,1,0,0:0:0:0:
448,192,11749,1,0,0:0:0:0:
64,192,11749,1,0,0:0:0:0:
448,192,12416,1,0,0:0:0:0:
192,192,12499,1,0,0:0:0:0:
320,192,12583,1,0,0:0:0:0:
64,192,12666,1,0,0:0:0:0:
448,192,12749,1,0,0:0:0:0:
192,192,12833,1,0,0:0:0:0:
320,192,12916,1,0,0:0:0:0:
64,192,12999,1,0,0:0:0:0:
320,192,13083,1,0,0:0:0:0:
192,192,13166,1,0,0:0:0:0:
448,192,13249,1,0,0:0:0:0:
64,192,13333,1,0,0:0:0:0:
320,192,13416,1,0,0:0:0:0:
192,192,13499,1,0,0:0:0:0:
448,192,13583,1,0,0:0:0:0:
64,192,13666,1,0,0:0:0:0:
320,192,13749,1,0,0:0:0:0:
192,192,13749,1,0,0:0:0:0:
448,192,13749,1,0,0:0:0:0:
320,192,14416,1,0,0:0:0:0:
192,192,14416,1,0,0:0:0:0:
64,192,14416,1,0,0:0:0:0:
448,192,15083,1,0,0:0:0:0:
320,192,15749,1,0,0:0:0:0:
448,192,15749,1,0,0:0:0:0:
320,192,16083,1,0,0:0:0:0:
448,192,16083,1,0,0:0:0:0:
64,192,16416,1,0,0:0:0:0:
320,192,16583,1,0,0:0:0:0:
64,192,16749,1,0,0:0:0:0:
64,192,17083,1,0,0:0:0:0:
192,192,17083,1,0,0:0:0:0:
448,192,17249,1,0,0:0:0:0:
192,192,17416,1,0,0:0:0:0:
320,192,17749,1,0,0:0:0:0:
192,192,18416,1,0,0:0:0:0:
64,192,18416,1,0,0:0:0:0:
192,192,18749,1,0,0:0:0:0:
64,192,18749,1,0,0:0:0:0:
448,192,19416,1,0,0:0:0:0:
320,192,19583,1,0,0:0:0:0:
192,192,19749,1,0,0:0:0:0:
64,192,19749,1,0,0:0:0:0:
320,192,19916,1,0,0:0:0:0:
192,192,20083,1,0,0:0:0:0:
448,192,20416,1,0,0:0:0:0:
192,192,21083,1,0,0:0:0:0:
64,192,21083,1,0,0:0:0:0:
192,192,21416,1,0,0:0:0:0:
64,192,21416,1,0,0:0:0:0:
448,192,21749,1,0,0:0:0:0:
64,192,21916,1,0,0:0:0:0:
320,192,22083,1,0,0:0:0:0:
320,192,22416,1,0,0:0:0:0:
192,192,22416,1,0,0:0:0:0:
64,192,22416,1,0,0:0:0:0:
448,192,22583,1,0,0:0:0:0:
192,192,22749,1,0,0:0:0:0:
448,192,23083,1,0,0:0:0:0:
320,192,23749,1,0,0:0:0:0:
448,192,23749,1,0,0:0:0:0:
448,192,24083,1,0,0:0:0:0:
320,192,24083,1,0,0:0:0:0:
192,192,25083,1,0,0:0:0:0:
64,192,25083,1,0,0:0:0:0:
320,192,25083,1,0,0:0:0:0:
448,192,25749,1,0,0:0:0:0:
320,192,26416,1,0,0:0:0:0:
448,192,26416,1,0,0:0:0:0:
448,192,26749,1,0,0:0:0:0:
320,192,26749,1,0,0:0:0:0:
192,192,27083,1,0,0:0:0:0:
448,192,27249,1,0,0:0:0:0:
320,192,27416,1,0,0:0:0:0:
64,192,27583,1,0,0:0:0:0:
320,192,27749,1,0,0:0:0:0:
192,192,27916,1,0,0:0:0:0:
448,192,28083,1,0,0:0:0:0:
320,192,28416,1,0,0:0:0:0:
192,192,29083,1,0,0:0:0:0:
64,192,29083,1,0,0:0:0:0:
192,192,29416,1,0,0:0:0:0:
64,192,29416,1,0,0:0:0:0:
320,192,30083,1,0,0:0:0:0:
448,192,30249,1,0,0:0:0:0:
192,192,30416,1,0,0:0:0:0:
448,192,31083,1,0,0:0:0:0:
192,192,31749,1,0,0:0:0:0:
64,192,31749,1,0,0:0:0:0:
320,192,31749,1,0,0:0:0:0:
320,192,31916,1,0,0:0:0:0:
448,192,31916,1,0,0:0:0:0:
192,192,32249,1,0,0:0:0:0:
64,192,32305,1,0,0:0:0:0:
320,192,32360,1,0,0:0:0:0:
448,192,32416,1,0,0:0:0:0:
64,192,32749,1,0,0:0:0:0:
192,192,32749,1,0,0:0:0:0:
448,192,32916,1,0,0:0:0:0:
320,192,32916,1,0,0:0:0:0:
448,192,33083,1,0,0:0:0:0:
192,192,33083,1,0,0:0:0:0:
64,192,33083,1,0,0:0:0:0:
320,192,33416,1,0,0:0:0:0:
448,192,33416,1,0,0:0:0:0:
64,192,33416,1,0,0:0:0:0:
320,192,33833,1,0,0:0:0:0:
448,192,33833,1,0,0:0:0:0:
64,192,33916,1,0,0:0:0:0:
192,192,33916,1,0,0:0:0:0:
320,192,33999,1,0,0:0:0:0:
448,192,33999,1,0,0:0:0:0:
192,192,34083,1,0,0:0:0:0:
64,192,34083,1,0,0:0:0:0:
448,192,34249,1,0,0:0:0:0:
320,192,34249,1,0,0:0:0:0:
192,192,34249,1,0,0:0:0:0:
448,192,34583,1,0,0:0:0:0:
64,192,34583,1,0,0:0:0:0:
192,192,34666,1,0,0:0:0:0:
320,192,34666,1,0,0:0:0:0:
64,192,34749,1,0,0:0:0:0:
448,192,34749,1,0,0:0:0:0:
192,192,35083,1,0,0:0:0:0:
320,192,35083,1,0,0:0:0:0:
320,192,35749,1,0,0:0:0:0:
192,192,35749,1,0,0:0:0:0:
64,192,35749,1,0,0:0:0:0:
320,192,36083,1,0,0:0:0:0:
192,192,36083,1,0,0:0:0:0:
64,192,36083,1,0,0:0:0:0:
64,192,36583,1,0,0:0:0:0:
192,192,36583,1,0,0:0:0:0:
320,192,36666,1,0,0:0:0:0:
448,192,36666,1,0,0:0:0:0:
64,192,36749,1,0,0:0:0:0:
192,192,36749,1,0,0:0:0:0:
448,192,36916,1,0,0:0:0:0:
320,192,36916,1,0,0:0:0:0:
192,192,37083,1,0,0:0:0:0:
64,192,37083,1,0,0:0:0:0:
192,192,37249,1,0,0:0:0:0:
320,192,37249,1,0,0:0:0:0:
320,192,37416,1,0,0:0:0:0:
448,192,37416,1,0,0:0:0:0:
320,192,37583,1,0,0:0:0:0:
192,192,37583,1,0,0:0:0:0:
448,192,37749,1,0,0:0:0:0:
64,192,37749,1,0,0:0:0:0:
320,192,37749,1,0,0:0:0:0:
64,192,37916,1,0,0:0:0:0:
192,192,37916,1,0,0:0:0:0:
448,192,37916,1,0,0:0:0:0:
448,192,38416,1,0,0:0:0:0:
320,192,38416,1,0,0:0:0:0:
192,192,38416,1,0,0:0:0:0:
320,192,38749,1,0,0:0:0:0:
192,192,38749,1,0,0:0:0:0:
320,192,39083,1,0,0:0:0:0:
192,192,39083,1,0,0:0:0:0:
64,192,39083,1,0,0:0:0:0:
192,192,39416,1,0,0:0:0:0:
320,192,39416,1,0,0:0:0:0:
64,192,39749,1,0,0:0:0:0:
192,192,39749,1,0,0:0:0:0:
448,192,39749,1,0,0:0:0:0:
192,192,40083,1,0,0:0:0:0:
320,192,40083,1,0,0:0:0:0:
320,192,40416,1,0,0:0:0:0:
448,192,40416,1,0,0:0:0:0:
64,192,40416,1,0,0:0:0:0:
192,192,40749,1,0,0:0:0:0:
320,192,40749,1,0,0:0:0:0:
64,192,40916,1,0,0:0:0:0:
448,192,40916,1,0,0:0:0:0:
192,192,41083,1,0,0:0:0:0:
320,192,41083,1,0,0:0:0:0:
448,192,41083,1,0,0:0:0:0:
192,192,41416,1,0,0:0:0:0:
64,192,41416,1,0,0:0:0:0:
192,192,41749,1,0,0:0:0:0:
320,192,41749,1,0,0:0:0:0:
320,192,42083,1,0,0:0:0:0:
448,192,42083,1,0,0:0:0:0:
320,192,42416,1,0,0:0:0:0:
192,192,42416,1,0,0:0:0:0:
192,192,42749,1,0,0:0:0:0:
64,192,42749,1,0,0:0:0:0:
192,192,43083,1,0,0:0:0:0:
320,192,43083,1,0,0:0:0:0:
320,192,43416,1,0,0:0:0:0:
448,192,43416,1,0,0:0:0:0:
192,192,43749,1,0,0:0:0:0:
64,192,43749,1,0,0:0:0:0:
448,192,43916,1,0,0:0:0:0:
320,192,43916,1,0,0:0:0:0:
192,192,43999,1,0,0:0:0:0:
64,192,43999,1,0,0:0:0:0:
320,192,44083,1,0,0:0:0:0:
448,192,44083,1,0,0:0:0:0:
192,192,44249,1,0,0:0:0:0:
320,192,44249,1,0,0:0:0:0:
64,192,44249,1,0,0:0:0:0:
320,192,44416,1,0,0:0:0:0:
448,192,44416,1,0,0:0:0:0:
320,192,44749,1,0,0:0:0:0:
192,192,44749,1,0,0:0:0:0:
192,192,45083,1,0,0:0:0:0:
64,192,45083,1,0,0:0:0:0:
320,192,45416,1,0,0:0:0:0:
192,192,45416,1,0,0:0:0:0:
320,192,45749,1,0,0:0:0:0:
448,192,45749,1,0,0:0:0:0:
192,192,45916,1,0,0:0:0:0:
64,192,45916,1,0,0:0:0:0:
320,192,46083,1,0,0:0:0:0:
448,192,46083,1,0,0:0:0:0:
192,192,46249,1,0,0:0:0:0:
64,192,46249,1,0,0:0:0:0:
192,192,46416,1,0,0:0:0:0:
320,192,46416,1,0,0:0:0:0:
448,192,46416,1,0,0:0:0:0:
192,192,47083,1,0,0:0:0:0:
64,192,47083,1,0,0:0:0:0:
448,192,47416,1,0,0:0:0:0:
192,192,47416,1,0,0:0:0:0:
320,192,47583,1,0,0:0:0:0:
448,192,47583,1,0,0:0:0:0:
64,192,47749,1,0,0:0:0:0:
192,192,47749,1,0,0:0:0:0:
320,192,47749,1,0,0:0:0:0:
320,192,48083,1,0,0:0:0:0:
448,192,48083,1,0,0:0:0:0:
64,192,48416,1,0,0:0:0:0:
192,192,48416,1,0,0:0:0:0:
448,192,48416,1,0,0:0:0:0:
64,192,48749,1,0,0:0:0:0:
320,192,48749,1,0,0:0:0:0:
192,192,48916,1,0,0:0:0:0:
64,192,48916,1,0,0:0:0:0:
192,192,49083,1,0,0:0:0:0:
320,192,49083,1,0,0:0:0:0:
448,192,49083,1,0,0:0:0:0:
448,192,49749,1,0,0:0:0:0:
320,192,49749,1,0,0:0:0:0:
192,192,50249,1,0,0:0:0:0:
64,192,50249,1,0,0:0:0:0:
192,192,50416,1,0,0:0:0:0:
320,192,50416,1,0,0:0:0:0:
448,192,50416,1,0,0:0:0:0:
320,192,50749,1,0,0:0:0:0:
192,192,50749,1,0,0:0:0:0:
64,192,51083,1,0,0:0:0:0:
192,192,51083,1,0,0:0:0:0:
448,192,51083,1,0,0:0:0:0:
64,192,51583,1,0,0:0:0:0:
192,192,51666,1,0,0:0:0:0:
448,192,51749,1,0,0:0:0:0:
320,192,51749,1,0,0:0:0:0:
192,192,52416,1,0,0:0:0:0:
64,192,52416,1,0,0:0:0:0:
320,192,52749,1,0,0:0:0:0:
64,192,52916,1,0,0:0:0:0:
320,192,53083,1,0,0:0:0:0:
448,192,53083,1,0,0:0:0:0:
448,192,53416,1,0,0:0:0:0:
320,192,53416,1,0,0:0:0:0:
192,192,53749,1,0,0:0:0:0:
64,192,53749,1,0,0:0:0:0:
192,192,54083,1,0,0:0:0:0:
320,192,54083,1,0,0:0:0:0:
448,192,54083,1,0,0:0:0:0:
64,192,54416,1,0,0:0:0:0:
192,192,54416,1,0,0:0:0:0:
448,192,54416,1,0,0:0:0:0:
320,192,54916,1,0,0:0:0:0:
192,192,54916,1,0,0:0:0:0:
448,192,55083,1,0,0:0:0:0:
320,192,55083,1,0,0:0:0:0:
64,192,55083,1,0,0:0:0:0:
320,192,55583,1,0,0:0:0:0:
448,192,55583,1,0,0:0:0:0:
64,192,55749,1,0,0:0:0:0:
192,192,55749,1,0,0:0:0:0:
320,192,55749,1,0,0:0:0:0:
320,192,56083,1,0,0:0:0:0:
448,192,56083,1,0,0:0:0:0:
192,192,56416,1,0,0:0:0:0:
320,192,56416,1,0,0:0:0:0:
448,192,56749,1,0,0:0:0:0:
320,192,56749,1,0,0:0:0:0:
192,192,56749,1,0,0:0:0:0:
64,192,56749,1,0,0:0:0:0:
192,192,57083,1,0,0:0:0:0:
320,192,57083,1,0,0:0:0:0:
64,192,57083,1,0,0:0:0:0:
448,192,57749,1,0,0:0:0:0:
320,192,57749,1,0,0:0:0:0:
320,192,58249,1,0,0:0:0:0:
192,192,58249,1,0,0:0:0:0:
448,192,58249,1,0,0:0:0:0:
192,192,58416,1,0,0:0:0:0:
64,192,58416,1,0,0:0:0:0:
192,192,58749,1,0,0:0:0:0:
64,192,58749,1,0,0:0:0:0:
448,192,59083,1,0,0:0:0:0:
320,192,59083,1,0,0:0:0:0:
64,192,59083,1,0,0:0:0:0:
448,192,59416,1,0,0:0:0:0:
192,192,59583,1,0,0:0:0:0:
64,192,59583,1,0,0:0:0:0:
320,192,59749,1,0,0:0:0:0:
448,192,59749,1,0,0:0:0:0:
192,192,59749,1,0,0:0:0:0:
192,192,60416,1,0,0:0:0:0:
64,192,60416,1,0,0:0:0:0:
192,192,60916,1,0,0:0:0:0:
64,192,60916,1,0,0:0:0:0:
320,192,60916,1,0,0:0:0:0:
320,192,61083,1,0,0:0:0:0:
448,192,61083,1,0,0:0:0:0:
320,192,61416,1,0,0:0:0:0:
448,192,61416,1,0,0:0:0:0:
192,192,61749,1,0,0:0:0:0:
64,192,61749,1,0,0:0:0:0:
448,192,62249,1,0,0:0:0:0:
320,192,62333,1,0,0:0:0:0:
192,192,62416,1,0,0:0:0:0:
64,192,62416,1,0,0:0:0:0:
320,192,63083,1,0,0:0:0:0:
448,192,63083,1,0,0:0:0:0:
320,192,63583,1,0,0:0:0:0:
192,192,63749,1,0,0:0:0:0:
448,192,63749,1,0,0:0:0:0:
320,192,64083,1,0,0:0:0:0:
448,192,64083,1,0,0:0:0:0:
320,192,64416,1,0,0:0:0:0:
192,192,64416,1,0,0:0:0:0:
64,192,64416,1,0,0:0:0:0:
320,192,64749,1,0,0:0:0:0:
192,192,64749,1,0,0:0:0:0:
64,192,64749,1,0,0:0:0:0:
448,192,64749,1,0,0:0:0:0:
320,192,65083,1,0,0:0:0:0:
192,192,65083,1,0,0:0:0:0:
320,192,65416,1,0,0:0:0:0:
192,192,65416,1,0,0:0:0:0:
448,192,65416,1,0,0:0:0:0:
320,192,65749,1,0,0:0:0:0:
448,192,65749,1,0,0:0:0:0:
64,192,65749,1,0,0:0:0:0:
320,192,66249,1,0,0:0:0:0:
448,192,66249,1,0,0:0:0:0:
192,192,66249,1,0,0:0:0:0:
64,192,66416,1,0,0:0:0:0:
192,192,66416,1,0,0:0:0:0:
192,192,66583,1,0,0:0:0:0:
320,192,66583,1,0,0:0:0:0:
320,192,66749,1,0,0:0:0:0:
448,192,66749,1,0,0:0:0:0:
448,192,67083,1,0,0:0:0:0:
192,192,67083,1,0,0:0:0:0:
320,192,67249,1,0,0:0:0:0:
192,192,67249,1,0,0:0:0:0:
64,192,67416,1,0,0:0:0:0:
320,192,67416,1,0,0:0:0:0:
192,192,67583,1,0,0:0:0:0:
64,192,67583,1,0,0:0:0:0:
192,192,67749,1,0,0:0:0:0:
320,192,67749,1,0,0:0:0:0:
448,192,67749,1,0,0:0:0:0:
320,192,68416,1,0,0:0:0:0:
448,192,68416,1,0,0:0:0:0:
192,192,69083,1,0,0:0:0:0:
64,192,69083,1,0,0:0:0:0:
192,192,69416,1,0,0:0:0:0:
64,192,69416,1,0,0:0:0:0:
320,192,69749,1,0,0:0:0:0:
448,192,69749,1,0,0:0:0:0:
320,192,70249,1,0,0:0:0:0:
448,192,70249,1,0,0:0:0:0:
320,192,70416,1,0,0:0:0:0:
192,192,70416,1,0,0:0:0:0:
64,192,70416,1,0,0:0:0:0:
448,192,70749,1,0,0:0:0:0:
192,192,70916,1,0,0:0:0:0:
320,192,71083,1,0,0:0:0:0:
448,192,71083,1,0,0:0:0:0:
64,192,71416,1,0,0:0:0:0:
192,192,71416,1,0,0:0:0:0:
320,192,71416,1,0,0:0:0:0:
448,192,71583,1,0,0:0:0:0:
320,192,71583,1,0,0:0:0:0:
192,192,71749,1,0,0:0:0:0:
64,192,71749,1,0,0:0:0:0:
320,192,71916,1,0,0:0:0:0:
448,192,71916,1,0,0:0:0:0:
192,192,72083,1,0,0:0:0:0:
320,192,72083,1,0,0:0:0:0:
64,192,72083,1,0,0:0:0:0:
320,192,72416,1,0,0:0:0:0:
448,192,72416,1,0,0:0:0:0:
320,192,72916,1,0,0:0:0:0:
448,192,72916,1,0,0:0:0:0:
320,192,73083,1,0,0:0:0:0:
192,192,73083,1,0,0:0:0:0:
64,192,73083,1,0,0:0:0:0:
448,192,73583,1,0,0:0:0:0:
192,192,73749,1,0,0:0:0:0:
64,192,73749,1,0,0:0:0:0:
320,192,73749,1,0,0:0:0:0:
192,192,74249,1,0,0:0:0:0:
320,192,74416,1,0,0:0:0:0:
448,192,74416,1,0,0:0:0:0:
320,192,74749,1,0,0:0:0:0:
448,192,74749,1,0,0:0:0:0:
320,192,75083,1,0,0:0:0:0:
192,192,75083,1,0,0:0:0:0:
64,192,75083,1,0,0:0:0:0:
448,192,75416,1,0,0:0:0:0:
192,192,75583,1,0,0:0:0:0:
64,192,75583,1,0,0:0:0:0:
320,192,75749,1,0,0:0:0:0:
64,192,75749,1,0,0:0:0:0:
448,192,75749,1,0,0:0:0:0:
64,192,76083,1,0,0:0:0:0:
448,192,76249,1,0,0:0:0:0:
320,192,76249,1,0,0:0:0:0:
448,192,76416,1,0,0:0:0:0:
64,192,76416,1,0,0:0:0:0:
192,192,76416,1,0,0:0:0:0:
192,192,76583,1,0,0:0:0:0:
320,192,76583,1,0,0:0:0:0:
320,192,76749,1,0,0:0:0:0:
448,192,76749,1,0,0:0:0:0:
320,192,77083,1,0,0:0:0:0:
448,192,77083,1,0,0:0:0:0:
192,192,77249,1,0,0:0:0:0:
320,192,77249,1,0,0:0:0:0:
192,192,77416,1,0,0:0:0:0:
64,192,77416,1,0,0:0:0:0:
320,192,77583,1,0,0:0:0:0:
448,192,77583,1,0,0:0:0:0:
192,192,77583,1,0,0:0:0:0:
64,192,77749,1,0,0:0:0:0:
192,192,77749,1,0,0:0:0:0:
320,192,77916,1,0,0:0:0:0:
448,192,77916,1,0,0:0:0:0:
64,192,77916,1,0,0:0:0:0:
64,192,78249,1,0,0:0:0:0:
192,192,78333,1,0,0:0:0:0:
320,192,78416,1,0,0:0:0:0:
448,192,78416,1,0,0:0:0:0:
192,192,78749,1,0,0:0:0:0:
448,192,78916,1,0,0:0:0:0:
192,192,79083,1,0,0:0:0:0:
320,192,79083,1,0,0:0:0:0:
64,192,79416,1,0,0:0:0:0:
320,192,79583,1,0,0:0:0:0:
192,192,79749,1,0,0:0:0:0:
64,192,79749,1,0,0:0:0:0:
192,192,80083,1,0,0:0:0:0:
64,192,80083,1,0,0:0:0:0:
192,192,80416,1,0,0:0:0:0:
320,192,80416,1,0,0:0:0:0:
448,192,80416,1,0,0:0:0:0:
448,192,80749,1,0,0:0:0:0:
192,192,80916,1,0,0:0:0:0:
320,192,81083,1,0,0:0:0:0:
448,192,81083,1,0,0:0:0:0:
192,192,81416,1,0,0:0:0:0:
448,192,81583,1,0,0:0:0:0:
320,192,81749,1,0,0:0:0:0:
192,192,81749,1,0,0:0:0:0:
64,192,81749,1,0,0:0:0:0:
320,192,82083,1,0,0:0:0:0:
192,192,82083,1,0,0:0:0:0:
448,192,82249,1,0,0:0:0:0:
64,192,82249,1,0,0:0:0:0:
192,192,82416,1,0,0:0:0:0:
64,192,82416,1,0,0:0:0:0:
320,192,82583,1,0,0:0:0:0:
448,192,82583,1,0,0:0:0:0:
192,192,82749,1,0,0:0:0:0:
64,192,82749,1,0,0:0:0:0:
320,192,83083,1,0,0:0:0:0:
448,192,83083,1,0,0:0:0:0:
64,192,83083,1,0,0:0:0:0:
448,192,83416,1,0,0:0:0:0:
320,192,83416,1,0,0:0:0:0:
64,192,83416,1,0,0:0:0:0:
192,192,83583,1,0,0:0:0:0:
64,192,83583,1,0,0:0:0:0:
448,192,83583,1,0,0:0:0:0:
320,192,83749,1,0,0:0:0:0:
448,192,83749,1,0,0:0:0:0:
64,192,83749,1,0,0:0:0:0:
448,192,84249,1,0,0:0:0:0:
320,192,84333,1,0,0:0:0:0:
192,192,84416,1,0,0:0:0:0:
64,192,84416,1,0,0:0:0:0:
320,192,84749,1,0,0:0:0:0:
448,192,84749,1,0,0:0:0:0:
64,192,85083,1,0,0:0:0:0:
192,192,85083,1,0,0:0:0:0:
320,192,85083,1,0,0:0:0:0:
320,192,85416,1,0,0:0:0:0:
192,192,85416,1,0,0:0:0:0:
64,192,85416,1,0,0:0:0:0:
448,192,86083,1,0,0:0:0:0:
320,192,86083,1,0,0:0:0:0:
192,192,86083,1,0,0:0:0:0:
64,192,86083,1,0,0:0:0:0:
192,192,86916,1,0,0:0:0:0:
192,192,87083,1,0,0:0:0:0:
