osu file format v14

[General]
AudioFilename: audio.mp3
AudioLeadIn: 0
PreviewTime: -1
Countdown: 0
SampleSet: Normal
StackLeniency: 0.7
Mode: 0
LetterboxInBreaks: 0
WidescreenStoryboard: 0

[Editor]
DistanceSpacing: 0.9
BeatDivisor: 4
GridSize: 32
TimelineZoom: 2.6

[Metadata]
Title:Lovely
TitleUnicode:Lovely
Artist:Yoshikawa Chinatsu (CV: Ookubo Rumi)
ArtistUnicode:Yoshikawa Chinatsu (CV: Ookubo Rumi)
Creator:Y33ZY69
Version:Cute
Source:
Tags:
BeatmapID:2259307
BeatmapSetID:1079883

[Difficulty]
HPDrainRate:5
CircleSize:3.8
OverallDifficulty:9
ApproachRate:9.3
SliderMultiplier:1.5
SliderTickRate:1

[Events]
//Background and Video events
0,0,"849606.jpg",0,0
//Break Periods
//Storyboard Layer 0 (Background)
//Storyboard Layer 1 (Fail)
//Storyboard Layer 2 (Pass)
//Storyboard Layer 3 (Foreground)
//Storyboard Layer 4 (Overlay)
//Storyboard Sound Samples

[TimingPoints]
5403,292.682926829268,4,2,0,65,1,0
14768,-66.6666666666667,4,1,0,65,0,0
22963,-133.333333333333,4,1,0,65,0,0
24134,-200,4,1,0,55,0,0
26402,-200,4,1,0,5,0,0
26476,-133.333333333333,4,1,0,65,0,0
28817,-200,4,1,0,65,0,0
31159,-133.333333333333,4,1,0,65,0,0
33500,-100,4,1,0,65,0,0
42866,-133.333333333333,4,1,0,65,0,0
49890,-200,4,1,0,65,0,0
52232,-100,4,1,0,65,0,0
63939,-66.6666666666667,4,1,0,65,0,1
89695,-100,4,1,0,65,0,0
93061,-128.584287000129,4,1,0,65,0,0

[Colours]
Combo1 : 151,151,255
Combo2 : 255,128,128
Combo3 : 255,128,192
Combo4 : 187,119,255

[HitObjects]
256,192,720,12,0,5110,0:0:0:0:
255,71,5403,5,0,1:0:0:0:
256,327,5549,1,0,1:0:0:0:
291,248,5695,2,0,P|255:240|219:248,1,75,0|0,1:0|2:0,0:0:0:0:
124,346,5988,5,0,0:0:0:0:
125,333,6281,1,0,0:0:0:0:
22,258,6573,1,0,0:0:0:0:
23,231,6866,1,0,0:0:0:0:
129,142,7159,1,0,0:0:0:0:
129,180,7452,1,0,0:0:0:0:
6,52,7744,6,0,B|51:50|75:73|75:73|107:48|149:56,1,150,4|0,1:1|2:2,1:1:0:0:
278,100,8329,1,0,0:0:0:0:
279,87,8622,1,0,0:0:0:0:
399,31,8915,1,0,0:0:0:0:
400,18,9208,1,0,0:0:0:0:
511,135,9500,1,0,0:0:0:0:
512,122,9793,1,0,0:0:0:0:
256,71,10085,5,0,1:0:0:0:
256,327,10231,1,0,1:0:0:0:
220,248,10377,2,0,P|256:240|292:249,1,75,0|0,1:0|2:0,0:0:0:0:
396,368,10671,5,0,0:0:0:0:
397,355,10964,1,0,0:0:0:0:
511,286,11256,1,0,0:0:0:0:
512,259,11549,1,0,0:0:0:0:
375,82,11842,1,0,0:0:0:0:
374,135,12135,1,0,0:0:0:0:
408,215,12427,6,0,P|371:224|335:215,1,75,4|0,1:0|0:0,0:0:0:0:
269,59,12720,2,0,P|278:95|269:131,1,75,0|0,0:0|2:0,0:0:0:0:
186,207,13012,1,0,0:0:0:0:
197,96,13159,2,0,L|159:92,2,37.5,0|0|0,0:0|0:0|0:0,0:0:0:0:
257,279,13451,1,0,0:0:0:0:
358,105,13598,5,0,1:0:0:0:
338,313,13744,1,0,1:0:0:0:
277,100,13890,5,0,1:0:0:0:
178,314,14036,1,0,1:0:0:0:
116,57,14183,5,0,1:0:0:0:
257,266,14329,1,0,1:0:0:0:
322,31,14476,5,0,1:0:0:0:
259,359,14622,1,0,1:0:0:0:
68,129,14768,6,0,P|48:178|66:239,1,112.500004291535,0|0,0:0|2:0,0:0:0:0:
253,171,15061,1,0,0:0:0:0:
253,171,15207,1,0,0:0:0:0:
352,304,15354,5,0,0:0:0:0:
335,113,15500,1,0,0:0:0:0:
211,280,15646,1,0,0:0:0:0:
412,203,15793,1,0,0:0:0:0:
232,66,15939,5,0,0:0:0:0:
412,203,16085,1,0,0:0:0:0:
221,173,16232,1,0,0:0:0:0:
444,87,16378,1,0,0:0:0:0:
383,314,16524,5,0,0:0:0:0:
444,87,16671,1,0,0:0:0:0:
211,280,16817,1,0,0:0:0:0:
512,210,16963,1,0,0:0:0:0:
300,0,17110,6,0,L|312:113,1,112.500004291535,0|0,0:0|0:0,0:0:0:0:
291,335,17403,1,0,0:0:0:0:
177,12,17549,1,0,0:0:0:0:
204,264,17695,1,0,0:0:0:0:
372,49,17842,1,0,0:0:0:0:
120,76,17988,1,0,0:0:0:0:
327,252,18134,1,0,0:0:0:0:
124,284,18281,6,0,P|184:301|214:342,1,112.500004291535,0|0,0:0|0:0,0:0:0:0:
45,372,18573,1,0,0:0:0:0:
0,180,18720,2,0,L|12:291,1,112.500004291535,0|0,0:0|0:0,0:0:0:0:
133,370,19012,1,0,0:0:0:0:
113,196,19159,2,0,P|116:140|152:98,1,112.500004291535,0|0,0:0|2:0,0:0:0:0:
0,0,19451,5,0,0:0:0:0:
0,0,19598,1,0,0:0:0:0:
200,26,19744,2,0,P|235:68|239:123,1,112.500004291535,0|0,0:0|2:0,0:0:0:0:
161,231,20037,5,0,0:0:0:0:
328,195,20183,1,0,0:0:0:0:
152,98,20329,1,0,0:0:0:0:
267,284,20476,1,0,0:0:0:0:
350,74,20622,5,0,0:0:0:0:
267,284,20768,1,0,0:0:0:0:
100,165,20915,1,0,0:0:0:0:
367,210,21061,1,0,0:0:0:0:
155,348,21207,5,0,0:0:0:0:
367,210,21354,1,0,0:0:0:0:
192,66,21500,1,0,0:0:0:0:
298,368,21646,1,0,0:0:0:0:
386,12,21793,6,0,L|374:125,1,112.500004291535,0|0,0:0|0:0,0:0:0:0:
275,266,22085,1,0,0:0:0:0:
458,361,22232,2,0,L|509:385,2,56.2500021457673,0|0|0,0:0|0:0|0:0,0:0:0:0:
275,266,22524,1,0,0:0:0:0:
508,196,22671,1,0,0:0:0:0:
331,376,22817,1,0,0:0:0:0:
390,227,22963,5,0,0:0:0:0:
387,199,23036,1,0,0:0:0:0:
384,171,23109,1,0,0:0:0:0:
381,143,23182,1,0,0:0:0:0:
378,115,23255,1,0,0:0:0:0:
261,155,23402,1,0,0:0:0:0:
258,127,23475,1,0,0:0:0:0:
256,100,23549,2,0,L|254:69,1,28.1250010728836,0|0,0:0|0:0,0:0:0:0:
269,241,23695,2,0,L|271:272,1,28.1250010728836,0|0,0:0|0:0,0:0:0:0:
176,168,23842,2,0,L|147:169,1,28.1250010728836,0|0,0:0|0:0,0:0:0:0:
350,116,23988,2,0,L|378:114,1,28.1250010728836,0|0,0:0|0:0,0:0:0:0:
486,202,24134,5,0,0:0:0:0:
512,1,24281,1,0,0:0:0:0:
499,104,24427,1,0,0:0:0:0:
501,117,24720,1,0,0:0:0:0:
503,130,25012,1,0,0:0:0:0:
505,285,25305,5,0,0:0:0:0:
505,285,25451,2,0,P|476:274|461:258,1,37.5,0|0,0:0|0:0,0:0:0:0:
407,367,25744,2,0,P|436:356|451:340,1,37.5,0|0,0:0|0:0,0:0:0:0:
385,283,26037,1,0,0:0:0:0:
323,343,26183,2,0,P|306:318|300:281,1,56.25,0|0,0:0|0:0,0:0:0:0:
301,266,26476,6,0,B|300:233|300:233|271:201|278:159,1,112.500004291535,0|0,0:0|0:0,0:0:0:0:
363,172,27061,1,0,0:0:0:0:
365,159,27353,1,0,0:0:0:0:
324,82,27646,5,0,0:0:0:0:
324,82,27793,2,0,P|300:69|272:69,1,56.2500021457673,0|0,0:0|0:0,0:0:0:0:
205,121,28085,2,0,P|177:120|152:107,1,56.2500021457673,0|0,0:0|0:0,0:0:0:0:
97,42,28378,1,0,0:0:0:0:
62,182,28524,2,0,P|68:154|61:127,1,56.2500021457673,0|0,0:0|0:0,0:0:0:0:
22,0,28817,5,0,0:0:0:0:
0,242,28963,1,0,0:0:0:0:
148,179,29110,1,0,0:0:0:0:
158,186,29403,1,0,0:0:0:0:
169,194,29695,1,0,0:0:0:0:
108,302,29988,5,0,0:0:0:0:
108,302,30134,2,0,P|77:307|59:320,1,37.5,0|0,0:0|0:0,0:0:0:0:
0,376,30427,1,0,0:0:0:0:
2,248,30573,2,0,L|3:229,2,18.75,0|0|0,0:0|0:0|0:0,0:0:0:0:
110,384,30866,1,0,0:0:0:0:
193,308,31012,1,0,0:0:0:0:
313,377,31159,6,0,B|251:320|331:227|427:309|368:375|368:375|420:346|468:377,1,337.500012874604,0|0,0:0|0:0,0:0:0:0:
360,125,32329,5,0,0:0:0:0:
457,283,32476,1,0,0:0:0:0:
470,99,32622,5,0,0:0:0:0:
322,275,32768,1,0,0:0:0:0:
245,48,32915,5,0,0:0:0:0:
322,275,33061,1,0,0:0:0:0:
356,93,33207,5,0,0:0:0:0:
187,302,33354,1,0,0:0:0:0:
90,51,33500,6,0,L|65:153,1,75,0|0,0:0|0:0,0:0:0:0:
13,239,33793,2,0,P|46:221|83:219,1,75,0|0,0:0|0:0,0:0:0:0:
132,368,34085,2,0,P|132:330|149:297,1,75,0|0,0:0|0:0,0:0:0:0:
306,352,34305,1,0,0:0:0:0:
306,352,34378,2,0,P|273:333|253:301,1,75,0|0,0:0|0:0,0:0:0:0:
207,181,34671,5,0,0:0:0:0:
370,229,34817,2,0,L|295:222,1,75,0|0,0:0|0:0,0:0:0:0:
380,144,35110,1,0,0:0:0:0:
406,151,35183,1,0,0:0:0:0:
429,167,35256,1,0,0:0:0:0:
445,190,35329,1,0,0:0:0:0:
453,217,35402,1,0,0:0:0:0:
493,367,35549,2,0,P|484:329|493:293,1,75,0|0,0:0|0:0,0:0:0:0:
509,129,35842,5,0,0:0:0:0:
509,129,35988,1,0,0:0:0:0:
437,50,36134,2,0,P|399:58|363:49,1,75,0|0,0:0|0:0,0:0:0:0:
324,126,36427,2,0,P|286:117|250:126,1,75,0|0,0:0|0:0,0:0:0:0:
225,139,36646,1,0,0:0:0:0:
207,160,36719,1,0,0:0:0:0:
197,187,36792,1,0,0:0:0:0:
197,215,36866,1,0,0:0:0:0:
302,289,37012,5,0,0:0:0:0:
182,343,37159,2,0,L|104:335,1,75,0|0,0:0|0:0,0:0:0:0:
11,271,37451,1,0,0:0:0:0:
8,298,37524,1,0,0:0:0:0:
5,326,37597,1,0,0:0:0:0:
2,354,37670,1,0,0:0:0:0:
0,382,37743,1,0,0:0:0:0:
107,350,37890,2,0,L|184:342,1,75,0|0,0:0|0:0,0:0:0:0:
96,181,38183,6,0,P|59:189|23:181,1,75,0|0,0:0|0:0,0:0:0:0:
67,26,38476,2,0,L|61:105,1,75,0|0,0:0|0:0,0:0:0:0:
151,44,38768,2,0,L|156:123,1,75,0|0,0:0|0:0,0:0:0:0:
243,68,38988,1,0,0:0:0:0:
243,68,39061,2,0,L|241:106,2,37.5,0|0|0,0:0|0:0|0:0,0:0:0:0:
336,93,39354,5,0,0:0:0:0:
354,250,39500,2,0,L|362:173,1,75,0|0,0:0|0:0,0:0:0:0:
418,115,39793,1,0,0:0:0:0:
445,109,39866,1,0,0:0:0:0:
471,98,39939,1,0,0:0:0:0:
493,81,40012,1,0,0:0:0:0:
512,60,40085,1,0,0:0:0:0:
411,29,40232,2,0,P|375:40|348:65,1,75,0|0,0:0|0:0,0:0:0:0:
512,175,40524,5,0,0:0:0:0:
276,160,40671,1,0,0:0:0:0:
418,115,40817,1,0,0:0:0:0:
339,289,40963,1,0,0:0:0:0:
127,193,41110,5,0,0:0:0:0:
339,289,41256,1,0,0:0:0:0:
272,141,41402,1,0,0:0:0:0:
226,329,41549,1,0,0:0:0:0:
458,248,41695,5,0,0:0:0:0:
226,329,41842,1,0,0:0:0:0:
276,125,41988,1,0,0:0:0:0:
319,250,42134,1,0,0:0:0:0:
141,212,42281,5,0,0:0:0:0:
114,218,42354,1,0,0:0:0:0:
88,229,42427,1,0,0:0:0:0:
66,246,42500,1,0,0:0:0:0:
46,267,42573,2,0,L|42:306,1,37.5,0|0,0:0|0:0,0:0:0:0:
143,314,42720,2,0,L|146:353,1,37.5,0|0,0:0|0:0,0:0:0:0:
46,132,42866,6,0,P|83:99|152:99,1,112.500004291535,0|0,0:0|0:0,0:0:0:0:
239,155,43305,2,0,P|294:154|336:118,1,112.500004291535
399,28,43744,1,0,0:0:0:0:
399,28,44037,5,0,0:0:0:0:
399,28,44183,2,0,L|414:94,1,56.2500021457673,0|0,0:0|0:0,0:0:0:0:
506,118,44476,2,0,P|487:169|505:222,1,112.500004291535,0|0,0:0|0:0,0:0:0:0:
414,269,44915,2,0,L|398:335,1,56.2500021457673,0|0,0:0|0:0,0:0:0:0:
286,363,45207,6,0,P|241:340|175:358,1,112.500004291535,0|0,0:0|0:0,0:0:0:0:
103,247,45646,2,0,P|49:260|0:237,1,112.500004291535,0|0,0:0|0:0,0:0:0:0:
0,115,46085,1,0,0:0:0:0:
0,115,46378,5,0,0:0:0:0:
0,115,46524,2,0,L|-1:58,1,56.2500021457673,0|0,0:0|0:0,0:0:0:0:
101,116,46817,2,0,L|102:228,1,112.500004291535,0|0,0:0|0:0,0:0:0:0:
201,218,47256,2,0,L|202:275,1,56.2500021457673,0|0,0:0|0:0,0:0:0:0:
155,381,47549,6,0,P|207:363|259:381,1,112.500004291535,0|0,0:0|0:0,0:0:0:0:
388,336,47988,2,0,P|439:354|492:336,1,112.500004291535,0|0,0:0|0:0,0:0:0:0:
512,231,48427,1,0,0:0:0:0:
480,127,48573,1,0,0:0:0:0:
480,127,48646,1,0,0:0:0:0:
480,127,48720,5,0,0:0:0:0:
402,199,48866,2,0,L|418:262,1,56.2500021457673,0|0,0:0|0:0,0:0:0:0:
358,80,49159,2,0,L|342:143,1,56.2500021457673,0|0,0:0|0:0,0:0:0:0:
313,229,49451,1,0,0:0:0:0:
271,84,49598,2,0,B|255:29|255:29|225:11,1,84.3750032186509,0|0,0:0|0:0,0:0:0:0:
206,0,49890,6,0,B|170:29|159:90|192:135|192:135|162:164|165:208,1,225,0|0,0:0|0:0,0:0:0:0:
80,216,51061,5,0,0:0:0:0:
250,226,51208,1,0,0:0:0:0:
250,212,51281,1,0,0:0:0:0:
250,198,51354,1,0,0:0:0:0:
80,244,51500,1,0,0:0:0:0:
80,230,51573,1,0,0:0:0:0:
80,216,51646,1,0,0:0:0:0:
165,243,51793,1,0,0:0:0:0:
165,229,51866,1,0,0:0:0:0:
165,215,51939,1,0,0:0:0:0:
0,239,52085,1,0,0:0:0:0:
0,225,52159,1,0,0:0:0:0:
0,210,52232,6,0,P|7:174|29:144,1,75,0|0,0:0|0:0,0:0:0:0:
146,92,52524,1,0,0:0:0:0:
0,63,52671,1,0,0:0:0:0:
148,6,52817,2,0,P|184:13|214:35,1,75,0|0,0:0|0:0,0:0:0:0:
247,211,53110,1,0,0:0:0:0:
106,169,53256,1,0,0:0:0:0:
106,169,53329,1,0,0:0:0:0:
106,169,53402,5,0,0:0:0:0:
233,120,53549,2,0,L|324:110,1,75,0|0,0:0|0:0,0:0:0:0:
409,266,53842,1,0,0:0:0:0:
401,239,53915,1,0,0:0:0:0:
385,216,53988,1,0,0:0:0:0:
362,200,54061,1,0,0:0:0:0:
336,193,54134,1,0,0:0:0:0:
317,353,54281,2,0,L|325:279,1,75,0|0,0:0|0:0,0:0:0:0:
464,180,54573,6,0,L|456:105,1,75,0|0,0:0|0:0,0:0:0:0:
334,0,54866,2,0,P|345:35|341:72,1,75,0|0,0:0|0:0,0:0:0:0:
190,8,55159,2,0,P|226:15|256:37,1,75,0|0,0:0|0:0,0:0:0:0:
114,102,55378,1,0,0:0:0:0:
114,102,55451,2,0,P|149:90|186:94,1,75,0|0,0:0|0:0,0:0:0:0:
98,220,55744,6,0,L|86:176,1,37.5,0|0,0:0|0:0,0:0:0:0:
0,277,55890,1,0,0:0:0:0:
4,295,55963,1,0,0:0:0:0:
9,313,56036,1,0,0:0:0:0:
14,331,56109,1,0,0:0:0:0:
19,349,56183,1,0,0:0:0:0:
53,335,56256,1,0,0:0:0:0:
90,333,56329,1,0,0:0:0:0:
127,341,56402,1,0,0:0:0:0:
164,343,56476,2,0,P|181:344|213:336,1,37.5,0|0,0:0|0:0,0:0:0:0:
290,263,56622,2,0,P|284:246|265:220,3,37.5,0|0|0|0,0:0|0:0|0:0|0:0,0:0:0:0:
337,376,56915,6,0,P|372:364|409:368,1,75,0|0,0:0|0:0,0:0:0:0:
466,190,57207,2,0,P|462:227|473:262,1,75,0|0,0:0|0:0,0:0:0:0:
418,118,57500,2,0,P|380:114|345:125,1,75,0|0,0:0|0:0,0:0:0:0:
490,72,57720,1,0,0:0:0:0:
490,72,57793,2,0,P|493:34|482:0,1,75,0|0,0:0|0:0,0:0:0:0:
326,0,58085,5,0,0:0:0:0:
253,45,58232,2,0,P|235:52|217:56,2,37.5,0|0|0,0:0|0:0|0:0,0:0:0:0:
75,73,58524,1,0,0:0:0:0:
67,46,58597,1,0,0:0:0:0:
51,23,58670,1,0,0:0:0:0:
28,7,58743,1,0,0:0:0:0:
2,0,58816,1,0,0:0:0:0:
110,152,58963,2,0,P|125:185|152:210,1,75,0|0,0:0|0:0,0:0:0:0:
306,4,59256,5,0,0:0:0:0:
311,237,59402,1,0,0:0:0:0:
187,19,59549,1,0,0:0:0:0:
414,124,59695,1,0,0:0:0:0:
201,127,59842,1,0,0:0:0:0:
414,124,59988,1,0,0:0:0:0:
201,229,60134,1,0,0:0:0:0:
308,96,60281,1,0,0:0:0:0:
355,317,60427,6,0,L|363:354,2,37.5,0|0|0,0:0|0:0|0:0,0:0:0:0:
196,315,60720,2,0,P|160:305|130:277,1,75,0|0,0:0|0:0,0:0:0:0:
333,208,60939,1,0,0:0:0:0:
333,208,61012,2,0,P|356:202|377:182,2,37.5,0|0|0,0:0|0:0|0:0,0:0:0:0:
199,120,61305,2,0,P|163:110|133:82,1,75,0|0,0:0|0:0,0:0:0:0:
383,2,61598,5,0,0:0:0:0:
332,364,61744,1,0,0:0:0:0:
279,0,61890,5,0,0:0:0:0:
332,377,62037,1,0,0:0:0:0:
399,0,62183,5,0,0:0:0:0:
233,366,62330,1,0,0:0:0:0:
159,0,62476,5,0,0:0:0:0:
0,340,62623,1,0,0:0:0:0:
291,285,62768,5,0,0:0:0:0:
313,255,62841,1,0,0:0:0:0:
323,219,62914,1,0,0:0:0:0:
320,182,62987,1,0,0:0:0:0:
303,148,63060,1,0,0:0:0:0:
282,117,63134,1,0,0:0:0:0:
276,80,63207,1,0,0:0:0:0:
286,44,63280,1,0,0:0:0:0:
310,16,63353,1,0,0:0:0:0:
344,0,63426,1,0,0:0:0:0:
381,0,63500,1,0,0:0:0:0:
415,16,63573,1,0,0:0:0:0:
439,45,63646,1,0,0:0:0:0:
449,81,63719,1,0,0:0:0:0:
443,117,63792,1,0,0:0:0:0:
422,148,63865,1,0,0:0:0:0:
391,167,63939,6,0,P|336:168|292:133,1,112.500004291535,0|0,0:0|0:0,0:0:0:0:
212,0,64232,1,0,0:0:0:0:
177,212,64378,1,0,0:0:0:0:
0,51,64524,2,0,P|55:52|99:85,1,112.500004291535,0|0,0:0|0:0,0:0:0:0:
28,134,64744,1,0,0:0:0:0:
28,134,64817,2,0,P|55:181|48:236,1,112.500004291535,0|0,0:0|0:0,0:0:0:0:
1,337,65110,5,0,0:0:0:0:
229,341,65256,2,0,L|116:332,1,112.500004291535,0|0,0:0|0:0,0:0:0:0:
184,223,65549,1,0,0:0:0:0:
184,223,65622,1,0,0:0:0:0:
184,223,65695,2,0,P|203:207|233:195,1,56.2500021457673,0|0,0:0|0:0,0:0:0:0:
319,124,65842,2,0,P|329:150|346:171,1,56.2500021457673,0|0,0:0|0:0,0:0:0:0:
430,139,65988,1,0,0:0:0:0:
440,175,66061,1,0,0:0:0:0:
434,211,66134,1,0,0:0:0:0:
413,242,66207,1,0,0:0:0:0:
382,261,66281,6,0,P|342:299|335:354,1,112.500004291535,0|0,0:0|0:0,0:0:0:0:
512,384,66573,2,0,P|473:344|418:337,1,112.500004291535,0|0,0:0|0:0,0:0:0:0:
255,384,66866,1,0,0:0:0:0:
201,231,67012,2,0,L|183:174,2,56.2500021457673,0|0|0,0:0|0:0|0:0,0:0:0:0:
329,118,67305,2,0,L|345:171,1,56.2500021457673,0|0,0:0|0:0,0:0:0:0:
313,283,67451,5,0,0:0:0:0:
171,177,67598,1,0,0:0:0:0:
342,118,67744,1,0,0:0:0:0:
142,12,67890,1,0,0:0:0:0:
113,35,67963,1,0,0:0:0:0:
77,44,68036,1,0,0:0:0:0:
40,37,68109,1,0,0:0:0:0:
10,16,68183,2,0,L|6:72,1,56.2500021457673,0|0,0:0|0:0,0:0:0:0:
85,186,68329,2,0,L|89:129,1,56.2500021457673,0|0,0:0|0:0,0:0:0:0:
0,243,68476,2,0,L|4:299,1,56.2500021457673,0|0,0:0|0:0,0:0:0:0:
118,384,68622,6,0,P|125:329|165:291,1,112.500004291535,0|0,0:0|0:0,0:0:0:0:
314,315,68915,1,0,0:0:0:0:
186,156,69061,1,0,0:0:0:0:
376,78,69207,2,0,P|368:132|328:170,1,112.500004291535,0|0,0:0|0:0,0:0:0:0:
341,0,69427,1,0,0:0:0:0:
341,0,69500,2,0,P|300:37|291:91,1,112.500004291535,0|0,0:0|0:0,0:0:0:0:
462,65,69793,6,0,P|453:119|412:157,1,112.500004291535,0|0,0:0|0:0,0:0:0:0:
412,157,70012,1,0,0:0:0:0:
412,157,70085,1,0,0:0:0:0:
507,252,70232,1,0,0:0:0:0:
486,282,70305,1,0,0:0:0:0:
479,319,70378,1,0,0:0:0:0:
488,355,70451,1,0,0:0:0:0:
510,381,70524,2,0,P|482:374|454:378,1,56.2500021457673,0|0,0:0|0:0,0:0:0:0:
393,317,70671,2,0,P|362:320|326:308,1,56.2500021457673,0|0,0:0|0:0,0:0:0:0:
278,374,70817,2,0,P|247:377|211:365,1,56.2500021457673,0|0,0:0|0:0,0:0:0:0:
198,164,70963,6,0,P|214:216|194:268,1,112.500004291535,0|0,0:0|0:0,0:0:0:0:
24,209,71256,2,0,P|76:192|128:212,1,112.500004291535,0|0,0:0|0:0,0:0:0:0:
128,212,71476,1,0,0:0:0:0:
128,212,71549,1,0,0:0:0:0:
71,315,71695,1,0,0:0:0:0:
121,126,71842,1,0,0:0:0:0:
323,129,71988,1,0,0:0:0:0:
323,129,72061,1,0,0:0:0:0:
323,129,72134,6,0,L|377:142,3,56.2500021457673,0|0|0|0,0:0|0:0|0:0|0:0,0:0:0:0:
182,282,72427,2,0,L|126:278,3,56.2500021457673,0|0|0|0,0:0|0:0|0:0|0:0,0:0:0:0:
251,358,72720,1,0,0:0:0:0:
274,324,72793,1,0,0:0:0:0:
283,282,72866,1,0,0:0:0:0:
275,241,72939,1,0,0:0:0:0:
251,207,73012,1,0,0:0:0:0:
227,171,73085,1,0,0:0:0:0:
219,130,73158,1,0,0:0:0:0:
228,89,73231,1,0,0:0:0:0:
251,54,73305,6,0,P|296:23|351:28,1,112.500004291535,0|0,3:0|3:0,3:0:0:0:
355,170,73598,1,0,0:0:0:0:
512,38,73744,1,0,0:0:0:0:
512,282,73890,2,0,P|481:236|486:181,1,112.500004291535,0|0,3:0|3:0,3:0:0:0:
486,181,74110,1,0,0:0:0:0:
486,181,74183,1,0,0:0:0:0:
379,287,74329,1,0,0:0:0:0:
268,167,74476,6,0,L|272:110,1,56.2500021457673,0|0,3:0|3:0,3:0:0:0:
261,282,74622,1,0,0:0:0:0:
259,298,74695,1,0,0:0:0:0:
258,315,74768,1,0,0:0:0:0:
256,332,74841,1,0,0:0:0:0:
255,349,74914,1,0,0:0:0:0:
222,366,74988,1,0,0:0:0:0:
185,367,75061,1,0,0:0:0:0:
151,352,75134,1,0,0:0:0:0:
117,335,75207,1,0,0:0:0:0:
80,331,75281,1,0,0:0:0:0:
46,344,75354,2,0,P|22:359|5:381,1,56.2500021457673,0|0,0:0|0:0,0:0:0:0:
15,263,75500,2,0,P|3:238|0:211,1,56.2500021457673,0|0,0:0|0:0,0:0:0:0:
187,189,75646,6,0,P|141:220|86:215,1,112.500004291535,0|0,3:0|3:0,3:0:0:0:
91,26,75939,2,0,L|119:136,1,112.500004291535,0|0,0:0|0:0,0:0:0:0:
119,136,76159,1,0,0:0:0:0:
119,136,76232,1,0,0:0:0:0:
0,97,76378,1,0,0:0:0:0:
209,40,76524,1,0,0:0:0:0:
257,244,76671,1,0,0:0:0:0:
257,244,76744,1,0,0:0:0:0:
257,244,76817,6,0,P|288:241|324:253,1,56.2500021457673,0|0,0:0|0:0,0:0:0:0:
424,200,76963,2,0,P|417:227|421:255,1,56.2500021457673,0|0,0:0|0:0,0:0:0:0:
349,113,77110,2,0,P|352:144|340:180,1,56.2500021457673,0|0,0:0|0:0,0:0:0:0:
512,174,77256,1,0,0:0:0:0:
489,144,77329,1,0,0:0:0:0:
479,108,77402,1,0,0:0:0:0:
487,71,77475,1,0,0:0:0:0:
508,41,77549,2,0,L|451:37,1,56.2500021457673,0|0,0:0|0:0,0:0:0:0:
318,0,77695,2,0,L|374:4,1,56.2500021457673,0|0,0:0|0:0,0:0:0:0:
272,73,77842,2,0,L|216:77,1,56.2500021457673,0|0,0:0|0:0,0:0:0:0:
9,34,77988,6,0,L|-1:151,1,112.500004291535,0|0,3:0|3:0,3:0:0:0:
123,243,78281,1,0,0:0:0:0:
111,83,78427,1,0,0:0:0:0:
38,255,78573,2,0,P|61:305|110:329,1,112.500004291535,0|0,3:0|3:0,3:0:0:0:
110,329,78793,1,0,0:0:0:0:
110,329,78866,1,0,0:0:0:0:
225,201,79012,1,0,0:0:0:0:
330,332,79159,6,0,L|381:304,1,56.2500021457673,0|0,0:0|0:0,0:0:0:0:
231,290,79305,1,0,0:0:0:0:
263,271,79378,1,0,0:0:0:0:
295,252,79451,1,0,0:0:0:0:
327,233,79524,1,0,0:0:0:0:
359,214,79598,2,0,L|423:175,3,56.2500021457673,0|0|0|0,0:0|0:0|0:0|0:0,0:0:0:0:
365,109,79890,1,0,0:0:0:0:
455,257,80037,1,0,0:0:0:0:
318,339,80183,1,0,0:0:0:0:
512,305,80329,6,0,P|489:255|504:202,1,112.500004291535,0|0,3:0|3:0,3:0:0:0:
308,156,80622,2,0,P|330:105|316:52,1,112.500004291535,0|0,3:0|3:0,3:0:0:0:
316,52,80842,1,0,0:0:0:0:
316,52,80915,1,0,0:0:0:0:
132,107,81061,2,0,L|245:99,1,112.500004291535,0|0,0:0|0:0,0:0:0:0:
71,48,81354,1,0,0:0:0:0:
74,223,81500,5,0,0:0:0:0:
105,241,81573,1,0,0:0:0:0:
142,244,81646,1,0,0:0:0:0:
176,231,81719,1,0,0:0:0:0:
211,217,81793,1,0,0:0:0:0:
248,219,81866,1,0,0:0:0:0:
280,238,81939,1,0,0:0:0:0:
300,268,82012,1,0,0:0:0:0:
306,304,82085,2,0,P|295:340|281:359,1,56.2500021457673,0|0,0:0|0:0,0:0:0:0:
224,301,82232,2,0,P|191:319|167:322,1,56.2500021457673,0|0,0:0|0:0,0:0:0:0:
386,273,82378,2,0,P|422:262|441:248,1,56.2500021457673,0|0,0:0|0:0,0:0:0:0:
382,189,82525,2,0,P|400:156|403:132,1,56.2500021457673,0|0,0:0|0:0,0:0:0:0:
214,128,82671,6,0,P|266:111|318:131,1,112.500004291535,0|0,3:0|3:0,3:0:0:0:
390,36,82963,1,0,0:0:0:0:
390,36,83110,1,0,0:0:0:0:
264,198,83256,1,0,0:0:0:0:
150,35,83402,1,0,0:0:0:0:
150,35,83549,1,0,0:0:0:0:
177,206,83695,1,0,0:0:0:0:
22,78,83842,6,0,P|39:130|19:181,1,112.500004291535,0|0,3:0|3:0,3:0:0:0:
1,213,84061,1,0,0:0:0:0:
0,250,84134,1,0,0:0:0:0:
15,284,84207,1,0,0:0:0:0:
46,306,84281,1,0,0:0:0:0:
82,312,84354,1,0,0:0:0:0:
117,302,84427,1,0,0:0:0:0:
153,297,84500,1,0,0:0:0:0:
188,309,84573,1,0,0:0:0:0:
214,335,84646,1,0,0:0:0:0:
227,369,84720,2,0,L|164:383,3,56.2500021457673,0|0|0|0,0:0|0:0|0:0|0:0,0:0:0:0:
361,341,85012,6,0,P|414:328|464:352,1,112.500004291535,0|0,3:0|3:0,3:0:0:0:
267,241,85305,1,0,0:0:0:0:
267,241,85451,1,0,0:0:0:0:
459,221,85598,2,0,L|520:240,1,56.2500021457673,0|0,0:0|2:2,0:0:0:0:
288,115,85744,1,0,0:0:0:0:
288,115,85890,1,0,0:0:0:0:
452,89,86037,1,0,0:0:0:0:
295,29,86183,6,0,P|240:38|204:80,1,112.500004291535,0|0,3:0|3:0,3:0:0:0:
181,110,86402,1,0,0:0:0:0:
149,128,86475,1,0,0:0:0:0:
113,131,86548,1,0,0:0:0:0:
75,127,86622,1,0,0:0:0:0:
44,109,86695,1,0,0:0:0:0:
23,79,86768,2,0,P|10:52|6:25,2,56.2500021457673,0|0|0,0:0|0:0|0:0,0:0:0:0:
19,192,87061,2,0,P|36:244|16:295,1,112.500004291535,0|0,3:0|3:0,3:0:0:0:
234,260,87354,6,0,L|122:251,1,112.500004291535,0|0,0:0|0:0,0:0:0:0:
170,340,87646,1,0,0:0:0:0:
170,340,87793,1,0,0:0:0:0:
237,175,87939,2,0,L|239:110,1,56.2500021457673,0|0,0:0|2:2,0:0:0:0:
294,346,88085,1,0,0:0:0:0:
294,346,88232,1,0,0:0:0:0:
310,218,88378,1,0,0:0:0:0:
397,384,88524,6,0,P|379:331|399:280,1,112.500004291535,0|0,3:0|3:0,3:0:0:0:
415,246,88744,1,0,0:0:0:0:
418,209,88817,1,0,0:0:0:0:
410,173,88890,1,0,0:0:0:0:
389,142,88963,1,0,0:0:0:0:
360,120,89036,1,0,0:0:0:0:
325,109,89110,1,0,0:0:0:0:
288,109,89183,1,0,0:0:0:0:
253,122,89256,1,0,0:0:0:0:
225,146,89329,1,0,0:0:0:0:
206,178,89402,2,0,P|200:217|208:256,3,56.2500021457673,0|0|0|0,0:0|0:0|0:0|0:0,0:0:0:0:
310,217,89695,5,0,0:0:0:0:
310,217,90134,5,0,0:0:0:0:
103,199,90280,1,0,0:0:0:0:
221,46,90427,1,0,0:0:0:0:
221,46,90720,5,0,0:0:0:0:
204,255,90866,1,0,0:0:0:0:
204,255,91159,5,0,0:0:0:0:
204,255,91451,5,0,0:0:0:0:
287,121,91598,1,0,0:0:0:0:
421,204,91744,1,0,0:0:0:0:
338,338,91890,1,0,0:0:0:0:
338,338,92329,5,0,0:0:0:0:
338,338,92622,5,0,0:0:0:0:
186,252,92768,1,0,0:0:0:0:
338,219,92915,1,0,0:0:0:0:
187,125,93061,2,0,B|165:84|109:78|77:133|99:180|136:190|136:190|162:196|181:220|185:247|185:247|191:220|208:196|232:188|232:188|269:177|295:137|261:74|206:83|187:125,1,524.947489586918
