osu file format v14

[General]
AudioFilename: audio.mp3
AudioLeadIn: 0
PreviewTime: 185
Countdown: 1
SampleSet: Normal
StackLeniency: 0.3
Mode: 0
LetterboxInBreaks: 0
WidescreenStoryboard: 0

[Editor]
Bookmarks: 2271,10619,18967,27315,35663,44011,52358,60706,69054,77402
DistanceSpacing: 0.5
BeatDivisor: 4
GridSize: 4
TimelineZoom: 1.2

[Metadata]
Title:How to Play Minigames
TitleUnicode:How to Play Minigames
Artist:Yoshihiro Tsukahara
ArtistUnicode:Yoshihiro Tsukahara
Creator:KingBranBran
Version:Tutorial
Source:
Tags:
BeatmapID:1913333
BeatmapSetID:916152

[Difficulty]
HPDrainRate:6
CircleSize:4
OverallDifficulty:8
ApproachRate:9
SliderMultiplier:2.5
SliderTickRate:1

[Events]
//Background and Video events
0,0,"v2nN8V03.jpg",0,0
//Break Periods
//Storyboard Layer 0 (Background)
//Storyboard Layer 1 (Fail)
//Storyboard Layer 2 (Pass)
//Storyboard Layer 3 (Foreground)
//Storyboard Sound Samples

[TimingPoints]
185,521.739130434783,4,1,0,100,1,0
1098,-33.3333333333333,4,1,0,100,0,0
1750,-100,4,1,0,10,0,0
2271,-66.6666666666667,4,1,0,50,0,0
18967,-66.6666666666667,4,1,0,50,0,1
27315,-66.6666666666667,4,1,0,50,0,0
52358,-66.6666666666667,4,1,0,50,0,1
60706,-66.6666666666667,4,1,0,50,0,0

[Colours]
Combo1 : 255,147,14
Combo2 : 0,123,180
Combo3 : 0,153,109
Combo4 : 165,217,0
Combo5 : 242,233,38

[HitObjects]
150,144,185,5,0,0:0:0:0:
77,101,315,2,0,P|149:62|233:157,1,187.5
378,218,968,5,0,0:0:0:0:
451,175,1098,6,0,P|379:136|295:231,1,187.5
64,314,1750,6,0,L|66:337,14,15.625
451,175,2271,6,0,P|379:136|295:231,1,187.5
378,220,2663,1,0,0:0:0:0:
457,251,2793,2,0,P|386:305|306:266,1,187.5
253,99,3185,2,0,P|172:137|102:83,1,187.5
182,52,3576,1,0,0:0:0:0:
164,224,3706,1,0,0:0:0:0:
403,83,3837,2,0,P|322:44|252:98,1,187.5
331,129,4228,1,0,0:0:0:0:
263,359,4358,6,0,B|340:328|340:328|331:121,1,281.250010728836
235,268,4880,2,0,P|154:306|84:252,1,187.5
182,33,5271,2,0,L|165:231,2,187.500007152558
107,155,5924,1,0,0:0:0:0:
182,33,6054,1,0,0:0:0:0:
236,169,6185,1,0,0:0:0:0:
180,51,6315,1,0,0:0:0:0:
165,219,6445,6,0,P|246:257|316:203,1,187.5
236,169,6837,1,0,0:0:0:0:
84,185,6967,2,0,P|154:130|235:168,1,187.5
165,219,7358,1,0,0:0:0:0:
386,185,7489,2,0,P|315:130|234:168,1,187.5
304,217,7880,1,0,0:0:0:0:
506,279,8011,1,0,0:0:0:0:
483,155,8141,2,0,P|412:209|331:171,1,187.5
403,120,8532,5,0,0:0:0:0:
403,120,8793,5,0,0:0:0:0:
158,98,8924,1,0,0:0:0:0:
158,98,9185,5,0,0:0:0:0:
221,304,9315,1,0,0:0:0:0:
221,304,9576,5,0,0:0:0:0:
188,205,9706,1,0,0:0:0:0:
287,172,9837,1,0,0:0:0:0:
320,271,9967,1,0,0:0:0:0:
221,304,10098,5,0,0:0:0:0:
287,172,10228,1,0,0:0:0:0:
353,370,10358,1,0,0:0:0:0:
419,238,10489,1,0,0:0:0:0:
221,304,10619,6,0,P|150:358|70:319,1,187.5
144,269,11011,1,0,0:0:0:0:
213,223,11141,2,0,P|133:185|63:239,1,187.5
144,269,11532,1,0,0:0:0:0:
61,94,11663,2,0,L|179:105,1,93.7500035762788
231,47,11924,2,0,L|349:36,1,93.7500035762788
249,138,12185,1,0,0:0:0:0:
399,153,12315,2,0,P|318:191|248:137,1,187.5
500,298,12706,6,0,P|419:259|349:313,1,187.5
431,345,13098,1,0,0:0:0:0:
148,228,13228,2,0,P|228:189|298:243,1,187.5
34,290,13619,2,0,P|224:270|224:270,2,187.500007152558
212,355,14271,5,0,0:0:0:0:
148,228,14402,1,0,0:0:0:0:
241,344,14532,1,0,0:0:0:0:
263,197,14663,1,0,0:0:0:0:
464,254,14793,6,0,P|393:307|313:268,1,187.500007152558
385,218,15185,1,0,0:0:0:0:
455,169,15315,2,0,P|374:129|304:183,1,187.500007152558
385,218,15706,1,0,0:0:0:0:
268,74,15837,2,0,L|166:87,1,93.7500035762788
128,181,16098,2,0,L|26:168,1,93.7500035762788
72,75,16358,1,0,0:0:0:0:
57,310,16489,2,0,P|137:270|207:324,1,187.500007152558
129,354,16880,5,0,0:0:0:0:
129,354,17141,5,0,0:0:0:0:
370,322,17271,1,0,0:0:0:0:
370,322,17532,5,0,0:0:0:0:
82,252,17663,1,0,0:0:0:0:
82,252,17924,5,0,0:0:0:0:
418,198,18054,1,0,0:0:0:0:
418,198,18315,5,0,0:0:0:0:
49,162,18445,1,0,0:0:0:0:
49,162,18706,5,0,0:0:0:0:
444,84,18837,1,0,0:0:0:0:
24,70,18967,6,0,L|141:77,1,93.7500035762788
49,162,19228,2,0,L|166:169,1,93.7500035762788
82,252,19489,1,0,0:0:0:0:
24,70,19619,1,0,0:0:0:0:
24,70,19881,6,0,L|141:77,1,93.7500035762788
117,75,20141,6,0,L|24:70,1,93.7500035762788
302,135,20532,6,0,L|208:140,1,93.7500035762788
436,42,20793,2,0,L|342:36,1,93.7500035762788
323,248,21054,6,0,P|394:194|473:234,1,187.500007152558
365,317,21445,2,0,P|293:263|214:303,1,187.500007152558
473,234,21837,2,0,P|394:194|323:248,1,187.500007152558
289,347,22228,1,0,0:0:0:0:
287,318,22294,1,0,0:0:0:0:
285,289,22359,1,0,0:0:0:0:
282,261,22424,1,0,0:0:0:0:
280,233,22489,1,0,0:0:0:0:
278,205,22554,1,0,0:0:0:0:
275,172,22619,5,0,0:0:0:0:
190,307,22750,1,0,0:0:0:0:
273,138,22880,1,0,0:0:0:0:
379,293,23011,1,0,0:0:0:0:
270,105,23141,5,0,0:0:0:0:
292,372,23271,1,0,0:0:0:0:
212,40,23663,5,0,0:0:0:0:
190,307,23793,1,0,0:0:0:0:
299,23,24185,5,0,0:0:0:0:
401,325,24315,1,0,0:0:0:0:
362,94,24706,5,0,0:0:0:0:
74,354,24837,1,0,0:0:0:0:
186,123,25228,5,0,0:0:0:0:
236,339,25358,1,0,0:0:0:0:
285,171,25489,1,0,0:0:0:0:
130,299,25619,5,0,0:0:0:0:
346,254,25750,1,0,0:0:0:0:
97,192,25880,1,0,0:0:0:0:
381,116,26011,5,0,0:0:0:0:
329,355,26141,1,0,0:0:0:0:
186,123,26271,1,0,0:0:0:0:
423,322,26402,5,0,0:0:0:0:
86,83,26532,1,0,0:0:0:0:
400,220,26663,1,0,0:0:0:0:
474,44,26793,5,0,0:0:0:0:
460,73,26858,1,0,0:0:0:0:
425,87,26924,1,0,0:0:0:0:
392,89,26989,1,0,0:0:0:0:
361,77,27054,5,0,0:0:0:0:
354,109,27119,1,0,0:0:0:0:
331,132,27185,1,0,0:0:0:0:
301,145,27250,1,0,0:0:0:0:
265,142,27315,6,0,P|194:88|115:128,1,187.500007152558
188,171,27706,1,0,0:0:0:0:
37,184,27837,2,0,P|108:130|187:170,1,187.500007152558
209,342,28228,2,0,B|135:328|135:328|114:171,2,187.500007152558
307,247,28880,2,0,L|189:264,2,93.7500035762788
466,93,29402,6,0,P|395:147|316:107,1,187.500007152558
388,68,29793,1,0,0:0:0:0:
315,106,29924,2,0,P|244:52|165:92,1,187.500007152558
246,326,30315,2,0,L|236:111,2,187.500007152558
338,344,30967,2,0,L|334:203,2,93.7500035762788
84,147,31489,6,0,B|61:242|61:242|112:344,1,187.500007152558
188,226,31880,2,0,B|211:131|211:131|160:29,1,187.500007152558
319,170,32271,2,0,B|296:265|296:265|347:367,1,187.500007152558
423,249,32662,2,0,B|446:154|446:154|395:52,1,187.500007152558
225,56,33054,2,0,L|346:68,1,93.7500035762788
162,140,33315,2,0,L|69:150,1,93.7500035762788
224,245,33576,6,0,B|322:257|322:257|252:317,1,187.500007152558
60,342,33967,2,0,B|158:330|158:330|88:270,1,187.500007152558
162,140,34358,2,0,B|64:128|64:128|134:68,1,187.500007152558
326,43,34749,2,0,B|228:55|228:55|298:115,1,187.500007152558
449,79,35141,2,0,L|457:192,1,93.7500035762788
375,225,35402,2,0,L|370:336,1,93.7500035762788
467,263,35663,5,0,0:0:0:0:
372,139,35793,2,0,P|301:85|222:125,1,187.500007152558
229,227,36185,2,0,P|158:281|79:241,1,187.500007152558
132,9,36576,2,0,L|152:219,2,187.500007152558
238,141,37228,1,0,0:0:0:0:
228,50,37358,1,0,0:0:0:0:
329,131,37489,1,0,0:0:0:0:
319,40,37619,1,0,0:0:0:0:
317,237,37750,6,0,B|414:213|414:213|420:18,1,281.250010728836
319,40,38271,2,0,P|248:94|169:54,1,187.500007152558
241,13,38663,5,0,0:0:0:0:
256,191,38924,5,0,0:0:0:0:
271,369,39185,5,0,0:0:0:0:
104,319,39315,2,0,L|214:312,1,93.7500035762788
425,258,39576,2,0,L|331:252,1,93.7500035762788
105,177,39837,6,0,P|176:231|255:191,1,187.500007152558
186,147,40228,1,0,0:0:0:0:
450,97,40358,2,0,P|379:151|300:111,1,187.500007152558
371,64,40750,1,0,0:0:0:0:
512,280,40880,2,0,P|441:226|362:266,1,187.500007152558
434,310,41271,1,0,0:0:0:0:
442,204,41402,1,0,0:0:0:0:
132,239,41532,2,0,P|203:185|282:225,1,187.500007152558
211,269,41924,5,0,0:0:0:0:
211,269,42185,5,0,0:0:0:0:
156,84,42315,1,0,0:0:0:0:
156,84,42576,5,0,0:0:0:0:
433,102,42706,1,0,0:0:0:0:
433,102,42967,5,0,0:0:0:0:
436,186,43098,1,0,0:0:0:0:
439,270,43228,1,0,0:0:0:0:
442,354,43358,1,0,0:0:0:0:
362,63,43489,5,0,0:0:0:0:
368,231,43620,1,0,0:0:0:0:
365,147,43750,1,0,0:0:0:0:
371,315,43880,1,0,0:0:0:0:
286,107,44011,6,0,P|215:53|136:93,1,187.500007152558
207,141,44402,1,0,0:0:0:0:
278,190,44532,2,0,P|198:230|127:176,1,187.500007152558
207,141,44924,1,0,0:0:0:0:
157,339,45054,2,0,L|283:334,1,93.7500035762788
329,268,45315,2,0,L|455:273,1,93.7500035762788
486,343,45576,1,0,0:0:0:0:
474,131,45706,2,0,P|403:184|323:144,1,187.500007152558
237,73,46098,6,0,P|166:126|86:86,1,187.500007152558
159,44,46489,1,0,0:0:0:0:
0,142,46619,2,0,P|70:195|150:155,1,187.500007152558
84,74,47011,2,0,L|61:321,2,187.500007152558
183,143,47663,1,0,0:0:0:0:
174,246,47794,1,0,0:0:0:0:
277,255,47924,1,0,0:0:0:0:
286,152,48054,1,0,0:0:0:0:
217,70,48185,6,0,P|287:123|367:83,1,187.500007152558
295,39,48576,1,0,0:0:0:0:
465,171,48706,2,0,B|366:197|366:197|358:398,1,281.250010728836
273,336,49228,2,0,L|278:223,1,93.7500035762788
217,70,49489,2,0,L|221:163,1,93.7500035762788
277,242,49750,1,0,0:0:0:0:
217,70,49880,2,0,P|137:29|66:82,1,187.500007152558
146,111,50271,1,0,0:0:0:0:
146,111,50532,5,0,0:0:0:0:
287,262,50663,1,0,0:0:0:0:
287,262,50924,5,0,0:0:0:0:
27,212,51054,1,0,0:0:0:0:
27,212,51315,5,0,0:0:0:0:
336,95,51445,1,0,0:0:0:0:
336,95,51706,5,0,0:0:0:0:
99,365,51837,1,0,0:0:0:0:
99,365,52098,5,0,0:0:0:0:
174,28,52228,1,0,0:0:0:0:
258,331,52358,6,0,L|370:342,1,93.7500035762788
294,249,52619,2,0,L|406:260,1,93.7500035762788
334,167,52880,1,0,0:0:0:0:
505,183,53011,1,0,0:0:0:0:
505,183,53271,6,2,L|411:173,1,93.7500035762788,0|0,0:0|0:0,0:0:0:0:
463,97,53532,2,2,L|370:88,1,93.7500035762788,0|0,0:0|0:0,0:0:0:0:
370,88,53924,6,2,L|463:97,1,93.7500035762788,0|0,0:0|0:0,0:0:0:0:
240,157,54185,2,2,L|333:166,1,93.7500035762788,0|0,0:0|0:0,0:0:0:0:
205,38,54445,2,0,P|133:90|54:49,1,187.500007152558
2,88,54837,2,0,P|80:46|152:99,1,187.500007152558
71,228,55228,2,0,L|74:103,1,93.7500035762788
65,372,55619,5,0,0:0:0:0:
65,348,55685,1,0,0:0:0:0:
66,324,55750,1,0,0:0:0:0:
67,300,55815,1,0,0:0:0:0:
68,276,55880,1,0,0:0:0:0:
69,252,55945,1,0,0:0:0:0:
71,228,56011,5,0,0:0:0:0:
219,241,56141,1,0,0:0:0:0:
57,198,56271,1,0,0:0:0:0:
245,140,56402,1,0,0:0:0:0:
33,179,56532,5,0,0:0:0:0:
315,212,56663,1,0,0:0:0:0:
88,119,57054,5,0,0:0:0:0:
396,273,57185,1,0,0:0:0:0:
113,197,57576,5,0,0:0:0:0:
418,187,57706,1,0,0:0:0:0:
41,254,58098,5,0,0:0:0:0:
436,98,58228,1,0,0:0:0:0:
175,133,58619,5,0,0:0:0:0:
235,350,58750,1,0,0:0:0:0:
287,166,58880,1,0,0:0:0:0:
113,296,59011,5,0,0:0:0:0:
346,277,59141,1,0,0:0:0:0:
84,195,59272,1,0,0:0:0:0:
322,355,59402,5,0,0:0:0:0:
241,94,59532,1,0,0:0:0:0:
113,296,59663,1,0,0:0:0:0:
390,187,59793,5,0,0:0:0:0:
118,89,59923,1,0,0:0:0:0:
426,300,60054,1,0,0:0:0:0:
37,321,60185,5,0,0:0:0:0:
59,303,60250,1,0,0:0:0:0:
86,294,60315,1,0,0:0:0:0:
113,296,60380,1,0,0:0:0:0:
142,308,60445,5,0,0:0:0:0:
177,310,60510,1,0,0:0:0:0:
212,298,60575,1,0,0:0:0:0:
243,275,60640,1,0,0:0:0:0:
261,195,60706,6,0,B|301:284|301:284|511:263,1,281.250010728836
492,122,61228,2,0,P|420:174|341:133,1,187.500007152558
411,60,61619,2,0,L|424:283,2,187.500007152558
326,104,62271,2,0,L|331:210,2,93.7500035762788
63,144,62793,6,0,P|141:102|214:154,1,187.500007152558
144,289,63185,2,0,L|136:178,1,93.7500035762788
300,125,63576,1,0,0:0:0:0:
308,227,63706,5,0,0:0:0:0:
454,49,63967,5,0,0:0:0:0:
225,40,64228,5,0,0:0:0:0:
300,125,64358,2,0,L|307:232,2,93.7500035762788
212,333,64880,6,0,B|204:201|204:201|124:276,1,187.500007152558
38,207,65271,2,0,B|46:339|46:339|125:265,1,187.500007152558
295,167,65663,2,0,B|287:35|287:35|207:109,1,187.500007152558
121,41,66054,2,0,B|128:172|128:172|208:98,1,187.500007152558
290,346,66445,2,0,L|283:248,1,93.7500035762788
385,334,66706,2,0,L|378:236,1,93.7500035762788
452,69,66967,6,0,B|369:114|369:114|246:89,1,187.500007152558
103,121,67358,2,0,B|186:76|186:76|309:101,1,187.500007152558
297,187,67750,2,0,B|389:206|389:206|472:161,1,187.500007152558
297,186,68141,2,0,B|206:168|206:168|123:213,1,187.500007152558
138,312,68532,5,0,0:0:0:0:
223,271,68663,1,0,0:0:0:0:
323,276,68793,1,0,0:0:0:0:
323,276,69054,5,0,0:0:0:0:
256,192,69185,12,0,77402,0:0:0:0:
