osu file format v14

[General]
AudioFilename: Prelude.ogg
AudioLeadIn: 1500
PreviewTime: 29831
Countdown: 0
SampleSet: Soft
StackLeniency: 0.7
Mode: 3
LetterboxInBreaks: 0
SpecialStyle: 0
WidescreenStoryboard: 0

[Editor]
DistanceSpacing: 0.8
BeatDivisor: 16
GridSize: 16
TimelineZoom: 1

[Metadata]
Title:Prelude for Angel
TitleUnicode:Prelude for Angel
Artist:Yoshihiro Kanno, Noriko Ogawa
ArtistUnicode:菅野由弘, 小川典子
Creator:BadDragon
Version:Let go
Source:天使のたまご
Tags:diamant66 Light, Water, Rainbow... Angel's Egg Tenshi no Tamago Original Soundtrack OST anime OVA modern contemporary classical impressionism instrumental BIS records piano
BeatmapID:3939982
BeatmapSetID:1910142

[Difficulty]
HPDrainRate:9
CircleSize:6
OverallDifficulty:9
ApproachRate:9
SliderMultiplier:1.4
SliderTickRate:1

[Events]
//Background and Video events
0,0,"eggu.jpg",0,0
//Break Periods
2,126286,130497
//Storyboard Layer 0 (Background)
//Storyboard Layer 1 (Fail)
//Storyboard Layer 2 (Pass)
//Storyboard Layer 3 (Foreground)
//Storyboard Layer 4 (Overlay)
//Storyboard Sound Samples

[TimingPoints]
2280,1466.12,4,2,1,15,1,0
2280,-454.7149392,4,2,1,15,0,0
3747,1789.75,4,2,1,15,1,8
3747,-372.4915025,4,2,1,15,0,0
5536.75,4397.12,4,2,1,15,1,8
5536.75,-151.61439,4,2,1,15,0,0
9933.87,1386.1,4,2,1,15,1,0
9933.87,-480.9657793,4,2,1,15,0,0
11320,1702.67,4,2,1,15,1,8
11320,-391.5419116,4,2,1,15,0,0
13022.6,4080.55,4,2,1,15,1,8
13022.6,-163.376669,4,2,1,15,0,0
17103.2,1540.14,4,2,1,15,1,0
17103.2,-432.8610819,4,2,1,15,0,0
18643.3,1711,4,2,1,15,1,8
18643.3,-389.6356906,4,2,1,15,0,0
20354.3,1906.6,4,2,1,15,1,8
20354.3,-349.6625756,4,2,1,15,0,0
22260.9,1064.47,4,2,1,15,1,8
22260.9,-626.2897655,4,2,1,15,0,0
23325.4,3140.28,4,2,1,15,1,0
23325.4,-212.2952943,4,2,1,15,0,0
26465.7,3437.88,4,2,1,15,1,8
26465.7,-193.9179572,4,2,1,15,0,0
29903.6,758.707,4,2,1,20,1,0
29903.6,-878.6879081,4,2,1,20,0,0
30662.3,549.617,4,2,1,20,1,8
30662.3,-1212.965877,4,2,1,20,0,0
31211.9,524.581,4,2,1,20,1,8
31211.9,-1270.855534,4,2,1,20,0,0
31736.5,539.5,4,2,1,20,1,8
31736.5,-1235.712079,4,2,1,20,0,0
32276,543.877,4,2,1,20,1,8
32276,-1225.767346,4,2,1,20,0,0
32819.8,576.823,4,2,1,20,1,0
32819.8,-1155.756041,4,2,1,20,0,0
33396.7,514.876,4,2,1,20,1,8
33396.7,-1294.810142,4,2,1,20,0,0
33911.5,521.635,4,2,1,20,1,8
33911.5,-1278.032852,4,2,1,20,0,0
34433.2,606.349,4,2,1,20,1,8
34433.2,-1099.476814,4,2,1,20,0,0
35039.5,644.399,4,2,1,20,1,8
35039.5,-1034.555713,4,2,1,20,0,0
35683.9,645.737,4,2,1,20,1,0
35683.9,-1032.41206,4,2,1,20,0,0
36329.7,512.676,4,2,1,20,1,8
36329.7,-1300.366443,4,2,1,20,0,0
36842.3,532.879,4,2,1,20,1,8
36842.3,-1251.065752,4,2,1,20,0,0
37375.2,565.057,4,2,1,20,1,8
37375.2,-1179.821977,4,2,1,20,0,0
37940.3,607.642,4,2,1,20,1,8
37940.3,-1097.13724,4,2,1,20,0,0
38547.9,564.515,4,2,1,20,1,0
38547.9,-1180.954743,4,2,1,20,0,0
39112.4,543.154,4,2,1,20,1,8
39112.4,-1227.398982,4,2,1,20,0,0
39655.6,631.564,4,2,1,20,1,8
39655.6,-1055.580538,4,2,1,20,0,0
40287.1,696.689,4,2,1,15,1,8
40287.1,-956.9071231,4,2,1,15,0,0
40983.8,2740.78,4,2,1,12,1,8
40983.8,-243.239759,4,2,1,12,0,0
43724.6,650.068,4,2,1,20,1,0
43724.6,-1025.533739,4,2,1,20,0,0
44374.7,526.394,4,2,1,20,1,8
44374.7,-1266.478468,4,2,1,20,0,0
44901.1,542.314,4,2,1,20,1,8
44901.1,-1229.300123,4,2,1,20,0,0
45443.4,537.254,4,2,1,20,1,8
45443.4,-1240.877996,4,2,1,20,0,0
45980.6,564.988,4,2,1,20,1,8
45980.6,-1179.966064,4,2,1,20,0,0
46545.6,642.29,4,2,1,20,1,0
46545.6,-1037.952742,4,2,1,20,0,0
47187.9,517.893,4,2,1,20,1,8
47187.9,-1287.26719,4,2,1,20,0,0
47705.8,510.908,4,2,1,20,1,8
47705.8,-1304.866369,4,2,1,20,0,0
48216.7,581.018,4,2,1,20,1,8
48216.7,-1147.411383,4,2,1,20,0,0
48797.7,646.78,4,2,1,20,1,8
48797.7,-1030.747189,4,2,1,20,0,0
49444.5,616.145,4,2,1,20,1,0
49444.5,-1081.996392,4,2,1,20,0,0
50060.7,537.779,4,2,1,20,1,8
50060.7,-1239.666604,4,2,1,20,0,0
50598.4,536.327,4,2,1,20,1,8
50598.4,-1243.022758,4,2,1,20,0,0
51134.8,546.304,4,2,1,20,1,8
51134.8,-1220.321774,4,2,1,20,0,0
51681.1,579.912,4,2,1,20,1,8
51681.1,-1149.599709,4,2,1,20,0,0
52261,583.175,4,2,1,20,1,0
52261,-1143.167431,4,2,1,20,0,0
52844.2,581.722,4,2,1,20,1,8
52844.2,-1146.022785,4,2,1,20,0,0
53425.9,726.032,4,2,1,20,1,8
53425.9,-918.2331725,4,2,1,20,0,0
54151.9,2739.25,4,2,1,20,1,8
54151.9,-243.3756198,4,2,1,20,0,0
56891.2,711.995,4,2,1,20,1,8
56891.2,-936.3361634,4,2,1,20,0,0
57603.2,609.229,4,2,1,20,1,0
57603.2,-1094.279272,4,2,1,20,0,0
58212.4,521.657,4,2,1,20,1,8
58212.4,-1277.978953,4,2,1,20,0,0
58734,551.43,4,2,1,20,1,8
58734,-1208.97787,4,2,1,20,0,0
59285.5,539.408,4,2,1,20,1,8
59285.5,-1235.922839,4,2,1,20,0,0
59824.9,562.493,4,2,1,20,1,8
59824.9,-1185.199934,4,2,1,20,0,0
60387.4,551.43,4,2,1,20,1,0
60387.4,-1208.97787,4,2,1,20,0,0
60938.8,547.53,4,2,1,20,1,8
60938.8,-1217.589295,4,2,1,20,0,0
61486.3,619.32,4,2,1,20,1,8
61486.3,-1076.449439,4,2,1,20,0,0
62105.7,1917.82,4,2,1,20,1,8
62105.7,-347.6169123,4,2,1,20,0,0
64023.5,705.669,4,2,1,20,1,8
64023.5,-944.7299891,4,2,1,20,0,0
64729.1,653.787,4,2,1,20,1,0
64729.1,-1019.700096,4,2,1,20,0,0
65382.9,1092.43,4,2,1,20,1,8
65382.9,-610.2603065,4,2,1,20,0,0
66475.4,585.217,4,2,1,20,1,8
66475.4,-1139.178573,4,2,1,20,0,0
67060.6,532.633,4,2,1,20,1,8
67060.6,-1251.643564,4,2,1,20,0,0
67593.2,531.133,4,2,1,20,1,8
67593.2,-1255.178395,4,2,1,20,0,0
68124.3,575.054,4,2,1,20,1,0
68124.3,-1159.311415,4,2,1,20,0,0
68699.4,538.89,4,2,1,20,1,8
68699.4,-1237.110851,4,2,1,20,0,0
69238.3,565.558,4,2,1,20,1,8
69238.3,-1178.77683,4,2,1,20,0,0
69803.8,554.693,4,2,1,20,1,8
69803.8,-1201.866017,4,2,1,20,0,0
70358.5,579.363,4,2,1,20,1,8
70358.5,-1150.689061,4,2,1,20,0,0
70937.9,550.07,4,2,1,20,1,0
70937.9,-1211.966962,4,2,1,20,0,0
71488,531.246,4,2,1,20,1,8
71488,-1254.91141,4,2,1,20,0,0
72019.2,543.06,4,2,1,20,1,8
72019.2,-1227.611436,4,2,1,20,0,0
72562.3,531.133,4,2,1,20,1,8
72562.3,-1255.178395,4,2,1,20,0,0
73093.4,555.376,4,2,1,20,1,8
73093.4,-1200.387965,4,2,1,20,0,0
73648.8,525.555,4,2,1,20,1,0
73648.8,-1268.500284,4,2,1,20,0,0
74174.3,547.73,4,2,1,20,1,8
74174.3,-1217.1447,4,2,1,20,0,0
74722.1,523.537,4,2,1,20,1,8
74722.1,-1273.389783,4,2,1,20,0,0
75245.6,555.103,4,2,1,20,1,8
75245.6,-1200.978317,4,2,1,20,0,0
75800.7,593.971,4,2,1,20,1,8
75800.7,-1122.389252,4,2,1,20,0,0
76394.7,680.68,4,2,1,20,1,0
76394.7,-979.4127441,4,2,1,20,0,0
77075.4,533.969,4,2,1,20,1,8
77075.4,-1248.51193,4,2,1,20,0,0
77609.3,531.133,4,2,1,20,1,8
77609.3,-1255.178395,4,2,1,20,0,0
78140.5,562.356,4,2,1,20,1,8
78140.5,-1185.48867,4,2,1,20,0,0
78702.8,556.938,4,2,1,20,1,8
78702.8,-1197.021332,4,2,1,20,0,0
79259.8,569.703,4,2,1,20,1,0
79259.8,-1170.200379,4,2,1,20,0,0
79829.5,530.701,4,2,1,20,1,8
79829.5,-1256.200133,4,2,1,20,0,0
80360.2,544.964,4,2,1,20,1,8
80360.2,-1223.322397,4,2,1,20,0,0
80905.1,581.181,4,2,1,20,1,8
80905.1,-1147.089576,4,2,1,20,0,0
81486.3,591.046,4,2,1,20,1,8
81486.3,-1127.943792,4,2,1,20,0,0
82077.4,706.485,4,2,1,20,1,0
82077.4,-943.6388128,4,2,1,20,0,0
82783.8,563.719,4,2,1,20,1,8
82783.8,-1182.622311,4,2,1,20,0,0
83347.6,514.082,4,2,1,20,1,8
83347.6,-1296.809977,4,2,1,20,0,0
83861.6,530.045,4,2,1,20,1,8
83861.6,-1257.754845,4,2,1,20,0,0
84391.7,562.767,4,2,1,20,1,8
84391.7,-1184.622884,4,2,1,20,0,0
84954.4,548.842,4,2,1,20,1,0
84954.4,-1214.678663,4,2,1,20,0,0
85503.3,515.282,4,2,1,20,1,8
85503.3,-1293.789938,4,2,1,20,0,0
86018.6,568.483,4,2,1,20,1,8
86018.6,-1172.711702,4,2,1,20,0,0
86587.1,619.002,4,2,1,20,1,8
86587.1,-1077.002444,4,2,1,20,0,0
87206.1,669.433,4,2,1,20,1,8
87206.1,-995.8676472,4,2,1,20,0,0
87875.5,702.766,4,2,1,20,1,0
87875.5,-948.6324988,4,2,1,20,0,0
88578.3,551.065,4,2,1,20,1,8
88578.3,-1209.778641,4,2,1,20,0,0
89129.3,522.926,4,2,1,20,1,8
89129.3,-1274.877644,4,2,1,20,0,0
89652.2,502.357,4,2,1,20,1,8
89652.2,-1327.07749,4,2,1,20,0,0
90154.6,510.499,4,2,1,20,1,8
90154.6,-1305.911797,4,2,1,20,0,0
90665.1,461.223,4,2,1,20,1,0
90665.1,-1445.432397,4,2,1,20,0,0
91126.3,463.378,4,2,1,20,1,8
91126.3,-1438.710225,4,2,1,20,0,0
91589.7,416.713,4,2,1,20,1,8
91589.7,-1599.8221,4,2,1,20,0,0
92006.4,424.49,4,2,1,20,1,8
92006.4,-1570.512065,4,2,1,20,0,0
92430.9,384.716,4,2,1,20,1,8
92430.9,-1732.880012,4,2,1,20,0,0
92815.6,409.976,4,2,1,20,1,0
92815.6,-1626.111447,4,2,1,20,0,0
93225.6,371.745,4,2,1,20,1,8
93225.6,-1793.344004,4,2,1,20,0,0
93597.3,381.541,4,2,1,20,1,8
93597.3,-1747.300203,4,2,1,20,0,0
93978.9,364.263,4,2,1,20,1,8
93978.9,-1830.179477,4,2,1,20,0,0
94343.2,364.173,4,2,1,20,1,8
94343.2,-1830.631778,4,2,1,20,0,0
94707.3,373.559,4,2,1,20,1,0
94707.3,-1784.635537,4,2,1,20,0,0
95080.9,336.78,4,2,1,20,1,8
95080.9,-1979.531643,4,2,1,20,0,0
95417.7,339.682,4,2,1,20,1,8
95417.7,-1962.619941,4,2,1,20,0,0
95757.3,334.444,4,2,1,20,1,8
95757.3,-1993.358131,4,2,1,20,0,0
96091.8,353.628,4,2,1,20,1,8
96091.8,-1885.22025,4,2,1,20,0,0
96445.4,327.393,4,2,1,20,1,0
96445.4,-2036.288701,4,2,1,20,0,0
96772.8,342.245,4,2,1,20,1,8
96772.8,-1947.922297,4,2,1,20,0,0
97115.1,321.792,4,2,1,20,1,8
97115.1,-2071.731636,4,2,1,20,0,0
97436.8,338.276,4,2,1,20,1,8
97436.8,-1970.777314,4,2,1,20,0,0
97775.1,321.904,4,2,1,20,1,8
97775.1,-2071.010819,4,2,1,20,0,0
98097,300.114,4,2,1,20,1,0
98097,-2221.378099,4,2,1,20,0,0
98397.1,324.331,4,2,1,20,1,8
98397.1,-2055.513246,4,2,1,20,0,0
98721.5,322.426,4,2,1,20,1,8
98721.5,-2067.657902,4,2,1,20,0,0
99043.9,314.898,4,2,1,20,1,8
99043.9,-2117.08765,4,2,1,20,0,0
99358.8,367.62,4,2,1,20,1,8
99358.8,-1813.466804,4,2,1,20,0,0
99726.4,587.435,4,2,1,20,1,0
99726.4,-1134.877334,4,2,1,20,0,0
100314,572.017,4,2,1,20,1,8
100314,-1165.466528,4,2,1,20,0,0
100886,570.364,4,2,1,20,1,8
100886,-1168.844223,4,2,1,20,0,0
101456,314.353,4,2,1,20,1,0
101456,-2120.758086,4,2,1,20,0,0
101771,314.376,4,2,1,20,1,8
101771,-2120.60293,4,2,1,20,0,0
102085,304.059,4,2,1,20,1,8
102085,-2192.556927,4,2,1,20,0,0
102389,261.292,4,2,1,20,1,8
102389,-2551.42395,4,2,1,20,0,0
102650,294.807,4,2,1,20,1,8
102650,-2261.366476,4,2,1,20,0,0
102945,256.44,4,2,1,20,1,0
102945,-2599.698435,4,2,1,20,0,0
103202,297.937,4,2,1,20,1,8
103202,-2237.609517,4,2,1,20,0,0
103499,219.932,4,2,1,20,1,8
103499,-3031.239959,4,2,1,20,0,0
103719,270.363,4,2,1,20,1,8
103719,-2465.820644,4,2,1,20,0,0
103990,249.637,4,2,1,20,1,8
103990,-2670.544297,4,2,1,20,0,0
104239,281.837,4,2,1,20,1,0
104239,-2365.433448,4,2,1,20,0,0
104521,265.963,4,2,1,20,1,8
104521,-2506.614329,4,2,1,20,0,0
104787,247.392,4,2,1,20,1,8
104787,-2694.778597,4,2,1,20,0,0
105035,246.168,4,2,1,20,1,8
105035,-2708.177613,4,2,1,20,0,0
105281,280.59,4,2,1,20,1,8
105281,-2375.945923,4,2,1,20,0,0
105561,509.727,4,2,1,20,1,0
105561,-1307.889648,4,2,1,20,0,0
106071,496.393,4,2,1,22,1,8
106071,-1343.021893,4,2,1,22,0,0
106567,497.187,4,2,1,24,1,8
106567,-1340.877108,4,2,1,24,0,0
107065,266.236,4,2,1,26,1,0
107065,-2504.044031,4,2,1,26,0,0
107331,261.859,4,2,1,26,1,8
107331,-2545.899384,4,2,1,26,0,0
107593,244.921,4,2,1,26,1,8
107593,-2721.966131,4,2,1,26,0,0
107838,225.533,4,2,1,26,1,8
107838,-2955.960621,4,2,1,26,0,0
108063,239.41,4,2,1,26,1,8
108063,-2784.62331,4,2,1,26,0,0
108303,229.683,4,2,1,26,1,0
108303,-2902.551197,4,2,1,26,0,0
108532,232.472,4,2,1,26,1,8
108532,-2867.728873,4,2,1,26,0,0
108765,237.03,4,2,1,26,1,8
108765,-2812.583499,4,2,1,26,0,0
109002,235.238,4,2,1,26,1,8
109002,-2834.009245,4,2,1,26,0,0
109237,242.562,4,2,1,26,1,8
109237,-2748.4382,4,2,1,26,0,0
109480,218.775,4,2,1,26,1,0
109480,-3047.270788,4,2,1,26,0,0
109698,224.671,4,2,1,26,1,8
109698,-2967.301818,4,2,1,26,0,0
109923,216.508,4,2,1,26,1,8
109923,-3079.177983,4,2,1,26,0,0
110140,227.664,4,2,1,26,1,8
110140,-2928.291986,4,2,1,26,0,0
110367,260.182,4,2,1,26,1,8
110367,-2562.308948,4,2,1,26,0,0
110627,463.242,4,2,1,24,1,0
110627,-1439.132606,4,2,1,24,0,0
111091,450.884,4,2,1,26,1,8
111091,-1478.576899,4,2,1,26,0,0
111542,449.661,4,2,1,28,1,8
111542,-1482.598372,4,2,1,28,0,0
111991,255.011,4,2,1,30,1,0
111991,-2614.266313,4,2,1,30,0,0
112246,237.279,4,2,1,30,1,8
112246,-2809.63198,4,2,1,30,0,0
112484,201.134,4,2,1,30,1,8
112484,-3314.539892,4,2,1,30,0,0
112685,242.63,4,2,1,30,1,8
112685,-2747.667917,4,2,1,30,0,0
112927,213.832,4,2,1,30,1,8
112927,-3117.712347,4,2,1,30,0,0
113141,192.245,4,2,1,30,1,0
113141,-3467.797169,4,2,1,30,0,0
113333,210.431,4,2,1,30,1,8
113333,-3168.101024,4,2,1,30,0,0
113544,194.694,4,2,1,30,1,8
113544,-3424.176742,4,2,1,30,0,0
113738,201.859,4,2,1,30,1,8
113738,-3302.635338,4,2,1,30,0,0
113940,235.306,4,2,1,30,1,8
113940,-2833.190257,4,2,1,30,0,0
114176,436.847,4,2,1,28,1,0
114176,-1526.087318,4,2,1,28,0,0
114612,412.108,4,2,1,30,1,8
114612,-1617.69892,4,2,1,30,0,0
115025,404.943,4,2,1,32,1,8
115025,-1646.32224,4,2,1,32,0,0
115430,213.515,4,2,1,32,1,0
115430,-3122.341131,4,2,1,32,0,0
115643,236.009,4,2,1,32,1,8
115643,-2824.751034,4,2,1,32,0,0
115879,181.225,4,2,1,32,1,8
115879,-3678.668322,4,2,1,32,0,0
116060,198.163,4,2,1,32,1,8
116060,-3364.233821,4,2,1,32,0,0
116258,191.066,4,2,1,32,1,8
116258,-3489.195705,4,2,1,32,0,0
116450,183.469,4,2,1,32,1,0
116450,-3633.674717,4,2,1,32,0,0
116633,190.476,4,2,1,32,1,8
116633,-3500.0035,4,2,1,32,0,0
116823,183.333,4,2,1,32,1,8
116823,-3636.370248,4,2,1,32,0,0
117007,181.995,4,2,1,32,1,8
117007,-3663.104298,4,2,1,32,0,0
117189,216.077,4,2,1,32,1,8
117189,-3085.319894,4,2,1,32,0,0
117405,387.302,4,2,1,30,1,0
117405,-1721.309641,4,2,1,30,0,0
117792,378.05,4,2,1,32,1,8
117792,-1763.435172,4,2,1,32,0,0
118170,361.293,4,2,1,34,1,8
118170,-1845.224421,4,2,1,34,0,0
118532,195.76,4,2,1,36,1,0
118532,-3405.530582,4,2,1,36,0,0
118727,186.372,4,2,1,36,1,8
118727,-3577.07524,4,2,1,36,0,0
118914,173.311,4,2,1,36,1,8
118914,-3846.649472,4,2,1,36,0,0
119087,169.479,4,2,1,36,1,8
119087,-3933.624028,4,2,1,36,0,0
119256,183.537,4,2,1,36,1,8
119256,-3632.32845,4,2,1,36,0,0
119440,361.814,4,2,1,34,1,0
119440,-1842.56736,4,2,1,34,0,0
119802,363.379,4,2,1,36,1,8
119802,-1834.631794,4,2,1,36,0,0
120165,344.738,4,2,1,38,1,8
120165,-1933.835744,4,2,1,38,0,0
120510,187.392,4,2,1,40,1,0
120510,-3557.604736,4,2,1,40,0,0
120697,166.576,4,2,1,40,1,8
120697,-4002.177184,4,2,1,40,0,0
120864,152.971,4,2,1,40,1,8
120864,-4358.124525,4,2,1,40,0,0
121017,165.918,4,2,1,40,1,8
121017,-4018.049076,4,2,1,40,0,0
121183,207.143,4,2,1,40,1,8
121183,-3218.388585,4,2,1,40,0,0
121390,385.738,4,2,1,42,1,0
121390,-1728.288804,4,2,1,42,0,0
121776,378.57,4,2,1,44,1,8
121776,-1761.012935,4,2,1,44,0,0
122154,398.412,4,2,1,46,1,8
122154,-1673.309706,4,2,1,46,0,0
122553,282.516,4,2,1,48,1,0
122553,-2359.748356,4,2,1,48,0,0
122835,214.807,4,2,1,48,1,8
122835,-3103.561181,4,2,1,48,0,0
123050,164.24,4,2,1,48,1,8
123050,-4059.100503,4,2,1,48,0,0
123214,168.072,4,2,1,30,1,8
123214,-3966.554017,4,2,1,30,0,0
123382,162.199,4,2,1,31,1,8
123382,-4110.177416,4,2,1,31,0,0
123544,135.079,4,2,1,32,1,0
123544,-4935.383492,4,2,1,32,0,0
123680,141.837,4,2,1,33,1,8
123680,-4700.231016,4,2,1,33,0,0
123821,140.862,4,2,1,34,1,8
123821,-4732.764455,4,2,1,34,0,0
123962,145.624,4,2,1,35,1,8
123962,-4577.999963,4,2,1,35,0,0
124108,145.601,4,2,1,36,1,8
124108,-4578.723131,4,2,1,36,0,0
124253,135.261,4,2,1,37,1,0
124253,-4928.742702,4,2,1,37,0,0
124389,136.893,4,2,1,38,1,8
124389,-4869.983613,4,2,1,38,0,0
124526,125.624,4,2,1,39,1,8
124526,-5306.84158,4,2,1,39,0,0
124651,128.912,4,2,1,40,1,8
124651,-5171.486492,4,2,1,40,0,0
124780,124.694,4,2,1,41,1,8
124780,-5346.421373,4,2,1,41,0,0
124905,123.016,4,2,1,42,1,0
124905,-5419.349245,4,2,1,42,0,0
125028,129.977,4,2,1,43,1,8
125028,-5129.112587,4,2,1,43,0,0
125158,126.032,4,2,1,44,1,8
125158,-5289.661885,4,2,1,44,0,0
125284,131.791,4,2,1,45,1,8
125284,-5058.514365,4,2,1,45,0,0
125416,130.408,4,2,1,46,1,8
125416,-5112.160808,4,2,1,46,0,0
125546,115.986,4,2,1,47,1,0
125546,-5747.820139,4,2,1,47,0,0
125662,148.05,4,2,1,48,1,8
125662,-4502.983226,4,2,1,48,0,0
125810,133.696,4,2,1,49,1,8
125810,-4986.436892,4,2,1,49,0,0
125944,142.29,4,2,1,50,1,8
125944,-4685.267177,4,2,1,50,0,0
126086,5010.73,4,2,1,60,1,8
126086,-133.0478127,4,2,1,60,0,0
131097,674.127,4,2,1,20,1,0
131097,-988.9333414,4,2,1,20,0,0
131771,532.95,4,2,1,20,1,8
131771,-1250.899084,4,2,1,20,0,0
132304,483.992,4,2,1,20,1,8
132304,-1377.433236,4,2,1,20,0,0
132788,498.89,4,2,1,20,1,8
132788,-1336.299919,4,2,1,20,0,0
133287,546.304,4,2,1,20,1,8
133287,-1220.321774,4,2,1,20,0,0
133833,555.988,4,2,1,20,1,0
133833,-1199.066647,4,2,1,20,0,0
134389,550.09,4,2,1,20,1,8
134389,-1211.922897,4,2,1,20,0,0
134939,553.128,4,2,1,20,1,8
134939,-1205.266533,4,2,1,20,0,0
135492,596.51,4,2,1,20,1,8
135492,-1117.611887,4,2,1,20,0,0
136089,609.841,4,2,1,20,1,8
136089,-1093.181119,4,2,1,20,0,0
136699,627.687,4,2,1,20,1,0
136699,-1062.100484,4,2,1,20,0,0
137326,541.087,4,2,1,20,1,8
137326,-1232.087754,4,2,1,20,0,0
137867,562.198,4,2,1,20,1,8
137867,-1185.82184,4,2,1,20,0,0
138430,595.15,4,2,1,20,1,8
138430,-1120.165785,4,2,1,20,0,0
139025,607.982,4,2,1,20,1,8
139025,-1096.523691,4,2,1,20,0,0
139633,573.263,4,2,1,20,1,0
139633,-1162.93336,4,2,1,20,0,0
140206,596.914,4,2,1,20,1,8
140206,-1116.855471,4,2,1,20,0,0
140803,650.363,4,2,1,20,1,8
140803,-1025.068564,4,2,1,20,0,0
141453,688.889,4,2,1,15,1,8
141453,-967.7417794,4,2,1,15,0,0
142142,2860.21,4,2,1,12,1,8
142142,-233.0831186,4,2,1,12,0,0
145002,596.76,4,2,1,20,1,0
145002,-1117.143687,4,2,1,20,0,0
145599,536.327,4,2,1,20,1,8
145599,-1243.022758,4,2,1,20,0,0
146135,564.605,4,2,1,20,1,8
146135,-1180.766495,4,2,1,20,0,0
146700,542.245,4,2,1,20,1,8
146700,-1229.456549,4,2,1,20,0,0
147242,564.876,4,2,1,20,1,8
147242,-1180.20002,4,2,1,20,0,0
147807,542.064,4,2,1,20,1,0
147807,-1229.867076,4,2,1,20,0,0
148349,541.087,4,2,1,20,1,8
148349,-1232.087754,4,2,1,20,0,0
148890,552.247,4,2,1,20,1,8
148890,-1207.189295,4,2,1,20,0,0
149443,631.837,4,2,1,20,1,8
149443,-1055.124449,4,2,1,20,0,0
150074,633.878,4,2,1,20,1,8
150074,-1051.727094,4,2,1,20,0,0
150708,585.532,4,2,1,20,1,0
150708,-1138.565726,4,2,1,20,0,0
151294,535.6,4,2,1,20,1,8
151294,-1244.709983,4,2,1,20,0,0
151829,566.075,4,2,1,20,1,8
151829,-1177.700246,4,2,1,20,0,0
152396,579.957,4,2,1,20,1,8
152396,-1149.51051,4,2,1,20,0,0
152975,582.061,4,2,1,20,1,8
152975,-1145.355326,4,2,1,20,0,0
153558,568.413,4,2,1,20,1,0
153558,-1172.856122,4,2,1,20,0,0
154126,598.569,4,2,1,20,1,8
154126,-1113.767446,4,2,1,20,0,0
154725,680.272,4,2,1,20,1,8
154725,-980.0001568,4,2,1,20,0,0
155405,2668.16,4,2,1,20,1,8
155405,-249.8600784,4,2,1,20,0,0
158073,640.748,4,2,1,20,1,8
158073,-1040.45064,4,2,1,20,0,0
158714,636.35,4,2,1,20,1,0
158714,-1047.641497,4,2,1,20,0,0
159350,536.62,4,2,1,20,1,8
159350,-1242.344055,4,2,1,20,0,0
159887,558.368,4,2,1,20,1,8
159887,-1193.955719,4,2,1,20,0,0
160445,566.781,4,2,1,20,1,8
160445,-1176.233266,4,2,1,20,0,0
161012,591.314,4,2,1,20,1,8
161012,-1127.432577,4,2,1,20,0,0
161603,557.507,4,2,1,20,1,0
161603,-1195.799634,4,2,1,20,0,0
162161,547.98,4,2,1,20,1,8
162161,-1216.589413,4,2,1,20,0,0
162709,574.493,4,2,1,20,1,8
162709,-1160.443498,4,2,1,20,0,0
163283,640.521,4,2,1,20,1,8
163283,-1040.819375,4,2,1,20,0,0
163924,738.005,4,2,1,20,1,8
163924,-903.3362466,4,2,1,20,0,0
164662,670.318,4,2,1,20,1,0
164662,-994.5528341,4,2,1,20,0,0
165332,575.214,4,2,1,20,1,8
165332,-1158.988944,4,2,1,20,0,0
165907,650,4,2,1,20,1,8
165907,-1025.641026,4,2,1,20,0,0
166557,804.073974805682,4,2,1,20,1,8
166557,-829.1111111,4,2,1,20,0,0
167361,1063.4526763559,4,2,1,15,1,8
167361,-626.8888889,4,2,1,15,0,0
168424,6666,4,2,1,10,1,0
168424,-100.010001,4,2,1,10,0,0

[HitObjects]
384,192,2280,5,0,0:0:0:0:
213,192,2280,1,0,0:0:0:0:
298,192,3746,1,0,0:0:0:0:
128,192,3747,1,0,0:0:0:0:
213,192,5536,1,0,0:0:0:0:
42,192,5536,1,0,0:0:0:0:
469,192,9933,5,0,0:0:0:0:
213,192,9933,5,0,0:0:0:0:
298,192,11320,5,0,0:0:0:0:
128,192,11320,1,0,0:0:0:0:
128,192,13022,1,0,0:0:0:0:
213,192,13022,1,0,0:0:0:0:
213,192,17103,1,0,0:0:0:0:
384,192,17103,1,0,0:0:0:0:
298,192,18643,1,0,0:0:0:0:
128,192,18643,1,0,0:0:0:0:
42,192,20354,1,0,0:0:0:0:
213,192,20354,1,0,0:0:0:0:
42,192,22260,5,0,0:0:0:0:
128,192,22260,1,0,0:0:0:0:
128,192,23325,1,0,0:0:0:0:
384,192,23325,1,0,0:0:0:0:
42,192,26465,128,0,29903:0:0:0:0:
469,192,29903,5,0,0:0:0:0:
128,192,29903,1,0,0:0:0:0:
213,192,30662,1,0,0:0:0:0:
384,192,31211,1,0,0:0:0:0:
128,192,31736,1,0,0:0:0:0:
384,192,31736,1,0,0:0:0:0:
213,192,31770,1,0,0:0:0:0:
213,192,32276,1,0,0:0:0:0:
469,192,32819,1,0,0:0:0:0:
42,192,32819,1,0,0:0:0:0:
384,192,33396,1,0,0:0:0:0:
128,192,33911,1,0,0:0:0:0:
298,192,34433,1,0,0:0:0:0:
42,192,34433,1,0,0:0:0:0:
128,192,34471,1,0,0:0:0:0:
298,192,35039,1,0,0:0:0:0:
213,192,35683,1,0,0:0:0:0:
469,192,35683,1,0,0:0:0:0:
128,192,36329,1,0,0:0:0:0:
384,192,36842,1,0,0:0:0:0:
298,192,37375,1,0,0:0:0:0:
213,192,37375,1,0,0:0:0:0:
384,192,37410,1,0,0:0:0:0:
298,192,37940,1,0,0:0:0:0:
213,192,38547,1,0,0:0:0:0:
42,192,38547,1,0,0:0:0:0:
42,192,39112,1,0,0:0:0:0:
384,192,39655,1,0,0:0:0:0:
298,192,40287,1,0,0:0:0:0:
213,192,40287,1,0,0:0:0:0:
128,192,40330,1,0,0:0:0:0:
298,192,40983,1,0,0:0:0:0:
42,192,43724,1,0,0:0:0:0:
213,192,43724,1,0,0:0:0:0:
128,192,44374,1,0,0:0:0:0:
298,192,44901,1,0,0:0:0:0:
384,192,45443,1,0,0:0:0:0:
213,192,45443,1,0,0:0:0:0:
469,192,45476,1,0,0:0:0:0:
213,192,45980,1,0,0:0:0:0:
469,192,46545,1,0,0:0:0:0:
42,192,46545,1,0,0:0:0:0:
384,192,47187,1,0,0:0:0:0:
213,192,47705,1,0,0:0:0:0:
213,192,48216,1,0,0:0:0:0:
298,192,48216,1,0,0:0:0:0:
128,192,48253,1,0,0:0:0:0:
469,192,48797,1,0,0:0:0:0:
384,192,49444,1,0,0:0:0:0:
213,192,49444,1,0,0:0:0:0:
298,192,50060,1,0,0:0:0:0:
384,192,50597,1,0,0:0:0:0:
213,192,51134,1,0,0:0:0:0:
298,192,51134,1,0,0:0:0:0:
384,192,51168,1,0,0:0:0:0:
298,192,51681,1,0,0:0:0:0:
42,192,52261,1,0,0:0:0:0:
213,192,52261,1,0,0:0:0:0:
128,192,52844,5,0,0:0:0:0:
384,192,53425,1,0,0:0:0:0:
384,192,54151,1,0,0:0:0:0:
213,192,54151,1,0,0:0:0:0:
128,192,54200,1,0,0:0:0:0:
298,192,56891,1,0,0:0:0:0:
213,192,57603,1,0,0:0:0:0:
384,192,57603,1,0,0:0:0:0:
42,192,58212,1,0,0:0:0:0:
384,192,58734,1,0,0:0:0:0:
128,192,59285,1,0,0:0:0:0:
213,192,59285,1,0,0:0:0:0:
298,192,59319,1,0,0:0:0:0:
384,192,59824,1,0,0:0:0:0:
469,192,60387,1,0,0:0:0:0:
42,192,60387,1,0,0:0:0:0:
298,192,60938,1,0,0:0:0:0:
128,192,61486,1,0,0:0:0:0:
128,192,62105,1,0,0:0:0:0:
384,192,62105,1,0,0:0:0:0:
298,192,62124,1,0,0:0:0:0:
469,192,64023,5,0,0:0:0:0:
384,192,64729,1,0,0:0:0:0:
128,192,64729,1,0,0:0:0:0:
213,192,65382,1,0,0:0:0:0:
298,192,66475,1,0,0:0:0:0:
42,192,67060,1,0,0:0:0:0:
384,192,67060,1,0,0:0:0:0:
128,192,67093,1,0,0:0:0:0:
213,192,67593,1,0,0:0:0:0:
469,192,68124,1,0,0:0:0:0:
128,192,68124,1,0,0:0:0:0:
298,192,68699,1,0,0:0:0:0:
384,192,69238,1,0,0:0:0:0:
128,192,69803,1,0,0:0:0:0:
384,192,69803,1,0,0:0:0:0:
298,192,69838,1,0,0:0:0:0:
298,192,70358,1,0,0:0:0:0:
213,192,70937,1,0,0:0:0:0:
42,192,70937,1,0,0:0:0:0:
128,192,71487,1,0,0:0:0:0:
469,192,72019,5,0,0:0:0:0:
128,192,72562,1,0,0:0:0:0:
298,192,72562,1,0,0:0:0:0:
384,192,72595,1,0,0:0:0:0:
384,192,73093,1,0,0:0:0:0:
298,192,73648,1,0,0:0:0:0:
128,192,73648,1,0,0:0:0:0:
42,192,74174,1,0,0:0:0:0:
384,192,74722,1,0,0:0:0:0:
298,192,75245,1,0,0:0:0:0:
469,192,75245,1,0,0:0:0:0:
213,192,75280,1,0,0:0:0:0:
128,192,75800,1,0,0:0:0:0:
42,192,76394,1,0,0:0:0:0:
298,192,76394,1,0,0:0:0:0:
469,192,77075,1,0,0:0:0:0:
128,192,77609,1,0,0:0:0:0:
384,192,78140,1,0,0:0:0:0:
128,192,78140,1,0,0:0:0:0:
469,192,78175,1,0,0:0:0:0:
298,192,78702,1,0,0:0:0:0:
213,192,79259,1,0,0:0:0:0:
298,192,79259,1,0,0:0:0:0:
42,192,79829,1,0,0:0:0:0:
128,192,80360,1,0,0:0:0:0:
469,192,80905,1,0,0:0:0:0:
213,192,80905,1,0,0:0:0:0:
128,192,80941,1,0,0:0:0:0:
384,192,81486,1,0,0:0:0:0:
298,192,82077,1,0,0:0:0:0:
42,192,82077,1,0,0:0:0:0:
469,192,82783,1,0,0:0:0:0:
42,192,82783,1,0,0:0:0:0:
298,192,83347,1,0,0:0:0:0:
384,192,83347,1,0,0:0:0:0:
128,192,83861,1,0,0:0:0:0:
469,192,83861,1,0,0:0:0:0:
213,192,83894,1,0,0:0:0:0:
298,192,84391,1,0,0:0:0:0:
213,192,84954,1,0,0:0:0:0:
42,192,84954,1,0,0:0:0:0:
384,192,85503,1,0,0:0:0:0:
213,192,86018,1,0,0:0:0:0:
128,192,86587,1,0,0:0:0:0:
384,192,86587,1,0,0:0:0:0:
298,192,86625,1,0,0:0:0:0:
469,192,87206,1,0,0:0:0:0:
384,192,87875,1,0,0:0:0:0:
128,192,87875,1,0,0:0:0:0:
213,192,88578,1,0,0:0:0:0:
469,192,89129,1,0,0:0:0:0:
298,192,89652,1,0,0:0:0:0:
42,192,89652,1,0,0:0:0:0:
128,192,89683,1,0,0:0:0:0:
384,192,90154,1,0,0:0:0:0:
128,192,90665,1,0,0:0:0:0:
469,192,91126,1,0,0:0:0:0:
213,192,91589,1,0,0:0:0:0:
384,192,92006,1,0,0:0:0:0:
42,192,92430,1,0,0:0:0:0:
298,192,92815,1,0,0:0:0:0:
128,192,93225,1,0,0:0:0:0:
384,192,93597,1,0,0:0:0:0:
469,192,93597,1,0,0:0:0:0:
213,192,93978,1,0,0:0:0:0:
42,192,93978,1,0,0:0:0:0:
128,192,94343,1,0,0:0:0:0:
469,192,94343,1,0,0:0:0:0:
384,192,94707,1,0,0:0:0:0:
42,192,94707,1,0,0:0:0:0:
128,192,95080,1,0,0:0:0:0:
298,192,95080,1,0,0:0:0:0:
384,192,95417,1,0,0:0:0:0:
213,192,95757,1,0,0:0:0:0:
469,192,96091,1,0,0:0:0:0:
128,192,96091,1,0,0:0:0:0:
213,192,96445,1,0,0:0:0:0:
384,192,96445,1,0,0:0:0:0:
298,192,96772,1,0,0:0:0:0:
42,192,96772,1,0,0:0:0:0:
128,192,97115,1,0,0:0:0:0:
213,192,97436,1,0,0:0:0:0:
469,192,97436,1,0,0:0:0:0:
298,192,97775,5,0,0:0:0:0:
42,192,97775,1,0,0:0:0:0:
128,192,98097,1,0,0:0:0:0:
384,192,98097,1,0,0:0:0:0:
213,192,98397,1,0,0:0:0:0:
298,192,98397,1,0,0:0:0:0:
469,192,98721,1,0,0:0:0:0:
128,192,98721,1,0,0:0:0:0:
384,192,99043,1,0,0:0:0:0:
298,192,99043,1,0,0:0:0:0:
128,192,99358,1,0,0:0:0:0:
384,192,99358,1,0,0:0:0:0:
128,192,99726,1,0,0:0:0:0:
42,192,99726,1,0,0:0:0:0:
213,192,99726,1,0,0:0:0:0:
469,192,99726,1,0,0:0:0:0:
42,192,100314,1,0,0:0:0:0:
128,192,100314,1,0,0:0:0:0:
213,192,100314,1,0,0:0:0:0:
469,192,100314,1,0,0:0:0:0:
298,192,100886,1,0,0:0:0:0:
384,192,100886,1,0,0:0:0:0:
213,192,100886,1,0,0:0:0:0:
128,192,100886,1,0,0:0:0:0:
42,192,101456,1,0,0:0:0:0:
298,192,101456,1,0,0:0:0:0:
384,192,101456,1,0,0:0:0:0:
128,192,101456,1,0,0:0:0:0:
298,192,101771,1,0,0:0:0:0:
469,192,102085,1,0,0:0:0:0:
42,192,102085,128,0,105421:0:0:0:0:
128,192,102389,1,0,0:0:0:0:
384,192,102650,1,0,0:0:0:0:
213,192,102944,1,0,0:0:0:0:
128,192,103201,1,0,0:0:0:0:
298,192,103499,1,0,0:0:0:0:
384,192,103719,1,0,0:0:0:0:
213,192,103990,1,0,0:0:0:0:
469,192,104239,1,0,0:0:0:0:
384,192,104520,1,0,0:0:0:0:
213,192,104786,1,0,0:0:0:0:
298,192,105034,1,0,0:0:0:0:
128,192,105281,1,0,0:0:0:0:
469,192,105561,1,0,0:0:0:0:
42,192,105561,1,0,0:0:0:0:
128,192,105561,1,0,0:0:0:0:
213,192,105561,1,0,0:0:0:0:
42,192,106070,1,0,0:0:0:0:
469,192,106070,1,0,0:0:0:0:
128,192,106071,1,0,0:0:0:0:
213,192,106071,1,0,0:0:0:0:
384,192,106567,1,0,0:0:0:0:
213,192,106567,1,0,0:0:0:0:
128,192,106567,1,0,0:0:0:0:
298,192,106567,1,0,0:0:0:0:
128,192,107064,1,0,0:0:0:0:
384,192,107064,1,0,0:0:0:0:
42,192,107065,1,0,0:0:0:0:
298,192,107065,1,0,0:0:0:0:
298,192,107331,1,0,0:0:0:0:
213,192,107593,1,0,0:0:0:0:
42,192,107593,128,0,110497:0:0:0:0:
128,192,107837,1,0,0:0:0:0:
384,192,108063,1,0,0:0:0:0:
213,192,108303,1,0,0:0:0:0:
469,192,108532,1,0,0:0:0:0:
298,192,108764,1,0,0:0:0:0:
213,192,109002,1,0,0:0:0:0:
384,192,109237,1,0,0:0:0:0:
128,192,109479,1,0,0:0:0:0:
298,192,109698,1,0,0:0:0:0:
213,192,109922,1,0,0:0:0:0:
469,192,110139,1,0,0:0:0:0:
128,192,110367,1,0,0:0:0:0:
42,192,110627,1,0,0:0:0:0:
128,192,110627,1,0,0:0:0:0:
213,192,110627,1,0,0:0:0:0:
469,192,110627,1,0,0:0:0:0:
469,192,111090,5,0,0:0:0:0:
213,192,111091,5,0,0:0:0:0:
128,192,111091,1,0,0:0:0:0:
42,192,111091,1,0,0:0:0:0:
384,192,111541,1,0,0:0:0:0:
298,192,111542,1,0,0:0:0:0:
128,192,111542,1,0,0:0:0:0:
213,192,111542,1,0,0:0:0:0:
298,192,111991,1,0,0:0:0:0:
384,192,111991,1,0,0:0:0:0:
128,192,111991,1,0,0:0:0:0:
42,192,111991,1,0,0:0:0:0:
384,192,112246,1,0,0:0:0:0:
298,192,112483,1,0,0:0:0:0:
42,192,112483,128,0,114028:0:0:0:0:
469,192,112685,1,0,0:0:0:0:
128,192,112927,1,0,0:0:0:0:
213,192,113141,1,0,0:0:0:0:
384,192,113333,1,0,0:0:0:0:
298,192,113544,1,0,0:0:0:0:
128,192,113738,1,0,0:0:0:0:
384,192,113939,1,0,0:0:0:0:
128,192,114175,1,0,0:0:0:0:
213,192,114175,1,0,0:0:0:0:
469,192,114176,1,0,0:0:0:0:
42,192,114176,1,0,0:0:0:0:
42,192,114612,1,0,0:0:0:0:
128,192,114612,1,0,0:0:0:0:
469,192,114612,1,0,0:0:0:0:
213,192,114637,1,0,0:0:0:0:
128,192,115024,1,0,0:0:0:0:
384,192,115025,1,0,0:0:0:0:
298,192,115025,1,0,0:0:0:0:
213,192,115050,1,0,0:0:0:0:
128,192,115429,1,0,0:0:0:0:
384,192,115429,1,0,0:0:0:0:
298,192,115430,1,0,0:0:0:0:
42,192,115443,1,0,0:0:0:0:
298,192,115643,1,0,0:0:0:0:
213,192,115879,1,0,0:0:0:0:
42,192,115879,128,0,117297:0:0:0:0:
469,192,116060,1,0,0:0:0:0:
298,192,116258,1,0,0:0:0:0:
384,192,116450,1,0,0:0:0:0:
213,192,116633,1,0,0:0:0:0:
469,192,116823,1,0,0:0:0:0:
213,192,117006,1,0,0:0:0:0:
298,192,117189,1,0,0:0:0:0:
42,192,117405,1,0,0:0:0:0:
128,192,117405,1,0,0:0:0:0:
469,192,117405,1,0,0:0:0:0:
213,192,117429,1,0,0:0:0:0:
42,192,117792,1,0,0:0:0:0:
213,192,117792,1,0,0:0:0:0:
469,192,117792,1,0,0:0:0:0:
128,192,117815,1,0,0:0:0:0:
384,192,118170,1,0,0:0:0:0:
213,192,118170,1,0,0:0:0:0:
128,192,118170,1,0,0:0:0:0:
298,192,118192,1,0,0:0:0:0:
298,192,118532,1,0,0:0:0:0:
384,192,118532,1,0,0:0:0:0:
128,192,118544,1,0,0:0:0:0:
42,192,118556,1,0,0:0:0:0:
384,192,118727,1,0,0:0:0:0:
213,192,118914,5,0,0:0:0:0:
469,192,118914,1,0,0:0:0:0:
298,192,119087,1,0,0:0:0:0:
128,192,119087,1,0,0:0:0:0:
42,192,119256,1,0,0:0:0:0:
469,192,119440,1,0,0:0:0:0:
128,192,119440,1,0,0:0:0:0:
213,192,119462,1,0,0:0:0:0:
42,192,119462,1,0,0:0:0:0:
42,192,119801,1,0,0:0:0:0:
469,192,119802,1,0,0:0:0:0:
128,192,119824,1,0,0:0:0:0:
213,192,119824,1,0,0:0:0:0:
384,192,120165,1,0,0:0:0:0:
298,192,120165,1,0,0:0:0:0:
128,192,120186,1,0,0:0:0:0:
213,192,120208,1,0,0:0:0:0:
42,192,120510,1,0,0:0:0:0:
384,192,120521,1,0,0:0:0:0:
128,192,120533,1,0,0:0:0:0:
298,192,120545,1,0,0:0:0:0:
469,192,120697,1,0,0:0:0:0:
213,192,120864,1,0,0:0:0:0:
298,192,121016,1,0,0:0:0:0:
384,192,121017,1,0,0:0:0:0:
469,192,121183,1,0,0:0:0:0:
42,192,121183,1,0,0:0:0:0:
213,192,121390,1,0,0:0:0:0:
128,192,121390,1,0,0:0:0:0:
42,192,121414,1,0,0:0:0:0:
469,192,121414,1,0,0:0:0:0:
128,192,121776,1,0,0:0:0:0:
213,192,121789,1,0,0:0:0:0:
42,192,121799,1,0,0:0:0:0:
469,192,121799,1,0,0:0:0:0:
384,192,122154,5,0,0:0:0:0:
213,192,122154,1,0,0:0:0:0:
128,192,122178,1,0,0:0:0:0:
298,192,122178,1,0,0:0:0:0:
298,192,122553,1,0,0:0:0:0:
42,192,122570,5,0,0:0:0:0:
384,192,122570,1,0,0:0:0:0:
128,192,122588,1,0,0:0:0:0:
213,192,122835,1,0,0:0:0:0:
298,192,123050,1,0,0:0:0:0:
128,192,123214,1,0,0:0:0:0:
42,192,123214,1,0,0:0:0:0:
469,192,123382,1,0,0:0:0:0:
213,192,123382,1,0,0:0:0:0:
42,192,123544,1,0,0:0:0:0:
298,192,123544,1,0,0:0:0:0:
384,192,123679,1,0,0:0:0:0:
469,192,123679,1,0,0:0:0:0:
213,192,123821,1,0,0:0:0:0:
128,192,123821,1,0,0:0:0:0:
298,192,123962,1,0,0:0:0:0:
469,192,123962,1,0,0:0:0:0:
42,192,124108,1,0,0:0:0:0:
384,192,124108,1,0,0:0:0:0:
128,192,124253,1,0,0:0:0:0:
213,192,124253,1,0,0:0:0:0:
42,192,124388,1,0,0:0:0:0:
384,192,124389,1,0,0:0:0:0:
298,192,124526,1,0,0:0:0:0:
213,192,124526,1,0,0:0:0:0:
469,192,124651,1,0,0:0:0:0:
384,192,124651,1,0,0:0:0:0:
128,192,124779,1,0,0:0:0:0:
298,192,124780,1,0,0:0:0:0:
213,192,124904,1,0,0:0:0:0:
42,192,124905,1,0,0:0:0:0:
384,192,125028,1,0,0:0:0:0:
469,192,125028,1,0,0:0:0:0:
42,192,125157,1,0,0:0:0:0:
298,192,125158,1,0,0:0:0:0:
469,192,125284,1,0,0:0:0:0:
128,192,125284,1,0,0:0:0:0:
42,192,125415,1,0,0:0:0:0:
213,192,125416,1,0,0:0:0:0:
384,192,125546,5,0,0:0:0:0:
469,192,125546,1,0,0:0:0:0:
128,192,125662,1,0,0:0:0:0:
213,192,125662,1,0,0:0:0:0:
298,192,125810,1,0,0:0:0:0:
384,192,125810,1,0,0:0:0:0:
213,192,125944,1,0,0:0:0:0:
298,192,125944,1,0,0:0:0:0:
213,192,126086,5,0,0:0:0:60:bongos - low-rimshot-2.wav
128,192,131097,5,0,0:0:0:0:
469,192,131097,1,0,0:0:0:0:
213,192,131771,1,0,0:0:0:0:
384,192,132304,1,0,0:0:0:0:
384,192,132787,1,0,0:0:0:0:
128,192,132788,1,0,0:0:0:0:
213,192,132819,1,0,0:0:0:0:
213,192,133287,1,0,0:0:0:0:
469,192,133833,1,0,0:0:0:0:
42,192,133833,1,0,0:0:0:0:
384,192,134389,1,0,0:0:0:0:
128,192,134939,1,0,0:0:0:0:
42,192,135492,5,0,0:0:0:0:
298,192,135492,1,0,0:0:0:0:
128,192,135529,5,0,0:0:0:0:
298,192,136088,1,0,0:0:0:0:
469,192,136699,1,0,0:0:0:0:
213,192,136699,1,0,0:0:0:0:
128,192,137326,1,0,0:0:0:0:
384,192,137867,1,0,0:0:0:0:
298,192,138429,1,0,0:0:0:0:
213,192,138430,1,0,0:0:0:0:
384,192,138467,1,0,0:0:0:0:
298,192,139025,1,0,0:0:0:0:
213,192,139633,1,0,0:0:0:0:
42,192,139633,1,0,0:0:0:0:
42,192,140206,1,0,0:0:0:0:
384,192,140802,1,0,0:0:0:0:
213,192,141453,1,0,0:0:0:0:
298,192,141453,1,0,0:0:0:0:
128,192,141496,1,0,0:0:0:0:
298,192,142142,1,0,0:0:0:0:
42,192,145002,1,0,0:0:0:0:
213,192,145002,1,0,0:0:0:0:
128,192,145598,1,0,0:0:0:0:
298,192,146135,1,0,0:0:0:0:
384,192,146699,1,0,0:0:0:0:
213,192,146700,1,0,0:0:0:0:
469,192,146733,1,0,0:0:0:0:
213,192,147242,1,0,0:0:0:0:
469,192,147806,1,0,0:0:0:0:
42,192,147806,1,0,0:0:0:0:
384,192,148349,1,0,0:0:0:0:
213,192,148890,1,0,0:0:0:0:
298,192,149442,1,0,0:0:0:0:
213,192,149443,1,0,0:0:0:0:
128,192,149482,1,0,0:0:0:0:
469,192,150074,1,0,0:0:0:0:
384,192,150707,1,0,0:0:0:0:
213,192,150708,1,0,0:0:0:0:
298,192,151293,1,0,0:0:0:0:
384,192,151829,1,0,0:0:0:0:
213,192,152395,1,0,0:0:0:0:
298,192,152395,1,0,0:0:0:0:
384,192,152432,1,0,0:0:0:0:
298,192,152975,1,0,0:0:0:0:
42,192,153557,1,0,0:0:0:0:
213,192,153557,1,0,0:0:0:0:
128,192,154126,5,0,0:0:0:0:
384,192,154724,1,0,0:0:0:0:
384,192,155405,1,0,0:0:0:0:
213,192,155405,1,0,0:0:0:0:
128,192,155447,1,0,0:0:0:0:
298,192,158073,1,0,0:0:0:0:
384,192,158714,1,0,0:0:0:0:
213,192,158714,1,0,0:0:0:0:
42,192,159350,1,0,0:0:0:0:
384,192,159887,1,0,0:0:0:0:
128,192,160445,1,0,0:0:0:0:
213,192,160445,1,0,0:0:0:0:
298,192,160480,1,0,0:0:0:0:
384,192,161011,1,0,0:0:0:0:
42,192,161603,1,0,0:0:0:0:
469,192,161603,1,0,0:0:0:0:
298,192,162160,1,0,0:0:0:0:
128,192,162708,1,0,0:0:0:0:
384,192,163283,1,0,0:0:0:0:
128,192,163283,1,0,0:0:0:0:
298,192,163323,1,0,0:0:0:0:
469,192,163924,5,0,0:0:0:0:
384,192,164662,1,0,0:0:0:0:
128,192,164662,1,0,0:0:0:0:
213,192,165332,1,0,0:0:0:0:
298,192,165907,1,0,0:0:0:0:
384,192,166557,1,0,0:0:0:0:
42,192,166557,1,0,0:0:0:0:
128,192,166607,1,0,0:0:0:0:
213,192,167361,1,0,0:0:0:0:
42,192,168424,128,0,175090:0:0:0:0:
