osu file format v14

[General]
AudioFilename: audio.mp3
AudioLeadIn: 0
PreviewTime: 3175
Countdown: 0
SampleSet: None
StackLeniency: 0.7
Mode: 0
LetterboxInBreaks: 0
WidescreenStoryboard: 0

[Editor]
Bookmarks: 3175,3500,61961
DistanceSpacing: 1.5
BeatDivisor: 4
GridSize: 16
TimelineZoom: 1.7

[Metadata]
Title:FLYING IN THE SKY
TitleUnicode:FLYING IN THE SKY
Artist:Yoshifumi Ushima
ArtistUnicode:鵜島仁文
Creator:smallboat
Version:SHINING FINGER
Source:機動武闘伝Gガンダム
Tags:opening japan future century anime robot fight master brother god rising asia winner war weapon super hyper mobile fighter kidou butouden devil g gundam w x heisei sambu kyoku sunrise love king of heart 關智一 seki tomokazu chilchi 流星蝴蝶劍 超級覇王電影彈 東方不敗 石破天驚拳 閃光掌 爆熱神威掌
BeatmapID:1538740
BeatmapSetID:691711

[Difficulty]
HPDrainRate:6.5
CircleSize:4.2
OverallDifficulty:8
ApproachRate:9
SliderMultiplier:2
SliderTickRate:1

[Events]
//Background and Video events
0,0,"bg2.jpg",0,0
Video,0,"video.flv"
//Break Periods
//Storyboard Layer 0 (Background)
//Storyboard Layer 1 (Fail)
//Storyboard Layer 2 (Pass)
//Storyboard Layer 3 (Foreground)
//Storyboard Sound Samples

[TimingPoints]
1447,432.245515452777,4,2,1,30,1,0
2959,-100,4,2,1,5,0,0
3175,-100,4,2,2,70,0,0
4688,-100,4,2,2,30,0,0
4904,-100,4,2,2,70,0,0
6201,-100,4,2,2,50,0,0
6633,-100,4,2,2,30,0,0
6850,-100,4,2,2,60,0,0
7930,-100,4,2,2,40,0,0
8362,-100,4,2,2,60,0,0
10091,-100,4,2,2,65,0,0
13549,-100,4,2,2,60,0,0
16575,-100,4,2,1,40,0,0
17007,-100,4,2,3,25,0,0
17223,-100,4,2,1,40,0,0
18736,-100,4,2,1,20,0,0
20033,-100,4,2,1,40,0,0
20465,-100,4,2,3,40,0,0
20681,-100,4,2,1,40,0,0
30191,-100,4,2,1,60,0,0
30839,-100,4,2,3,40,0,0
30947,-100,4,2,1,40,0,0
32568,-100,4,2,3,35,0,0
34297,-100,4,2,3,40,0,0
34513,-100,4,2,1,40,0,0
44671,-100,4,2,3,40,0,0
44779,-100,4,2,1,50,0,0
46832,-76.9230769230769,4,2,1,60,0,0
47265,-66.6666666666667,4,2,1,60,0,0
47697,-58.8235294117647,4,2,1,60,0,0
48129,-100,4,2,3,40,0,0
48345,-100,4,2,2,60,0,0
55045,-100,4,2,3,40,0,0
55261,-100,4,2,2,60,0,0
60232,-100,4,2,2,70,0,0
61961,-100,4,2,2,80,0,1
63474,-100,4,2,2,40,0,1
64122,-100,4,2,2,30,0,1
64338,-100,4,2,1,80,0,1
64987,-100,4,2,2,50,0,1
65419,-100,4,2,2,30,0,1
65635,-100,4,2,2,80,0,1
66716,-100,4,2,2,40,0,1
67148,-100,4,2,2,70,0,1
68877,-100,4,2,2,80,0,1
70390,-100,4,2,3,40,0,1
70606,-100,4,2,2,80,0,1
72335,-100,4,2,2,70,0,1
74064,-100,4,2,2,40,0,0
74280,-100,4,2,1,40,0,0
75144,-100,4,2,2,60,0,0
75695,432.245515452777,4,2,2,80,1,0
76019,432.245515452777,4,2,2,70,1,0
76127,-100,4,2,3,65,0,0
79044,-100,4,2,3,75,0,0
79152,-100,4,2,2,35,0,0

[Colours]
Combo1 : 225,0,0
Combo2 : 142,255,142
Combo3 : 232,232,0
Combo4 : 0,118,236

[HitObjects]
256,192,1447,12,0,2959,0:0:0:0:
288,280,3175,6,0,L|255:82,1,200,4|2,0:0|0:0,0:0:0:0:
153,319,3824,1,0,0:0:0:0:
379,224,4040,2,0,L|360:118,1,100
359,319,4472,1,2,0:0:0:0:
133,224,4688,6,0,L|150:125,1,100,4|0,0:0|0:0,0:0:0:0:
262,16,5121,1,0,0:0:0:0:
232,250,5337,1,8,0:0:0:0:
82,42,5553,1,0,0:0:0:0:
306,158,5769,1,0,0:0:0:0:
61,260,5985,1,0,0:0:0:0:
339,320,6201,2,0,L|318:172,1,150,12|0,0:0|0:0,0:0:0:0:
411,232,6633,1,4,0:0:0:0:
209,367,6850,6,0,L|90:353,1,100,0|8,0:0|0:0,0:0:0:0:
53,186,7282,1,0,0:0:0:0:
260,304,7498,1,0,0:0:0:0:
67,117,7822,2,0,L|81:64,1,50,0|12,0:0|0:0,0:0:0:0:
271,50,8146,1,0,0:0:0:0:
251,295,8362,5,2,0:0:0:0:
79,68,8687,2,0,L|90:-3,1,50,0|12,0:0|0:0,0:0:0:0:
288,128,9011,1,0,0:0:0:0:
304,158,9119,1,0,0:0:0:0:
324,186,9227,2,0,L|373:178,1,50,2|0,0:0|0:0,0:0:0:0:
495,205,9443,1,2,0:0:0:0:
505,171,9551,1,0,0:0:0:0:
512,136,9659,2,0,L|491:22,1,100,4|0,0:0|0:0,0:0:0:0:
287,22,10091,5,4,0:0:0:0:
15,139,10416,1,0,0:0:0:0:
327,241,10740,1,0,0:0:0:0:
26,150,10956,2,0,P|38:55|124:13,1,200,4|8,0:0|0:0,0:0:0:0:
332,123,11604,1,4,0:0:0:0:
188,347,11820,5,0,0:0:0:0:
190,105,12037,1,0,0:0:0:0:
335,296,12253,1,8,0:0:0:0:
77,229,12469,1,0,0:0:0:0:
332,196,12685,2,0,L|334:295,1,100
206,361,13117,1,8,0:0:0:0:
427,249,13333,1,0,0:0:0:0:
214,83,13549,5,8,0:0:0:0:
210,91,13765,1,0,0:0:0:0:
27,317,13982,5,8,0:0:0:0:
35,325,14198,1,0,0:0:0:0:
352,367,14414,5,8,0:0:0:0:
359,362,14630,1,8,0:0:0:0:
52,128,14846,5,8,0:0:0:0:
62,132,15062,1,8,0:0:0:0:
282,295,15278,6,0,B|299:299|299:299|423:267,1,100,4|0,0:0|0:0,0:0:0:0:
469,82,15711,2,0,B|451:77|451:77|328:110,1,100,0|0,0:0|0:0,0:0:0:0:
333,162,16035,1,0,0:0:0:0:
333,162,16143,1,0,0:0:0:0:
333,162,16575,5,0,0:0:0:0:
187,324,16791,1,2,0:0:0:0:
187,324,16899,1,2,0:0:0:0:
186,324,17007,6,0,P|137:328|90:311,1,100,4|0,0:0|0:0,0:0:0:0:
144,119,17440,2,0,L|161:217,1,100,8|0,0:0|0:0,0:0:0:0:
350,217,17872,2,0,L|368:119,1,100
256,67,18304,1,8,0:0:0:0:
256,317,18520,1,2,0:0:0:0:
256,141,18736,5,0,0:0:0:0:
61,189,18952,1,0,0:0:0:0:
61,189,19061,1,0,0:0:0:0:
61,189,19169,1,0,0:0:0:0:
256,331,19385,1,0,0:0:0:0:
256,331,19494,1,0,0:0:0:0:
256,331,19602,1,0,0:0:0:0:
451,189,19817,1,0,0:0:0:0:
451,189,19926,1,0,0:0:0:0:
451,189,20034,5,8,0:0:0:0:
443,375,20249,1,2,0:0:0:0:
241,245,20465,6,0,L|257:81,1,150,4|0,0:0|0:0,0:0:0:0:
315,48,20898,1,8,0:0:0:0:
151,174,21114,1,2,0:0:0:0:
151,174,21222,1,2,0:0:0:0:
151,174,21330,2,0,L|31:189,1,100
51,186,21654,1,0,0:0:0:0:
51,186,21762,1,8,0:0:0:0:
224,346,21978,1,2,0:0:0:0:
224,346,22086,1,2,0:0:0:0:
224,346,22194,6,0,B|274:357|274:357|388:334,1,150
440,303,22627,1,8,0:0:0:0:
489,98,22843,1,2,0:0:0:0:
489,98,22951,1,2,0:0:0:0:
286,257,23167,1,2,0:0:0:0:
286,257,23275,1,2,0:0:0:0:
480,208,23491,1,8,0:0:0:0:
248,191,23707,1,2,0:0:0:0:
248,191,23815,1,2,0:0:0:0:
248,191,23923,6,0,P|219:122|240:32,1,150
309,34,24356,1,8,0:0:0:0:
204,253,24572,1,2,0:0:0:0:
204,253,24680,1,2,0:0:0:0:
204,253,24788,2,0,P|129:277|66:234,1,150
142,199,25220,2,0,L|146:304,1,100,8|0,0:0|0:0,0:0:0:0:
171,329,25544,1,2,0:0:0:0:
206,347,25652,5,2,0:0:0:0:
432,217,25868,1,0,0:0:0:0:
432,217,25976,1,0,0:0:0:0:
432,217,26084,1,8,0:0:0:0:
227,89,26301,1,2,0:0:0:0:
227,89,26409,1,2,0:0:0:0:
289,329,26625,1,2,0:0:0:0:
289,329,26733,1,2,0:0:0:0:
499,164,26949,1,8,0:0:0:0:
290,216,27165,1,2,0:0:0:0:
290,216,27273,1,2,0:0:0:0:
290,216,27381,6,0,L|141:198,1,150
69,230,27813,1,8,0:0:0:0:
121,32,28030,1,2,0:0:0:0:
121,32,28138,1,2,0:0:0:0:
121,32,28246,2,0,B|149:47|149:47|236:42,1,100
256,48,28570,1,0,0:0:0:0:
288,64,28678,1,8,0:0:0:0:
502,218,28894,1,2,0:0:0:0:
502,218,29002,1,2,0:0:0:0:
502,218,29110,5,2,0:0:0:0:
343,258,29326,1,0,0:0:0:0:
343,258,29434,1,0,0:0:0:0:
343,258,29542,2,0,L|349:203,1,50,8|0,0:0|0:0,0:0:0:0:
289,316,29759,1,2,0:0:0:0:
289,316,29867,2,0,B|275:322|275:322|189:302,1,100,2|2,0:0|0:0,0:0:0:0:
84,211,30191,6,0,P|79:165|107:98,1,100,2|0,0:0|0:0,0:0:0:0:
271,159,30623,1,0,0:0:0:0:
271,159,30731,1,0,0:0:0:0:
271,159,30839,6,0,P|197:142|241:86,1,150,4|0,0:0|0:0,0:0:0:0:
293,87,31271,1,8,0:0:0:0:
469,187,31488,1,0,0:0:0:0:
469,187,31596,1,0,0:0:0:0:
469,187,31704,2,0,P|476:137|460:91,1,100,2|2,0:0|0:0,0:0:0:0:
285,12,32136,1,8,0:0:0:0:
165,161,32352,1,2,0:0:0:0:
133,172,32460,1,2,0:0:0:0:
98,183,32568,6,0,L|-17:163,1,100,2|2,0:0|0:0,0:0:0:0:
104,24,33000,1,8,0:0:0:0:
155,55,33108,1,2,0:0:0:0:
207,85,33217,1,2,0:0:0:0:
260,111,33325,1,2,0:0:0:0:
312,137,33433,2,0,B|354:109|354:109|345:56|345:56|372:8,1,150,2|2,0:0|0:0,0:0:0:0:
508,111,33973,1,2,0:0:0:0:
496,179,34081,1,2,0:0:0:0:
341,285,34297,6,0,L|310:122,1,150,4|0,0:0|0:0,0:0:0:0:
440,137,34730,1,8,0:0:0:0:
256,231,34946,1,2,0:0:0:0:
256,231,35054,1,2,0:0:0:0:
256,231,35162,2,0,P|207:249|136:246,1,100
113,232,35486,1,0,0:0:0:0:
75,198,35594,1,8,0:0:0:0:
267,343,35810,1,2,0:0:0:0:
315,355,35918,1,2,0:0:0:0:
364,359,36026,6,0,P|418:351|468:273,1,150
471,205,36459,1,8,0:0:0:0:
226,87,36675,1,2,0:0:0:0:
226,87,36783,1,2,0:0:0:0:
381,282,36999,1,2,0:0:0:0:
381,282,37107,1,2,0:0:0:0:
164,138,37323,1,8,0:0:0:0:
280,272,37539,1,2,0:0:0:0:
280,272,37647,1,2,0:0:0:0:
280,272,37755,6,0,B|315:255|315:255|336:145,1,150
231,193,38188,1,8,0:0:0:0:
440,31,38404,1,2,0:0:0:0:
440,31,38512,1,2,0:0:0:0:
440,31,38620,2,0,L|418:180,1,150
336,144,39052,2,0,L|352:46,1,100,8|0,0:0|0:0,0:0:0:0:
265,76,39376,1,2,0:0:0:0:
265,76,39484,5,2,0:0:0:0:
86,245,39700,1,0,0:0:0:0:
86,245,39808,1,0,0:0:0:0:
86,245,39916,1,8,0:0:0:0:
40,36,40133,1,2,0:0:0:0:
40,36,40241,1,2,0:0:0:0:
281,147,40457,1,2,0:0:0:0:
281,147,40565,1,2,0:0:0:0:
3,189,40781,1,8,0:0:0:0:
171,140,40997,5,0,0:0:0:0:
350,215,41213,2,0,P|373:149|347:68,1,150
291,30,41645,1,8,0:0:0:0:
350,215,41861,1,2,0:0:0:0:
399,224,41970,1,2,0:0:0:0:
448,227,42078,2,0,P|478:189|488:127,1,100
475,91,42402,1,0,0:0:0:0:
443,51,42510,1,8,0:0:0:0:
281,199,42726,1,2,0:0:0:0:
281,199,42834,1,2,0:0:0:0:
281,199,42942,6,0,L|268:41,1,150
360,113,43374,1,8,0:0:0:0:
149,213,43590,1,2,0:0:0:0:
149,213,43698,1,2,0:0:0:0:
187,27,43915,1,2,0:0:0:0:
187,27,44023,1,2,0:0:0:0:
217,262,44239,1,0,0:0:0:0:
189,297,44347,1,0,0:0:0:0:
149,317,44455,1,0,0:0:0:0:
104,320,44563,1,0,0:0:0:0:
60,308,44671,6,0,P|27:271|20:222,1,100,4|0,0:0|0:0,0:0:0:0:
197,105,45103,1,0,0:0:0:0:
257,323,45319,1,0,0:0:0:0:
20,222,45536,2,0,P|22:172|51:133,1,100,2|2,0:0|0:0,0:0:0:0:
296,195,45968,1,0,0:0:0:0:
270,237,46076,1,0,0:0:0:0:
225,260,46184,1,0,0:0:0:0:
175,261,46292,1,0,0:0:0:0:
130,238,46400,2,0,B|114:199|114:199|124:132,1,100
320,131,46832,6,0,P|407:98|411:6,1,194.999991073609
320,131,47265,6,0,P|357:138|400:-20,1,225.000008583069
321,132,47697,6,0,P|402:135|435:-11,1,255.000004863739
242,66,48129,6,0,P|220:111|222:160,1,100,4|0,0:0|0:0,0:0:0:0:
308,256,48453,1,0,0:0:0:0:
308,256,48561,2,0,P|307:306|277:345,1,100,8|0,0:0|0:0,0:0:0:0:
177,288,48885,1,0,0:0:0:0:
177,288,48994,2,0,P|105:268|19:292,1,150,0|0,0:0|0:0,0:0:0:0:
32,284,49426,1,8,0:0:0:0:
120,379,49642,1,0,0:0:0:0:
11,188,49858,6,0,P|12:138|39:96,1,100
74,62,50182,1,0,0:0:0:0:
122,48,50290,1,8,0:0:0:0:
324,200,50506,1,0,0:0:0:0:
369,179,50614,1,0,0:0:0:0:
407,147,50722,2,0,P|424:101|407:55,1,100
270,12,51155,1,8,0:0:0:0:
255,216,51371,1,0,0:0:0:0:
484,320,51587,6,0,L|475:220,1,100
407,147,51911,1,0,0:0:0:0:
407,147,52019,2,0,P|349:139|306:101,1,100,8|0,0:0|0:0,0:0:0:0:
238,39,52343,1,0,0:0:0:0:
238,39,52451,2,0,B|206:15|206:15|86:34,1,150
50,95,52884,1,8,0:0:0:0:
250,143,53100,1,0,0:0:0:0:
63,194,53316,6,0,L|47:75,1,100
4,28,53640,1,0,0:0:0:0:
4,28,53748,1,8,0:0:0:0:
33,268,53964,1,0,0:0:0:0:
55,290,54072,1,0,0:0:0:0:
77,308,54180,2,0,L|205:292,1,100
303,166,54613,1,8,0:0:0:0:
124,115,54829,1,0,0:0:0:0:
302,297,55045,6,0,P|353:301|399:274,1,100,4|0,0:0|0:0,0:0:0:0:
313,156,55477,1,8,0:0:0:0:
453,349,55693,2,0,P|480:307|484:257,1,100
427,89,56126,1,0,0:0:0:0:
302,297,56342,2,0,L|172:271,1,100,8|0,0:0|0:0,0:0:0:0:
470,163,56774,5,0,0:0:0:0:
203,277,56990,2,0,L|95:253,1,100,0|8,0:0|0:0,0:0:0:0:
50,46,57422,2,0,P|135:52|169:90,1,100
262,222,57855,1,0,0:0:0:0:
378,10,58071,1,8,0:0:0:0:
211,107,58287,1,0,0:0:0:0:
250,143,58395,1,0,0:0:0:0:
301,156,58503,5,8,0:0:0:0:
202,4,58719,1,0,0:0:0:0:
120,167,58935,2,0,L|113:267,1,100,8|0,0:0|0:0,0:0:0:0:
114,267,59259,1,0,0:0:0:0:
114,267,59367,1,0,0:0:0:0:
392,217,59584,6,0,L|400:117,1,100,0|8,0:0|0:0,0:0:0:0:
262,42,60016,1,0,0:0:0:0:
139,196,60232,5,0,0:0:0:0:
174,231,60340,1,0,0:0:0:0:
217,255,60448,1,0,0:0:0:0:
266,263,60556,1,0,0:0:0:0:
315,265,60664,5,2,0:0:0:0:
369,258,60772,1,0,0:0:0:0:
420,239,60880,1,0,0:0:0:0:
458,199,60988,1,0,0:0:0:0:
486,146,61096,5,0,0:0:0:0:
480,86,61204,1,0,0:0:0:0:
454,31,61313,1,0,0:0:0:0:
396,13,61421,1,0,0:0:0:0:
336,19,61529,5,0,0:0:0:0:
279,51,61637,1,0,0:0:0:0:
257,112,61745,1,0,0:0:0:0:
262,176,61853,1,0,0:0:0:0:
316,211,61961,6,0,P|388:174|316:136,1,200,4|8,0:0|0:0,0:0:0:0:
226,237,62610,1,0,0:0:0:0:
460,198,62825,2,0,P|460:148|439:103,1,100
256,304,63258,1,0,0:0:0:0:
439,103,63474,6,0,P|445:47|434:-19,1,100,4|0,0:0|0:0,0:0:0:0:
249,70,63907,1,0,0:0:0:0:
186,345,64122,1,4,0:0:0:0:
433,191,64338,1,0,0:0:0:0:
145,184,64555,1,0,0:0:0:0:
362,366,64771,1,0,0:0:0:0:
69,272,64987,2,0,P|38:204|50:122,1,150,12|0,0:0|0:0,0:0:0:0:
96,72,65419,1,4,0:0:0:0:
306,112,65635,5,0,0:0:0:0:
429,335,65851,1,8,0:0:0:0:
130,318,66067,1,0,0:0:0:0:
303,161,66284,1,0,0:0:0:0:
303,161,66608,6,0,L|306:99,1,50,0|12,0:0|0:0,0:0:0:0:
508,19,66932,1,0,0:0:0:0:
300,210,67148,1,2,0:0:0:0:
300,210,67472,6,0,L|303:148,1,50,0|12,0:0|0:0,0:0:0:0:
442,67,67797,1,0,0:0:0:0:
488,124,67904,1,0,0:0:0:0:
488,198,68012,2,0,L|483:247,1,50,2|0,0:0|0:0,0:0:0:0:
374,277,68228,5,2,0:0:0:0:
300,210,68336,1,0,0:0:0:0:
268,115,68445,2,0,L|282:40,1,50,4|4,0:0|0:0,0:0:0:0:
409,145,68661,2,0,L|394:215,1,50,0|4,0:0|0:0,0:0:0:0:
481,349,68877,5,0,0:0:0:0:
206,186,69202,1,0,0:0:0:0:
457,273,69526,1,0,0:0:0:0:
265,343,69742,2,0,P|170:344|94:266,1,200,4|8,0:0|0:0,0:0:0:0:
193,54,70390,6,0,P|233:20|301:23,1,100,4|0,0:0|0:0,0:0:0:0:
494,122,70823,1,0,0:0:0:0:
429,331,71038,1,8,0:0:0:0:
243,159,71254,1,0,0:0:0:0:
499,39,71470,1,0,0:0:0:0:
332,318,71686,1,0,0:0:0:0:
319,41,71903,1,8,0:0:0:0:
496,266,72119,1,0,0:0:0:0:
217,320,72335,6,0,P|194:275|211:213,1,100,4|0,0:0|0:0,0:0:0:0:
243,159,72659,1,2,0:0:0:0:
243,159,72768,1,2,0:0:0:0:
418,23,72983,1,0,0:0:0:0:
418,23,73091,1,0,0:0:0:0:
418,23,73199,6,0,L|309:43,1,100,2|0,0:0|0:0,0:0:0:0:
275,48,73523,1,0,0:0:0:0:
231,59,73632,1,0,0:0:0:0:
187,70,73740,1,0,0:0:0:0:
143,81,73848,1,0,0:0:0:0:
99,92,73956,1,0,0:0:0:0:
54,106,74064,5,4,0:0:0:0:
49,125,74280,1,0,0:0:0:0:
44,144,74496,1,0,0:0:0:0:
39,163,74712,1,0,0:0:0:0:
34,182,74928,1,0,0:0:0:0:
256,157,75144,5,2,0:0:0:0:
430,27,75360,1,8,0:0:0:0:
467,61,75469,1,8,0:0:0:0:
467,61,75695,6,0,L|478:176,1,100,0|8,0:0|0:0,0:0:0:0:
484,210,76019,5,0,0:0:0:0:
140,69,76235,1,2,0:0:0:0:
361,317,76451,1,2,0:0:0:0:
85,199,76667,1,2,0:0:0:0:
256,23,76883,1,2,0:0:0:0:
153,230,77099,1,2,0:0:0:0:
96,271,77207,1,2,0:0:0:0:
30,245,77315,1,2,0:0:0:0:
16,176,77423,2,0,L|7:45,1,100,2|2,0:0|0:0,0:0:0:0:
7,25,77748,5,2,0:0:0:0:
153,230,77964,1,2,0:0:0:0:
195,284,78072,1,2,0:0:0:0:
256,318,78180,1,2,0:0:0:0:
321,339,78288,2,0,L|426:301,1,100,2|2,0:0|0:0,0:0:0:0:
463,254,78612,1,2,0:0:0:0:
499,17,78828,1,2,0:0:0:0:
111,50,79044,5,2,0:0:0:0:
227,90,79152,1,4,0:0:0:0:
