osu file format v14

[General]
AudioFilename: audio.mp3
AudioLeadIn: 0
PreviewTime: 3175
Countdown: 0
SampleSet: Soft
StackLeniency: 0.7
Mode: 0
LetterboxInBreaks: 0
WidescreenStoryboard: 0

[Editor]
Bookmarks: 3175,61961
DistanceSpacing: 1.8
BeatDivisor: 4
GridSize: 16
TimelineZoom: 1.3

[Metadata]
Title:FLYING IN THE SKY
TitleUnicode:FLYING IN THE SKY
Artist:Yoshifumi Ushima
ArtistUnicode:鵜島仁文
Creator:smallboat
Version:INSANE
Source:機動武闘伝Gガンダム
Tags:opening japan future century anime robot fight master brother god rising asia winner war weapon super hyper mobile fighter kidou butouden devil g gundam w x heisei sambu kyoku sunrise love king of heart 關智一 seki tomokazu chilchi 流星蝴蝶劍 超級覇王電影彈 東方不敗 石破天驚拳 閃光掌 爆熱神威掌
BeatmapID:1463714
BeatmapSetID:691711

[Difficulty]
HPDrainRate:6
CircleSize:4.1
OverallDifficulty:7
ApproachRate:8
SliderMultiplier:1.7
SliderTickRate:1

[Events]
//Background and Video events
0,0,"bg.jpg",0,0
Video,0,"video.flv"
//Break Periods
//Storyboard Layer 0 (Background)
//Storyboard Layer 1 (Fail)
//Storyboard Layer 2 (Pass)
//Storyboard Layer 3 (Foreground)
//Storyboard Sound Samples

[TimingPoints]
1447,432.245515452777,4,2,1,30,1,0
2959,-100,4,2,1,5,0,0
3175,-100,4,2,2,70,0,0
4688,-100,4,2,2,30,0,0
4904,-100,4,2,2,70,0,0
6201,-100,4,2,2,50,0,0
6633,-100,4,2,2,30,0,0
6850,-100,4,2,2,60,0,0
7930,-100,4,2,2,40,0,0
8362,-100,4,2,2,60,0,0
10091,-100,4,2,2,65,0,0
13549,-100,4,2,2,60,0,0
16575,-100,4,2,1,40,0,0
17007,-100,4,2,3,25,0,0
17223,-100,4,2,1,40,0,0
18736,-100,4,2,1,20,0,0
20033,-100,4,2,1,40,0,0
20465,-111.111111111111,4,2,3,40,0,0
20681,-111.111111111111,4,2,1,40,0,0
30191,-100,4,2,1,60,0,0
30839,-100,4,2,3,40,0,0
30947,-100,4,2,1,40,0,0
32568,-100,4,2,3,35,0,0
34297,-100,4,2,3,40,0,0
34513,-100,4,2,1,40,0,0
44671,-100,4,2,3,40,0,0
44779,-100,4,2,1,50,0,0
46832,-100,4,2,1,60,0,0
47265,-100,4,2,1,60,0,0
47697,-100,4,2,1,60,0,0
48129,-100,4,2,3,40,0,0
48345,-100,4,2,2,60,0,0
55045,-100,4,2,3,40,0,0
55261,-100,4,2,2,60,0,0
60232,-100,4,2,2,70,0,0
61961,-100,4,2,2,80,0,1
63474,-100,4,2,2,40,0,1
64122,-100,4,2,2,30,0,1
64338,-100,4,2,1,80,0,1
64987,-100,4,2,2,50,0,1
65419,-100,4,2,2,30,0,1
65635,-100,4,2,2,80,0,1
66716,-100,4,2,2,40,0,1
67148,-100,4,2,2,70,0,1
68877,-100,4,2,2,80,0,1
70390,-100,4,2,3,40,0,1
70606,-100,4,2,2,80,0,1
72335,-100,4,2,2,70,0,1
74064,-100,4,2,2,40,0,0
74280,-100,4,2,1,40,0,0
75144,-100,4,2,2,60,0,0
75695,432.245515452777,4,2,2,80,1,0
76019,432.245515452777,4,2,2,70,1,0
76127,-100,4,2,3,65,0,0
79044,-100,4,2,3,75,0,0
79152,-100,4,2,2,35,0,0

[Colours]
Combo1 : 225,0,0
Combo2 : 142,255,142
Combo3 : 232,232,0
Combo4 : 0,118,236

[HitObjects]
256,192,1447,12,0,2959,0:0:0:0:
273,294,3175,6,0,P|184:299|119:249,1,170,4|2,0:0|0:0,0:0:0:0:
223,181,3824,1,0,0:0:0:0:
364,313,4040,1,0,0:0:0:0:
371,300,4472,1,2,0:0:0:0:
223,181,4688,6,0,L|220:97,1,85,4|0,0:0|0:0,0:0:0:0:
311,202,5121,1,0,0:0:0:0:
131,133,5337,2,0,P|123:93|151:31,1,85,8|0,0:0|0:0,0:0:0:0:
219,96,5769,1,0,0:0:0:0:
177,210,5985,1,0,0:0:0:0:
353,240,6201,2,0,P|362:176|333:106,1,127.5,12|0,0:0|0:0,0:0:0:0:
315,89,6633,1,4,0:0:0:0:
165,225,6850,6,0,L|48:214,2,85,0|8|0,0:0|0:0|0:0,0:0:0:0:
285,183,7498,1,0,0:0:0:0:
429,308,7822,1,0,0:0:0:0:
418,117,8146,1,0,0:0:0:0:
493,217,8362,5,2,0:0:0:0:
312,280,8687,1,0,0:0:0:0:
418,117,9011,1,0,0:0:0:0:
330,185,9227,2,0,L|287:181,3,42.5,2|0|2|0,0:0|0:0|0:0|0:0,0:0:0:0:
210,147,9659,1,4,0:0:0:0:
223,136,10091,5,4,0:0:0:0:
155,342,10416,1,0,0:0:0:0:
359,270,10740,1,0,0:0:0:0:
143,348,10956,2,0,P|66:319|44:240,1,170,4|8,0:0|0:0,0:0:0:0:
144,101,11604,5,4,0:0:0:0:
229,255,11820,1,0,0:0:0:0:
73,155,12037,1,0,0:0:0:0:
232,77,12253,2,0,L|240:166,1,85,8|0,0:0|0:0,0:0:0:0:
80,239,12685,2,0,L|72:154,1,85
243,266,13117,1,8,0:0:0:0:
53,316,13333,1,0,0:0:0:0:
247,350,13549,6,0,P|250:309|233:240,1,85,8|0,0:0|0:0,0:0:0:0:
148,314,13982,1,8,0:0:0:0:
334,314,14198,1,0,0:0:0:0:
190,136,14414,2,0,P|174:175|175:218,1,85,8|8,0:0|0:0,0:0:0:0:
316,204,14846,1,8,0:0:0:0:
256,53,15062,1,8,0:0:0:0:
103,129,15278,6,0,P|85:92|92:40,1,85,4|0,0:0|0:0,0:0:0:0:
285,124,15711,2,0,P|334:120|382:90,1,85
413,76,16035,1,0,0:0:0:0:
445,31,16143,1,0,0:0:0:0:
491,259,16575,1,0,0:0:0:0:
370,212,16791,1,2,0:0:0:0:
370,212,16899,1,2,0:0:0:0:
370,212,17007,6,0,B|338:204|338:204|288:219,1,85,4|0,0:0|0:0,0:0:0:0:
363,334,17440,2,0,B|395:342|395:342|444:326,1,85,8|0,0:0|0:0,0:0:0:0:
288,219,17872,2,0,B|256:211|256:211|206:226,1,85
95,355,18304,1,8,0:0:0:0:
265,371,18520,1,2,0:0:0:0:
399,236,18736,5,0,0:0:0:0:
399,236,18952,2,0,L|401:194,2,42.5
458,326,19385,2,0,L|456:368,2,42.5
312,301,19817,2,0,L|269:300,1,42.5
223,283,20033,5,8,0:0:0:0:
223,283,20465,6,0,B|205:258|205:258|223:173,1,114.749996498108,4|0,0:0|0:0,0:0:0:0:
248,137,20898,1,8,0:0:0:0:
323,259,21114,2,0,L|314:305,1,38.2499988327027,2|2,0:0|0:0,0:0:0:0:
215,305,21330,2,0,L|117:321,1,76.4999976654053
139,317,21654,1,0,0:0:0:0:
139,317,21762,1,8,0:0:0:0:
308,369,21978,2,0,L|356:362,1,38.2499988327027,2|2,0:0|0:0,0:0:0:0:
433,262,22194,6,0,B|410:249|410:249|322:258,1,114.749996498108
496,301,22627,2,0,B|508:278|508:278|499:190,1,114.749996498108,8|2,0:0|0:0,0:0:0:0:
397,51,23167,1,2,0:0:0:0:
397,51,23275,1,2,0:0:0:0:
263,209,23491,1,8,0:0:0:0:
263,209,23923,6,0,P|258:153|280:101,1,114.749996498108
313,74,24356,1,8,0:0:0:0:
479,95,24572,2,0,L|484:133,1,38.2499988327027,2|2,0:0|0:0,0:0:0:0:
418,195,24788,2,0,P|394:165|393:127,1,76.4999976654053
498,212,25220,2,0,L|489:317,1,76.4999976654053,8|0,0:0|0:0,0:0:0:0:
491,288,25544,1,2,0:0:0:0:
491,288,25652,5,2,0:0:0:0:
343,212,25868,1,0,0:0:0:0:
357,370,26084,2,0,B|325:378|325:378|240:360,1,114.749996498108,8|2,0:0|0:0,0:0:0:0:
376,286,26625,1,2,0:0:0:0:
376,286,26733,1,2,0:0:0:0:
158,268,26949,1,8,0:0:0:0:
158,268,27381,6,0,B|179:237|179:237|174:147,1,114.749996498108
142,129,27813,1,8,0:0:0:0:
342,208,28030,2,0,P|362:207|378:195,1,38.2499988327027,2|2,0:0|0:0,0:0:0:0:
325,83,28246,2,0,P|293:104|271:135,1,76.4999976654053
271,135,28570,1,0,0:0:0:0:
271,135,28678,1,8,0:0:0:0:
480,165,28894,2,0,P|474:144|459:131,1,38.2499988327027,2|2,0:0|0:0,0:0:0:0:
404,83,29110,5,2,0:0:0:0:
342,208,29326,2,0,L|340:277,1,38.2499988327027
364,334,29542,2,0,B|408:346|408:346|478:321,1,114.749996498108,8|2,0:0|0:0,0:0:0:0:
419,228,30083,1,2,0:0:0:0:
419,228,30191,2,0,B|399:236|399:236|323:198,1,85,2|0,0:0|0:0,0:0:0:0:
340,107,30623,1,0,0:0:0:0:
201,225,30839,6,0,P|146:222|95:172,1,127.5,4|0,0:0|0:0,0:0:0:0:
95,173,31271,1,8,0:0:0:0:
165,25,31488,1,0,0:0:0:0:
165,25,31596,1,0,0:0:0:0:
165,25,31704,2,0,P|210:19|257:37,1,85,2|2,0:0|0:0,0:0:0:0:
194,155,32136,1,8,0:0:0:0:
171,302,32352,1,2,0:0:0:0:
12,191,32568,6,0,L|107:170,1,85,2|2,0:0|0:0,0:0:0:0:
171,302,33000,2,0,L|123:313,1,42.5,8|2,0:0|0:0,0:0:0:0:
227,241,33217,2,0,L|268:231,1,42.5,2|2,0:0|0:0,0:0:0:0:
311,316,33433,2,0,B|275:318|275:318|225:237,1,127.5,2|2,0:0|0:0,0:0:0:0:
387,289,33973,1,2,0:0:0:0:
387,289,34081,1,2,0:0:0:0:
194,155,34297,6,0,P|185:93|220:41,1,127.5,4|0,0:0|0:0,0:0:0:0:
291,26,34730,1,8,0:0:0:0:
432,72,34946,2,0,L|481:68,1,42.5,2|2,0:0|0:0,0:0:0:0:
375,15,35162,2,0,L|265:29,1,85
270,108,35486,1,0,0:0:0:0:
270,108,35594,1,8,0:0:0:0:
404,155,35810,2,0,L|453:151,1,42.5,2|2,0:0|0:0,0:0:0:0:
489,214,36026,6,0,B|503:237|503:237|490:293,1,85
366,362,36459,2,0,B|339:370|339:370|228:333,1,127.5,8|2,0:0|0:0,0:0:0:0:
255,159,36999,1,2,0:0:0:0:
255,159,37107,1,2,0:0:0:0:
175,309,37323,1,8,0:0:0:0:
175,309,37755,6,0,P|219:264|304:290,1,127.5
279,268,38188,1,8,0:0:0:0:
102,343,38403,2,0,L|95:277,1,42.5,2|2,0:0|0:0,0:0:0:0:
87,221,38620,2,0,P|47:236|22:269,1,85
175,309,39052,2,0,L|174:224,1,85,8|0,0:0|0:0,0:0:0:0:
188,179,39376,1,2,0:0:0:0:
214,140,39484,5,2,0:0:0:0:
312,202,39700,1,0,0:0:0:0:
87,221,39916,2,0,B|77:190|77:190|97:94,1,127.5,8|2,0:0|0:0,0:0:0:0:
294,120,40457,1,2,0:0:0:0:
294,120,40565,1,2,0:0:0:0:
256,314,40781,1,8,0:0:0:0:
457,364,40997,1,0,0:0:0:0:
457,364,41213,6,0,P|472:324|451:236,1,127.5
435,214,41645,1,8,0:0:0:0:
380,143,41861,2,0,L|374:100,1,42.5,2|2,0:0|0:0,0:0:0:0:
435,214,42078,2,0,P|468:216|517:181,1,85
436,60,42510,1,8,0:0:0:0:
294,145,42726,1,2,0:0:0:0:
294,145,42834,1,2,0:0:0:0:
294,145,42942,6,0,P|234:165|173:151,1,127.5
129,132,43374,1,8,0:0:0:0:
228,41,43590,1,2,0:0:0:0:
228,41,43698,1,2,0:0:0:0:
42,67,43915,1,2,0:0:0:0:
42,67,44023,1,2,0:0:0:0:
12,223,44239,2,0,L|18:285,3,42.5
73,314,44671,6,0,P|113:326|175:306,1,85,4|0,0:0|0:0,0:0:0:0:
178,225,45103,1,0,0:0:0:0:
95,172,45319,1,0,0:0:0:0:
247,298,45536,2,0,P|321:261|333:230,1,85,2|2,0:0|0:0,0:0:0:0:
360,160,45968,1,0,0:0:0:0:
360,160,46076,1,0,0:0:0:0:
360,160,46184,2,0,L|400:173,1,42.5
480,212,46400,6,0,B|492:198|492:198|488:114,1,85
362,13,46832,2,0,L|370:55,1,42.5
367,201,47048,2,0,L|359:159,1,42.5
224,97,47265,6,0,L|266:94,2,42.5
201,81,47697,2,0,L|285:76,1,85
492,106,48129,6,0,P|504:172|466:242,1,127.5,4|0,0:0|0:0,0:0:0:0:
410,272,48561,2,0,P|369:256|301:278,1,85,8|0,0:0|0:0,0:0:0:0:
267,319,48885,1,0,0:0:0:0:
267,318,48994,2,0,P|204:328|144:310,1,127.5,0|0,0:0|0:0,0:0:0:0:
144,310,49426,1,8,0:0:0:0:
213,154,49642,1,0,0:0:0:0:
271,301,49858,6,0,P|208:310|148:292,1,127.5
213,233,50290,1,8,0:0:0:0:
33,238,50506,1,0,0:0:0:0:
33,238,50614,1,0,0:0:0:0:
33,238,50722,2,0,P|47:280|43:339,1,85
204,383,51155,1,8,0:0:0:0:
204,383,51371,1,0,0:0:0:0:
360,301,51587,6,0,P|382:242|435:208,1,127.5
499,152,52019,2,0,L|485:50,1,85,8|0,0:0|0:0,0:0:0:0:
410,32,52343,1,0,0:0:0:0:
410,32,52451,2,0,P|351:58|272:46,1,127.5
289,53,52884,1,8,0:0:0:0:
158,102,53100,1,0,0:0:0:0:
302,179,53316,6,0,L|288:46,1,127.5
288,52,53748,1,8,0:0:0:0:
209,156,53964,1,0,0:0:0:0:
209,156,54072,1,0,0:0:0:0:
209,156,54180,2,0,P|173:178|124:168,1,85
21,45,54613,1,8,0:0:0:0:
158,102,54829,1,0,0:0:0:0:
46,240,55045,6,0,P|24:204|26:157,1,85,4|0,0:0|0:0,0:0:0:0:
106,26,55477,1,8,0:0:0:0:
240,86,55693,2,0,P|281:94|351:73,1,85
416,41,56126,1,0,0:0:0:0:
343,169,56342,2,0,L|319:70,1,85,8|0,0:0|0:0,0:0:0:0:
441,143,56774,5,0,0:0:0:0:
363,251,56990,2,0,L|339:152,1,85,0|8,0:0|0:0,0:0:0:0:
169,168,57422,2,0,L|149:251,1,85
255,352,57855,1,0,0:0:0:0:
90,301,58071,1,8,0:0:0:0:
249,224,58287,2,0,L|259:266,1,42.5
334,312,58503,5,8,0:0:0:0:
170,360,58719,1,0,0:0:0:0:
169,168,58935,2,0,L|189:85,1,85,8|0,0:0|0:0,0:0:0:0:
188,85,59259,1,0,0:0:0:0:
188,85,59367,1,0,0:0:0:0:
343,168,59584,2,0,L|323:85,1,85,0|8,0:0|0:0,0:0:0:0:
256,227,60016,1,0,0:0:0:0:
256,227,60232,6,0,L|244:186,1,42.5
95,99,60448,2,0,L|105:140,1,42.5
228,332,60664,6,0,L|216:291,1,42.5,2|0,0:0|0:0,0:0:0:0:
85,213,60880,2,0,L|95:254,1,42.5
307,336,61096,6,0,L|295:296,1,42.5
311,159,61313,1,0,0:0:0:0:
355,134,61421,1,0,0:0:0:0:
405,134,61529,1,0,0:0:0:0:
441,170,61637,1,0,0:0:0:0:
460,217,61745,1,0,0:0:0:0:
457,267,61853,1,0,0:0:0:0:
423,302,61961,6,0,L|404:130,1,170,4|8,0:0|0:0,0:0:0:0:
479,45,62610,1,0,0:0:0:0:
312,192,62826,1,0,0:0:0:0:
312,192,63258,1,0,0:0:0:0:
423,302,63474,6,0,L|414:214,1,85,4|0,0:0|0:0,0:0:0:0:
280,264,63907,1,0,0:0:0:0:
414,217,64122,2,0,L|405:129,1,85,4|0,0:0|0:0,0:0:0:0:
252,67,64555,1,0,0:0:0:0:
405,132,64771,1,0,0:0:0:0:
280,264,64987,2,0,L|260:130,1,127.5,12|0,0:0|0:0,0:0:0:0:
261,137,65419,1,4,0:0:0:0:
314,17,65636,6,0,L|398:20,2,85,0|8|0,0:0|0:0|0:0,0:0:0:0:
145,39,66284,1,0,0:0:0:0:
349,191,66608,1,0,0:0:0:0:
153,354,66932,1,0,0:0:0:0:
128,185,67148,5,2,0:0:0:0:
345,320,67473,1,0,0:0:0:0:
77,281,67797,1,0,0:0:0:0:
230,351,68012,5,2,0:0:0:0:
230,351,68120,1,0,0:0:0:0:
230,351,68228,2,0,L|280:335,1,42.5,2|0,0:0|0:0,0:0:0:0:
346,298,68445,1,4,0:0:0:0:
346,298,68877,5,0,0:0:0:0:
470,127,69202,1,0,0:0:0:0:
217,95,69526,1,0,0:0:0:0:
362,229,69742,2,0,P|440:203|469:126,1,170,4|8,0:0|0:0,0:0:0:0:
260,26,70390,6,0,P|219:15|177:23,1,85,4|0,0:0|0:0,0:0:0:0:
198,178,70823,1,0,0:0:0:0:
362,228,71039,2,0,P|385:192|388:150,1,85,8|0,0:0|0:0,0:0:0:0:
207,190,71470,1,0,0:0:0:0:
267,358,71686,1,0,0:0:0:0:
57,321,71903,1,8,0:0:0:0:
218,201,72119,1,0,0:0:0:0:
373,243,72335,6,0,P|396:207|399:165,1,85,4|0,0:0|0:0,0:0:0:0:
379,118,72659,1,2,0:0:0:0:
348,76,72768,1,2,0:0:0:0:
235,211,72983,1,2,0:0:0:0:
235,211,73091,1,2,0:0:0:0:
235,211,73199,2,0,P|276:208|311:184,1,85,2|0,0:0|0:0,0:0:0:0:
288,139,73523,1,0,0:0:0:0:
261,94,73632,1,0,0:0:0:0:
155,31,73848,1,0,0:0:0:0:
379,118,74064,6,0,P|419:112|470:76,1,85,4|0,0:0|0:0,0:0:0:0:
383,9,74496,1,0,0:0:0:0:
261,94,74712,2,0,P|225:107|156:92,1,85
30,65,75144,2,0,L|27:107,1,42.5,2|0,0:0|0:0,0:0:0:0:
58,209,75360,5,8,0:0:0:0:
58,209,75469,1,8,0:0:0:0:
58,209,75695,6,0,B|72:223|72:223|149:211,1,85,0|8,0:0|0:0,0:0:0:0:
240,190,76019,6,0,B|256:181|256:181|336:212,1,85,0|2,0:0|0:0,0:0:0:0:
479,355,76451,1,2,0:0:0:0:
258,363,76667,1,2,0:0:0:0:
440,237,76883,1,2,0:0:0:0:
203,262,77099,1,2,0:0:0:0:
203,262,77207,1,2,0:0:0:0:
203,262,77315,2,0,L|217:318,1,42.5,2|2,0:0|0:0,0:0:0:0:
446,119,77748,5,2,0:0:0:0:
185,140,77964,1,2,0:0:0:0:
185,140,78072,1,2,0:0:0:0:
185,140,78180,2,0,L|171:196,1,42.5,2|2,0:0|0:0,0:0:0:0:
446,254,78612,5,2,0:0:0:0:
120,250,78828,1,2,0:0:0:0:
403,55,79044,1,2,0:0:0:0:
340,17,79152,1,4,0:0:0:0:
