osu file format v14

[General]
AudioFilename: audio.mp3
AudioLeadIn: 0
PreviewTime: 3175
Countdown: 0
SampleSet: Soft
StackLeniency: 0.7
Mode: 0
LetterboxInBreaks: 0
WidescreenStoryboard: 0

[Editor]
Bookmarks: 3175,61961
DistanceSpacing: 1.3
BeatDivisor: 4
GridSize: 4
TimelineZoom: 1.4

[Metadata]
Title:FLYING IN THE SKY
TitleUnicode:FLYING IN THE SKY
Artist:Yoshifumi Ushima
ArtistUnicode:鵜島仁文
Creator:smallboat
Version:HARD
Source:機動武闘伝Gガンダム
Tags:opening japan future century anime robot fight master brother god rising asia winner war weapon super hyper mobile fighter kidou butouden devil g gundam w x heisei sambu kyoku sunrise love king of heart 關智一 seki tomokazu chilchi 流星蝴蝶劍 超級覇王電影彈 東方不敗 石破天驚拳 閃光掌 爆熱神威掌
BeatmapID:1463713
BeatmapSetID:691711

[Difficulty]
HPDrainRate:5
CircleSize:4
OverallDifficulty:6.2
ApproachRate:7.2
SliderMultiplier:1.4
SliderTickRate:1

[Events]
//Background and Video events
0,0,"bg.jpg",0,0
Video,0,"video.flv"
//Break Periods
//Storyboard Layer 0 (Background)
//Storyboard Layer 1 (Fail)
//Storyboard Layer 2 (Pass)
//Storyboard Layer 3 (Foreground)
//Storyboard Sound Samples

[TimingPoints]
1447,432.245515452777,4,2,1,30,1,0
2959,-100,4,2,1,5,0,0
3175,-100,4,2,2,70,0,0
4688,-100,4,2,2,30,0,0
4904,-100,4,2,2,70,0,0
6201,-100,4,2,2,50,0,0
6633,-100,4,2,2,30,0,0
6850,-100,4,2,2,60,0,0
7930,-100,4,2,2,40,0,0
8362,-100,4,2,2,60,0,0
10091,-100,4,2,2,65,0,0
13549,-100,4,2,2,60,0,0
16575,-100,4,2,1,40,0,0
17007,-100,4,2,3,25,0,0
17223,-100,4,2,1,40,0,0
18736,-100,4,2,1,20,0,0
20033,-100,4,2,1,40,0,0
20465,-111.111111111111,4,2,3,40,0,0
20681,-111.111111111111,4,2,1,40,0,0
30191,-100,4,2,1,60,0,0
30839,-100,4,2,3,40,0,0
30947,-100,4,2,1,40,0,0
32568,-100,4,2,3,35,0,0
34297,-111.111111111111,4,2,3,40,0,0
34513,-111.111111111111,4,2,1,40,0,0
44671,-100,4,2,3,40,0,0
44779,-100,4,2,1,50,0,0
46832,-100,4,2,1,60,0,0
47265,-100,4,2,1,60,0,0
47697,-100,4,2,1,60,0,0
48129,-95.2380952380952,4,2,3,40,0,0
48345,-95.2380952380952,4,2,2,60,0,0
55045,-95.2380952380952,4,2,3,40,0,0
55261,-95.2380952380952,4,2,2,60,0,0
60232,-95.2380952380952,4,2,2,70,0,0
61961,-90.9090909090909,4,2,2,80,0,1
63474,-90.9090909090909,4,2,2,40,0,1
64122,-90.9090909090909,4,2,2,30,0,1
64338,-90.9090909090909,4,2,1,80,0,1
64987,-90.9090909090909,4,2,2,50,0,1
65419,-90.9090909090909,4,2,2,30,0,1
65635,-90.9090909090909,4,2,2,80,0,1
66716,-90.9090909090909,4,2,2,40,0,1
67148,-90.9090909090909,4,2,2,70,0,1
68877,-90.9090909090909,4,2,2,80,0,1
70390,-90.9090909090909,4,2,3,40,0,1
70606,-90.9090909090909,4,2,2,80,0,1
72335,-90.9090909090909,4,2,2,70,0,1
74064,-100,4,2,2,40,0,0
74280,-100,4,2,1,40,0,0
75144,-100,4,2,2,60,0,0
75695,432.245515452777,4,2,2,80,1,0
76019,432.245515452777,4,2,2,70,1,0
76127,-100,4,2,3,65,0,0
79044,-100,4,2,3,75,0,0
79152,-100,4,2,2,35,0,0

[Colours]
Combo1 : 225,0,0
Combo2 : 142,255,142
Combo3 : 232,232,0
Combo4 : 0,118,236

[HitObjects]
103,225,3175,6,0,P|170:210|218:160,1,140,4|2,0:0|0:0,0:0:0:0:
252,83,3824,1,0,0:0:0:0:
185,31,4040,1,0,0:0:0:0:
324,38,4472,1,2,0:0:0:0:
324,38,4688,6,0,L|332:107,1,70,4|0,0:0|0:0,0:0:0:0:
403,152,5121,1,0,0:0:0:0:
483,176,5337,2,0,L|474:106,1,70,8|0,0:0|0:0,0:0:0:0:
328,190,5769,2,0,L|336:259,1,70
427,300,6201,2,0,L|410:185,1,105,12|0,0:0|0:0,0:0:0:0:
403,152,6633,1,4,0:0:0:0:
252,210,6850,6,0,P|186:235|119:189,1,140
193,151,7498,2,0,L|203:259,1,105
126,356,8146,1,0,0:0:0:0:
206,380,8362,6,0,L|315:363,1,105,2|0,0:0|0:0,0:0:0:0:
423,308,9011,1,0,0:0:0:0:
493,262,9227,2,0,L|479:153,1,105,2|0,0:0|0:0,0:0:0:0:
474,116,9659,1,4,0:0:0:0:
474,116,10091,6,0,P|420:130|349:101,1,105,4|0,0:0|0:0,0:0:0:0:
422,20,10740,1,0,0:0:0:0:
373,118,10956,2,0,B|336:142|336:142|214:133,1,140,4|8,0:0|0:0,0:0:0:0:
173,84,11604,5,4,0:0:0:0:
99,43,11820,2,0,L|29:51,1,70
30,135,12253,2,0,L|99:126,1,70,8|0,0:0|0:0,0:0:0:0:
140,199,12685,2,0,L|70:207,1,70
29,288,13117,1,8,0:0:0:0:
92,352,13333,1,0,0:0:0:0:
230,363,13549,6,0,L|311:347,1,70,8|0,0:0|0:0,0:0:0:0:
389,362,13982,1,8,0:0:0:0:
463,309,14198,1,0,0:0:0:0:
493,223,14414,2,0,L|504:132,1,70,0|8,0:0|0:0,0:0:0:0:
481,64,14846,1,8,0:0:0:0:
481,64,15062,1,8,0:0:0:0:
374,156,15278,6,0,L|366:225,1,70,4|0,0:0|0:0,0:0:0:0:
278,251,15711,2,0,L|285:181,1,70,0|0,0:0|0:0,0:0:0:0:
308,93,16143,1,0,0:0:0:0:
308,93,16575,1,0,0:0:0:0:
221,122,16791,2,0,L|159:115,1,35,2|2,0:0|0:0,0:0:0:0:
144,136,17007,6,0,B|140:161|140:161|157:202,1,70,4|0,0:0|0:0,0:0:0:0:
93,268,17440,2,0,B|51:285|51:285|26:281,1,70,8|0,0:0|0:0,0:0:0:0:
62,364,17872,2,0,B|110:371|110:371|204:347,1,140,0|8,0:0|0:0,0:0:0:0:
292,263,18520,1,2,0:0:0:0:
366,239,19817,6,0,L|312:232,2,35,0|0|8,0:0|0:0|0:0,0:0:0:0:
366,239,20465,6,0,P|411:186|424:127,1,125.999996154785,4|8,0:0|0:0,0:0:0:0:
392,56,21114,2,0,L|254:66,1,125.999996154785,2|0,0:0|0:0,0:0:0:0:
189,36,21762,1,8,0:0:0:0:
118,77,21978,1,2,0:0:0:0:
37,60,22194,6,0,L|26:122,1,62.9999980773926
100,156,22627,2,0,B|127:169|127:169|218:148,2,94.499997116089,8|2|2,0:0|0:0|0:0,0:0:0:0:
118,77,23491,1,8,0:0:0:0:
118,77,23923,6,0,L|200:60,1,62.9999980773926
255,94,24356,1,8,0:0:0:0:
324,51,24572,2,0,B|358:31|358:31|444:35,1,125.999996154785,2|0,0:0|0:0,0:0:0:0:
498,97,25220,1,8,0:0:0:0:
467,257,25652,5,2,0:0:0:0:
305,284,26084,2,0,B|295:249|295:249|314:181,2,94.499997116089,8|2|2,0:0|0:0|0:0,0:0:0:0:
360,344,26949,1,8,0:0:0:0:
198,370,27381,6,0,P|166:372|136:364,1,62.9999980773926
59,337,27813,1,8,0:0:0:0:
27,261,28030,2,0,P|94:246|134:197,1,125.999996154785,2|0,0:0|0:0,0:0:0:0:
169,132,28678,1,8,0:0:0:0:
47,21,29110,5,2,0:0:0:0:
169,132,29542,2,0,L|289:119,2,94.499997116089,8|0|0,0:0|0:0|0:0,0:0:0:0:
242,20,30407,2,0,L|343:26,1,70
360,150,30839,2,0,P|308:147|245:101,1,105,4|0,0:0|0:0,0:0:0:0:
230,96,31271,1,8,0:0:0:0:
117,37,31488,1,0,0:0:0:0:
15,111,31704,2,0,P|1:142|1:182,1,70,2|2,0:0|0:0,0:0:0:0:
24,301,32136,1,8,0:0:0:0:
145,335,32352,1,2,0:0:0:0:
220,228,32568,6,0,B|254:215|254:215|287:220,2,70,2|2|8,0:0|0:0|0:0,0:0:0:0:
262,309,33217,1,2,0:0:0:0:
146,213,33433,2,0,B|127:178|127:178|135:113,2,105,2|2|2,0:0|0:0|0:0,0:0:0:0:
245,140,34297,6,0,L|250:77,1,62.9999980773926,4|0,0:0|0:0,0:0:0:0:
319,32,34729,1,8,0:0:0:0:
387,77,34946,2,0,B|407:96|407:96|505:89,1,125.999996154785,2|0,0:0|0:0,0:0:0:0:
492,170,35594,1,8,0:0:0:0:
458,330,36026,5,0,0:0:0:0:
458,330,36458,2,0,B|424:342|424:342|343:323,2,94.499997116089,8|2|2,0:0|0:0|0:0,0:0:0:0:
489,254,37323,1,8,0:0:0:0:
489,254,37755,6,0,L|407:250,1,62.9999980773926
346,232,38187,1,8,0:0:0:0:
283,179,38403,2,0,B|242:180|242:180|184:242,1,125.999996154785,2|0,0:0|0:0,0:0:0:0:
147,316,39052,1,8,0:0:0:0:
147,316,39484,5,2,0:0:0:0:
20,211,39916,2,0,B|4:190|4:190|10:115,2,94.499997116089,8|2|2,0:0|0:0|0:0,0:0:0:0:
93,173,40781,2,0,B|120:161|120:161|159:164,1,62.9999980773926,8|0,0:0|0:0,0:0:0:0:
235,167,41213,6,0,P|235:137|213:107,1,62.9999980773926
275,53,41645,1,8,0:0:0:0:
275,53,41861,1,2,0:0:0:0:
275,53,42078,2,0,P|310:45|358:58,1,62.9999980773926
404,93,42510,1,8,0:0:0:0:
476,54,42726,1,2,0:0:0:0:
475,162,42942,6,0,L|484:224,1,62.9999980773926
486,306,43374,1,8,0:0:0:0:
426,362,43590,2,0,B|389:367|389:367|364:359,1,62.9999980773926,2|0,0:0|0:0,0:0:0:0:
289,314,44023,1,2,0:0:0:0:
228,259,44239,2,0,P|216:230|219:204,3,31.4999990386963
212,337,44671,6,0,P|145:355|81:330,1,140,4|0,0:0|0:0,0:0:0:0:
18,263,45319,1,0,0:0:0:0:
91,207,45536,2,0,P|157:224|221:199,1,140,2|0,0:0|0:0,0:0:0:0:
295,145,46184,2,0,L|309:194,1,35
336,211,46400,2,0,L|405:200,1,70
485,156,46832,5,0,0:0:0:0:
485,156,47265,2,0,P|475:93|410:27,1,140
337,24,47913,1,0,0:0:0:0:
236,118,48129,6,0,P|181:132|127:126,1,110.249996635437,4|0,0:0|0:0,0:0:0:0:
89,115,48561,2,0,B|48:127|48:127|8:226,1,146.999995513916,8|0,0:0|0:0,0:0:0:0:
123,377,49426,1,8,0:0:0:0:
180,300,49642,1,0,0:0:0:0:
300,356,49858,6,0,L|443:345,1,110.249996635437
451,324,50290,1,8,0:0:0:0:
501,243,50506,1,0,0:0:0:0:
505,147,50722,2,0,P|432:143|377:96,1,146.999995513916,0|8,0:0|0:0,0:0:0:0:
334,10,51371,1,0,0:0:0:0:
249,118,51587,6,0,P|208:154|156:172,1,110.249996635437
110,161,52019,2,0,B|74:132|74:132|38:28,1,146.999995513916,8|0,0:0|0:0,0:0:0:0:
232,27,52884,1,8,0:0:0:0:
249,118,53100,1,0,0:0:0:0:
286,204,53316,6,0,P|341:208|391:187,1,110.249996635437
427,155,53748,1,8,0:0:0:0:
488,228,53964,1,0,0:0:0:0:
487,323,54180,2,0,P|415:336|350:305,1,146.999995513916,0|8,0:0|0:0,0:0:0:0:
258,332,54829,1,0,0:0:0:0:
122,357,55045,6,0,P|98:329|93:293,1,73.4999977569581,4|0,0:0|0:0,0:0:0:0:
189,283,55477,1,8,0:0:0:0:
51,224,55693,2,0,P|35:153|55:83,1,146.999995513916
149,96,56342,2,0,P|185:98|220:88,1,73.4999977569581,8|0,0:0|0:0,0:0:0:0:
258,0,56774,5,0,0:0:0:0:
335,54,56990,2,0,L|349:135,1,73.4999977569581,0|8,0:0|0:0,0:0:0:0:
410,215,57422,2,0,P|448:158|437:78,1,146.999995513916
347,126,58071,1,8,0:0:0:0:
304,211,58287,1,0,0:0:0:0:
245,135,58503,5,8,0:0:0:0:
205,222,58719,2,0,P|150:241|61:216,1,146.999995513916
28,190,59259,2,0,L|22:144,1,36.749998878479
40,58,59584,2,0,P|73:43|109:40,1,73.4999977569581,0|8,0:0|0:0,0:0:0:0:
193,86,60016,1,0,0:0:0:0:
271,140,60232,6,0,B|292:130|292:130|342:131,3,73.4999977569581,0|0|2|0,0:0|0:0|0:0|0:0,0:0:0:0:
416,191,61096,2,0,B|437:201|437:201|487:199,3,73.4999977569581
463,101,61961,6,0,P|429:37|334:17,1,154.000004699707,4|8,0:0|0:0,0:0:0:0:
255,25,62609,1,0,0:0:0:0:
172,81,62825,1,0,0:0:0:0:
236,271,63258,1,0,0:0:0:0:
331,346,63474,6,0,P|365:345|402:310,1,77.0000023498536,4|0,0:0|0:0,0:0:0:0:
471,248,63906,1,0,0:0:0:0:
451,149,64122,2,0,P|413:154|358:129,1,77.0000023498536,4|0,0:0|0:0,0:0:0:0:
257,77,64554,2,0,P|295:82|350:57,1,77.0000023498536
467,18,64987,2,0,P|429:23|374:-2,1,77.0000023498536,12|0,0:0|0:0,0:0:0:0:
292,4,65419,1,4,0:0:0:0:
189,125,65635,5,0,0:0:0:0:
162,205,65851,2,0,P|124:214|86:213,1,77.0000023498536
102,43,66283,2,0,P|160:27|254:50,1,154.000004699707,0|12,0:0|0:0,0:0:0:0:
242,187,66932,1,0,0:0:0:0:
249,47,67148,2,0,P|307:31|404:55,1,154.000004699707,2|12,0:0|0:0,0:0:0:0:
315,205,67796,1,0,0:0:0:0:
396,50,68012,2,0,P|432:37|470:36,1,77.0000023498536,2|2,0:0|0:0,0:0:0:0:
498,201,68445,1,4,0:0:0:0:
498,201,68877,6,0,P|445:181|389:195,1,115.50000352478
255,262,69525,1,0,0:0:0:0:
380,342,69741,2,0,P|403:269|389:194,1,154.000004699707,4|8,0:0|0:0,0:0:0:0:
315,124,70390,6,0,L|307:200,1,77.0000023498536,4|0,0:0|0:0,0:0:0:0:
262,290,70822,1,0,0:0:0:0:
204,200,71038,2,0,L|197:124,1,77.0000023498536,8|0,0:0|0:0,0:0:0:0:
315,124,71470,2,0,L|322:47,1,77.0000023498536
227,16,71903,1,8,0:0:0:0:
140,68,72119,1,0,0:0:0:0:
33,154,72335,6,0,P|10:122|0:85,1,77.0000023498536,4|0,0:0|0:0,0:0:0:0:
140,68,72768,1,2,0:0:0:0:
197,167,72984,2,0,B|248:174|248:174|343:138,1,154.000004699707,2|0,0:0|0:0,0:0:0:0:
429,87,73632,1,0,0:0:0:0:
337,35,73848,1,0,0:0:0:0:
486,134,74064,6,0,P|503:103|498:63,1,70,4|0,0:0|0:0,0:0:0:0:
343,138,74496,1,0,0:0:0:0:
421,264,74712,2,0,L|431:358,1,70
322,295,75144,2,0,L|305:260,3,35,2|0|8|8,0:0|0:0|0:0|0:0,0:0:0:0:
214,185,75695,6,0,B|191:198|191:198|149:186,1,70,0|8,0:0|0:0,0:0:0:0:
109,156,76019,6,0,B|95:133|95:133|107:91,1,70,0|2,0:0|0:0,0:0:0:0:
162,19,76451,1,2,0:0:0:0:
340,19,76667,1,2,0:0:0:0:
284,164,76883,1,2,0:0:0:0:
106,91,77099,2,0,L|49:77,3,35,2|2|2|2,0:0|0:0|0:0|0:0,0:0:0:0:
188,307,77748,5,2,0:0:0:0:
250,172,77964,2,0,L|307:158,3,35,2|2|2|2,0:0|0:0|0:0|0:0,0:0:0:0:
336,373,78612,5,2,0:0:0:0:
249,252,78828,1,2,0:0:0:0:
366,154,79044,2,0,L|363:188,1,35,2|4,0:0|0:0,0:0:0:0:
