osu file format v14

[General]
AudioFilename: audio.mp3
AudioLeadIn: 0
PreviewTime: 3175
Countdown: 0
SampleSet: Soft
StackLeniency: 0.7
Mode: 0
LetterboxInBreaks: 0
WidescreenStoryboard: 0

[Editor]
Bookmarks: 3175,61961
DistanceSpacing: 1.2
BeatDivisor: 4
GridSize: 16
TimelineZoom: 1

[Metadata]
Title:FLYING IN THE SKY
TitleUnicode:FLYING IN THE SKY
Artist:Yoshifumi Ushima
ArtistUnicode:鵜島仁文
Creator:smallboat
Version:EASY
Source:機動武闘伝Gガンダム
Tags:opening japan future century anime robot fight master brother god rising asia winner war weapon super hyper mobile fighter kidou butouden devil g gundam w x heisei sambu kyoku sunrise love king of heart 關智一 seki tomokazu chilchi 流星蝴蝶劍 超級覇王電影彈 東方不敗 石破天驚拳 閃光掌 爆熱神威掌
BeatmapID:1463712
BeatmapSetID:691711

[Difficulty]
HPDrainRate:2.5
CircleSize:2.5
OverallDifficulty:2.5
ApproachRate:3
SliderMultiplier:0.8
SliderTickRate:1

[Events]
//Background and Video events
0,0,"bg.jpg",0,0
Video,0,"video.flv"
//Break Periods
//Storyboard Layer 0 (Background)
//Storyboard Layer 1 (Fail)
//Storyboard Layer 2 (Pass)
//Storyboard Layer 3 (Foreground)
//Storyboard Sound Samples

[TimingPoints]
1447,432.245515452777,4,2,1,30,1,0
2959,-100,4,2,1,5,0,0
3175,-100,4,2,2,70,0,0
4688,-100,4,2,2,30,0,0
4904,-100,4,2,2,70,0,0
6201,-100,4,2,2,50,0,0
6633,-100,4,2,2,30,0,0
6850,-100,4,2,2,60,0,0
7930,-100,4,2,2,40,0,0
8362,-100,4,2,2,60,0,0
10091,-100,4,2,2,65,0,0
13549,-100,4,2,2,60,0,0
16575,-100,4,2,1,40,0,0
17007,-100,4,2,3,25,0,0
17223,-100,4,2,1,40,0,0
18736,-100,4,2,1,20,0,0
20033,-100,4,2,2,40,0,0
20465,-100,4,2,3,40,0,0
20681,-100,4,2,1,40,0,0
30191,-100,4,2,1,60,0,0
30839,-100,4,2,3,40,0,0
30947,-100,4,2,1,40,0,0
32568,-100,4,2,3,35,0,0
34297,-100,4,2,3,40,0,0
34513,-100,4,2,1,40,0,0
44671,-100,4,2,3,40,0,0
44779,-100,4,2,1,50,0,0
46832,-100,4,2,1,60,0,0
47265,-100,4,2,1,60,0,0
47697,-100,4,2,1,60,0,0
48129,-100,4,2,3,40,0,0
48345,-100,4,2,2,60,0,0
55045,-100,4,2,3,40,0,0
55261,-100,4,2,2,60,0,0
60232,-100,4,2,2,70,0,0
61961,-100,4,2,2,80,0,1
63474,-100,4,2,2,40,0,1
64122,-100,4,2,2,30,0,1
64338,-100,4,2,1,80,0,1
64987,-100,4,2,2,50,0,1
65419,-100,4,2,2,30,0,1
65635,-100,4,2,2,80,0,1
66716,-100,4,2,2,40,0,1
67148,-100,4,2,2,70,0,1
68877,-100,4,2,2,80,0,1
70390,-100,4,2,3,40,0,1
70606,-100,4,2,2,80,0,1
72335,-100,4,2,2,70,0,1
74064,-100,4,2,2,40,0,0
74280,-100,4,2,1,40,0,0
75144,-100,4,2,2,60,0,0
75695,432.245515452777,4,2,2,80,1,0
76019,432.245515452777,4,2,2,70,1,0
76127,-100,4,2,3,20,0,0
79152,-100,4,2,1,5,0,0

[Colours]
Combo1 : 225,0,0
Combo2 : 142,255,142
Combo3 : 232,232,0
Combo4 : 0,118,236

[HitObjects]
227,91,3175,6,0,P|272:73|317:73,1,80,4|2,0:0|0:0,0:0:0:0:
391,109,4040,1,0,0:0:0:0:
454,237,4688,2,0,P|400:255|335:238,1,120,4|8,0:0|0:0,0:0:0:0:
254,197,5769,1,0,0:0:0:0:
159,213,6201,1,12,0:0:0:0:
37,291,6850,6,0,P|17:236|25:169,1,120
80,99,7930,1,12,0:0:0:0:
158,43,8362,2,0,L|246:32,1,80,2|12,0:0|0:0,0:0:0:0:
327,65,9227,2,0,L|417:73,1,80,2|4,0:0|0:0,0:0:0:0:
451,156,10091,6,0,B|430:217|430:217|478:299,1,160,4|4,0:0|0:0,0:0:0:0:
349,364,11604,2,0,B|310:372|310:372|228:355,1,120,4|8,0:0|0:0,0:0:0:0:
140,325,12685,2,0,L|43:337,1,80,0|8,0:0|0:0,0:0:0:0:
8,254,13549,5,8,0:0:0:0:
63,175,13982,2,0,B|142:175|142:175|216:132,1,160,8|8,0:0|0:0,0:0:0:0:
277,64,15278,2,0,B|243:41|243:41|200:39,2,80,4|0|0,0:0|0:0|0:0,0:0:0:0:
332,142,16575,1,0,0:0:0:0:
372,229,17007,6,0,L|460:219,1,80,4|8,0:0|0:0,0:0:0:0:
476,312,17872,2,0,L|356:325,1,120,0|2,0:0|0:0,0:0:0:0:
118,348,20465,6,0,P|61:364|-9:349,2,120,4|2|8,0:0|0:0|0:0,0:0:0:0:
184,278,22194,1,0,0:0:0:0:
227,193,22627,2,0,P|306:194|373:235,1,160,8|8,0:0|0:0,0:0:0:0:
391,330,23923,6,0,P|466:306|500:267,2,120,0|2|8,0:0|0:0|0:0,0:0:0:0:
295,315,25652,1,2,0:0:0:0:
204,284,26084,2,0,L|36:299,1,160,8|8,0:0|0:0,0:0:0:0:
21,204,27381,6,0,P|22:143|72:96,2,120,0|2|8,0:0|0:0|0:0,0:0:0:0:
114,182,29110,1,2,0:0:0:0:
204,213,29542,2,0,P|284:224|363:203,1,160,8|0,0:0|0:0,0:0:0:0:
435,144,30839,6,0,P|425:76|353:11,1,160,4|2,0:0|0:0,0:0:0:0:
265,12,32136,1,8,0:0:0:0:
182,60,32568,2,0,L|91:48,1,80,2|8,0:0|0:0,0:0:0:0:
53,132,33433,2,0,B|15:174|15:174|23:249,1,120,2|2,0:0|0:0,0:0:0:0:
54,272,34297,6,0,P|112:265|172:226,2,120,4|2|8,0:0|0:0|0:0,0:0:0:0:
10,357,36026,1,0,0:0:0:0:
104,375,36458,2,0,L|263:363,1,160,8|8,0:0|0:0,0:0:0:0:
358,374,37755,6,0,P|415:361|454:316,2,120,0|2|8,0:0|0:0|0:0,0:0:0:0:
325,283,39484,1,2,0:0:0:0:
342,188,39916,2,0,B|421:190|421:190|484:138,1,160,8|8,0:0|0:0,0:0:0:0:
497,43,41213,5,0,0:0:0:0:
402,25,41645,2,0,L|320:19,1,80,8|0,0:0|0:0,0:0:0:0:
229,45,42510,1,8,0:0:0:0:
175,124,42942,2,0,P|114:131|51:112,2,120,0|2|0,0:0|0:0|0:0,0:0:0:0:
203,215,44671,6,0,P|252:183|270:127,2,120,4|0|0,0:0|0:0|0:0,0:0:0:0:
106,209,46400,1,0,0:0:0:0:
40,278,46832,2,0,L|40:358,2,80
133,300,48129,5,4,0:0:0:0:
219,342,48561,2,0,L|298:333,1,80,8|0,0:0|0:0,0:0:0:0:
391,357,49426,1,8,0:0:0:0:
471,305,49858,2,0,L|477:212,1,80,0|8,0:0|0:0,0:0:0:0:
459,130,50722,2,0,L|465:37,1,80,0|8,0:0|0:0,0:0:0:0:
374,14,51587,5,0,0:0:0:0:
296,70,52019,2,0,L|290:163,1,80,8|0,0:0|0:0,0:0:0:0:
323,240,52884,1,8,0:0:0:0:
265,316,53316,2,0,L|185:310,1,80,0|8,0:0|0:0,0:0:0:0:
92,286,54180,2,0,P|67:232|73:204,1,80,0|8,0:0|0:0,0:0:0:0:
102,124,55045,6,0,P|128:71|121:12,2,120,4|0|8,0:0|0:0|0:0,0:0:0:0:
181,178,56774,2,0,P|235:154|266:103,2,120,0|0|8,0:0|0:0|0:0,0:0:0:0:
185,274,58503,6,0,L|264:266,1,80,8|8,0:0|0:0,0:0:0:0:
323,341,59367,1,0,0:0:0:0:
400,284,59800,1,8,0:0:0:0:
468,351,60232,2,0,P|483:235|385:188,1,240
299,230,61961,6,0,P|226:253|138:217,1,160,4|0,0:0|0:0,0:0:0:0:
148,80,63474,2,0,P|96:52|29:61,1,120,4|4,0:0|0:0,0:0:0:0:
8,149,64554,1,0,0:0:0:0:
42,238,64987,1,12,0:0:0:0:
44,333,65419,6,0,P|100:314|134:263,1,120,4|0,0:0|0:0,0:0:0:0:
147,219,66283,2,0,P|182:201|221:199,1,80,0|12,0:0|0:0,0:0:0:0:
287,269,67148,2,0,P|338:328|415:343,1,160,2|2,0:0|0:0,0:0:0:0:
486,277,68445,1,4,0:0:0:0:
493,182,68877,6,0,P|490:104|439:44,1,160,0|4,0:0|0:0,0:0:0:0:
318,129,70390,2,0,P|265:154|207:144,1,120,4|8,0:0|0:0,0:0:0:0:
128,87,71470,1,0,0:0:0:0:
32,77,71903,1,8,0:0:0:0:
7,169,72335,6,0,L|17:248,1,80,4|2,0:0|0:0,0:0:0:0:
49,338,73199,2,0,L|128:327,1,80,2|0,0:0|0:0,0:0:0:0:
199,262,74064,1,4,0:0:0:0:
279,209,74496,1,0,0:0:0:0:
328,287,74928,2,0,P|363:300|408:292,1,80,0|8,0:0|0:0,0:0:0:0:
256,192,75695,12,0,79152,0:0:0:0:
