osu file format v14

[General]
AudioFilename: audio.mp3
AudioLeadIn: 0
PreviewTime: 58408
Countdown: 0
SampleSet: Soft
StackLeniency: 0.3
Mode: 0
LetterboxInBreaks: 0
WidescreenStoryboard: 1

[Editor]
Bookmarks: 10408,15792,20254,30100,39946,59485,59639,79331,79485
DistanceSpacing: 0.9
BeatDivisor: 4
GridSize: 32
TimelineZoom: 2.2

[Metadata]
Title:Attouteki Vivid Days (TV Size)
TitleUnicode:圧倒的 Vivid Days (TV Size)
Artist:Yoshi Nanami
ArtistUnicode:吉七味。
Creator:Shoenen
Version:Happy Ending
Source:
Tags:Kenja No Mago Ending TV Size
BeatmapID:2045388
BeatmapSetID:977213

[Difficulty]
HPDrainRate:6.2
CircleSize:4.2
OverallDifficulty:9.2
ApproachRate:9.5
SliderMultiplier:1.9
SliderTickRate:1

[Events]
//Background and Video events
0,0,"Attouteki Vivid Days BG.jpg",0,0
//Break Periods
//Storyboard Layer 0 (Background)
//Storyboard Layer 1 (Fail)
//Storyboard Layer 2 (Pass)
//Storyboard Layer 3 (Foreground)
//Storyboard Sound Samples

[TimingPoints]
562,307.692307692308,4,2,2,60,1,0
562,-125,4,2,3,60,0,0
9023,-100,4,2,2,60,0,0
9100,-100,4,2,2,5,0,0
9331,-100,4,2,2,60,0,0
9408,-100,4,2,2,5,0,0
9638,-100,4,2,2,60,0,0
9715,-100,4,2,2,5,0,0
9946,-100,4,2,2,60,0,0
10100,-500,4,2,2,60,0,0
10331,-250,4,2,2,5,0,0
10408,-90.9090909090909,4,2,2,60,0,0
15100,-90.9090909090909,4,2,2,5,0,0
15177,-90.9090909090909,4,2,2,60,0,0
20254,-111.111111111111,4,2,2,60,0,0
30100,-90.9090909090908,4,2,2,60,0,0
39946,-125,4,2,2,60,0,0
49792,-111.111111111111,4,2,2,60,0,0
59485,-66.6666666666667,4,2,2,60,0,1
64562,-76.9230769230769,4,2,2,60,0,1
69331,-66.6666666666667,4,2,2,60,0,1
74408,-76.9230769230769,4,2,2,60,0,1
76715,-71.4285714285714,4,2,2,60,0,1
79331,-90.9090909090909,4,2,2,60,0,0
86100,-100,4,2,2,60,0,0
86254,-100,4,2,2,5,0,0
86331,-100,4,2,2,60,0,0
86485,-100,4,2,2,5,0,0
86562,-100,4,2,2,60,0,0
86715,-83.3333333333333,4,2,2,60,0,0
88408,-111.111111111111,4,2,2,60,0,0

[Colours]
Combo1 : 249,224,49
Combo2 : 0,255,255
Combo3 : 251,36,112
Combo4 : 7,105,224

[HitObjects]
473,329,562,6,0,P|439:353|375:354,1,76,2|0,0:1|0:0,0:0:0:0:
401,241,869,2,0,P|435:217|497:212,1,76,2|0,0:0|0:0,0:0:0:0:
329,297,1177,1,10,0:0:0:0:
424,147,1331,1,0,0:0:0:0:
445,115,1485,1,0,0:0:0:0:
467,84,1638,1,0,0:0:0:0:
489,53,1792,6,0,L|400:14,1,76,2|2,0:0|0:1,0:0:0:0:
283,53,2100,2,0,L|371:91,1,76,2|0,0:1|0:0,0:0:0:0:
175,103,2408,1,0,0:0:0:0:
153,71,2562,1,0,0:0:0:0:
132,39,2715,2,0,L|220:0,1,76,2|0,0:0|0:0,0:0:0:0:
144,300,3023,6,0,P|168:266|169:202,1,76,2|0,0:1|0:0,0:0:0:0:
56,228,3330,2,0,P|32:262|27:329,1,76
108,163,3638,1,8,0:0:0:0:
226,302,3792,1,0,2:0:0:0:
251,328,3946,1,0,2:0:0:0:
276,356,4099,1,0,2:0:0:0:
307,384,4254,6,0,L|365:306,1,76,2|2,0:0|0:1,0:0:0:0:
482,281,4562,2,0,L|424:359,1,76,2|0,0:1|0:0,0:0:0:0:
460,150,4869,1,0,0:0:0:0:
393,266,5023,1,0,0:0:0:0:
389,100,5177,2,0,L|445:21,1,76,2|0,2:0|2:0,2:0:0:0:
153,38,5485,5,2,0:1:0:0:
284,96,5638,1,2,0:0:0:0:
153,154,5792,2,0,L|69:191,1,76,2|0,0:0|0:0,0:0:0:0:
153,38,6100,1,8,0:0:0:0:
174,255,6254,1,0,2:0:0:0:
205,238,6408,1,0,2:0:0:0:
240,222,6561,1,0,2:0:0:0:
274,205,6715,6,0,L|223:137,1,76,2|2,0:0|0:1,0:0:0:0:
374,219,7023,2,0,L|425:283,1,76,2|0,0:1|0:0,0:0:0:0:
291,294,7331,1,0,0:0:0:0:
342,132,7485,1,0,0:0:0:0:
281,307,7638,2,0,L|193:356,1,76,2|0,0:0|0:0,0:0:0:0:
106,161,7946,6,0,P|122:217|111:249,1,76,2|0,0:1|0:0,0:0:0:0:
21,384,8254,2,0,P|5:328|16:296,1,76,2|0,0:0|0:0,0:0:0:0:
194,259,8562,1,8,0:0:0:0:
15,152,8715,1,0,2:0:0:0:
36,123,8869,1,0,2:0:0:0:
60,93,9023,6,0,L|55:38,1,47.5,2|0,0:1|0:0,0:0:0:0:
262,189,9331,2,0,L|267:133,1,47.5,2|0,0:1|0:0,0:0:0:0:
481,80,9638,2,0,L|476:32,1,47.5,2|0,0:1|0:0,0:0:0:0:
436,339,9946,5,2,0:1:0:0:
388,340,10023,1,2,0:1:0:0:
340,342,10100,2,0,L|306:342,1,28.5,12|0,0:0|0:0,0:0:0:0:
112,182,10408,6,0,P|119:234|100:282,1,104.500003189087,6|2,0:1|0:0,0:0:0:0:
11,365,10715,1,8,0:0:0:0:
28,149,10869,2,0,P|94:97|201:162,1,209.000006378174,2|2,0:0|0:0,0:0:0:0:
115,2,11331,1,8,0:0:0:0:
268,66,11485,6,0,P|324:73|400:39,1,104.500003189087,2|2,0:0|0:1,0:0:0:0:
504,0,11792,1,2,0:0:0:0:
369,60,11946,1,8,0:0:0:0:
512,169,12100,2,0,P|456:176|380:142,1,104.500003189087,2|2,0:0|0:1,0:0:0:0:
268,66,12408,1,2,0:0:0:0:
338,235,12562,2,0,L|377:334,1,104.500003189087,8|2,0:0|0:0,0:0:0:0:
151,200,12869,6,0,P|158:148|139:100,1,104.500003189087,2|2,0:1|0:0,0:0:0:0:
8,19,13176,1,8,0:0:0:0:
139,100,13330,2,0,P|216:107|296:10,1,209.000006378174,2|2,0:0|0:0,0:0:0:0:
53,130,13792,1,8,0:0:0:0:
200,19,13946,1,2,0:0:0:0:
151,200,14100,6,0,L|253:235,1,104.500003189087,2|2,0:1|0:0,0:0:0:0:
91,339,14408,2,0,P|45:379|0:384,1,104.500003189087,8|2,0:0|0:0,0:0:0:0:
170,289,14715,1,8,0:0:0:0:
206,289,14792,1,8,0:0:0:0:
239,304,14869,1,8,0:0:0:0:
263,331,14946,1,8,0:0:0:0:
268,367,15023,2,0,P|219:349|212:344,1,52.2500015945435,8|0,0:0|0:0,0:0:0:0:
357,299,15177,1,8,0:0:0:0:
373,333,15254,1,8,0:0:0:0:
376,373,15331,5,6,0:1:0:0:
414,226,15485,2,0,L|523:186,1,104.500003189087,2|8,0:0|0:0,0:0:0:0:
271,146,15792,2,0,L|162:106,1,104.500003189087,2|2,0:0|0:1,0:0:0:0:
398,54,16100,2,0,L|496:17,1,104.500003189087,2|8,0:0|0:0,0:0:0:0:
355,159,16408,1,2,0:0:0:0:
245,28,16562,5,2,0:1:0:0:
215,215,16715,2,0,L|194:327,1,104.500003189087,2|8,0:0|0:0,0:0:0:0:
74,111,17023,2,0,L|95:-1,1,104.500003189087,2|2,0:0|0:1,0:0:0:0:
131,219,17331,1,2,0:0:0:0:
7,70,17485,1,8,0:0:0:0:
191,109,17638,6,0,L|300:135,1,104.500003189087,2|2,0:0|0:1,0:0:0:0:
101,298,17946,2,0,L|-8:272,1,104.500003189087,2|8,0:0|0:0,0:0:0:0:
281,259,18254,2,0,L|390:285,1,104.500003189087,2|2,0:0|0:1,0:0:0:0:
191,109,18562,1,2,0:0:0:0:
260,375,18715,1,8,0:0:0:0:
355,163,18869,6,0,P|423:143|467:157,1,104.500003189087,6|0,0:1|0:0,0:0:0:0:
220,12,19177,1,8,0:0:0:0:
281,259,19331,1,8,0:0:0:0:
117,133,19485,1,8,0:0:0:0:
87,111,19561,1,8,0:0:0:0:
58,89,19638,1,8,0:0:0:0:
166,232,19792,1,8,0:0:0:0:
188,31,19946,1,8,0:0:0:0:
34,16,20100,1,8,0:0:0:0:
13,218,20254,6,0,L|0:320,1,85.4999973907472,6|0,0:1|0:0,0:0:0:0:
103,355,20562,2,0,L|195:363,1,85.4999973907472,8|0,0:0|0:0,0:0:0:0:
171,230,20869,2,0,L|263:238,1,85.4999973907472,8|0,0:0|0:0,0:0:0:0:
239,105,21177,1,8,0:0:0:0:
171,230,21331,1,2,0:0:0:0:
139,83,21485,6,0,L|120:-8,1,85.4999973907472,8|0,0:0|0:0,0:0:0:0:
316,47,21792,1,8,0:0:0:0:
198,165,21946,1,2,0:1:0:0:
398,71,22100,1,8,0:0:0:0:
423,236,22254,1,2,0:1:0:0:
335,131,22408,1,8,0:0:0:0:
501,310,22562,6,0,P|440:344|387:336,1,85.4999973907472,2|8,0:1|0:0,0:0:0:0:
302,299,22869,1,2,0:0:0:0:
143,313,23023,2,0,P|177:278|214:273,1,85.4999973907472,8|0,0:0|0:0,0:0:0:0:
56,204,23331,2,0,P|104:196|136:212,1,85.4999973907472,8|0,0:0|0:0,0:0:0:0:
47,64,23638,2,0,P|91:85|108:117,1,85.4999973907472,8|0,2:0|2:0,2:0:0:0:
240,21,23946,5,8,0:0:0:0:
236,196,24100,1,2,0:1:0:0:
381,66,24254,1,8,0:0:0:0:
216,104,24408,1,2,0:1:0:0:
396,232,24562,1,8,0:0:0:0:
307,106,24715,1,2,0:1:0:0:
304,293,24869,1,8,0:0:0:0:
475,172,25023,1,2,0:1:0:0:
473,197,25099,1,2,0:1:0:0:
472,223,25177,6,0,L|464:312,1,85.4999973907472,8|0,0:0|0:0,0:0:0:0:
320,222,25485,1,8,0:0:0:0:
215,347,25638,2,0,L|315:343,1,85.4999973907472,2|0,0:0|0:0,0:0:0:0:
152,245,25946,1,2,0:0:0:0:
101,383,26100,1,8,0:0:0:0:
229,274,26254,1,2,0:0:0:0:
26,281,26408,6,0,L|-2:169,1,85.4999973907472,8|0,0:0|0:0,0:0:0:0:
85,63,26715,1,8,0:0:0:0:
152,245,26869,1,2,0:1:0:0:
200,22,27023,1,8,0:0:0:0:
160,213,27177,1,2,0:1:0:0:
323,24,27331,1,8,0:0:0:0:
172,174,27485,1,2,0:1:0:0:
406,130,27638,6,0,L|510:101,1,85.4999973907472,8|0,0:0|0:0,0:0:0:0:
280,198,27946,1,8,0:0:0:0:
443,260,28100,1,2,0:1:0:0:
327,115,28254,1,8,0:0:0:0:
274,310,28408,1,2,0:1:0:0:
406,130,28562,1,8,0:0:0:0:
175,251,28715,1,2,0:1:0:0:
138,265,28791,1,2,0:1:0:0:
98,282,28869,1,8,0:0:0:0:
501,368,30100,6,0,B|458:326|478:255,1,104.500003189087,6|2,0:1|0:0,0:0:0:0:
509,136,30408,1,8,0:0:0:0:
384,282,30562,1,2,0:0:0:0:
285,141,30715,2,0,P|238:108|156:109,1,104.500003189087,2|0,0:1|0:0,0:0:0:0:
282,321,31023,1,8,0:0:0:0:
362,121,31177,2,0,P|409:88|491:89,1,104.500003189087,2|2,0:0|0:1,0:0:0:0:
211,182,31485,5,2,0:0:0:0:
302,35,31638,1,8,0:0:0:0:
311,224,31792,1,2,0:0:0:0:
211,0,31946,1,2,0:1:0:0:
35,143,32100,2,0,P|88:161|126:216,1,104.500003189087,2|8,0:0|0:0,0:0:0:0:
13,384,32408,6,0,P|66:366|104:311,1,104.500003189087,2|2,0:0|0:1,0:0:0:0:
36,143,32715,1,2,0:0:0:0:
162,280,32869,2,0,P|217:300|298:284,1,104.500003189087,8|0,0:0|0:0,0:0:0:0:
331,144,33177,2,0,L|350:249,1,104.500003189087,2|0,0:1|0:0,0:0:0:0:
425,42,33485,2,0,L|444:147,1,104.500003189087,8|0,0:0|0:0,0:0:0:0:
331,144,33792,1,2,0:1:0:0:
454,214,33946,1,0,0:0:0:0:
347,49,34100,2,0,L|233:62,1,104.500003189087,8|0,0:0|0:0,0:0:0:0:
58,237,34408,6,0,P|35:174|42:123,1,104.500003189087,2|0,0:1|0:0,0:0:0:0:
116,9,34715,1,8,0:0:0:0:
137,169,34869,1,2,0:0:0:0:
347,49,35023,2,0,P|287:47|236:68,1,104.500003189087,6|0,0:1|0:0,0:0:0:0:
371,210,35331,1,8,0:0:0:0:
411,4,35485,2,0,P|471:2|522:23,1,104.500003189087,2|2,0:0|0:1,0:0:0:0:
371,195,35792,1,2,0:0:0:0:
206,126,35946,2,0,P|171:75|187:13,1,104.500003189087,8|0,0:0|0:0,0:0:0:0:
270,281,36254,6,0,P|189:298|149:278,1,104.500003189087,2|0,0:1|0:0,0:0:0:0:
51,172,36562,1,8,0:0:0:0:
126,353,36715,1,2,0:0:0:0:
251,206,36869,2,0,P|316:218|350:282,1,104.500003189087,2|0,0:1|0:0,0:0:0:0:
156,161,37177,2,0,P|203:114|276:111,1,104.500003189087,8|0,0:0|0:0,0:0:0:0:
15,44,37485,6,0,L|106:113,1,104.500003189087,8|0,0:0|0:0,0:0:0:0:
278,268,37792,1,8,0:0:0:0:
98,107,37946,1,2,0:1:0:0:
302,30,38100,1,8,0:0:0:0:
149,246,38254,1,2,0:1:0:0:
181,18,38408,1,8,0:0:0:0:
358,146,38562,1,2,0:1:0:0:
100,29,38715,5,8,0:0:0:0:
78,219,38869,1,2,0:1:0:0:
72,255,38945,1,2,0:1:0:0:
66,291,39022,1,2,0:1:0:0:
60,327,39099,1,2,0:1:0:0:
54,363,39176,1,2,0:1:0:0:
85,187,39331,1,2,0:1:0:0:
168,323,39485,1,2,0:1:0:0:
252,213,39638,1,2,0:1:0:0:
326,304,39792,1,2,0:1:0:0:
482,107,39946,6,0,P|360:99|434:196,1,304,6|2,0:1|0:0,0:0:0:0:
220,78,40869,2,0,P|238:35|235:-1,1,76,2|0,0:1|0:0,0:0:0:0:
242,166,41177,2,0,P|281:141|299:109,1,76,2|0,0:1|0:0,0:0:0:0:
209,250,41485,2,0,P|255:252|288:237,1,76,2|0,0:1|0:0,0:0:0:0:
133,299,41792,2,0,P|169:327|205:333,1,76,2|0,0:1|0:0,0:0:0:0:
42,295,42100,2,0,P|55:339|81:365,1,76,2|0,0:1|0:0,0:0:0:0:
95,117,42408,6,0,P|119:145|126:182,1,76,2|0,0:1|0:0,0:0:0:0:
14,100,42715,1,2,0:1:0:0:
163,33,42869,2,0,P|218:30|253:49,1,76,2|2,0:0|0:1,0:0:0:0:
193,123,43177,2,0,P|234:159|245:197,1,76,2|2,0:0|0:1,0:0:0:0:
318,74,43485,6,0,P|346:37|339:159,1,380,2|2,0:0|0:1,0:0:0:0:
401,306,44408,1,0,0:0:0:0:
401,306,44485,1,0,0:0:0:0:
401,306,44562,2,0,P|428:334|486:346,1,76,2|0,0:1|0:0,0:0:0:0:
278,228,44869,6,0,P|198:205|251:338,1,304,6|0,0:1|0:0,0:0:0:0:
52,292,45792,2,0,P|59:331|87:373,1,76,2|0,0:1|0:0,0:0:0:0:
39,154,46100,2,0,P|16:186|6:236,1,76,2|0,0:1|0:0,0:0:0:0:
127,47,46408,2,0,P|88:54|46:81,1,76,2|0,0:1|0:0,0:0:0:0:
264,33,46715,2,0,P|231:10|181:0,1,76,2|0,0:1|0:0,0:0:0:0:
370,119,47023,2,0,P|363:79|335:37,1,76,2|0,0:1|0:0,0:0:0:0:
268,284,47331,6,0,P|249:251|243:213,1,76,2|0,0:1|0:0,0:0:0:0:
344,323,47638,1,2,0:1:0:0:
264,125,47792,2,0,P|209:124|177:141,1,76,2|2,0:0|0:1,0:0:0:0:
329,207,48100,2,0,P|384:208|416:191,1,76,2|2,0:0|0:1,0:0:0:0:
231,352,48408,6,0,P|165:263|271:225,1,228,2|2,0:0|0:1,0:0:0:0:
24,81,49177,1,2,0:1:0:0:
59,229,49331,1,2,0:1:0:0:
140,108,49485,2,0,P|173:73|231:62,1,76,8|0,0:0|0:0,0:0:0:0:
387,167,49792,6,0,P|435:115|365:108,1,170.999994781494,2|0,0:1|0:0,0:0:0:0:
481,221,50254,2,0,P|518:161|520:123,1,85.4999973907472,2|0,0:1|0:0,0:1:0:0:
387,167,50562,1,2,0:1:0:0:
421,300,50715,2,0,P|444:335|482:353,1,85.4999973907472,2|0,0:1|0:0,0:0:0:0:
254,260,51023,6,0,B|206:230|147:263|147:263|129:238|129:238|71:290|-9:257,1,256.499992172241,6|0,0:1|0:0,0:0:0:0:
32,105,51638,1,8,0:0:0:0:
53,68,51714,1,2,0:1:0:0:
91,48,51791,1,2,0:1:0:0:
133,50,51868,1,2,0:1:0:0:
168,74,51946,1,2,0:1:0:0:
203,98,52023,1,2,0:1:0:0:
245,100,52100,1,2,0:1:0:0:
283,80,52177,1,2,0:1:0:0:
305,44,52254,6,0,P|268:23|226:23,1,85.4999973907472,6|0,0:1|0:0,0:0:0:0:
336,148,52562,1,2,0:0:0:0:
381,15,52715,2,0,P|385:57|411:90,1,85.4999973907472,2|2,0:1|0:0,0:0:0:0:
511,163,53023,1,2,0:1:0:0:
336,148,53177,1,2,0:1:0:0:
426,299,53331,1,2,0:1:0:0:
412,90,53485,6,0,P|441:46|486:38,1,85.4999973907472,2|2,0:1|0:0,0:0:0:0:
348,246,53792,1,8,0:0:0:0:
326,282,53868,1,8,0:0:0:0:
291,306,53945,1,8,0:0:0:0:
249,313,54022,1,8,0:0:0:0:
208,302,54099,5,8,0:0:0:0:
252,108,54254,1,2,0:1:0:0:
204,321,54408,1,8,0:0:0:0:
256,89,54562,1,0,0:1:0:0:
93,130,54715,5,12,0:0:0:0:
265,230,54869,1,2,0:1:0:0:
335,45,55023,1,2,0:1:0:0:
169,286,55177,5,12,0:0:0:0:
362,174,55331,1,2,0:1:0:0:
221,0,55485,1,2,0:1:0:0:
266,239,55638,5,12,0:0:0:0:
43,222,55792,1,2,0:1:0:0:
93,4,55946,1,2,0:1:0:0:
143,306,56100,5,12,0:0:0:0:
75,91,56254,1,2,0:1:0:0:
295,56,56408,1,2,0:1:0:0:
50,296,56562,5,8,0:0:0:0:
322,202,56715,1,2,0:1:0:0:
0,109,56870,1,8,0:0:0:0:
272,203,57023,1,2,0:1:0:0:
4,317,57177,5,12,0:0:0:0:
230,12,57331,1,8,0:0:0:0:
379,384,57638,5,12,0:0:0:0:
153,79,57792,1,8,0:0:0:0:
215,378,58100,5,12,0:0:0:0:
316,12,58254,1,8,0:0:0:0:
471,237,59485,6,0,P|506:177|487:110,1,142.500005435944,6|0,0:1|0:0,0:0:0:0:
334,142,59792,1,2,0:1:0:0:
389,296,59946,2,0,P|456:342|527:325,1,142.500005435944,8|0,0:0|0:0,0:0:0:0:
196,269,60254,2,0,P|117:276|70:340,1,142.500005435944,2|0,0:1|0:0,0:0:0:0:
283,355,60562,2,0,P|312:239|281:192,1,142.500005435944,8|0,0:0|0:0,0:0:0:0:
163,122,60869,5,2,0:1:0:0:
280,372,61023,1,2,0:0:0:0:
333,101,61177,1,8,0:0:0:0:
130,289,61331,1,2,0:0:0:0:
404,255,61485,1,2,0:1:0:0:
115,205,61638,2,0,P|52:240|41:308,1,142.500005435944,2|8,0:0|0:0,0:0:0:0:
404,255,61946,6,0,L|437:109,1,142.500005435944,2|2,0:0|0:1,0:0:0:0:
274,294,62254,1,2,0:0:0:0:
512,231,62408,1,8,0:0:0:0:
288,108,62562,2,0,L|166:35,1,142.500005435944,2|2,0:0|0:1,0:0:0:0:
268,222,62869,1,2,0:0:0:0:
312,0,63023,1,8,0:0:0:0:
143,192,63177,6,0,P|69:237|104:122,1,285.000010871888,2|0,0:0|0:0,0:0:0:0:
163,344,63638,2,0,P|74:371|16:353,1,142.500005435944,8|0,0:0|0:0,0:0:0:0:
253,250,63946,1,2,0:1:0:0:
345,348,64100,1,2,0:1:0:0:
397,369,64176,1,2,0:1:0:0:
452,362,64253,1,8,0:0:0:0:
497,328,64330,1,8,0:0:0:0:
512,276,64407,1,8,0:0:0:0:
512,220,64484,1,8,0:0:0:0:
479,175,64561,5,6,0:1:0:0:
323,131,64715,2,0,P|371:85|443:83,1,123.499994346619,2|8,0:0|0:0,0:0:0:0:
236,233,65023,2,0,P|188:187|116:185,1,123.499994346619,2|2,0:0|0:1,0:0:0:0:
323,335,65331,2,0,P|371:289|443:287,1,123.499994346619,2|8,0:0|0:0,0:0:0:0:
253,135,65638,1,2,0:0:0:0:
217,344,65792,1,2,0:1:0:0:
48,239,65946,6,0,P|27:153|65:104,1,123.499994346619,2|8,0:0|0:0,0:0:0:0:
254,120,66254,2,0,P|185:176|125:163,1,123.499994346619,2|2,0:0|0:1,0:0:0:0:
258,0,66562,2,0,P|341:30|360:89,1,123.499994346619,2|8,0:0|0:0,0:0:0:0:
175,93,66869,1,2,0:0:0:0:
321,236,67023,5,2,0:1:0:0:
477,82,67177,1,2,0:0:0:0:
319,150,67331,1,8,0:0:0:0:
477,302,67485,1,2,0:0:0:0:
326,66,67638,1,2,0:1:0:0:
294,336,67792,1,2,0:0:0:0:
512,192,67946,1,8,0:0:0:0:
219,175,68100,6,0,L|75:169,1,123.499994346619,6|0,0:1|0:0,0:0:0:0:
153,56,68408,1,8,0:0:0:0:
138,382,68562,2,0,L|145:238,1,123.499994346619,12|2,0:0|0:1,0:0:0:0:
5,72,68869,1,8,0:0:0:0:
49,39,68945,1,8,0:0:0:0:
103,33,69022,1,2,0:1:0:0:
153,56,69100,1,2,0:1:0:0:
203,79,69177,1,2,0:1:0:0:
257,73,69254,1,2,0:1:0:0:
301,40,69331,6,0,P|251:103|265:171,1,142.500005435944,6|0,0:1|0:0,0:0:0:0:
390,109,69638,1,2,0:0:0:0:
184,204,69792,2,0,P|252:245|330:208,1,142.500005435944,8|0,0:0|0:0,0:0:0:0:
89,111,70100,2,0,P|47:171|65:255,1,142.500005435944,2|0,0:1|0:0,0:0:0:0:
197,344,70408,2,0,L|33:369,1,142.500005435944,8|0,0:0|0:0,0:0:0:0:
251,131,70715,5,2,0:1:0:0:
301,384,70869,1,2,0:0:0:0:
487,207,71023,1,8,0:0:0:0:
233,257,71177,1,2,0:0:0:0:
480,353,71331,1,2,0:1:0:0:
430,99,71485,2,0,P|377:148|367:232,1,142.500005435944,2|8,0:0|0:0,0:0:0:0:
137,78,71792,6,0,L|287:47,1,142.500005435944,2|2,0:0|0:1,0:0:0:0:
207,201,72100,1,2,0:0:0:0:
105,2,72254,1,8,0:0:0:0:
87,210,72408,2,0,L|71:370,1,142.500005435944,2|2,0:0|0:1,0:0:0:0:
207,125,72715,1,2,0:0:0:0:
9,258,72869,1,8,0:0:0:0:
263,251,73023,6,0,P|288:358|198:294,1,285.000010871888,2|0,0:0|0:0,0:0:0:0:
390,244,73485,2,0,P|410:312|392:380,1,142.500005435944,12|0,0:0|0:0,0:0:0:0:
291,163,73792,1,8,0:0:0:0:
334,127,73868,1,8,0:0:0:0:
389,116,73945,1,8,0:0:0:0:
443,132,74023,1,8,0:0:0:0:
487,85,74100,1,8,0:0:0:0:
469,24,74177,1,8,0:0:0:0:
407,8,74254,1,8,0:0:0:0:
363,54,74331,1,8,0:0:0:0:
380,116,74408,5,6,0:1:0:0:
180,75,74562,2,0,P|137:61|89:-5,1,123.499994346619,2|8,0:0|0:0,0:0:0:0:
230,224,74869,2,0,P|273:210|321:144,1,123.499994346619,2|2,0:0|0:1,0:0:0:0:
180,373,75177,2,0,P|137:359|89:293,1,123.499994346619,2|8,0:0|0:0,0:0:0:0:
127,130,75485,1,2,0:0:0:0:
246,325,75638,1,2,0:1:0:0:
399,134,75792,6,0,P|347:71|293:72,1,123.499994346619,2|8,0:0|0:0,0:0:0:0:
410,315,76100,2,0,P|478:301|517:251,1,123.499994346619,2|2,0:0|0:1,0:0:0:0:
249,209,76408,2,0,P|228:275|253:333,1,123.499994346619,2|8,0:0|0:0,0:0:0:0:
359,205,76715,1,2,0:0:0:0:
111,274,76869,6,0,L|81:127,1,132.999995941162,2|0,0:1|0:0,0:0:0:0:
66,376,77177,1,8,0:0:0:0:
191,190,77331,1,2,0:0:0:0:
0,92,77485,2,0,L|30:239,1,132.999995941162,0|0,0:1|0:0,0:0:0:0:
156,342,77792,1,8,0:0:0:0:
156,113,77946,6,0,L|299:99,1,132.999995941162,6|0,0:1|0:0,0:0:0:0:
300,285,78254,1,2,0:1:0:0:
386,22,78408,2,0,L|429:149,1,132.999995941162,8|2,0:0|0:1,0:0:0:0:
236,22,78715,1,12,0:0:0:0:
213,288,78869,1,2,0:1:0:0:
428,147,79023,1,2,0:1:0:0:
110,128,79177,1,2,0:1:0:0:
373,294,79331,6,0,B|496:368|496:368|461:300,1,209.000006378174,6|0,0:1|0:0,0:0:0:0:
296,186,79792,1,2,0:1:0:0:
213,288,79946,2,0,P|241:340|320:346,1,104.500003189087,8|0,0:0|0:0,0:0:0:0:
131,222,80254,2,0,P|104:274|129:346,1,104.500003189087,2|0,0:1|0:0,0:0:0:0:
131,123,80562,5,6,0:1:0:0:
18,337,80715,1,8,0:0:0:0:
28,123,80869,1,2,0:1:0:0:
29,112,81023,1,2,0:1:0:0:
222,116,81177,2,0,P|199:58|126:36,1,104.500003189087,8|0,0:0|0:0,0:0:0:0:
238,223,81485,2,0,P|294:196|312:122,1,104.500003189087,2|0,0:1|0:0,0:0:0:0:
464,15,81792,6,0,L|457:237,1,209.000006378174,6|0,0:1|0:0,0:0:0:0:
350,93,82254,1,2,0:1:0:0:
238,223,82408,2,0,P|297:267|350:266,1,104.500003189087,8|0,0:0|0:0,0:0:0:0:
174,142,82715,2,0,P|133:203|136:256,1,104.500003189087,2|0,0:1|0:0,0:0:0:0:
243,344,83023,5,2,0:1:0:0:
55,182,83177,1,8,0:0:0:0:
251,102,83331,1,2,0:1:0:0:
264,97,83485,1,2,0:1:0:0:
376,338,83638,2,0,P|340:273|344:232,1,104.500003189087,8|0,0:0|0:0,0:0:0:0:
428,37,83946,2,0,L|381:138,1,104.500003189087,2|0,0:1|0:0,0:0:0:0:
164,362,84254,6,0,L|117:261,1,104.500003189087,6|0,0:1|0:0,0:0:0:0:
56,138,84562,1,2,0:1:0:0:
49,126,84715,1,2,0:1:0:0:
278,98,84869,2,0,P|225:65|169:69,1,104.500003189087,8|0,0:0|0:0,0:0:0:0:
319,196,85177,1,2,0:1:0:0:
281,10,85331,5,8,0:0:0:0:
257,251,85485,1,2,0:1:0:0:
419,48,85638,1,8,0:0:0:0:
128,24,85792,1,2,0:1:0:0:
111,22,85946,1,2,0:1:0:0:
96,286,86100,6,0,P|156:286|222:306,1,95,8|0,0:0|0:0,0:0:0:0:
426,353,86331,6,0,P|366:353|301:339,1,95,8|0,0:0|0:0,0:0:0:0:
257,251,86562,5,8,0:0:0:0:
23,349,86715,6,0,P|3:273|32:199,1,113.999996520996,6|0,0:1|0:0,0:0:0:0:
106,33,87023,1,8,0:0:0:0:
224,250,87177,1,2,0:1:0:0:
256,15,87331,1,8,0:0:0:0:
76,193,87485,1,2,0:1:0:0:
342,131,87638,1,8,0:0:0:0:
1,86,87792,1,2,0:1:0:0:
416,196,87946,5,12,0:0:0:0:
321,52,88100,1,2,0:0:0:0:
194,158,88254,1,2,0:0:0:0:
302,308,88408,2,0,L|311:199,1,85.4999973907472,2|0,0:0|0:0,0:0:0:0:
388,349,88715,1,2,0:0:0:0:
194,158,88869,2,0,P|113:113|170:200,1,256.499992172241,2|0,0:0|0:0,0:0:0:0:
