osu file format v14

[General]
AudioFilename: audio.mp3
AudioLeadIn: 0
PreviewTime: 55949
Countdown: 0
SampleSet: Soft
StackLeniency: 0.7
Mode: 0
LetterboxInBreaks: 0
WidescreenStoryboard: 1

[Editor]
DistanceSpacing: 1
BeatDivisor: 2
GridSize: 8
TimelineZoom: 1.9

[Metadata]
Title:Tada Kimi ni Hare
TitleUnicode:ただ君に晴れ
Artist:Yorushika
ArtistUnicode:ヨルシカ
Creator:GreenHue
Version:Normal
Source:
Tags:makeinu ni encore wa iranai '負け犬にアンコールはいらない suis tada kimi ni hare nbuna KKipalt Ultima Fox defiance osuskrub jennglebells quanhitter39 just a another sunny day for you
BeatmapID:1781024
BeatmapSetID:847238

[Difficulty]
HPDrainRate:3.5
CircleSize:3.2
OverallDifficulty:3.8
ApproachRate:4.5
SliderMultiplier:1.3
SliderTickRate:1

[Events]
//Background and Video events
0,0,"593482.jpg",0,0
//Break Periods
2,69837,71806
2,114408,116377
2,134980,138663
2,179551,181520
//Storyboard Layer 0 (Background)
//Storyboard Layer 1 (Fail)
//Storyboard Layer 2 (Pass)
//Storyboard Layer 3 (Foreground)
//Storyboard Sound Samples

[TimingPoints]
1066,428.571428571429,4,2,1,60,1,0
14351,-100,4,2,1,60,0,0
55923,-100,4,2,1,72,0,1
58816,-100,4,2,1,5,0,1
58923,-100,4,2,1,72,0,1
59244,-100,4,2,1,5,0,1
59351,-100,4,2,1,72,0,1
67173,-100,4,2,1,5,0,1
67280,-100,4,2,1,72,0,1
68030,-100,4,2,1,5,0,1
68137,-100,4,2,1,72,0,1
68780,-100,4,2,1,60,0,1
69637,-100,4,2,1,60,0,0
121066,-100,4,2,1,72,0,1
123958,-100,4,2,1,5,0,1
124066,-100,4,2,1,72,0,1
124387,-100,4,2,1,5,0,1
124494,-100,4,2,1,72,0,1
132316,-100,4,2,1,5,0,1
132423,-100,4,2,1,72,0,1
133173,-100,4,2,1,5,0,1
133280,-100,4,2,1,72,0,1
134780,-100,4,2,1,60,0,0
165637,-100,4,2,1,72,0,1
168530,-100,4,2,1,5,0,1
168637,-100,4,2,1,72,0,1
179351,-100,4,2,1,60,0,0

[Colours]
Combo1 : 206,206,206
Combo2 : 62,158,255
Combo3 : 255,111,131
Combo4 : 128,255,128

[HitObjects]
60,59,14780,5,4,3:2:0:0:
152,149,15208,2,0,L|220:132,1,65,8|2,0:0|0:3,0:0:0:0:
258,84,15637,2,0,L|390:85,1,130,0|8,3:0|0:0,0:0:0:0:
453,85,16280,2,0,P|436:146|459:220,2,130,2|2|2,3:3|3:3|0:3,0:0:0:0:
347,161,17566,1,2,3:3:0:0:
347,161,17780,2,0,P|352:199|365:239,1,65,8|2,0:0|0:3,0:0:0:0:
380,285,18208,5,0,3:2:0:0:
268,352,18637,2,0,L|188:346,1,65,8|2,0:0|0:3,0:0:0:0:
161,296,19066,2,0,L|17:305,1,130,0|8,3:0|0:0,0:0:0:0:
23,239,19708,2,0,P|15:154|-22:110,2,130,2|2|2,3:3|3:3|0:3,0:0:0:0:
97,132,20994,2,0,L|171:90,2,65,8|8|8,3:2|3:2|3:2,0:0:0:0:
63,75,21637,5,4,3:2:0:0:
176,10,22066,2,0,P|203:21|232:49,1,65,8|2,0:0|0:3,0:0:0:0:
273,92,22494,2,0,L|263:244,1,130,0|8,3:0|0:0,0:0:0:0:
247,284,23137,2,0,P|183:260|109:294,2,130,2|2|2,3:3|3:3|0:3,0:0:0:0:
377,286,24423,1,2,3:3:0:0:
377,286,24637,2,0,L|399:193,1,65,8|2,0:0|0:3,0:0:0:0:
438,177,25066,6,0,L|434:45,1,130,0|8,3:2|0:0,0:0:0:0:
373,24,25708,1,2,0:3:0:0:
312,49,25923,2,0,L|309:128,2,65,0|2|8,3:0|3:3|0:0,0:0:0:0:
258,12,26566,2,0,P|199:27|120:1,2,130,2|2|8,3:3|3:3|0:0,0:0:0:0:
193,131,27851,1,0,3:0:0:0:
193,131,28066,2,0,P|182:165|196:216,1,65,8|4,0:0|0:3,0:0:0:0:
230,240,28494,6,0,P|292:224|352:245,1,130,4|8,3:2|0:0,0:0:0:0:
348,375,29351,2,0,P|281:346|225:369,1,130,0|8,3:0|0:0,0:0:0:0:
176,328,29994,2,0,L|31:330,1,130,0|0,3:0|3:0,0:0:0:0:
1,205,30851,1,0,0:0:0:0:
58,88,31280,1,0,3:0:0:0:
58,88,31494,2,0,L|134:87,1,65,8|0,0:0|0:0,0:0:0:0:
181,57,31923,6,0,P|154:116|166:200,1,130,0|8,3:2|0:0,0:0:0:0:
223,292,32780,2,0,L|369:290,1,130,0|8,3:0|0:0,0:0:0:0:
417,284,33423,2,0,P|445:222|428:139,1,130,0|0,3:0|3:0,0:0:0:0:
452,32,34280,2,0,P|395:66|319:58,1,130,0|0,0:0|3:0,0:0:0:0:
275,32,34923,2,0,L|205:42,1,65,8|0,0:0|0:0,0:0:0:0:
150,65,35351,6,2,B|132:101|132:101|168:201,2,130,0|8|0,3:2|0:0|3:0,0:0:0:0:
42,137,36637,1,8,0:0:0:0:
42,137,36851,2,0,L|94:275,1,130,0|0,3:0|3:0,0:0:0:0:
154,370,37708,1,0,0:0:0:0:
247,279,38137,1,0,3:0:0:0:
247,279,38351,2,0,P|281:273|323:282,1,65,8|0,0:0|0:0,0:0:0:0:
368,307,38780,6,0,L|351:221,1,65,0|0,3:2|0:0,0:0:0:0:
390,188,39208,2,0,L|381:115,1,65,8|0,0:0|0:0,0:0:0:0:
409,64,39637,2,0,P|359:86|272:72,1,130,0|8,3:0|0:0,0:0:0:0:
227,48,40280,2,0,L|85:58,2,130,0|0|0,3:0|3:0|0:0,0:0:0:0:
162,160,41566,1,8,0:3:0:0:
162,160,41780,2,0,P|162:192|173:222,1,65,8|2,0:0|0:3,0:0:0:0:
220,267,42208,6,0,L|379:261,1,130,4|8,3:2|0:0,0:0:0:0:
264,163,43066,1,0,3:0:0:0:
290,35,43494,1,8,0:0:0:0:
290,35,43708,2,0,P|226:37|162:88,2,130,0|0|0,3:0|3:0|0:0,0:0:0:0:
411,80,44994,1,0,3:0:0:0:
411,80,45208,2,0,L|416:152,1,65,8|0,0:0|0:0,0:0:0:0:
453,197,45637,6,0,L|450:343,1,130,0|8,3:2|0:0,0:0:0:0:
334,266,46494,2,0,P|257:254|184:270,1,130,0|8,3:0|0:0,0:0:0:0:
143,281,47137,2,0,P|109:287|73:285,1,65,0|0,3:0|0:0,0:0:0:0:
17,264,47566,2,0,L|26:199,1,65,0|8,3:0|0:0,0:0:0:0:
11,136,47994,2,0,L|11:56,1,65,0|0,0:0|3:0,0:0:0:0:
113,55,48637,2,0,P|140:62|183:53,1,65,8|0,0:0|0:0,0:0:0:0:
232,89,49066,6,0,P|291:80|361:91,1,130,0|8,3:2|0:0,0:0:0:0:
482,50,49923,2,0,B|461:77|461:77|454:192,1,130,0|8,3:0|0:0,0:0:0:0:
448,237,50566,2,0,B|389:219|389:219|386:215|386:215|316:245,2,130,0|0|0,3:0|3:0|0:0,0:0:0:0:
356,329,51851,1,0,3:0:0:0:
356,329,52066,2,0,P|315:329|280:318,1,65,8|0,0:0|0:0,0:0:0:0:
235,291,52494,5,0,3:2:0:0:
125,219,52923,2,0,P|104:285|127:366,1,130,8|0,0:0|3:0,0:0:0:0:
28,246,53780,1,8,0:0:0:0:
28,246,53994,1,8,3:2:0:0:
13,116,54423,2,0,L|159:77,1,130,8|8,3:2|3:2,0:0:0:0:
198,56,55066,1,8,3:2:0:0:
18,367,55923,6,0,P|84:386|162:357,1,130,6|10,3:2|0:0,0:0:0:0:
196,335,56566,1,0,0:0:0:0:
253,304,56780,2,0,P|312:289|393:309,1,130,2|10,3:2|0:0,0:0:0:0:
439,186,57637,6,0,P|470:192|518:179,1,65,2|0,3:2|0:0,0:0:0:0:
497,121,58066,2,0,L|490:43,1,65,10|0,0:0|0:0,0:0:0:0:
446,9,58494,1,2,3:2:0:0:
334,75,58923,1,10,0:0:0:0:
220,8,59351,2,0,L|66:17,1,130,2|10,3:2|0:0,0:0:0:0:
30,41,59994,1,0,0:0:0:0:
10,102,60208,2,0,P|1:166|15:247,1,130,2|10,3:2|0:0,0:0:0:0:
127,291,61066,6,0,P|163:283|200:266,1,65,2|0,3:2|0:0,0:0:0:0:
221,216,61494,2,0,L|221:138,2,65,10|0|2,0:0|0:0|3:2,0:0:0:0:
266,262,62137,1,8,0:1:0:0:
266,262,62351,2,0,P|300:272|351:277,1,65,8|0,0:1|3:0,0:0:0:0:
385,244,62780,6,0,P|392:181|400:109,1,130,6|10,3:2|0:0,0:0:0:0:
403,49,63423,1,0,0:0:0:0:
350,11,63637,2,0,P|254:5|197:12,1,130,2|10,3:2|0:0,0:0:0:0:
105,69,64494,6,0,L|110:150,1,65,2|0,3:2|0:0,0:0:0:0:
150,183,64923,2,0,L|145:264,1,65,10|0,0:0|0:0,0:0:0:0:
192,292,65351,2,0,P|227:296|271:285,2,65,2|0|10,3:2|3:0|0:0,0:0:0:0:
271,188,66208,6,0,L|271:36,1,130,4|8,3:2|0:0,0:0:0:0:
316,11,66851,2,0,P|391:0|455:14,1,130,4|0,3:2|3:0,0:0:0:0:
486,58,67494,1,8,0:0:0:0:
434,97,67708,2,0,B|409:123|409:123|428:238,1,130,4|0,3:2|3:0,0:0:0:0:
436,279,68351,6,0,L|447:352,1,65,10|0,0:0|3:0,0:0:0:0:
392,381,68780,2,0,L|195:375,1,195,8|0,0:3|0:0,0:0:0:0:
132,367,69637,5,0,3:0:0:0:
452,59,73066,5,4,3:2:0:0:
364,155,73494,2,0,P|328:153|287:160,1,65,8|2,0:0|0:3,0:0:0:0:
272,97,73923,2,0,P|210:111|140:98,1,130,0|8,3:0|0:0,0:0:0:0:
92,61,74566,2,0,L|76:197,2,130,2|2|2,3:3|3:3|0:3,0:0:0:0:
168,165,75852,1,2,3:3:0:0:
168,165,76066,2,0,L|155:249,1,65,8|2,0:0|0:3,0:0:0:0:
148,293,76494,5,0,3:2:0:0:
261,356,76923,2,0,P|289:343|341:350,1,65,8|2,0:0|0:3,0:0:0:0:
351,284,77352,2,0,P|415:302|495:293,1,130,0|8,3:0|0:0,0:0:0:0:
497,236,77994,2,0,L|482:104,2,130,2|2|2,3:3|3:3|0:3,0:0:0:0:
377,185,79280,2,0,L|290:188,2,65,8|8|8,3:2|3:2|3:2,0:0:0:0:
400,124,79923,5,4,3:2:0:0:
316,23,80352,2,0,L|230:30,1,65,8|2,0:0|0:3,0:0:0:0:
204,73,80780,2,0,P|221:127|214:225,1,130,0|8,3:0|0:0,0:0:0:0:
214,264,81423,2,0,P|273:255|349:270,2,130,2|2|2,3:3|3:3|0:3,0:0:0:0:
118,352,82709,1,2,3:3:0:0:
118,352,82923,2,0,L|99:281,1,65,8|2,0:0|0:3,0:0:0:0:
74,229,83352,6,0,L|78:97,1,130,0|0,3:2|0:0,0:0:0:0:
135,68,83994,1,2,0:3:0:0:
198,53,84209,2,0,L|210:120,2,65,0|0|8,3:0|0:0|0:0,0:0:0:0:
260,33,84852,2,0,L|400:40,2,130,2|0|0,3:3|0:0|0:0,0:0:0:0:
333,140,86137,1,0,3:0:0:0:
333,140,86351,2,0,L|404:144,1,65,8|4,0:0|0:3,0:0:0:0:
461,129,86780,6,0,B|437:176|437:176|436:272,2,130,4|8|0,3:2|0:0|0:0,0:0:0:0:
374,31,88066,1,8,0:0:0:0:
374,31,88280,2,0,P|303:45|238:27,2,130,0|0|0,3:0|0:0|0:0,0:0:0:0:
301,139,89566,1,0,0:0:0:0:
301,139,89780,2,0,P|268:135|224:141,1,65,8|0,0:0|3:0,0:0:0:0:
181,171,90208,5,0,3:0:0:0:
53,143,90637,2,0,P|42:195|88:273,1,130,8|0,0:0|0:0,0:0:0:0:
192,315,91494,1,8,0:0:0:0:
192,315,91708,2,0,L|325:312,2,130,0|0|4,3:0|0:0|0:3,0:0:0:0:
252,199,92994,2,0,L|186:202,2,65,0|12|0,3:0|0:0|0:0,0:0:0:0:
317,196,93637,6,0,P|300:129|317:73,1,130,4|8,3:2|0:0,0:0:0:0:
445,49,94494,2,0,P|459:109|433:183,1,130,0|8,0:0|0:0,0:0:0:0:
405,228,95137,2,0,P|398:295|429:374,2,130,0|0|0,0:0|0:0|0:0,0:0:0:0:
294,296,96423,1,0,0:0:0:0:
294,296,96637,2,0,L|229:291,1,65,8|0,0:0|3:0,0:0:0:0:
182,245,97066,6,0,L|193:160,1,65,0|0,3:0|0:0,0:0:0:0:
200,116,97494,2,0,P|131:132|57:106,1,130,8|0,0:0|0:0,0:0:0:0:
137,3,98351,1,8,0:0:0:0:
137,3,98566,1,0,0:0:0:0:
262,36,98994,1,2,3:2:0:0:
262,36,99208,2,0,L|352:23,2,65,8|8|4,0:0|0:3|0:3,0:0:0:0:
376,98,100066,1,8,0:0:0:0:
283,188,100494,5,4,3:2:0:0:
373,281,100923,2,0,L|377:206,1,65,8|0,0:0|0:0,0:0:0:0:
370,151,101351,2,0,P|344:113|241:108,1,130,0|8,3:0|0:0,0:0:0:0:
206,123,101994,2,0,B|139:138|139:138|59:119,2,130,0|0|0,3:0|3:0|0:0,0:0:0:0:
77,223,103280,1,0,3:0:0:0:
77,223,103494,2,0,L|70:305,1,65,8|0,0:0|0:0,0:0:0:0:
45,347,103923,6,0,L|205:327,1,130,0|8,3:2|0:0,0:0:0:0:
272,245,104780,1,0,3:0:0:0:
389,301,105208,1,8,0:0:0:0:
389,301,105423,2,0,P|402:240|377:176,2,130,0|0|0,3:0|3:0|0:0,0:0:0:0:
485,213,106708,1,0,3:0:0:0:
485,213,106923,2,0,P|472:169|454:137,1,65,8|0,0:0|0:0,0:0:0:0:
427,97,107351,5,0,3:2:0:0:
326,47,107780,2,0,L|259:57,1,65,8|0,0:0|0:0,0:0:0:0:
199,74,108208,2,0,L|66:70,1,130,0|8,3:0|0:0,0:0:0:0:
30,122,108851,2,0,P|54:194|39:254,2,130,0|0|0,3:0|3:0|0:0,0:0:0:0:
148,174,110137,1,0,3:0:0:0:
148,174,110351,2,0,L|241:173,1,65,8|0,0:0|0:0,0:0:0:0:
278,170,110780,5,0,3:2:0:0:
318,46,111208,2,0,P|346:54|382:87,1,65,8|0,0:0|0:0,0:0:0:0:
414,126,111637,2,0,L|418:264,1,130,0|8,3:0|0:0,0:0:0:0:
419,321,112280,1,2,3:2:0:0:
304,260,112708,1,2,3:2:0:0:
188,319,113137,1,10,0:0:0:0:
188,319,113351,2,0,P|151:318|115:328,1,65,8|8,0:0|0:3,0:0:0:0:
58,325,113780,2,0,L|64:244,1,65,4|10,0:3|0:0,0:0:0:0:
71,195,114208,5,0,0:0:0:0:
249,75,117637,6,0,L|404:68,1,130,0|0,3:0|0:0,0:0:0:0:
458,172,118494,2,0,L|307:178,1,130,8|0,0:0|0:0,0:0:0:0:
263,183,119137,1,8,0:3:0:0:
326,296,119566,1,4,0:3:0:0:
451,263,119994,1,4,0:3:0:0:
451,263,120208,2,0,P|449:222|490:130,1,130,4|8,3:2|0:0,0:0:0:0:
494,17,121066,6,0,P|428:-2|350:27,1,130,4|8,3:2|0:0,0:0:0:0:
316,49,121709,1,0,0:0:0:0:
261,84,121923,2,0,L|121:79,1,130,0|8,3:1|0:0,0:0:0:0:
20,147,122780,6,0,L|30:228,1,65,2|0,3:1|0:0,0:0:0:0:
73,257,123209,2,0,L|80:335,1,65,8|0,0:0|0:0,0:0:0:0:
124,367,123637,1,0,3:1:0:0:
223,283,124066,1,8,0:0:0:0:
315,373,124494,2,0,P|374:386|464:356,1,130,2|8,3:1|0:0,0:0:0:0:
483,321,125137,1,2,0:1:0:0:
448,265,125351,2,0,P|439:229|448:136,1,130,2|8,3:1|0:0,0:0:0:0:
358,42,126209,6,0,P|322:50|285:67,1,65,2|0,3:1|0:0,0:0:0:0:
235,84,126637,2,0,L|146:55,2,65,8|0|0,0:0|0:0|3:1,0:0:0:0:
268,140,127280,1,8,0:1:0:0:
268,140,127494,2,0,P|278:173|283:224,1,65,8|0,0:1|0:0,0:0:0:0:
226,237,127923,6,0,L|84:253,1,130,4|8,3:2|0:0,0:0:0:0:
54,301,128566,1,0,0:0:0:0:
88,356,128780,2,0,L|236:344,1,130,0|8,3:1|0:0,0:0:0:0:
347,343,129637,6,0,L|342:262,1,65,0|0,3:0|0:0,0:0:0:0:
375,221,130066,2,0,L|380:140,1,65,8|0,0:0|0:0,0:0:0:0:
331,112,130494,2,0,P|296:108|252:119,2,65,0|0|8,3:0|3:0|0:0,0:0:0:0:
223,38,131351,6,0,P|154:49|71:38,1,130,4|8,3:2|0:0,0:0:0:0:
30,29,131994,2,0,P|40:92|28:156,1,130,4|0,3:2|3:0,0:0:0:0:
8,218,132637,1,8,0:0:0:0:
38,275,132851,2,0,L|180:285,1,130,4|0,3:2|3:0,0:0:0:0:
207,252,133494,1,10,0:0:0:0:
308,333,133923,2,0,P|366:318|466:315,1,130,0|10,3:3|0:0,0:0:0:0:
456,184,134780,5,0,3:0:0:0:
70,85,139923,6,0,L|69:154,1,65,0|0,3:0|3:0,0:0:0:0:
208,286,140780,2,0,L|208:350,2,65,0|0|2,3:0|3:0|3:2,0:0:0:0:
306,201,141637,5,4,3:2:0:0:
416,268,142066,1,8,0:0:0:0:
478,153,142494,2,0,P|483:118|469:66,2,65,0|0|8,3:0|3:0|0:0,0:0:0:0:
416,268,143351,5,0,3:0:0:0:
306,201,143780,1,8,0:0:0:0:
198,274,144208,2,0,P|170:280|124:266,2,65,0|0|8,3:0|3:0|0:0,0:0:0:0:
125,165,145066,6,0,P|113:96|130:34,1,130,4|8,3:2|0:0,0:0:0:0:
186,11,145708,6,0,L|330:16,1,130,6|0,3:2|3:0,0:0:0:0:
381,18,146351,1,8,0:0:0:0:
446,21,146566,2,0,P|455:108|432:169,1,130,4|0,3:2|0:0,0:0:0:0:
397,193,147208,1,8,0:0:0:0:
328,303,147637,1,4,0:0:0:0:
227,219,148066,1,8,0:0:0:0:
133,309,148494,1,4,0:0:0:0:
133,309,148708,2,0,L|49:313,1,65,2|0,0:0|0:0,0:0:0:0:
66,181,149351,2,0,L|1:181,2,65,2|0|0,0:0|0:0|0:0,0:0:0:0:
113,136,149994,1,2,0:0:0:0:
153,85,150208,6,0,P|219:72|288:87,1,130,4|8,3:2|0:0,0:0:0:0:
344,196,151066,2,0,P|284:214|212:196,1,130,4|8,3:2|0:0,0:0:0:0:
103,258,151923,6,0,P|99:285|100:325,1,65,4|0,3:2|0:0,0:0:0:0:
145,368,152351,2,0,P|181:373|237:369,1,65,8|0,0:0|0:0,0:0:0:0:
273,358,152780,1,0,3:0:0:0:
402,344,153208,1,8,0:0:0:0:
481,240,153637,6,0,L|478:172,1,65,0|0,3:0|0:0,0:0:0:0:
431,128,154066,2,0,L|434:60,1,65,8|0,0:0|0:0,0:0:0:0:
381,24,154494,1,0,3:0:0:0:
255,58,154923,1,8,0:0:0:0:
131,98,155351,6,0,L|57:122,1,65,0|0,3:0|0:0,0:0:0:0:
33,172,155780,2,0,P|30:204|39:250,1,65,8|0,0:0|0:0,0:0:0:0:
63,294,156208,1,0,3:0:0:0:
172,224,156637,1,8,0:0:0:0:
276,301,157066,6,0,P|338:312|415:296,1,130,0|8,3:0|0:0,0:0:0:0:
463,185,157923,1,0,3:0:0:0:
463,185,158137,2,0,L|465:104,1,65,8|8,3:1|0:1,0:0:0:0:
352,54,158780,6,0,L|350:146,1,65,0|0,3:0|0:0,0:0:0:0:
312,171,159208,2,0,L|314:263,1,65,8|0,0:0|0:0,0:0:0:0:
261,275,159637,2,0,P|201:263|129:281,1,130,0|8,3:0|0:0,0:0:0:0:
4,279,160494,6,0,P|-2:236|8:202,1,65,0|0,3:0|0:0,0:0:0:0:
52,173,160923,2,0,P|56:139|52:108,1,65,8|0,0:0|0:0,0:0:0:0:
57,43,161351,2,0,P|15:50|-35:44,2,65,0|0|8,3:0|3:0|0:0,0:0:0:0:
185,25,162208,1,0,3:0:0:0:
52,173,162851,1,0,0:0:0:0:
304,112,163708,1,0,0:0:0:0:
494,367,165637,6,0,L|350:357,1,130,4|10,3:2|0:0,0:0:0:0:
309,322,166280,1,0,0:0:0:0:
334,262,166494,2,0,L|474:257,1,130,2|10,3:2|0:0,0:0:0:0:
366,170,167351,6,0,L|376:89,1,65,2|0,3:2|0:0,0:0:0:0:
335,52,167780,2,0,P|297:40|246:48,1,65,10|0,0:0|0:0,0:0:0:0:
212,66,168208,1,2,3:2:0:0:
101,134,168637,1,10,0:0:0:0:
56,257,169065,2,0,P|115:244|205:274,1,130,2|10,3:2|0:0,0:0:0:0:
228,305,169708,1,0,0:0:0:0:
284,337,169922,2,0,P|320:346|412:336,1,130,2|10,3:2|0:0,0:0:0:0:
472,221,170780,6,0,L|466:142,1,65,2|0,3:2|0:0,0:0:0:0:
403,144,171208,2,0,L|403:68,2,65,10|0|2,0:0|0:0|3:2,0:0:0:0:
353,185,171851,1,8,0:1:0:0:
353,185,172065,2,0,P|321:191|277:182,1,65,8|0,0:1|3:0,0:0:0:0:
234,150,172494,6,0,L|87:158,1,130,6|10,3:2|0:0,0:0:0:0:
58,110,173137,1,0,0:0:0:0:
92,54,173351,2,0,L|240:42,1,130,2|10,3:2|0:0,0:0:0:0:
350,28,174208,6,0,P|339:63|345:109,1,65,2|0,3:2|0:0,0:0:0:0:
382,140,174637,2,0,P|388:176|387:221,1,65,10|0,0:0|0:0,0:0:0:0:
352,258,175065,2,0,P|306:271|262:260,2,65,2|0|10,3:2|3:0|0:0,0:0:0:0:
272,361,175922,6,0,P|203:350|120:361,1,130,4|8,3:2|0:0,0:0:0:0:
78,351,176565,2,0,L|54:204,1,130,4|0,3:2|3:0,0:0:0:0:
95,170,177208,1,8,0:0:0:0:
137,121,177422,2,0,P|197:104|279:111,1,130,4|0,3:2|3:0,0:0:0:0:
325,128,178066,2,0,L|401:122,2,65,10|0|8,0:0|3:0|0:3,0:0:0:0:
225,212,178923,1,10,0:0:0:0:
339,273,179351,5,0,3:0:0:0:
413,301,182780,5,4,3:2:0:0:
321,211,183208,2,0,P|286:205|250:212,1,65,8|2,0:0|0:3,0:0:0:0:
221,264,183637,2,0,P|154:277|89:263,1,130,0|8,3:0|0:0,0:0:0:0:
35,235,184280,2,0,P|18:174|41:100,2,130,2|2|2,3:3|3:3|0:3,0:0:0:0:
149,172,185566,1,2,3:3:0:0:
149,172,185780,2,0,L|231:173,1,65,8|2,0:0|0:3,0:0:0:0:
265,133,186208,5,0,3:2:0:0:
248,3,186637,2,0,P|278:1|314:8,1,65,8|2,0:0|0:3,0:0:0:0:
365,45,187066,2,0,P|425:58|509:36,1,130,0|8,3:0|0:0,0:0:0:0:
485,109,187708,2,0,B|473:168|473:168|483:254,2,130,2|2|2,3:3|3:3|0:3,0:0:0:0:
384,191,188994,2,0,L|393:259,2,65,8|8|8,3:2|3:2|3:2,0:0:0:0:
373,126,189637,5,4,3:2:0:0:
286,223,190066,2,0,P|259:212|217:226,1,65,8|2,0:0|0:3,0:0:0:0:
176,262,190494,2,0,L|31:258,1,130,0|8,3:0|0:0,0:0:0:0:
3,208,191137,2,0,B|-7:147|-7:147|14:62,2,130,2|2|2,3:3|3:3|0:3,0:0:0:0:
123,149,192423,1,2,3:3:0:0:
123,149,192637,2,0,L|218:152,1,65,8|2,0:0|0:3,0:0:0:0:
245,182,193066,6,0,L|248:315,1,130,0|8,3:2|0:0,0:0:0:0:
312,319,193708,1,2,0:3:0:0:
375,332,193923,2,0,L|438:388,2,65,0|2|8,3:0|3:3|0:0,0:0:0:0:
408,275,194566,2,0,P|430:213|412:134,1,130,2|2,3:3|3:3,0:0:0:0:
354,38,195423,1,8,0:0:0:0:
276,142,195851,1,0,3:0:0:0:
276,142,196066,2,0,P|212:156|141:146,1,130,8|0,0:0|0:0,0:0:0:0:
