osu file format v14

[General]
AudioFilename: audio.mp3
AudioLeadIn: 0
PreviewTime: 55949
Countdown: 0
SampleSet: Soft
StackLeniency: 0.7
Mode: 0
LetterboxInBreaks: 0
WidescreenStoryboard: 0

[Editor]
DistanceSpacing: 1.3
BeatDivisor: 6
GridSize: 8
TimelineZoom: 1.9

[Metadata]
Title:Tada Kimi ni Hare
TitleUnicode:ただ君に晴れ
Artist:Yorushika
ArtistUnicode:ヨルシカ
Creator:GreenHue
Version:Insane
Source:
Tags:makeinu ni encore wa iranai '負け犬にアンコールはいらない suis tada kimi ni hare nbuna KKipalt Ultima Fox defiance osuskrub jennglebells quanhitter39 just a another sunny day for you
BeatmapID:1771879
BeatmapSetID:847238

[Difficulty]
HPDrainRate:6
CircleSize:4
OverallDifficulty:7
ApproachRate:8.5
SliderMultiplier:2
SliderTickRate:1

[Events]
//Background and Video events
0,0,"593482.jpg",0,0
//Break Periods
2,69837,71533
2,114408,116748
2,134765,138819
2,179551,181462
//Storyboard Layer 0 (Background)
//Storyboard Layer 1 (Fail)
//Storyboard Layer 2 (Pass)
//Storyboard Layer 3 (Foreground)
//Storyboard Sound Samples

[TimingPoints]
1066,428.571428571429,4,2,1,60,1,0
14351,-166.666666666667,4,2,1,60,0,0
14780,-100,4,2,1,60,0,0
28494,-125,4,2,1,60,0,0
29137,-125,4,2,1,60,0,0
42208,-111.111111111111,4,2,1,60,0,0
54423,-90.9090909090909,4,2,1,60,0,0
55923,-100,4,2,1,72,0,1
56780,-100,4,2,1,72,0,1
57208,-100,4,2,1,72,0,1
58494,-100,4,2,1,72,0,1
58816,-100,4,2,1,5,0,1
58923,-100,4,2,1,72,0,1
59244,-100,4,2,1,5,0,1
59351,-100,4,2,1,72,0,1
67173,-100,4,2,1,5,0,1
67280,-100,4,2,1,72,0,1
68030,-100,4,2,1,5,0,1
68137,-100,4,2,1,72,0,1
68780,-125,4,2,1,60,0,0
72637,-166.666666666667,4,2,1,60,0,0
73066,-100,4,2,1,60,0,0
86780,-125,4,2,1,60,0,0
100494,-111.111111111111,4,2,1,60,0,0
117637,-125,4,2,1,60,0,0
121066,-100,4,2,1,72,0,1
123958,-100,4,2,1,5,0,1
124066,-100,4,2,1,72,0,1
124387,-100,4,2,1,5,0,1
124494,-100,4,2,1,72,0,1
132316,-100,4,2,1,5,0,1
132423,-100,4,2,1,72,0,1
133173,-100,4,2,1,5,0,1
133280,-100,4,2,1,72,0,1
134780,-125,4,2,1,60,0,0
165637,-100,4,2,1,72,0,1
168530,-100,4,2,1,5,0,1
168637,-100,4,2,1,72,0,1
179351,-100,4,2,1,60,0,0
182137,-166.666666666667,4,2,1,60,0,0
182780,-100,4,2,1,60,0,0

[Colours]
Combo1 : 212,212,212
Combo2 : 62,158,255
Combo3 : 255,111,131
Combo4 : 128,255,128

[HitObjects]
22,52,14137,5,0,3:0:0:0:
80,125,14351,2,0,P|86:158|76:192,1,59.9999981689454,4|0,0:1|0:0,0:0:0:0:
152,1,14780,1,4,3:2:0:0:
257,118,14994,1,2,0:3:0:0:
284,118,15066,1,0,0:0:0:0:
309,117,15137,1,0,0:0:0:0:
333,116,15208,1,8,0:0:0:0:
425,44,15423,1,2,0:3:0:0:
165,95,15637,5,0,3:0:0:0:
273,201,15851,1,2,3:3:0:0:
289,200,15923,1,0,0:0:0:0:
305,200,15994,1,0,0:0:0:0:
321,201,16065,1,8,0:0:0:0:
425,138,16280,1,2,3:3:0:0:
174,189,16494,5,0,0:0:0:0:
285,293,16708,1,2,3:3:0:0:
295,293,16780,1,0,0:0:0:0:
304,294,16851,1,0,0:0:0:0:
313,294,16922,1,8,0:0:0:0:
413,234,17137,1,2,0:3:0:0:
185,282,17351,1,0,3:3:0:0:
335,200,17566,2,0,L|331:145,1,50,2|0,3:3|0:0,0:0:0:0:
156,98,17780,2,0,P|235:99|279:49,1,150,8|0,0:0|0:0,0:0:0:0:
40,30,18208,5,0,3:2:0:0:
158,130,18423,1,2,0:3:0:0:
158,157,18495,1,0,0:0:0:0:
159,182,18566,1,0,0:0:0:0:
160,206,18637,1,8,0:0:0:0:
83,303,18851,1,2,0:3:0:0:
134,43,19065,5,0,3:0:0:0:
251,145,19280,1,2,3:3:0:0:
252,161,19352,1,0,0:0:0:0:
253,177,19423,1,0,0:0:0:0:
253,193,19494,1,8,0:0:0:0:
186,313,19708,1,2,3:3:0:0:
331,151,19922,5,0,0:0:0:0:
284,347,20137,1,2,3:3:0:0:
174,162,20351,1,8,0:0:0:0:
181,337,20566,1,2,0:3:0:0:
300,186,20780,1,0,0:0:0:0:
121,242,20994,5,8,3:2:0:0:
262,103,21208,1,8,3:2:0:0:
355,274,21423,1,8,3:2:0:0:
421,61,21637,5,4,3:2:0:0:
312,185,21851,1,2,0:3:0:0:
285,183,21923,1,0,0:0:0:0:
261,183,21994,1,0,0:0:0:0:
236,183,22065,1,8,0:0:0:0:
148,104,22280,1,2,0:3:0:0:
408,155,22494,5,0,3:0:0:0:
292,270,22708,1,2,3:3:0:0:
276,271,22780,1,0,0:0:0:0:
260,272,22851,1,0,0:0:0:0:
244,272,22922,1,8,0:0:0:0:
148,198,23137,1,2,3:3:0:0:
399,249,23351,5,0,0:0:0:0:
280,354,23566,1,2,3:3:0:0:
271,354,23637,1,0,0:0:0:0:
262,353,23708,1,0,0:0:0:0:
252,353,23780,1,8,0:0:0:0:
160,294,23994,1,2,0:3:0:0:
237,175,24208,1,0,3:3:0:0:
73,223,24423,2,0,L|60:139,1,50,2|0,3:3|0:0,0:0:0:0:
135,35,24637,2,0,L|151:141,1,100,8|2,0:0|0:3,0:0:0:0:
149,133,24958,1,0,0:0:0:0:
149,133,25066,5,0,3:2:0:0:
235,1,25280,1,2,0:3:0:0:
249,38,25387,1,0,0:0:0:0:
274,68,25494,1,8,0:0:0:0:
308,88,25601,1,0,0:0:0:0:
347,96,25708,1,2,0:3:0:0:
387,90,25815,1,0,0:0:0:0:
421,68,25923,2,0,L|425:10,1,50,0|0,3:0|0:0,0:0:0:0:
340,1,26137,1,2,3:3:0:0:
419,207,26351,1,8,0:0:0:0:
505,113,26566,1,2,3:3:0:0:
251,166,26780,5,0,0:0:0:0:
289,175,26887,1,0,0:0:0:0:
318,202,26994,1,2,3:3:0:0:
332,239,27101,1,0,0:0:0:0:
327,277,27208,2,0,P|317:299|291:322,1,50,12|0,0:0|0:0,0:0:0:0:
370,131,27423,1,8,0:0:0:0:
370,131,27530,1,8,0:0:0:0:
370,131,27637,1,0,3:3:0:0:
238,259,27851,5,0,3:0:0:0:
200,245,27958,1,0,3:0:0:0:
172,217,28065,1,8,0:0:0:0:
158,180,28172,1,8,0:0:0:0:
160,140,28279,1,4,0:3:0:0:
179,105,28386,1,0,0:0:0:0:
217,90,28494,6,0,P|123:116|70:73,1,160,4|8,3:2|0:0,0:0:0:0:
152,29,29137,1,0,0:0:0:0:
10,157,29351,2,0,P|35:201|35:239,1,80,0|0,3:0|0:0,0:0:0:0:
15,324,29780,1,8,0:0:0:0:
123,247,29994,1,0,3:0:0:0:
129,359,30208,6,0,B|167:356|193:335|193:335|229:354|229:354|298:349,1,160,0|8,0:0|0:0,0:0:0:0:
241,220,30851,1,0,0:0:0:0:
241,237,30958,1,0,0:0:0:0:
241,254,31066,1,0,3:0:0:0:
340,281,31280,1,0,3:0:0:0:
266,146,31494,1,8,0:0:0:0:
350,186,31708,1,0,0:0:0:0:
181,106,31923,6,0,P|251:57|336:85,1,160,0|8,3:2|0:0,0:0:0:0:
266,146,32566,1,0,0:0:0:0:
392,1,32780,2,0,P|431:20|488:20,1,80,0|0,3:0|0:0,0:0:0:0:
377,141,33208,1,8,0:0:0:0:
300,44,33423,1,0,3:0:0:0:
464,112,33637,6,0,P|471:153|458:199,1,80,0|0,0:0|3:0,0:0:0:0:
385,247,34066,1,8,0:0:0:0:
266,146,34280,1,0,0:0:0:0:
283,146,34387,1,0,0:0:0:0:
300,146,34495,1,0,3:0:0:0:
456,207,34708,1,0,3:0:0:0:
299,262,34923,1,8,0:0:0:0:
312,146,35137,1,0,0:0:0:0:
357,347,35351,6,0,P|281:366|215:321,1,160,0|8,3:2|0:0,0:0:0:0:
202,190,35994,1,0,0:0:0:0:
89,282,36208,2,0,L|6:289,1,80,0|0,3:0|0:0,0:0:0:0:
98,102,36637,1,8,0:0:0:0:
116,200,36851,1,0,3:0:0:0:
10,132,37066,6,0,P|12:68|98:11,1,160,0|8,0:0|0:0,0:0:0:0:
215,133,37708,1,0,0:0:0:0:
198,133,37815,1,0,0:0:0:0:
181,133,37923,1,0,3:0:0:0:
170,41,38137,1,0,3:0:0:0:
300,87,38351,2,0,P|310:128|301:170,1,80,8|0,0:0|0:0,0:0:0:0:
181,133,38780,5,0,3:2:0:0:
261,336,38994,1,0,0:0:0:0:
293,184,39208,1,8,0:0:0:0:
138,328,39423,1,0,0:0:0:0:
155,328,39530,1,0,0:0:0:0:
172,328,39638,1,0,3:0:0:0:
336,269,39851,1,0,3:0:0:0:
365,383,40066,1,8,0:0:0:0:
223,247,40280,6,0,P|202:172|252:98,1,160,0|0,3:0|3:0,0:0:0:0:
330,43,40923,1,8,0:0:0:0:
174,49,41137,1,0,0:0:0:0:
157,48,41244,1,0,0:0:0:0:
140,47,41352,1,0,0:0:0:0:
113,65,41458,1,8,0:0:0:0:
95,64,41566,1,8,0:3:0:0:
14,6,41780,1,8,0:0:0:0:
168,125,41994,1,2,0:3:0:0:
37,237,42208,6,0,B|80:210|128:232|128:238|128:245|174:269|226:225,1,179.999994506836,4|8,3:2|0:0,0:0:0:0:
277,153,42851,1,0,0:0:0:0:
397,236,43066,2,0,P|411:284|396:332,1,89.9999972534181,0|0,3:0|0:0,0:0:0:0:
478,189,43494,1,8,0:0:0:0:
319,280,43708,1,0,3:0:0:0:
277,153,43923,6,0,P|380:148|428:78,1,179.999994506836,0|8,0:0|0:0,0:0:0:0:
308,38,44566,1,0,0:0:0:0:
317,55,44673,1,0,0:0:0:0:
326,71,44781,1,0,3:0:0:0:
200,153,44994,1,0,3:0:0:0:
227,25,45208,1,8,0:0:0:0:
284,185,45423,1,0,0:0:0:0:
40,87,45637,6,0,B|155:85|155:85|123:110|116:155,1,179.999994506836,0|8,3:2|0:0,0:0:0:0:
114,244,46280,1,0,0:0:0:0:
275,277,46494,2,0,P|230:281|193:320,1,89.9999972534181,0|0,3:0|0:0,0:0:0:0:
273,373,46923,1,8,0:0:0:0:
339,215,47137,1,0,3:0:0:0:
187,334,47351,5,0,0:0:0:0:
348,228,47566,1,0,3:0:0:0:
218,207,47780,1,8,0:0:0:0:
354,330,47994,1,0,0:0:0:0:
371,329,48101,1,0,0:0:0:0:
388,328,48209,1,0,3:0:0:0:
446,236,48423,1,0,3:0:0:0:
365,94,48637,1,8,0:0:0:0:
470,160,48851,1,0,0:0:0:0:
298,145,49066,6,0,P|281:88|363:10,1,179.999994506836,0|8,3:2|0:0,0:0:0:0:
365,94,49708,1,0,0:0:0:0:
215,19,49923,2,0,L|126:27,1,89.9999972534181,0|0,3:0|3:0,0:0:0:0:
129,147,50351,1,8,0:0:0:0:
213,45,50566,1,0,3:0:0:0:
46,104,50780,6,0,P|32:146|45:207,1,89.9999972534181,0|0,0:0|3:0,0:0:0:0:
105,270,51208,1,8,0:0:0:0:
236,211,51423,1,0,0:0:0:0:
219,210,51530,1,0,0:0:0:0:
202,209,51638,1,0,3:0:0:0:
197,315,51851,1,0,3:0:0:0:
330,263,52066,2,0,P|343:212|330:164,1,89.9999972534181,8|0,0:0|0:0,0:0:0:0:
224,95,52494,6,0,P|267:94|311:69,1,89.9999972534181,0|0,3:2|0:0,0:0:0:0:
365,1,52923,1,8,0:0:0:0:
493,60,53137,1,0,0:0:0:0:
492,77,53244,1,0,0:0:0:0:
491,94,53352,1,0,3:0:0:0:
422,250,53780,5,8,0:0:0:0:
402,77,53994,1,8,3:2:0:0:
429,274,54423,2,0,L|370:270,1,55.0000016784668,8|0,3:2|0:0,0:0:0:0:
209,272,54637,1,0,0:0:0:0:
422,250,54851,2,0,L|363:244,1,55.0000016784668,8|0,3:2|0:0,0:0:0:0:
203,251,55066,2,0,L|262:245,1,55.0000016784668,8|0,3:2|0:0,0:0:0:0:
148,93,55923,5,6,3:2:0:0:
102,252,56137,1,0,0:0:0:0:
239,159,56351,1,10,0:0:0:0:
54,124,56566,1,0,0:0:0:0:
201,253,56780,2,0,P|250:261|302:236,1,100,2|0,3:2|3:3,0:0:0:0:
389,116,57208,1,10,0:0:0:0:
211,144,57423,1,0,0:0:0:0:
369,196,57637,5,2,3:2:0:0:
275,74,57851,1,0,0:0:0:0:
281,212,58066,1,10,0:0:0:0:
356,16,58280,1,0,0:0:0:0:
211,144,58494,2,0,P|142:156|89:95,1,150,2|0,3:2|0:0,0:0:0:0:
72,26,58923,2,0,P|108:90|70:171,1,150,10|0,0:0|0:0,0:0:0:0:
26,98,59351,5,2,3:2:0:0:
185,132,59566,1,0,0:0:0:0:
0,180,59780,1,10,0:0:0:0:
72,26,59994,1,0,0:0:0:0:
163,213,60208,2,0,L|156:325,1,100,2|0,3:2|3:0,0:0:0:0:
78,362,60637,1,10,0:0:0:0:
139,199,60851,1,0,0:0:0:0:
241,288,61066,5,2,3:2:0:0:
56,254,61280,1,0,0:0:0:0:
221,150,61494,1,10,0:0:0:0:
283,384,61708,1,0,0:0:0:0:
151,290,61922,1,2,3:2:0:0:
292,190,62137,2,0,P|311:186|353:196,1,50,8|0,0:1|0:0,0:0:0:0:
456,307,62351,2,0,P|434:311|400:303,1,50,8|0,0:1|0:0,0:0:0:0:
359,198,62566,1,0,3:0:0:0:
483,308,62780,5,6,3:2:0:0:
290,298,62994,1,0,0:0:0:0:
434,153,63208,1,10,0:0:0:0:
348,366,63423,1,0,0:0:0:0:
217,223,63637,2,0,P|210:193|236:127,1,100,2|0,3:2|3:0,0:0:0:0:
323,63,64066,1,10,0:0:0:0:
166,89,64280,1,0,0:0:0:0:
313,190,64494,5,2,3:2:0:0:
333,29,64708,1,0,0:0:0:0:
217,223,64923,1,10,0:0:0:0:
394,129,65137,1,0,0:0:0:0:
245,34,65351,1,2,3:2:0:0:
226,195,65566,1,0,3:0:0:0:
361,124,65780,1,10,0:0:0:0:
103,99,66208,5,4,3:2:0:0:
197,188,66423,1,0,0:0:0:0:
160,28,66637,1,8,0:0:0:0:
41,173,66851,2,0,B|22:213|22:213|20:267|72:313,1,150,4|0,3:2|0:0,0:0:0:0:
108,224,67280,1,0,3:0:0:0:
15,375,67494,1,8,0:0:0:0:
152,305,67708,6,0,L|322:322,1,150,4|0,3:2|0:0,0:0:0:0:
383,376,68137,1,0,3:0:0:0:
304,181,68351,1,10,0:0:0:0:
389,279,68566,1,0,3:0:0:0:
219,192,68780,2,0,P|222:153|244:120,1,80,8|4,0:3|0:3,0:0:0:0:
360,119,69208,2,0,P|382:151|385:191,1,80,10|0,0:0|0:0,0:0:0:0:
302,50,69637,5,0,3:0:0:0:
98,41,72208,5,0,0:0:0:0:
37,97,72423,1,0,3:0:0:0:
100,208,72637,2,0,P|103:234|96:270,1,59.9999981689454,4|0,0:1|0:0,0:0:0:0:
175,97,73066,5,4,3:2:0:0:
255,188,73280,1,2,0:3:0:0:
282,188,73352,1,0,0:0:0:0:
307,187,73423,1,0,0:0:0:0:
331,186,73494,1,8,0:0:0:0:
408,125,73708,1,2,0:3:0:0:
171,190,73923,5,0,3:0:0:0:
271,271,74137,1,2,3:3:0:0:
287,270,74209,1,0,0:0:0:0:
303,270,74280,1,0,0:0:0:0:
319,271,74351,1,8,0:0:0:0:
400,230,74565,1,2,3:3:0:0:
164,294,74780,5,0,0:0:0:0:
283,363,74994,1,2,3:3:0:0:
293,363,75066,1,0,0:0:0:0:
302,364,75137,1,0,0:0:0:0:
311,364,75208,1,8,0:0:0:0:
424,355,75422,1,2,0:3:0:0:
335,173,75637,1,0,3:3:0:0:
254,271,75851,2,0,L|318:270,1,50,2|0,3:3|0:0,0:0:0:0:
403,225,76066,2,0,P|383:283|438:363,1,150,8|0,0:0|0:0,0:0:0:0:
471,288,76494,5,0,3:2:0:0:
373,177,76708,1,2,0:3:0:0:
346,177,76780,1,0,0:0:0:0:
321,178,76851,1,0,0:0:0:0:
297,179,76922,1,8,0:0:0:0:
238,260,77136,1,2,0:3:0:0:
475,195,77351,5,0,3:0:0:0:
359,90,77565,1,2,3:3:0:0:
343,91,77637,1,0,0:0:0:0:
327,91,77708,1,0,0:0:0:0:
311,90,77779,1,8,0:0:0:0:
223,153,77993,1,2,3:3:0:0:
482,91,78208,5,0,0:0:0:0:
345,2,78422,1,2,3:3:0:0:
512,72,78637,1,8,0:0:0:0:
327,116,78851,1,2,0:3:0:0:
476,219,79066,1,0,3:3:0:0:
415,119,79280,1,8,3:2:0:0:
301,260,79494,1,8,3:2:0:0:
241,100,79708,1,8,3:2:0:0:
455,52,79923,5,4,3:2:0:0:
347,133,80137,1,2,0:3:0:0:
347,160,80209,1,0,0:0:0:0:
348,185,80280,1,0,0:0:0:0:
349,209,80351,1,8,0:0:0:0:
427,285,80565,1,2,0:3:0:0:
312,42,80780,5,0,3:0:0:0:
264,149,80994,1,2,3:3:0:0:
265,165,81066,1,0,0:0:0:0:
265,181,81137,1,0,0:0:0:0:
266,197,81208,1,8,0:0:0:0:
311,279,81422,1,2,3:3:0:0:
209,71,81637,5,0,0:0:0:0:
172,161,81851,1,2,3:3:0:0:
172,171,81923,1,0,0:0:0:0:
171,180,81994,1,0,0:0:0:0:
171,189,82065,1,8,0:0:0:0:
227,270,82279,1,2,0:3:0:0:
170,364,82494,1,0,3:3:0:0:
116,273,82708,1,2,3:3:0:0:
191,83,82923,2,0,L|89:79,1,100,8|2,0:0|0:3,0:0:0:0:
91,79,83244,1,0,0:0:0:0:
91,79,83351,5,0,3:2:0:0:
304,0,83566,1,2,0:3:0:0:
285,35,83673,1,0,0:0:0:0:
282,74,83780,1,8,0:0:0:0:
295,112,83887,1,0,0:0:0:0:
322,141,83994,1,2,0:3:0:0:
359,157,84101,1,0,0:0:0:0:
399,145,84208,2,0,L|346:102,1,50,0|0,3:0|0:0,0:0:0:0:
225,149,84423,1,2,3:3:0:0:
230,321,84637,1,8,0:0:0:0:
305,232,84851,1,2,3:3:0:0:
62,314,85066,5,0,0:0:0:0:
101,312,85173,1,0,0:0:0:0:
136,293,85280,1,2,3:3:0:0:
158,261,85387,1,0,0:0:0:0:
163,221,85494,1,12,0:0:0:0:
69,219,85708,1,8,0:0:0:0:
69,219,85816,1,8,0:0:0:0:
69,219,85923,1,0,3:0:0:0:
34,64,86137,1,0,3:0:0:0:
64,89,86244,1,0,3:0:0:0:
100,107,86351,1,8,0:0:0:0:
138,116,86458,1,8,0:0:0:0:
178,116,86565,1,4,0:3:0:0:
217,105,86672,1,0,0:0:0:0:
252,84,86780,6,0,B|231:142|231:142|266:238,1,160,4|8,3:2|0:0,0:0:0:0:
325,159,87423,1,0,0:0:0:0:
192,280,87637,2,0,P|220:313|267:324,1,80,0|0,0:0|0:0,0:0:0:0:
367,245,88066,1,8,0:0:0:0:
247,183,88280,1,0,3:0:0:0:
338,330,88494,6,0,B|383:346|421:322|421:322|462:318|494:334,1,160,0|8,3:0|0:0,0:0:0:0:
409,121,89780,1,8,0:0:0:0:
501,50,89994,1,0,3:0:0:0:
483,185,90208,6,0,P|427:214|336:184,1,160,0|8,3:0|0:0,0:0:0:0:
273,100,90851,1,0,0:0:0:0:
381,231,91066,2,0,L|376:322,1,80,0|0,0:0|0:0,0:0:0:0:
183,304,91494,1,8,0:0:0:0:
280,224,91708,1,0,3:0:0:0:
231,378,91923,5,0,3:0:0:0:
132,230,92137,1,0,0:0:0:0:
266,300,92351,1,8,0:0:0:0:
106,362,92566,1,4,0:3:0:0:
106,345,92673,1,0,0:0:0:0:
106,328,92781,1,0,0:0:0:0:
203,184,92994,1,0,3:0:0:0:
55,255,93208,1,12,0:0:0:0:
184,305,93423,1,0,0:0:0:0:
99,158,93637,6,0,P|119:113|226:74,1,160,4|8,3:2|0:0,0:0:0:0:
305,97,94280,1,0,0:0:0:0:
385,143,94494,2,0,L|471:137,1,80,0|0,0:0|0:0,0:0:0:0:
387,49,94923,1,8,0:0:0:0:
317,187,95137,1,0,0:0:0:0:
317,204,95244,1,0,0:0:0:0:
317,221,95351,5,0,0:0:0:0:
380,310,95566,1,0,0:0:0:0:
230,230,95780,2,0,P|186:221|134:242,1,80,8|0,0:0|0:0,0:0:0:0:
107,322,96208,2,0,P|151:331|203:310,1,80,0|0,0:0|0:0,0:0:0:0:
84,151,96637,2,0,L|74:236,1,80,8|0,0:0|3:0,0:0:0:0:
177,134,97066,5,0,3:0:0:0:
83,49,97280,1,0,0:0:0:0:
74,230,97494,1,8,0:0:0:0:
180,40,97708,2,0,P|222:48|262:81,1,80,0|0,0:0|0:0,0:0:0:0:
223,228,98137,1,0,0:0:0:0:
177,134,98351,1,8,0:0:0:0:
307,192,98566,6,0,L|391:183,1,80,0|0,0:0|0:0,0:0:0:0:
473,164,98994,1,2,3:2:0:0:
334,97,99208,1,8,0:0:0:0:
414,267,99423,1,8,0:3:0:0:
421,79,99637,1,4,0:3:0:0:
255,152,99851,1,0,0:0:0:0:
284,163,99958,1,8,0:0:0:0:
308,182,100065,1,8,0:0:0:0:
323,212,100172,1,8,0:0:0:0:
328,243,100279,1,0,3:0:0:0:
168,275,100494,5,4,3:2:0:0:
244,235,100708,1,0,0:0:0:0:
216,351,100923,2,0,P|179:365|119:353,1,89.9999972534181,8|0,0:0|0:0,0:0:0:0:
174,174,101351,1,0,3:0:0:0:
287,304,101566,1,0,0:0:0:0:
93,229,101780,1,8,0:0:0:0:
244,235,101994,1,0,3:0:0:0:
66,296,102208,6,0,L|85:101,1,179.999994506836,0|8,0:0|0:0,0:0:0:0:
189,44,102851,1,0,0:0:0:0:
207,42,102959,1,0,0:0:0:0:
227,41,103066,1,0,3:0:0:0:
297,119,103280,1,0,3:0:0:0:
105,37,103494,1,8,0:0:0:0:
298,27,103708,1,0,0:0:0:0:
164,172,103923,6,0,B|187:44|187:44|221:127,1,179.999994506836,0|8,3:2|0:0,0:0:0:0:
254,206,104566,1,0,0:0:0:0:
364,75,104780,2,0,P|410:67|460:79,1,89.9999972534181,0|0,3:0|0:0,0:0:0:0:
357,235,105208,1,8,0:0:0:0:
411,143,105423,1,0,3:0:0:0:
411,315,105637,5,0,0:0:0:0:
328,155,105851,1,0,3:0:0:0:
461,240,106066,1,8,0:0:0:0:
320,317,106280,1,0,0:0:0:0:
300,316,106387,1,0,0:0:0:0:
281,315,106495,1,0,3:0:0:0:
161,309,106708,1,0,3:0:0:0:
236,176,106923,1,8,0:0:0:0:
299,287,107137,1,0,0:0:0:0:
175,139,107351,6,0,B|166:4|166:4|212:31,1,179.999994506836,0|8,3:2|0:0,0:0:0:0:
286,74,107994,1,0,0:0:0:0:
101,74,108208,2,0,L|-4:80,1,89.9999972534181,0|0,3:0|3:0,0:0:0:0:
104,217,108637,1,8,0:0:0:0:
141,0,108851,1,0,3:0:0:0:
27,171,109066,6,0,P|11:223|40:280,1,89.9999972534181,0|0,0:0|3:0,0:0:0:0:
196,176,109494,1,8,0:0:0:0:
101,74,109708,1,0,0:0:0:0:
80,74,109815,1,0,0:0:0:0:
61,74,109923,1,0,3:0:0:0:
104,217,110137,1,0,3:0:0:0:
201,86,110351,2,0,P|240:94|284:140,1,89.9999972534181,8|0,0:0|0:0,0:0:0:0:
293,289,110780,5,0,3:2:0:0:
196,176,110994,1,0,0:0:0:0:
340,198,111208,1,8,0:0:0:0:
204,301,111423,1,0,0:0:0:0:
184,300,111530,1,0,0:0:0:0:
165,299,111638,1,0,3:0:0:0:
104,133,111851,1,0,0:0:0:0:
223,192,112066,1,8,0:0:0:0:
0,267,112280,1,2,3:2:0:0:
0,267,112708,5,2,3:2:0:0:
185,81,113137,1,10,0:0:0:0:
58,40,113351,1,8,0:0:0:0:
180,203,113566,1,8,0:3:0:0:
223,192,113673,1,8,0:3:0:0:
259,165,113780,1,4,0:3:0:0:
281,127,113887,1,0,3:0:0:0:
286,82,113994,1,10,0:0:0:0:
277,271,114208,5,0,0:0:0:0:
156,86,117423,6,0,L|118:85,2,29.9999990844727,0|0|0,0:0|0:0|0:0,0:0:0:0:
183,102,117637,6,0,L|175:264,1,160,0|0,3:0|0:0,0:0:0:0:
169,353,118280,1,0,3:0:0:0:
274,212,118494,1,8,0:0:0:0:
94,154,118923,5,0,0:0:0:0:
298,104,119137,2,0,P|221:117|159:53,1,160,8|4,0:3|0:3,0:0:0:0:
245,33,119780,1,0,0:0:0:0:
298,104,119994,1,4,0:3:0:0:
173,180,120208,1,4,3:2:0:0:
436,0,120423,5,0,0:0:0:0:
405,25,120530,1,8,0:0:0:0:
385,59,120637,1,8,0:0:0:0:
379,98,120744,1,8,0:0:0:0:
387,137,120851,1,0,3:0:0:0:
475,214,121066,5,4,3:2:0:0:
298,104,121280,1,0,0:0:0:0:
363,237,121494,1,8,0:0:0:0:
473,90,121708,1,0,0:0:0:0:
268,221,121923,2,0,P|268:260|303:319,1,100,0|0,3:1|3:0,0:0:0:0:
392,121,122351,1,8,0:0:0:0:
246,231,122566,1,0,0:0:0:0:
280,18,122780,5,2,3:1:0:0:
306,143,122994,1,0,0:0:0:0:
150,98,123208,1,8,0:0:0:0:
308,4,123423,1,0,0:0:0:0:
182,188,123637,2,0,P|129:196|54:140,1,150,0|0,3:1|0:0,0:0:0:0:
12,75,124066,2,0,P|51:145|43:225,1,150,8|0,0:0|0:0,0:0:0:0:
8,284,124494,5,2,3:1:0:0:
150,98,124708,1,0,0:0:0:0:
86,315,124923,1,8,0:0:0:0:
39,137,125137,1,2,0:1:0:0:
195,219,125351,2,0,P|215:260|216:328,1,100,2|0,3:1|3:0,0:0:0:0:
327,153,125780,5,8,0:0:0:0:
299,296,125994,1,2,0:1:0:0:
266,92,126208,1,2,3:1:0:0:
392,222,126423,1,0,0:0:0:0:
217,202,126637,1,8,0:0:0:0:
395,197,126851,1,0,0:0:0:0:
280,309,127066,1,0,3:1:0:0:
377,96,127280,6,0,P|396:94|439:99,1,50,8|0,0:1|0:0,0:0:0:0:
206,206,127494,2,0,P|187:208|148:204,1,50,8|0,0:1|0:0,0:0:0:0:
266,92,127708,1,0,0:0:0:0:
286,266,127923,5,4,3:2:0:0:
180,120,128137,1,0,0:0:0:0:
353,220,128351,1,8,0:0:0:0:
129,278,128566,1,0,0:0:0:0:
168,20,128780,2,0,L|182:137,1,100,0|0,3:1|3:0,0:0:0:0:
129,278,129208,1,8,0:0:0:0:
49,140,129423,1,0,0:0:0:0:
257,89,129637,5,0,3:0:0:0:
111,196,129851,1,0,0:0:0:0:
195,17,130066,1,8,0:0:0:0:
210,255,130280,1,0,0:0:0:0:
60,130,130494,2,0,P|102:112|168:132,1,100,0|0,3:0|3:0,0:0:0:0:
128,277,130923,1,8,0:0:0:0:
368,259,131351,5,4,3:2:0:0:
300,367,131566,1,0,0:0:0:0:
235,162,131780,1,8,0:0:0:0:
460,222,131994,2,0,P|411:172|324:174,1,150,4|0,3:2|0:0,0:0:0:0:
368,259,132423,1,0,3:0:0:0:
413,72,132637,1,8,0:0:0:0:
235,162,132851,6,0,L|248:325,1,150,4|0,3:2|0:0,0:0:0:0:
187,368,133280,5,0,3:0:0:0:
58,266,133494,1,10,0:0:0:0:
156,120,133708,1,8,0:3:0:0:
116,329,133923,2,0,P|85:349|21:345,1,100,0|0,3:3|3:3,0:0:0:0:
0,205,134351,2,0,P|31:185|109:192,1,100,10|0,0:0|0:0,0:0:0:0:
94,103,139494,6,0,L|56:102,5,26.6666666666667,0|0|0|0|0|0,0:0|0:0|0:0|0:0|0:0|0:0,0:0:0:0:
121,107,139923,5,0,3:0:0:0:
121,107,140137,1,0,3:0:0:0:
10,333,140780,1,0,3:0:0:0:
10,333,140994,1,0,3:0:0:0:
84,262,141208,2,0,P|152:247|214:271,1,120,2|0,3:2|0:0,0:0:0:0:
271,320,141637,6,0,P|407:327|445:312,1,160,4|8,3:2|0:0,0:0:0:0:
348,232,142280,1,0,0:0:0:0:
425,132,142494,2,0,L|352:148,1,53.3333333333333,0|0,3:0|0:0,0:0:0:0:
298,119,142708,2,0,L|236:107,1,53.3333333333333,0|0,3:0|0:0,0:0:0:0:
186,155,142923,2,0,P|136:145|79:162,1,80,8|0,0:0|0:0,0:0:0:0:
157,380,143351,6,0,L|143:266,1,80,0|0,3:0|0:0,0:0:0:0:
15,292,143780,2,0,L|1:180,1,80,8|0,0:0|0:0,0:0:0:0:
52,72,144208,1,0,3:0:0:0:
134,115,144423,1,0,3:0:0:0:
240,0,144637,2,0,B|283:-5|283:-5|342:2,1,80,8|0,0:0|0:0,0:0:0:0:
512,98,145066,6,0,L|362:113,1,120,4|0,3:2|0:0,0:0:0:0:
365,112,145494,1,8,0:0:0:0:
434,214,145708,1,6,3:2:0:0:
434,214,145816,1,0,0:0:0:0:
462,13,146030,1,0,0:0:0:0:
462,13,146137,2,0,L|422:17,1,40,0|0,3:0|0:0,0:0:0:0:
512,98,146351,1,8,0:0:0:0:
169,210,146566,6,0,B|216:190|216:190|324:201,1,160,4|0,3:2|0:0,0:0:0:0:
434,214,147208,1,8,0:0:0:0:
235,102,147423,1,0,0:0:0:0:
235,102,147530,1,0,0:0:0:0:
235,102,147637,2,0,P|263:46|344:17,1,120,4|0,0:0|3:0,0:0:0:0:
350,20,148066,1,8,0:0:0:0:
136,17,148280,1,0,3:0:0:0:
132,51,148387,1,0,0:0:0:0:
128,86,148494,6,0,L|121:144,1,40,4|0,0:0|0:0,0:0:0:0:
187,266,148708,2,0,L|192:200,1,40,2|0,0:0|0:0,0:0:0:0:
0,131,148923,2,0,L|151:152,1,120,0|0,0:0|0:0,0:0:0:0:
312,170,149351,2,0,L|244:163,1,40,2|0,0:0|0:0,0:0:0:0:
32,260,149566,2,0,L|183:281,1,120,0|0,0:0|0:0,0:0:0:0:
300,303,149994,2,0,L|243:297,1,40,2|0,0:0|0:0,0:0:0:0:
118,147,150208,5,4,3:2:0:0:
272,67,150423,1,0,3:0:0:0:
272,67,150530,1,0,0:0:0:0:
277,69,150637,2,0,L|339:76,1,40,8|0,0:0|0:0,0:0:0:0:
495,34,150851,2,0,L|451:68,1,40,0|0,0:0|0:0,0:0:0:0:
399,124,151066,1,4,3:2:0:0:
378,0,151280,1,0,3:0:0:0:
489,172,151494,1,8,0:0:0:0:
490,207,151601,1,0,0:0:0:0:
489,242,151708,1,0,0:0:0:0:
489,278,151816,1,0,0:0:0:0:
488,313,151923,6,4,P|440:310|390:316,1,80,4|0,3:2|0:0,0:0:0:0:
307,348,152351,2,0,P|259:351|209:345,1,80,8|0,0:0|0:0,0:0:0:0:
31,231,152780,2,0,P|144:236|183:289,1,160,0|8,3:0|0:0,0:0:0:0:
84,325,153423,1,0,0:0:0:0:
54,121,153637,2,0,P|41:87|17:44,1,80,0|0,3:0|0:0,0:0:0:0:
162,203,154066,2,0,P|175:169|199:126,1,80,8|0,0:0|0:0,0:0:0:0:
357,181,154494,1,0,3:0:0:0:
269,206,154708,1,0,3:0:0:0:
412,91,154923,2,0,P|437:121|459:155,1,80,8|0,0:0|0:0,0:0:0:0:
289,90,155351,6,0,L|266:-2,1,80,0|0,3:0|0:0,0:0:0:0:
173,58,155780,1,8,0:0:0:0:
370,14,155994,1,0,0:0:0:0:
191,152,156208,2,0,P|186:193|206:252,1,80,0|0,3:0|3:0,0:0:0:0:
249,302,156637,1,8,0:0:0:0:
100,203,156851,1,0,0:0:0:0:
123,298,157066,6,0,L|142:383,1,80,0|0,3:0|0:0,0:0:0:0:
266,223,157494,2,0,L|247:308,1,80,8|0,0:0|0:0,0:0:0:0:
362,255,157923,1,0,3:0:0:0:
362,255,158030,1,0,0:0:0:0:
362,255,158137,2,0,L|440:257,1,40,8|0,3:1|0:0,0:0:0:0:
208,144,158351,2,0,P|244:131|307:145,1,80,8|2,0:1|3:0,0:0:0:0:
428,10,158780,5,0,3:0:0:0:
382,81,158994,1,0,0:0:0:0:
500,146,159208,1,8,0:0:0:0:
447,40,159423,1,0,0:0:0:0:
405,196,159637,2,0,B|398:248|398:248|420:375,1,160,0|8,3:0|0:0,0:0:0:0:
484,268,160280,1,0,0:0:0:0:
321,363,160494,6,0,L|239:358,1,80,0|0,3:0|0:0,0:0:0:0:
113,276,160923,2,0,L|192:271,1,80,8|0,0:0|0:0,0:0:0:0:
252,185,161351,2,0,B|260:143|260:143|242:89,2,80,0|0|8,3:0|3:0|0:0,0:0:0:0:
9,32,162208,6,0,P|54:29|115:14,2,80,0|0|0,3:0|0:0|0:0,0:0:0:0:
93,126,162851,2,0,P|173:100|263:113,1,160,0|0,0:0|0:0,0:0:0:0:
306,162,163494,1,0,0:0:0:0:
488,204,163708,2,0,P|434:219|363:200,1,120,0|0,0:0|0:0,0:0:0:0:
306,162,164137,5,8,0:0:0:0:
423,112,164351,1,8,0:0:0:0:
305,260,164566,1,8,0:0:0:0:
495,179,164780,1,8,0:0:0:0:
406,313,164994,2,0,L|454:296,1,40,8|8,0:0|0:0,0:0:0:0:
219,223,165208,2,0,L|156:247,1,40,8|8,0:0|0:0,0:0:0:0:
347,61,165423,1,0,3:0:0:0:
347,61,165530,1,0,0:0:0:0:
347,61,165637,5,4,3:2:0:0:
473,157,165851,1,0,0:0:0:0:
273,225,166065,1,10,0:0:0:0:
458,260,166280,1,0,0:0:0:0:
308,144,166494,2,0,P|259:136|207:161,1,100,2|0,3:2|3:3,0:0:0:0:
59,267,166922,1,10,0:0:0:0:
98,90,167137,1,0,0:0:0:0:
164,278,167351,5,2,3:2:0:0:
52,154,167565,1,0,0:0:0:0:
203,138,167780,1,10,0:0:0:0:
146,307,167994,1,0,0:0:0:0:
258,219,168208,2,0,P|327:207|433:221,1,150,2|0,3:2|0:0,0:0:0:0:
454,281,168637,2,0,P|425:231|445:115,1,150,10|0,0:0|0:0,0:0:0:0:
474,70,169065,5,2,3:2:0:0:
362,280,169280,1,0,0:0:0:0:
512,198,169494,1,10,0:0:0:0:
440,358,169708,1,0,0:0:0:0:
349,171,169922,2,0,L|356:59,1,100,2|0,3:2|3:0,0:0:0:0:
434,22,170351,1,10,0:0:0:0:
238,166,170565,1,0,0:0:0:0:
350,37,170780,5,2,3:2:0:0:
457,171,170994,1,0,0:0:0:0:
330,259,171208,1,10,0:0:0:0:
221,127,171422,1,0,0:0:0:0:
343,147,171636,1,2,3:2:0:0:
209,278,171851,2,0,P|190:282|149:274,1,50,8|0,0:1|0:0,0:0:0:0:
160,48,172065,2,0,P|182:44|216:51,1,50,8|0,0:1|0:0,0:0:0:0:
186,166,172280,1,0,3:0:0:0:
29,76,172494,5,6,3:2:0:0:
271,116,172708,1,0,0:0:0:0:
54,191,172922,1,10,0:0:0:0:
160,48,173137,1,0,0:0:0:0:
240,230,173351,2,0,L|231:351,1,100,2|0,3:2|3:0,0:0:0:0:
317,355,173780,1,10,0:0:0:0:
124,269,173994,1,0,0:0:0:0:
337,259,174208,5,2,3:2:0:0:
162,357,174422,1,0,0:0:0:0:
353,235,174637,1,10,0:0:0:0:
115,245,174851,1,0,0:0:0:0:
241,359,175065,1,2,3:2:0:0:
239,147,175280,1,0,3:0:0:0:
241,330,175494,1,10,0:0:0:0:
409,285,175922,5,4,3:2:0:0:
348,159,176137,1,0,0:0:0:0:
352,356,176351,1,8,0:0:0:0:
471,211,176565,2,0,B|490:166|490:166|489:116|440:71,1,150,4|0,3:2|0:0,0:0:0:0:
361,37,176994,1,0,3:0:0:0:
512,14,177208,1,8,0:0:0:0:
348,159,177422,6,0,L|178:142,1,150,4|0,3:2|0:0,0:0:0:0:
128,83,177851,1,0,3:0:0:0:
166,261,178065,1,10,0:0:0:0:
231,49,178280,1,0,3:0:0:0:
28,107,178494,2,0,P|40:143|94:185,1,100,8|4,0:3|0:3,0:0:0:0:
231,49,178922,2,0,P|208:17|149:-10,1,100,10|0,0:0|0:0,0:0:0:0:
235,187,179351,5,0,3:0:0:0:
484,72,182137,5,0,0:0:0:0:
426,145,182351,2,0,P|420:178|430:212,1,59.9999981689454,0|0,0:0|0:0,0:0:0:0:
339,21,182780,1,4,3:2:0:0:
249,138,182994,1,2,0:3:0:0:
222,138,183066,1,0,0:0:0:0:
197,137,183137,1,0,0:0:0:0:
173,136,183208,1,8,0:0:0:0:
82,67,183423,1,2,0:3:0:0:
341,115,183637,5,0,3:0:0:0:
233,221,183851,1,2,3:3:0:0:
217,220,183923,1,0,0:0:0:0:
201,220,183994,1,0,0:0:0:0:
185,221,184065,1,8,0:0:0:0:
81,158,184280,1,2,3:3:0:0:
332,209,184494,5,0,0:0:0:0:
221,313,184708,1,2,3:3:0:0:
211,313,184780,1,0,0:0:0:0:
202,314,184851,1,0,0:0:0:0:
193,314,184922,1,8,0:0:0:0:
93,254,185137,1,2,0:3:0:0:
321,302,185351,1,0,3:3:0:0:
216,201,185566,2,0,L|220:146,1,50,2|0,3:3|0:0,0:0:0:0:
438,58,185780,2,0,P|359:57|315:107,1,150,8|0,0:0|0:0,0:0:0:0:
403,136,186208,5,0,3:2:0:0:
323,226,186423,1,2,0:3:0:0:
323,253,186495,1,0,0:0:0:0:
322,278,186566,1,0,0:0:0:0:
321,302,186637,1,8,0:0:0:0:
376,384,186851,1,2,0:3:0:0:
264,130,187065,5,0,3:0:0:0:
222,233,187280,1,2,3:3:0:0:
221,249,187352,1,0,0:0:0:0:
220,265,187423,1,0,0:0:0:0:
220,281,187494,1,8,0:0:0:0:
251,374,187708,1,2,3:3:0:0:
118,260,187923,5,0,0:0:0:0:
216,372,188137,1,2,3:3:0:0:
53,176,188351,1,8,0:0:0:0:
98,364,188566,1,2,0:3:0:0:
150,165,188780,1,0,0:0:0:0:
0,314,188994,1,8,3:2:0:0:
73,56,189208,1,8,3:2:0:0:
118,260,189423,1,8,3:2:0:0:
85,81,189637,5,4,3:2:0:0:
194,205,189851,1,2,0:3:0:0:
221,203,189923,1,0,0:0:0:0:
245,203,189994,1,0,0:0:0:0:
270,203,190065,1,8,0:0:0:0:
358,124,190280,1,2,0:3:0:0:
98,175,190494,5,0,3:0:0:0:
214,290,190708,1,2,3:3:0:0:
230,291,190780,1,0,0:0:0:0:
246,292,190851,1,0,0:0:0:0:
262,292,190922,1,8,0:0:0:0:
358,218,191137,1,2,3:3:0:0:
107,269,191351,5,0,0:0:0:0:
226,374,191566,1,2,3:3:0:0:
235,374,191637,1,0,0:0:0:0:
244,373,191708,1,0,0:0:0:0:
254,373,191780,1,8,0:0:0:0:
348,340,191994,1,2,0:3:0:0:
115,290,192208,1,0,3:3:0:0:
244,183,192423,2,0,L|246:106,1,50,2|0,3:3|0:0,0:0:0:0:
157,25,192637,2,0,P|147:72|171:152,1,100,8|2,0:0|0:3,0:0:0:0:
327,98,192958,1,0,0:0:0:0:
327,98,193066,6,0,P|330:67|324:38,1,50,0|0,3:2|0:0,0:0:0:0:
473,46,193280,1,2,0:3:0:0:
447,76,193387,1,0,0:0:0:0:
435,114,193494,1,8,0:0:0:0:
446,152,193601,1,0,0:0:0:0:
466,186,193708,1,2,0:3:0:0:
473,225,193816,1,0,0:0:0:0:
463,263,193923,2,0,L|444:359,1,50,0|0,3:0|0:0,0:0:0:0:
327,362,194137,2,2,L|317:284,1,50,2|0,3:3|0:0,0:0:0:0:
380,206,194351,1,8,0:0:0:0:
443,349,194566,1,2,3:3:0:0:
237,231,194780,5,0,0:0:0:0:
200,257,194887,1,0,0:0:0:0:
156,266,194994,1,2,3:3:0:0:
111,264,195101,1,0,0:0:0:0:
73,238,195208,2,0,L|59:129,1,100,12|8,0:0|0:0,0:0:0:0:
178,19,195637,1,0,3:3:0:0:
154,164,195851,1,0,3:0:0:0:
283,80,196066,6,0,B|396:98|372:25|513:65,1,200,8|0,0:0|0:0,0:0:0:0:
