osu file format v14

[General]
AudioFilename: audio.mp3
AudioLeadIn: 0
PreviewTime: 240807
Countdown: 1
SampleSet: Soft
StackLeniency: 0.2
Mode: 0
LetterboxInBreaks: 0
WidescreenStoryboard: 0

[Editor]
Bookmarks: 70898,151625
DistanceSpacing: 1
BeatDivisor: 4
GridSize: 4
TimelineZoom: 1.8

[Metadata]
Title:parade
TitleUnicode:パレード
Artist:Yorushika
ArtistUnicode:ヨルシカ
Creator:kanor
Version:Elma
Source:
Tags:sandrew
BeatmapID:1969366
BeatmapSetID:943049

[Difficulty]
HPDrainRate:6
CircleSize:4
OverallDifficulty:8
ApproachRate:8.7
SliderMultiplier:1.6
SliderTickRate:1

[Events]
//Background and Video events
0,0,"BG.jpg",0,0
//Break Periods
2,186734,203344
2,220552,222980
//Storyboard Layer 0 (Background)
//Storyboard Layer 1 (Fail)
//Storyboard Layer 2 (Pass)
//Storyboard Layer 3 (Foreground)
//Storyboard Sound Samples

[TimingPoints]
1080,545.454545454546,4,2,1,30,1,0
9807,-200,4,2,1,30,0,0
18534,-133.333333333333,4,2,1,30,0,0
35989,-100,4,2,1,30,0,0
53443,-133.333333333333,4,2,1,30,0,0
70898,-100,4,2,1,30,0,0
88352,-133.333333333333,4,2,1,30,0,0
97080,-100,4,2,1,30,0,0
134170,-133.333333333333,4,2,1,30,0,0
151625,-100,4,2,1,30,0,0
169080,-100,4,2,1,30,0,0
223625,-133.333333333333,4,2,1,30,0,0
241080,-100,4,2,1,30,0,0
262898,-100,4,2,1,30,0,0

[HitObjects]
191,19,9807,6,0,P|207:51|204:102,1,80
207,95,10625,1,0,0:0:0:0:
144,136,10898,2,0,L|64:132,1,80
4,192,11716,1,0,0:0:0:0:
64,252,11989,6,0,L|144:248,1,80
143,248,12807,1,0,0:0:0:0:
120,372,13080,2,0,L|76:372,2,40
176,316,13898,1,0,0:0:0:0:
316,360,14170,6,0,P|284:372|232:356,1,80
240,362,14989,1,0,0:0:0:0:
268,216,15261,2,0,L|276:296,1,80
275,295,16079,1,0,0:0:0:0:
348,220,16352,6,0,L|352:268,1,40
396,368,16898,2,0,L|400:320,1,40
452,236,17443,2,0,L|456:284,1,40
503,340,17852,1,0,0:0:0:0:
503,340,17989,1,0,0:0:0:0:
452,236,18261,1,0,0:0:0:0:
450,216,18397,1,0,0:0:0:0:
448,196,18534,6,0,L|520:200,2,60.0000022888184
448,196,19352,1,0,0:0:0:0:
364,116,19625,2,0,L|292:120,2,60.0000022888184
364,116,20443,1,0,0:0:0:0:
432,8,20716,6,0,L|428:68,1,60.0000022888184
507,199,21261,2,0,L|503:139,1,60.0000022888184
364,116,21807,2,0,L|360:176,1,60.0000022888184
300,268,22352,1,0,0:0:0:0:
284,168,22625,1,0,0:0:0:0:
264,332,22898,6,0,P|296:340|344:328,2,60.0000022888184
264,332,23716,1,0,0:0:0:0:
216,208,23989,2,0,P|206:176|172:140,2,60.0000022888184
216,208,24807,1,0,0:0:0:0:
128,308,25080,6,0,P|105:331|91:379,1,60.0000022888184
92,224,25625,2,0,P|60:233|24:267,1,60.0000022888184
112,128,26170,2,0,P|83:111|33:111,2,60.0000022888184
164,188,26989,1,0,0:0:0:0:
212,16,27261,6,0,L|148:8,1,60.0000022888184
284,116,27807,2,0,L|220:108,1,60.0000022888184
388,36,28352,2,0,L|324:28,1,60.0000022888184
364,124,28898,1,0,0:0:0:0:
474,193,29170,1,0,0:0:0:0:
474,193,29307,1,0,0:0:0:0:
474,193,29443,6,0,P|473:163|484:136,1,60.0000022888184
392,246,29989,2,0,P|376:221|372:192,1,60.0000022888184
392,344,30534,2,0,P|363:337|340:320,1,60.0000022888184
292,264,30943,1,0,0:0:0:0:
292,264,31080,1,0,0:0:0:0:
212,376,31352,1,0,0:0:0:0:
32,324,31625,6,0,P|59:318|96:332,1,60.0000022888184
104,188,32170,2,0,P|130:197|155:226,1,60.0000022888184
256,104,32716,2,0,P|274:124|281:163,1,60.0000022888184
440,88,33125,1,0,0:0:0:0:
440,88,33261,2,0,P|445:115|432:151,1,60.0000022888184
452,364,33807,5,0,0:0:0:0:
452,364,34080,5,0,0:0:0:0:
372,338,34216,1,0,0:0:0:0:
372,254,34352,1,0,0:0:0:0:
372,254,34625,5,0,0:0:0:0:
452,228,34761,1,0,0:0:0:0:
501,296,34898,1,0,0:0:0:0:
11,296,35989,6,0,L|115:290,1,80
164,344,36398,1,0,0:0:0:0:
172,328,36534,2,0,P|179:291|156:236,1,80
80,208,36943,1,0,0:0:0:0:
68,192,37080,2,0,P|57:155|64:116,2,80
212,140,37898,1,0,0:0:0:0:
192,144,38034,1,0,0:0:0:0:
172,148,38170,6,0,L|128:152,2,40
296,52,38716,2,0,L|396:64,1,80
448,52,39125,1,0,0:0:0:0:
460,44,39261,2,0,L|460:-16,2,40
512,152,39807,2,0,L|512:232,1,80
452,272,40216,1,0,0:0:0:0:
380,248,40352,6,0,P|340:236|300:248,1,80
260,312,40761,1,0,0:0:0:0:
264,328,40898,2,0,P|304:340|344:328,1,80
432,372,41307,1,0,0:0:0:0:
438,350,41443,2,0,L|454:258,2,80
438,350,42261,1,0,0:0:0:0:
304,245,42534,5,0,0:0:0:0:
298,223,42670,1,0,0:0:0:0:
288,200,42807,2,0,L|277:143,1,40
248,16,43080,2,0,L|232:128,1,80
172,128,43489,1,0,0:0:0:0:
116,80,43625,6,0,L|124:20,2,40
64,136,44034,1,0,0:0:0:0:
56,140,44170,5,0,0:0:0:0:
97,154,44306,1,0,0:0:0:0:
112,196,44442,1,0,0:0:0:0:
88,233,44579,1,0,0:0:0:0:
9,227,44716,6,0,B|37:227|37:227|53:235|53:235|117:231,1,80
144,316,45125,1,0,0:0:0:0:
144,316,45261,2,0,B|116:316|116:316|100:308|100:308|36:312,1,80
4,376,45670,1,0,0:0:0:0:
4,376,45807,2,0,B|32:376|32:376|48:384|48:384|112:380,2,80
144,316,46625,1,0,0:0:0:0:
172,312,46761,1,0,0:0:0:0:
200,308,46898,6,0,L|192:356,2,40
325,358,47443,2,0,L|312:280,1,80
256,216,47852,1,0,0:0:0:0:
236,212,47989,2,0,P|204:204|184:208,2,40
312,280,48534,2,0,P|352:264|392:272,1,80
456,288,48943,1,0,0:0:0:0:
512,332,49080,6,0,L|504:224,1,80
452,168,49489,1,0,0:0:0:0:
436,164,49625,2,0,P|476:144|524:160,1,80
368,104,50034,1,0,0:0:0:0:
384,100,50170,2,0,P|344:80|296:96,2,80
328,208,50989,2,0,L|336:160,1,40
248,40,51261,5,0,0:0:0:0:
226,34,51397,1,0,0:0:0:0:
203,28,51534,2,0,L|146:17,1,40
28,92,51807,2,0,L|140:76,1,80
152,148,52216,1,0,0:0:0:0:
116,216,52352,6,0,L|56:224,2,40
168,276,52761,1,0,0:0:0:0:
171,267,52897,5,0,0:0:0:0:
188,307,53033,1,0,0:0:0:0:
231,318,53169,1,0,0:0:0:0:
266,291,53306,1,0,0:0:0:0:
308,232,53443,5,0,0:0:0:0:
347,229,53989,1,0,0:0:0:0:
387,226,54534,1,0,0:0:0:0:
427,224,55080,1,0,0:0:0:0:
464,292,55352,1,0,0:0:0:0:
460,148,55625,5,0,0:0:0:0:
421,150,56171,1,0,0:0:0:0:
381,153,56716,1,0,0:0:0:0:
341,155,57262,1,0,0:0:0:0:
256,128,57534,5,0,0:0:0:0:
144,220,57807,5,0,0:0:0:0:
142,181,58353,1,0,0:0:0:0:
139,141,58898,1,0,0:0:0:0:
137,101,59444,1,0,0:0:0:0:
200,56,59716,5,0,0:0:0:0:
64,52,59989,5,0,0:0:0:0:
62,91,60535,1,0,0:0:0:0:
59,131,61080,1,0,0:0:0:0:
57,171,61626,1,0,0:0:0:0:
8,264,61898,5,0,0:0:0:0:
48,356,62170,6,0,P|78:353|116:368,1,60.0000022888184
128,284,62716,2,0,P|155:296|180:328,1,60.0000022888184
236,260,63261,2,0,P|253:284|259:324,1,60.0000022888184
224,384,63807,1,0,0:0:0:0:
324,364,64080,1,0,0:0:0:0:
324,364,64216,1,0,0:0:0:0:
324,364,64352,6,0,P|339:338|344:309,1,60.0000022888184
432,304,64898,2,0,P|425:274|407:250,1,60.0000022888184
460,192,65443,2,0,P|434:176|405:171,1,60.0000022888184
405,171,65852,1,0,0:0:0:0:
405,171,65989,1,0,0:0:0:0:
407,250,66261,1,0,0:0:0:0:
400,92,66534,6,0,P|370:98|346:116,1,60.0000022888184
256,24,67080,2,0,P|247:52|250:82,1,60.0000022888184
120,100,67625,2,0,P|140:121|167:133,1,60.0000022888184
112,252,68034,1,0,0:0:0:0:
112,252,68170,2,0,P|141:245|165:227,1,60.0000022888184
228,184,68580,1,0,0:0:0:0:
228,184,68716,6,0,L|304:184,1,60.0000022888184
336,320,69261,1,0,0:0:0:0:
348,240,69534,1,0,0:0:0:0:
444,372,69807,1,0,0:0:0:0:
420,372,69943,1,0,0:0:0:0:
396,372,70080,1,0,0:0:0:0:
272,268,70352,1,0,0:0:0:0:
113,367,70625,1,0,0:0:0:0:
141,367,70761,1,0,0:0:0:0:
180,366,70898,6,0,L|263:362,1,80
102,285,71443,1,0,0:0:0:0:
192,271,71716,1,0,0:0:0:0:
192,271,71852,1,0,0:0:0:0:
192,271,71989,2,0,L|272:268,1,80
125,210,72534,2,0,P|105:245|102:285,1,80
183,153,73080,6,0,P|148:133|108:129,1,80
37,44,73625,2,0,P|71:24|111:20,1,80
197,15,74034,1,0,0:0:0:0:
197,15,74170,2,0,P|231:34|271:38,1,80
111,20,74716,1,0,0:0:0:0:
111,20,74989,1,0,0:0:0:0:
353,48,75261,6,0,L|446:43,1,80
271,38,75807,1,0,0:0:0:0:
357,131,76080,1,0,0:0:0:0:
357,131,76216,1,0,0:0:0:0:
357,131,76352,2,0,L|450:126,1,80
303,192,76898,2,0,P|279:161|273:122,1,80
379,223,77443,6,0,P|418:217|455:231,1,80
312,272,77989,2,0,P|296:308|266:333,1,80
303,192,78534,2,0,P|279:161|273:122,1,80
312,272,79080,1,0,0:0:0:0:
379,223,79352,1,0,0:0:0:0:
452,340,79625,6,0,P|413:331|355:342,1,80
233,276,80170,2,0,P|272:267|330:278,1,80
379,223,80580,1,0,0:0:0:0:
379,223,80716,2,0,P|417:231|457:227,1,80
311,271,81261,1,0,0:0:0:0:
373,335,81534,1,0,0:0:0:0:
233,276,81807,6,0,L|149:258,1,80
23,341,82352,2,0,L|80:277,1,80
70,121,82898,2,0,L|96:202,1,80
101,45,83443,2,0,P|52:40|14:61,1,80
250,107,83989,6,0,P|299:112|337:91,1,80
177,79,84534,1,0,0:0:0:0:
298,231,84807,1,0,0:0:0:0:
296,213,84943,1,0,0:0:0:0:
293,191,85080,1,0,0:0:0:0:
282,36,85352,1,0,0:0:0:0:
474,61,85625,2,0,P|434:54|397:67,1,80
326,100,86034,1,0,0:0:0:0:
326,100,86170,6,0,P|289:113|250:107,1,80
394,145,86716,2,0,P|387:184|400:221,1,80
449,293,87125,1,0,0:0:0:0:
449,293,87261,2,0,L|451:359,1,40
361,299,87534,2,0,L|363:365,1,40
400,220,87807,6,0,P|419:215|438:211,1,40
361,299,88080,1,0,0:0:0:0:
361,299,88352,6,0,L|291:301,1,60.0000022888184
47,345,89170,1,0,0:0:0:0:
136,330,89443,1,0,0:0:0:0:
136,330,89716,1,0,0:0:0:0:
218,316,89989,1,0,0:0:0:0:
218,316,90261,1,0,0:0:0:0:
104,258,90534,6,0,P|133:251|163:255,1,60.0000022888184
40,212,91080,1,0,0:0:0:0:
40,212,91352,1,0,0:0:0:0:
36,127,91625,1,0,0:0:0:0:
36,127,91898,1,0,0:0:0:0:
32,37,92170,1,0,0:0:0:0:
36,127,92443,1,0,0:0:0:0:
119,36,92716,6,0,L|203:30,1,60.0000022888184
256,85,93261,1,0,0:0:0:0:
256,85,93534,1,0,0:0:0:0:
207,160,93807,1,0,0:0:0:0:
256,85,94080,1,0,0:0:0:0:
274,217,94352,1,0,0:0:0:0:
256,192,94625,12,0,96534,0:0:0:0:
47,57,97080,6,0,B|126:26|125:78|229:40,1,160
279,93,97898,1,0,0:0:0:0:
125,51,98170,2,0,P|169:53|204:47,1,80
278,92,98716,2,0,P|318:86|358:91,1,80
204,46,99261,6,0,B|173:129|223:127|192:237,1,160
239,282,100080,1,0,0:0:0:0:
195,124,100352,2,0,P|202:163|198:206,1,80
239,282,100898,2,0,P|236:321|243:361,1,80
199,203,101443,6,0,L|367:196,1,160
420,258,102261,1,0,0:0:0:0:
278,199,102534,2,0,L|358:196,1,80
420,258,103080,2,0,L|499:254,1,80
337,277,103625,5,0,0:0:0:0:
358,196,103898,1,0,0:0:0:0:
399,339,104170,1,0,0:0:0:0:
440,171,104443,1,0,0:0:0:0:
440,171,104580,1,0,0:0:0:0:
440,171,104716,2,0,L|496:168,1,40
446,90,104989,2,0,L|502:87,1,40
366,113,105261,5,0,0:0:0:0:
358,196,105398,1,0,0:0:0:0:
440,171,105534,1,0,0:0:0:0:
146,113,105807,6,0,L|136:25,1,80
366,113,106352,2,0,L|376:25,1,80
152,192,106898,2,0,L|145:103,1,80
360,192,107443,2,0,L|367:103,1,80
158,271,107989,6,0,L|151:182,1,80
354,271,108534,2,0,L|361:182,1,80
164,350,109080,2,0,L|157:261,1,80
348,350,109625,2,0,L|355:261,1,80
164,350,110170,5,0,0:0:0:0:
157,270,110443,1,0,0:0:0:0:
348,350,110716,5,0,0:0:0:0:
354,270,110989,1,0,0:0:0:0:
157,270,111261,5,0,0:0:0:0:
151,191,111534,1,0,0:0:0:0:
355,270,111807,5,0,0:0:0:0:
361,191,112080,1,0,0:0:0:0:
151,191,112352,5,0,0:0:0:0:
145,112,112625,1,0,0:0:0:0:
361,191,112898,5,0,0:0:0:0:
367,112,113171,1,0,0:0:0:0:
145,112,113443,5,0,0:0:0:0:
136,33,113716,1,0,0:0:0:0:
367,112,113989,5,0,0:0:0:0:
376,33,114262,1,0,0:0:0:0:
145,112,114534,5,0,0:0:0:0:
361,191,114807,1,0,0:0:0:0:
151,191,115080,5,0,0:0:0:0:
367,112,115352,1,0,0:0:0:0:
256,327,115625,1,0,0:0:0:0:
256,57,116170,1,0,0:0:0:0:
256,57,116716,6,0,P|221:43|166:40,1,80
120,99,117125,1,0,0:0:0:0:
120,99,117261,2,0,P|125:136|150:185,1,80
220,195,117670,1,0,0:0:0:0:
220,195,117807,2,0,P|249:171|279:125,2,80
52,188,118625,1,0,0:0:0:0:
46,164,118761,1,0,0:0:0:0:
40,140,118898,6,0,P|32:109|36:72,2,40
143,335,119443,2,0,P|139:293|119:254,1,80
46,279,119852,1,0,0:0:0:0:
46,279,119989,2,0,P|50:321|70:360,1,80
225,342,120534,2,0,P|268:332|312:336,1,80
380,343,120943,1,0,0:0:0:0:
431,281,121080,6,0,P|456:252|477:202,1,80
437,138,121489,1,0,0:0:0:0:
437,138,121625,2,0,P|400:130|345:136,1,80
313,199,122034,1,0,0:0:0:0:
313,199,122171,2,0,P|324:234|357:278,2,80
431,281,122989,1,0,0:0:0:0:
437,138,123261,5,0,0:0:0:0:
439,114,123398,1,0,0:0:0:0:
441,90,123534,2,0,L|445:34,1,40
361,53,123807,2,0,L|357:152,1,80
395,206,124216,1,0,0:0:0:0:
395,206,124352,2,0,P|431:217|480:207,1,80
439,98,124761,1,0,0:0:0:0:
439,98,124898,2,0,L|437:138,1,40
392,245,125170,2,0,L|394:205,1,40
361,53,125443,6,0,L|357:152,1,80
316,202,125852,1,0,0:0:0:0:
316,202,125989,2,0,L|313:282,1,80
247,330,126398,1,0,0:0:0:0:
247,330,126534,2,0,P|208:345|166:342,2,80
389,294,127352,1,0,0:0:0:0:
390,269,127489,1,0,0:0:0:0:
391,243,127625,6,0,L|394:188,2,40
357,132,128170,2,0,P|400:126|453:146,1,80
486,47,128580,1,0,0:0:0:0:
486,47,128716,2,0,P|443:53|390:33,1,80
183,42,129261,2,0,L|103:38,1,80
27,55,129670,1,0,0:0:0:0:
74,117,129807,6,0,L|173:121,1,80
223,162,130216,1,0,0:0:0:0:
223,162,130353,2,0,L|303:165,1,80
351,231,130762,1,0,0:0:0:0:
351,231,130898,2,0,P|366:270|363:312,2,80
153,120,131716,1,0,0:0:0:0:
273,253,131989,5,0,0:0:0:0:
283,274,132125,1,0,0:0:0:0:
288,297,132261,2,0,P|285:341|282:356,1,40
202,345,132534,2,0,P|203:305|188:268,1,80
87,321,132943,1,0,0:0:0:0:
87,321,133080,2,0,L|127:323,1,40
73,238,133352,2,0,L|112:239,1,40
7,295,133625,6,0,P|5:314|7:334,1,40
73,238,133898,1,0,0:0:0:0:
73,238,134170,5,0,0:0:0:0:
73,213,134716,1,0,0:0:0:0:
33,140,134989,1,0,0:0:0:0:
33,140,135125,1,0,0:0:0:0:
33,140,135261,1,0,0:0:0:0:
54,129,135807,1,0,0:0:0:0:
13,51,136080,1,0,0:0:0:0:
13,51,136216,1,0,0:0:0:0:
13,51,136352,5,0,0:0:0:0:
34,40,136898,1,0,0:0:0:0:
129,24,137170,1,0,0:0:0:0:
129,24,137306,1,0,0:0:0:0:
129,24,137442,1,0,0:0:0:0:
218,43,137716,1,0,0:0:0:0:
218,43,137852,1,0,0:0:0:0:
218,43,137989,2,0,L|252:40,3,30.0000011444092
157,102,138534,5,0,0:0:0:0:
155,125,139080,1,0,0:0:0:0:
144,216,139352,1,0,0:0:0:0:
144,216,139488,1,0,0:0:0:0:
144,216,139624,1,0,0:0:0:0:
137,239,140170,1,0,0:0:0:0:
235,234,140443,1,0,0:0:0:0:
235,234,140579,1,0,0:0:0:0:
235,234,140715,5,0,0:0:0:0:
228,257,141261,1,0,0:0:0:0:
199,333,141534,1,0,0:0:0:0:
199,333,141670,1,0,0:0:0:0:
199,333,141806,1,0,0:0:0:0:
137,239,142080,1,0,0:0:0:0:
228,257,142352,2,0,L|228:213,1,30.0000011444092
199,333,142761,1,0,0:0:0:0:
199,333,142898,6,0,P|228:339|258:334,1,60.0000022888184
345,344,143443,2,0,P|374:338|403:344,1,60.0000022888184
443,330,143852,1,0,0:0:0:0:
443,330,143989,2,0,P|462:307|472:279,1,60.0000022888184
394,265,144534,1,0,0:0:0:0:
448,201,144807,1,0,0:0:0:0:
448,201,144943,1,0,0:0:0:0:
448,201,145080,6,0,L|454:133,1,60.0000022888184
485,70,145625,2,0,P|456:63|415:71,1,60.0000022888184
386,80,146034,1,0,0:0:0:0:
386,80,146170,2,0,P|356:83|327:76,1,60.0000022888184
288,95,146580,1,0,0:0:0:0:
288,95,146716,2,0,L|284:136,3,30.0000011444092
207,129,147261,6,0,L|210:70,1,60.0000022888184
193,240,147807,2,0,L|134:238,1,60.0000022888184
129,317,148216,1,0,0:0:0:0:
129,317,148352,2,0,L|188:319,1,60.0000022888184
304,254,148898,2,0,L|302:314,1,60.0000022888184
381,319,149307,1,0,0:0:0:0:
381,319,149443,6,0,L|383:259,1,60.0000022888184
318,143,149989,2,0,L|378:146,1,60.0000022888184
369,66,150398,1,0,0:0:0:0:
369,66,150534,2,0,L|324:62,1,30.0000011444092
257,83,150807,1,0,0:0:0:0:
257,83,150943,1,0,0:0:0:0:
239,107,151080,5,0,0:0:0:0:
232,136,151216,1,0,0:0:0:0:
233,165,151352,1,0,0:0:0:0:
246,191,151489,1,0,0:0:0:0:
266,212,151625,6,0,L|165:209,2,80
124,252,152443,1,0,0:0:0:0:
124,252,152580,1,0,0:0:0:0:
124,252,152716,2,0,P|112:208|130:158,1,80
176,48,153261,2,0,P|188:92|170:142,1,80
112,92,153670,1,0,0:0:0:0:
112,92,153807,6,0,L|16:84,1,80
244,8,154352,2,0,L|340:0,1,80
384,48,154761,1,0,0:0:0:0:
384,48,154898,1,0,0:0:0:0:
468,136,155170,2,0,L|472:184,2,26.6666666666667
512,116,155443,2,0,L|416:108,1,80
384,48,155852,1,0,0:0:0:0:
316,88,155989,6,0,P|308:128|324:172,2,80
272,228,156807,1,0,0:0:0:0:
272,228,156943,1,0,0:0:0:0:
272,228,157080,2,0,P|252:216|180:220,1,80
344,272,157625,2,0,P|364:260|436:264,1,80
488,296,158034,1,0,0:0:0:0:
488,296,158170,6,0,L|476:388,1,80
344,272,158716,2,0,L|332:180,1,80
320,120,159125,1,0,0:0:0:0:
320,120,159261,1,0,0:0:0:0:
240,36,159534,2,0,L|284:36,2,26.6666666666667
208,44,159807,2,0,B|168:52|168:52|124:36,1,80
64,8,160216,1,0,0:0:0:0:
20,72,160352,6,0,P|12:112|28:164,1,80
48,300,160898,1,0,0:0:0:0:
84,220,161170,1,0,0:0:0:0:
84,220,161307,1,0,0:0:0:0:
84,220,161443,2,0,L|0:224,1,80
80,372,161989,2,0,L|164:376,1,80
220,332,162398,1,0,0:0:0:0:
220,332,162534,6,0,P|232:292|216:244,1,80
228,104,163080,1,0,0:0:0:0:
188,188,163352,1,0,0:0:0:0:
188,188,163489,1,0,0:0:0:0:
188,188,163625,2,0,P|228:180|272:196,1,80
404,232,164170,2,0,P|364:224|320:240,1,80
312,308,164580,1,0,0:0:0:0:
340,376,164716,6,0,P|380:384|424:368,1,80
472,232,165261,1,0,0:0:0:0:
480,328,165534,1,0,0:0:0:0:
492,336,165670,1,0,0:0:0:0:
504,340,165807,2,0,L|492:256,1,80
492,123,166352,2,0,L|504:44,1,80
432,8,166761,1,0,0:0:0:0:
432,8,166898,5,0,0:0:0:0:
356,32,167170,1,0,0:0:0:0:
320,100,167443,1,0,0:0:0:0:
324,176,167716,5,0,0:0:0:0:
320,100,167852,1,0,0:0:0:0:
356,32,167989,1,0,0:0:0:0:
512,224,169080,6,0,B|504:212|468:200|432:236|432:236|400:256|364:244|340:228,1,160
365,240,169898,1,0,0:0:0:0:
484,292,170170,2,0,L|488:396,2,80
484,292,170989,1,0,0:0:0:0:
320,300,171261,6,0,P|288:236|328:176,1,120
320,176,171807,1,0,0:0:0:0:
365,240,172080,1,0,0:0:0:0:
464,64,172352,2,0,L|460:176,1,80
456,216,172761,1,0,0:0:0:0:
472,216,172898,1,0,0:0:0:0:
392,32,173170,1,0,0:0:0:0:
352,12,173307,1,0,0:0:0:0:
312,20,173443,6,0,P|300:60|316:96,1,80
352,204,173989,2,0,P|323:173|284:169,1,80
168,148,174534,2,0,P|208:138|231:106,1,80
168,76,174943,1,0,0:0:0:0:
168,76,175080,1,0,0:0:0:0:
144,224,175352,1,0,0:0:0:0:
40,136,175625,5,0,0:0:0:0:
280,224,175898,1,0,0:0:0:0:
248,292,176170,1,0,0:0:0:0:
16,348,176443,1,0,0:0:0:0:
44,336,176580,1,0,0:0:0:0:
76,340,176716,2,0,P|104:340|144:352,1,40
256,368,176989,1,0,0:0:0:0:
256,368,177261,6,0,P|284:368|324:356,1,40
436,340,177534,1,0,0:0:0:0:
500,100,177807,6,0,B|488:136|488:136|504:200,1,80
408,216,178352,1,0,0:0:0:0:
498,176,178625,1,0,0:0:0:0:
318,176,178898,1,0,0:0:0:0:
408,216,179171,1,0,0:0:0:0:
228,216,179443,1,0,0:0:0:0:
318,176,179716,1,0,0:0:0:0:
164,260,179989,6,0,P|152:232|168:172,1,80
80,84,180534,2,0,P|92:112|76:172,1,80
48,296,181080,1,0,0:0:0:0:
8,128,181352,1,0,0:0:0:0:
0,384,181625,1,0,0:0:0:0:
4,204,181897,1,0,0:0:0:0:
4,204,182034,1,0,0:0:0:0:
4,204,182170,6,0,P|36:212|92:184,1,80
168,56,182716,1,0,0:0:0:0:
128,128,182989,1,0,0:0:0:0:
252,196,183261,1,0,0:0:0:0:
212,124,183534,1,0,0:0:0:0:
336,44,183807,1,0,0:0:0:0:
296,116,184080,1,0,0:0:0:0:
256,0,184352,5,0,0:0:0:0:
360,168,184625,1,0,0:0:0:0:
460,0,184898,1,0,0:0:0:0:
500,280,185170,1,0,0:0:0:0:
484,280,185307,1,0,0:0:0:0:
464,280,185443,5,0,0:0:0:0:
432,216,185580,1,0,0:0:0:0:
468,152,185716,2,0,L|468:204,1,40
360,368,185989,5,0,0:0:0:0:
392,304,186126,1,0,0:0:0:0:
356,240,186262,2,0,L|356:292,2,40
180,8,203989,6,0,L|184:88,1,80
183,87,204807,2,0,L|188:124,4,20
112,120,205898,6,0,L|117:157,4,20
40,152,206989,2,0,L|45:189,4,20
4,240,207670,1,0,0:0:0:0:
4,256,207807,1,0,0:0:0:0:
180,348,208080,1,0,0:0:0:0:
136,336,208216,1,0,0:0:0:0:
100,360,208352,6,0,B|196:384|140:316|276:348,1,160
312,280,209170,2,0,L|317:317,4,20
253,343,209989,1,0,0:0:0:0:
200,232,210261,6,0,L|205:269,4,20
253,343,211080,1,0,0:0:0:0:
304,144,211352,2,0,L|309:181,4,20
208,112,211898,1,0,0:0:0:0:
304,16,212170,1,0,0:0:0:0:
300,28,212307,1,0,0:0:0:0:
296,40,212443,1,0,0:0:0:0:
360,76,212580,1,0,0:0:0:0:
428,48,212716,5,0,0:0:0:0:
428,48,212989,1,0,0:0:0:0:
464,192,213261,1,0,0:0:0:0:
496,108,213534,2,0,L|459:113,4,20
464,192,214080,1,0,0:0:0:0:
428,48,214352,1,0,0:0:0:0:
388,164,214625,6,0,L|351:169,4,20
464,192,215170,1,0,0:0:0:0:
428,48,215442,1,0,0:0:0:0:
488,264,215716,2,0,L|451:269,4,20
488,340,216261,1,0,0:0:0:0:
471,343,216398,1,0,0:0:0:0:
455,346,216534,5,0,0:0:0:0:
416,336,216670,1,0,0:0:0:0:
390,298,216807,1,0,0:0:0:0:
392,248,216943,1,0,0:0:0:0:
412,204,217080,5,0,0:0:0:0:
412,204,217352,1,0,0:0:0:0:
488,264,217625,1,0,0:0:0:0:
390,298,217898,2,0,L|353:303,4,20
256,340,218443,1,0,0:0:0:0:
272,344,218580,1,0,0:0:0:0:
288,348,218716,1,0,0:0:0:0:
144,304,218989,5,0,0:0:0:0:
160,302,219126,1,0,0:0:0:0:
176,300,219262,1,0,0:0:0:0:
0,356,219534,1,0,0:0:0:0:
16,360,219671,1,0,0:0:0:0:
32,364,219807,5,0,0:0:0:0:
68,304,219943,1,0,0:0:0:0:
40,232,220080,1,0,0:0:0:0:
56,156,220216,1,0,0:0:0:0:
116,112,220352,1,0,0:0:0:0:
140,32,223625,6,0,L|224:28,2,60.0000022888184
140,32,224443,1,0,0:0:0:0:
124,108,224716,2,0,L|208:104,2,60.0000022888184
124,108,225534,1,0,0:0:0:0:
100,184,225807,6,0,L|184:180,2,60.0000022888184
64,56,226625,1,0,0:0:0:0:
64,56,227170,1,0,0:0:0:0:
28,160,227443,2,0,P|24:196|40:232,1,60.0000022888184
52,320,227989,6,0,P|22:298|-16:294,2,60.0000022888184
104,372,228807,1,0,0:0:0:0:
124,302,229080,2,0,P|127:265|112:229,2,60.0000022888184
104,372,229898,1,0,0:0:0:0:
175,355,230170,6,0,P|208:340|231:308,1,60.0000022888184
280,208,230716,2,0,P|276:244|292:280,1,60.0000022888184
348,368,231261,2,0,P|318:346|279:342,2,60.0000022888184
348,368,232080,1,0,0:0:0:0:
352,232,232352,6,0,P|396:200|464:212,1,120.000004577637
416,272,233170,1,0,0:0:0:0:
392,172,233443,2,0,L|384:84,1,60.0000022888184
480,32,233989,2,0,L|472:120,1,60.0000022888184
386,112,234534,5,0,0:0:0:0:
360,92,234807,1,0,0:0:0:0:
344,68,235080,1,0,0:0:0:0:
328,0,235352,1,0,0:0:0:0:
328,0,235898,1,0,0:0:0:0:
276,100,236170,2,0,P|240:112|196:104,1,60.0000022888184
92,156,236716,6,0,P|128:144|172:152,1,60.0000022888184
136,220,237261,1,0,0:0:0:0:
136,220,237534,1,0,0:0:0:0:
60,72,237807,2,0,P|24:60|-20:68,1,60.0000022888184
16,136,238352,1,0,0:0:0:0:
16,136,238625,1,0,0:0:0:0:
104,8,238898,1,0,0:0:0:0:
256,192,239034,12,0,240534,0:0:0:0:
0,156,241080,6,0,B|88:140|64:204|160:180,1,160
124,112,241898,1,0,0:0:0:0:
0,156,242170,2,0,P|48:156|84:184,1,80
44,320,242716,2,0,P|20:278|26:233,1,80
21,231,243125,1,0,0:0:0:0:
21,231,243261,5,0,0:0:0:0:
0,380,243534,1,0,0:0:0:0:
176,336,243807,1,0,0:0:0:0:
92,260,244080,1,0,0:0:0:0:
116,252,244216,1,0,0:0:0:0:
148,244,244352,2,0,P|187:237|224:252,1,80
332,360,244898,2,0,P|293:353|256:368,1,80
408,328,245307,1,0,0:0:0:0:
408,328,245443,6,0,L|401:160,1,160
401,168,246261,1,0,0:0:0:0:
408,328,246534,2,0,L|405:248,1,80
364,100,247080,2,0,P|404:92|443:104,1,80
504,140,247489,1,0,0:0:0:0:
504,140,247625,5,0,0:0:0:0:
416,12,247898,1,0,0:0:0:0:
401,168,248170,1,0,0:0:0:0:
288,64,248443,1,0,0:0:0:0:
288,64,248580,1,0,0:0:0:0:
288,64,248716,2,0,L|232:67,2,40
235,228,249261,5,0,0:0:0:0:
235,156,249398,1,0,0:0:0:0:
297,192,249534,1,0,0:0:0:0:
146,271,249807,6,0,L|136:359,1,80
366,271,250352,2,0,L|376:359,1,80
184,200,250898,2,0,P|140:192|104:208,1,80
328,200,251443,2,0,P|372:192|408:208,1,80
108,40,251989,6,0,B|116:80|116:80|101:129,1,80
404,40,252534,2,0,B|396:80|396:80|411:129,1,80
256,80,253080,6,0,L|257:-9,1,80
256,304,253625,2,0,L|257:393,1,80
150,350,254034,1,0,0:0:0:0:
150,350,254170,5,0,0:0:0:0:
157,270,254443,1,0,0:0:0:0:
362,350,254716,5,0,0:0:0:0:
355,270,254989,1,0,0:0:0:0:
157,270,255261,5,0,0:0:0:0:
151,191,255534,1,0,0:0:0:0:
355,270,255807,5,0,0:0:0:0:
361,191,256080,1,0,0:0:0:0:
151,191,256352,5,0,0:0:0:0:
85,235,256625,1,0,0:0:0:0:
361,191,256898,5,0,0:0:0:0:
427,235,257171,1,0,0:0:0:0:
85,235,257443,5,0,0:0:0:0:
79,155,257716,1,0,0:0:0:0:
427,235,257989,5,0,0:0:0:0:
433,155,258262,1,0,0:0:0:0:
145,112,258534,5,0,0:0:0:0:
361,191,258807,1,0,0:0:0:0:
151,191,259080,5,0,0:0:0:0:
367,112,259352,1,0,0:0:0:0:
256,384,259625,5,0,0:0:0:0:
256,304,259898,1,0,0:0:0:0:
256,0,260170,5,0,0:0:0:0:
256,80,260443,1,0,0:0:0:0:
256,209,260716,5,0,0:0:0:0:
240,197,260989,1,0,0:0:0:0:
245,178,261261,1,0,0:0:0:0:
265,177,261534,1,0,0:0:0:0:
272,196,261807,1,0,0:0:0:0:
256,192,261943,12,0,262761,0:0:0:0:
501,296,262898,6,0,L|397:290,1,80
348,344,263307,1,0,0:0:0:0:
340,328,263443,2,0,P|333:291|356:236,1,80
432,208,263852,1,0,0:0:0:0:
444,192,263989,2,0,P|455:155|448:116,2,80
300,140,264807,1,0,0:0:0:0:
320,144,264943,1,0,0:0:0:0:
340,148,265079,6,0,L|384:152,2,40
216,52,265625,2,0,L|116:64,1,80
64,52,266034,1,0,0:0:0:0:
52,44,266170,2,0,L|52:-16,2,40
0,152,266716,2,0,L|0:232,1,80
60,272,267125,1,0,0:0:0:0:
132,248,267261,6,0,P|172:236|212:248,1,80
252,312,267670,1,0,0:0:0:0:
248,328,267807,2,0,P|208:340|168:328,1,80
80,372,268216,1,0,0:0:0:0:
74,350,268352,2,0,L|58:258,2,80
74,350,269170,1,0,0:0:0:0:
208,245,269443,5,0,0:0:0:0:
214,223,269579,1,0,0:0:0:0:
224,200,269716,2,0,L|235:143,1,40
264,16,269989,2,0,L|280:128,1,80
340,128,270398,1,0,0:0:0:0:
396,80,270534,6,0,L|388:20,2,40
448,136,270943,1,0,0:0:0:0:
456,140,271079,5,0,0:0:0:0:
415,154,271215,1,0,0:0:0:0:
400,196,271351,1,0,0:0:0:0:
424,233,271488,1,0,0:0:0:0:
503,227,271625,6,0,B|475:227|475:227|459:235|459:235|395:231,1,80
368,316,272034,1,0,0:0:0:0:
368,316,272170,2,0,B|396:316|396:316|412:308|412:308|476:312,1,80
508,376,272579,1,0,0:0:0:0:
508,376,272716,2,0,B|480:376|480:376|464:384|464:384|400:380,2,80
368,316,273534,1,0,0:0:0:0:
340,312,273670,1,0,0:0:0:0:
312,308,273807,6,0,L|320:356,2,40
187,358,274352,2,0,L|200:280,1,80
256,216,274761,1,0,0:0:0:0:
276,212,274898,2,0,P|308:204|328:208,2,40
200,280,275443,2,0,P|160:264|120:272,1,80
56,288,275852,1,0,0:0:0:0:
0,332,275989,6,0,L|8:224,1,80
60,168,276398,1,0,0:0:0:0:
76,164,276534,2,0,P|36:144|-12:160,1,80
144,104,276943,1,0,0:0:0:0:
128,100,277079,2,0,P|168:80|216:96,2,80
184,208,277898,2,0,L|176:160,1,40
264,40,278170,5,0,0:0:0:0:
286,34,278306,1,0,0:0:0:0:
309,28,278443,2,0,L|366:17,1,40
484,92,278716,2,0,L|372:76,1,80
360,148,279125,1,0,0:0:0:0:
396,216,279261,6,0,L|456:224,2,40
344,276,279670,1,0,0:0:0:0:
341,267,279806,5,0,0:0:0:0:
324,307,279942,1,0,0:0:0:0:
281,318,280078,1,0,0:0:0:0:
246,291,280215,1,0,0:0:0:0:
220,360,280352,1,0,0:0:0:0:
