osu file format v14

[General]
AudioFilename: audio.mp3
AudioLeadIn: 0
PreviewTime: 162084
Countdown: 0
SampleSet: Drum
StackLeniency: 0.2
Mode: 0
LetterboxInBreaks: 0
WidescreenStoryboard: 0

[Editor]
Bookmarks: 85587
DistanceSpacing: 1
BeatDivisor: 4
GridSize: 16
TimelineZoom: 2.4

[Metadata]
Title:Yuunagi, Bou, Hana Madoi
TitleUnicode:Yuunagi, Bou, Hana Madoi
Artist:Yorushika
ArtistUnicode:Yorushika
Creator:pashty
Version:literally unplayable
Source:
Tags:
BeatmapID:2193918
BeatmapSetID:1049718

[Difficulty]
HPDrainRate:5
CircleSize:4
OverallDifficulty:9.2
ApproachRate:9.8
SliderMultiplier:2
SliderTickRate:1

[Events]
//Background and Video events
0,0,"qaws.jpg",0,0
//Break Periods
2,88514,95608
2,160716,162151
//Storyboard Layer 0 (Background)
//Storyboard Layer 1 (Fail)
//Storyboard Layer 2 (Pass)
//Storyboard Layer 3 (Foreground)
//Storyboard Layer 4 (Overlay)
//Storyboard Sound Samples

[TimingPoints]
87,272.727272727273,4,3,1,40,1,0
2950,-133.333333333333,4,3,1,40,0,0
7859,-100,4,3,1,40,0,0
22041,-84.0336134453781,4,3,1,40,0,0
22859,-133.333333333333,4,3,1,40,0,0
25041,-500,4,3,1,40,0,0
25382,-333.333333333333,4,3,1,5,0,0
25450,-133.333333333333,4,3,1,40,0,0
26132,-500,4,3,1,40,0,0
26473,-333.333333333333,4,3,1,5,0,0
26541,-133.333333333333,4,3,1,40,0,0
28314,-117.647058823529,4,3,1,40,0,0
39359,-153.846153846153,4,3,1,40,0,0
41814,-83.3333333333333,4,3,1,40,0,0
42087,-153.846153846153,4,3,1,40,0,0
46996,-117.647058823529,4,3,1,40,0,0
50268,-100,4,3,1,40,0,0
51359,-83.3333333333333,4,3,1,40,0,0
55723,-76.9230769230769,4,3,1,90,0,1
75223,-66.6666666666667,4,3,1,90,0,1
79791,-66.6666666666667,4,3,1,5,0,1
79859,-66.6666666666667,4,3,1,90,0,1
79996,-83.3333333333333,4,3,1,80,0,1
83950,-83.3333333333333,4,3,1,80,0,0
85518,-83.3333333333333,4,3,1,5,0,0
85587,-83.3333333333333,4,3,1,80,0,0
85927,-83.3333333333333,4,3,1,5,0,0
85996,-83.3333333333333,4,3,1,80,0,0
96087,-133.333333333333,4,3,1,40,0,0
97041,-100,4,3,1,40,0,0
104268,240,4,3,1,50,1,0
104388,315.789473684211,4,3,1,50,1,0
104545,255.31914893617,4,3,1,50,1,0
104800,272.727272727273,4,3,1,50,1,0
105072,300,4,3,1,50,1,0
105222,272.727272727273,4,3,1,50,1,0
105358,272.727272727273,4,3,1,50,1,0
105903,272.727272727273,4,3,1,50,1,0
105903,-58.8235294117647,4,3,1,50,0,0
109175,-100,4,3,1,50,0,0
110266,-58.8235294117647,4,3,1,50,0,0
114630,-100,4,3,1,50,0,0
118175,-83.3333333333333,4,3,1,50,0,0
123357,-76.9230769230769,4,3,1,90,0,1
143266,-66.6666666666667,4,3,1,90,0,1
151039,-100,4,3,1,90,0,1
151175,-66.6666666666667,4,3,1,90,0,1
158130,-66.6666666666667,4,3,1,90,0,0
160448,-66.6666666666667,4,3,1,5,0,0
160721,-66.6666666666667,4,3,1,60,0,0
162630,-100,4,3,1,60,0,0
165289,-100,4,3,1,5,0,0
165357,-66.6666666666667,4,3,1,80,0,0
166039,-83.3333333333333,4,3,1,80,0,0
167403,-76.9230769230769,4,3,1,90,0,1
175448,-66.6666666666667,4,3,1,90,0,1
175721,-50,4,3,1,90,0,1
175993,-66.6666666666667,4,3,1,90,0,1
176539,-76.9230769230769,4,3,1,90,0,1
184312,-100,4,3,1,90,0,0

[HitObjects]
193,258,1450,5,0,0:0:0:0:
193,258,1723,1,0,0:0:0:0:
193,258,1996,1,0,0:0:0:0:
193,258,2269,1,0,0:0:0:0:
193,258,2541,1,0,0:0:0:0:
193,258,2814,5,0,0:0:0:0:
193,258,2950,2,0,L|183:363,1,75.0000028610231
103,248,3223,2,0,B|117:203|117:203|144:185,1,75.0000028610231
193,258,3496,1,0,0:0:0:0:
319,258,3632,5,0,0:0:0:0:
319,258,3905,1,0,0:0:0:0:
319,258,4041,2,0,L|329:363,1,75.0000028610231
409,248,4314,2,0,B|395:203|395:203|368:185,1,75.0000028610231
319,258,4587,5,0,0:0:0:0:
357,319,4723,1,0,0:0:0:0:
345,222,4859,5,0,0:0:0:0:
383,283,4996,1,0,0:0:0:0:
371,187,5132,5,0,0:0:0:0:
409,248,5268,1,0,0:0:0:0:
319,258,5405,2,0,B|295:242|295:242|281:197,1,75.0000028610231
357,319,5677,1,0,0:0:0:0:
319,126,5814,5,0,0:0:0:0:
319,126,6087,1,0,0:0:0:0:
319,126,6360,1,0,0:0:0:0:
319,126,6633,1,0,0:0:0:0:
319,126,6905,1,0,0:0:0:0:
319,126,7178,5,0,0:0:0:0:
319,126,7314,2,0,L|329:21,1,75.0000028610231
409,136,7587,2,0,B|395:181|395:181|368:199,1,75.0000028610231
319,126,7859,6,0,L|325:60,1,50
193,126,7996,2,0,P|164:176|175:242,1,100
189,270,8200,1,0,0:0:0:0:
189,270,8268,1,0,0:0:0:0:
86,32,8405,1,0,0:0:0:0:
189,270,8677,6,0,L|240:382,1,100
123,199,8950,1,0,0:0:0:0:
96,240,9018,1,0,0:0:0:0:
94,289,9086,1,0,0:0:0:0:
216,172,9223,5,0,0:0:0:0:
164,171,9291,1,0,0:0:0:0:
123,199,9359,1,0,0:0:0:0:
285,238,9496,5,0,0:0:0:0:
164,171,9632,1,0,0:0:0:0:
94,289,9768,6,0,B|131:264|131:264|169:275|217:257,1,100
354,175,10041,1,0,0:0:0:0:
305,162,10109,1,0,0:0:0:0:
257,149,10177,1,0,0:0:0:0:
363,319,10314,1,0,0:0:0:0:
469,149,10450,1,0,0:0:0:0:
363,319,10587,1,0,0:0:0:0:
229,148,10723,5,0,0:0:0:0:
497,148,10859,2,0,B|518:108|518:108|518:64|491:38,1,100
466,266,11132,5,0,0:0:0:0:
363,319,11268,1,0,0:0:0:0:
427,184,11405,5,0,0:0:0:0:
345,343,11541,1,0,0:0:0:0:
291,129,11677,5,0,0:0:0:0:
327,367,11813,1,0,0:0:0:0:
158,196,11950,2,0,B|132:159|132:159|143:121|125:73,1,100
275,257,12223,1,0,0:0:0:0:
250,299,12291,1,0,0:0:0:0:
207,324,12359,1,0,0:0:0:0:
466,267,12496,1,0,0:0:0:0:
151,66,12632,5,0,0:0:0:0:
275,257,12768,1,0,0:0:0:0:
84,381,12905,1,0,0:0:0:0:
282,5,13041,5,0,0:0:0:0:
158,196,13177,1,0,0:0:0:0:
349,320,13314,1,0,0:0:0:0:
473,129,13450,6,0,L|502:87,1,50
315,162,13587,1,0,0:0:0:0:
411,225,13723,1,0,0:0:0:0:
377,67,13859,1,0,0:0:0:0:
349,320,13996,1,0,0:0:0:0:
223,99,14132,6,0,B|213:90|213:90|218:67|218:67|196:41|182:12,1,100
158,196,14405,1,0,0:0:0:0:
18,175,14541,6,0,L|58:73,1,100
83,272,14814,1,0,0:0:0:0:
223,251,14950,1,0,0:0:0:0:
202,111,15087,1,0,0:0:0:0:
62,132,15223,2,0,B|36:169|36:169|47:207|29:255,1,100
148,30,15496,5,0,0:0:0:0:
261,193,15632,2,0,B|280:234|304:247|304:247|313:217|291:171,1,100
278,65,15905,1,0,0:0:0:0:
134,179,16041,1,0,0:0:0:0:
392,208,16177,1,0,0:0:0:0:
250,324,16314,6,0,B|241:334|241:334|218:329|218:329|192:351|163:365,1,100
261,193,16587,1,0,0:0:0:0:
261,193,16655,1,0,0:0:0:0:
261,193,16723,2,0,P|320:212|360:273,1,100
390,372,16996,1,0,0:0:0:0:
424,288,17132,1,0,0:0:0:0:
359,166,17268,1,0,0:0:0:0:
176,126,17405,2,0,L|118:131,1,50
291,49,17541,6,0,P|302:76|293:45,1,100
244,243,17814,1,0,0:0:0:0:
359,166,17950,1,0,0:0:0:0:
221,161,18087,1,0,0:0:0:0:
330,247,18223,1,0,0:0:0:0:
293,114,18359,1,0,0:0:0:0:
210,298,18496,6,0,B|207:311|207:311|184:318|184:318|173:350|155:377,1,100
293,114,18768,1,0,0:0:0:0:
429,374,18905,1,0,0:0:0:0:
429,374,19177,6,0,L|400:319,1,50
293,114,19314,1,0,0:0:0:0:
293,285,19450,1,0,0:0:0:0:
440,200,19587,6,0,B|442:186|442:186|465:179|465:179|476:147|494:120,1,100
429,374,19859,1,0,0:0:0:0:
293,114,19996,1,0,0:0:0:0:
293,285,20132,1,0,0:0:0:0:
413,75,20268,6,0,L|381:130,1,50
205,194,20405,2,0,L|268:194,1,50
413,315,20541,2,0,L|381:259,1,50
293,114,20677,5,0,0:0:0:0:
293,114,20950,1,0,0:0:0:0:
205,194,21087,1,0,0:0:0:0:
205,194,21359,5,0,0:0:0:0:
205,194,21632,1,0,0:0:0:0:
293,114,21769,1,0,0:0:0:0:
293,114,22041,6,0,L|177:220,1,118.999997639465
205,194,22450,5,0,0:0:0:0:
248,153,22518,1,0,0:0:0:0:
293,114,22586,1,0,0:0:0:0:
161,234,22723,1,0,0:0:0:0:
305,172,22859,2,0,P|350:129|344:90,1,75.0000028610231
148,175,23132,5,0,0:0:0:0:
109,269,23268,1,0,0:0:0:0:
211,255,23405,1,0,0:0:0:0:
173,350,23541,2,0,P|128:386|92:383,1,75.0000028610231
205,194,23814,1,0,0:0:0:0:
205,194,23950,2,0,P|258:213|272:248,1,75.0000028610231
109,269,24223,1,0,0:0:0:0:
148,175,24359,1,0,0:0:0:0:
211,255,24496,1,0,0:0:0:0:
250,161,24632,5,0,0:0:0:0:
313,241,24768,1,0,0:0:0:0:
393,178,24905,1,0,0:0:0:0:
330,98,25041,6,0,L|302:50,1,50
313,241,25450,2,0,P|368:254|407:228,1,75.0000028610231
304,54,25723,2,0,P|248:40|225:57,1,75.0000028610231
393,178,25996,1,0,0:0:0:0:
252,286,26132,6,0,L|209:322,1,50
250,161,26541,2,0,P|294:124|327:124,1,75.0000028610231
213,318,26814,2,0,P|159:298|146:260,1,75.0000028610231
343,313,27087,1,0,0:0:0:0:
135,109,27223,6,0,L|223:50,1,75.0000028610231
349,95,27496,1,0,0:0:0:0:
250,161,27632,1,0,0:0:0:0:
349,95,27768,1,0,0:0:0:0:
250,161,27905,6,0,L|159:220,1,75.0000028610231
234,43,28177,1,0,0:0:0:0:
365,213,28314,2,0,B|356:249|356:249|338:272|289:280,1,85.0000016212464
172,148,28587,1,0,0:0:0:0:
212,138,28655,1,0,0:0:0:0:
249,160,28723,5,0,0:0:0:0:
184,275,28859,1,0,0:0:0:0:
68,222,28996,1,0,0:0:0:0:
259,193,29132,5,0,0:0:0:0:
194,307,29268,1,0,0:0:0:0:
77,254,29405,6,0,P|41:222|40:179,1,85.0000016212464
194,307,29677,1,0,0:0:0:0:
259,193,29814,2,0,P|257:144|225:116,1,85.0000016212464
204,340,30087,1,0,0:0:0:0:
154,175,30223,1,0,0:0:0:0:
319,125,30359,1,0,0:0:0:0:
369,290,30496,6,0,P|367:338|335:366,1,85.0000016212464
262,233,30768,1,0,0:0:0:0:
297,211,30836,1,0,0:0:0:0:
338,218,30905,2,0,P|379:243|387:285,1,85.0000016212464
234,161,31177,2,0,P|251:116|291:100,1,85.0000016212464
338,218,31450,1,0,0:0:0:0:
200,148,31587,2,0,P|217:103|257:87,1,85.0000016212464
245,262,31859,6,0,P|198:269|164:242,1,85.0000016212464
245,296,32132,1,0,0:0:0:0:
204,304,32200,1,0,0:0:0:0:
168,283,32268,2,0,P|138:245|144:202,1,85.0000016212464
320,354,32541,5,0,0:0:0:0:
344,101,32677,2,0,L|360:217,1,85.0000016212464
192,30,32950,5,0,0:0:0:0:
168,283,33087,1,0,0:0:0:0:
256,160,33223,1,0,0:0:0:0:
85,282,33359,2,0,P|85:323|112:354,1,85.0000016212464
256,160,33632,1,0,0:0:0:0:
427,282,33768,2,0,P|426:323|399:354,1,85.0000016212464
160,208,34041,5,0,0:0:0:0:
352,208,34177,2,0,L|464:208,1,85.0000016212464
267,208,34450,2,0,L|379:208,1,85.0000016212464
96,208,34723,1,0,0:0:0:0:
350,250,34859,2,0,P|365:211|351:172,1,85.0000016212464
64,208,35132,5,0,0:0:0:0:
319,172,35268,2,0,P|333:211|317:249,1,85.0000016212464
164,47,35541,1,0,0:0:0:0:
319,172,35677,1,0,0:0:0:0:
474,297,35814,2,0,P|488:311|463:299,1,85.0000016212464
249,200,36087,6,0,P|254:145|289:104,2,85.0000016212464
84,287,36496,2,0,P|79:232|44:191,2,85.0000016212464
249,200,36905,5,0,0:0:0:0:
269,120,37041,1,0,0:0:0:0:
329,178,37177,5,0,0:0:0:0:
329,178,37314,1,0,0:0:0:0:
209,62,37450,5,0,0:0:0:0:
209,62,37587,1,0,0:0:0:0:
329,178,37723,5,0,0:0:0:0:
209,62,37859,1,0,0:0:0:0:
189,258,37996,5,0,0:0:0:0:
249,200,38132,1,0,0:0:0:0:
270,281,38268,5,0,0:0:0:0:
48,219,38405,1,0,0:0:0:0:
270,281,38541,5,0,0:0:0:0:
48,219,38678,1,0,0:0:0:0:
249,200,38814,5,0,0:0:0:0:
329,178,38950,1,0,0:0:0:0:
351,258,39087,1,0,0:0:0:0:
270,281,39223,1,0,0:0:0:0:
249,200,39359,6,0,L|223:121,1,64.9999970245363
300,229,39632,2,0,L|274:150,1,64.9999970245363
351,258,39905,2,0,L|325:179,1,64.9999970245363
402,287,40177,1,0,0:0:0:0:
391,256,40245,1,0,0:0:0:0:
381,225,40313,1,0,0:0:0:0:
434,380,40450,5,0,0:0:0:0:
360,160,40587,1,0,0:0:0:0:
434,380,40723,5,0,0:0:0:0:
360,160,40860,1,0,0:0:0:0:
270,281,40996,5,0,0:0:0:0:
172,281,41132,1,0,0:0:0:0:
123,196,41269,1,0,0:0:0:0:
172,112,41405,1,0,0:0:0:0:
123,196,41541,6,0,L|79:266,1,64.9999970245363
220,196,41814,6,0,P|283:204|306:267,1,119.999996337891
172,112,42087,5,0,0:0:0:0:
183,3,42223,1,0,0:0:0:0:
291,14,42359,1,0,0:0:0:0:
280,121,42496,1,0,0:0:0:0:
76,49,42632,5,0,0:0:0:0:
388,77,42768,1,0,0:0:0:0:
76,49,42905,5,0,0:0:0:0:
388,77,43041,1,0,0:0:0:0:
62,205,43177,5,0,0:0:0:0:
76,49,43314,1,0,0:0:0:0:
55,296,43450,2,0,L|46:382,1,64.9999970245363
128,52,43722,5,0,0:0:0:0:
107,299,43859,1,0,0:0:0:0:
388,77,43996,5,0,0:0:0:0:
388,77,44132,1,0,0:0:0:0:
280,121,44268,5,0,0:0:0:0:
324,229,44405,1,0,0:0:0:0:
432,185,44541,1,0,0:0:0:0:
388,77,44677,1,0,0:0:0:0:
324,229,44814,5,0,0:0:0:0:
421,0,44950,1,0,0:0:0:0:
246,313,45087,5,0,0:0:0:0:
170,250,45223,1,0,0:0:0:0:
270,273,45359,5,0,0:0:0:0:
324,229,45496,1,0,0:0:0:0:
246,233,45632,5,0,0:0:0:0:
209,203,45768,1,0,0:0:0:0:
270,193,45905,5,0,0:0:0:0:
289,178,46041,1,0,0:0:0:0:
246,153,46177,5,0,0:0:0:0:
246,153,46314,5,0,0:0:0:0:
246,313,46450,5,0,0:0:0:0:
246,153,46587,1,0,0:0:0:0:
246,313,46723,6,0,L|245:368,1,32.4999985122681
246,153,46859,2,0,L|245:97,1,32.4999985122681
246,313,46996,6,0,P|225:360|165:379,1,85.0000016212464
294,232,47268,1,0,0:0:0:0:
341,315,47405,1,0,0:0:0:0:
246,153,47541,2,0,P|267:106|327:87,1,85.0000016212464
341,315,47814,1,0,0:0:0:0:
154,317,47950,1,0,0:0:0:0:
260,69,48087,6,0,L|244:161,1,85.0000016212464
85,238,48359,2,0,L|101:146,1,85.0000016212464
260,69,48632,1,0,0:0:0:0:
245,152,48768,1,0,0:0:0:0:
341,315,48905,5,0,0:0:0:0:
318,190,49041,1,0,0:0:0:0:
465,335,49177,5,0,0:0:0:0:
341,315,49314,1,0,0:0:0:0:
231,378,49450,1,0,0:0:0:0:
82,183,49586,5,0,0:0:0:0:
168,196,49723,1,0,0:0:0:0:
245,152,49859,1,0,0:0:0:0:
152,109,49996,1,0,0:0:0:0:
184,283,50132,1,0,0:0:0:0:
287,23,50268,6,0,P|229:45|247:90,1,100
26,133,50541,2,0,P|84:155|66:200,1,100
17,203,50746,1,0,0:0:0:0:
17,203,50814,1,0,0:0:0:0:
152,109,50950,1,0,0:0:0:0:
453,284,51087,5,0,0:0:0:0:
318,190,51223,1,0,0:0:0:0:
41,384,51359,6,0,P|116:361|152:282,1,119.999996337891
157,257,51564,1,0,0:0:0:0:
157,257,51632,2,0,L|204:353,1,59.9999981689454
76,207,51768,2,0,L|-30:199,1,59.9999981689454
159,161,51905,5,0,0:0:0:0:
203,157,51973,1,0,0:0:0:0:
245,173,52041,1,0,0:0:0:0:
276,204,52109,1,0,0:0:0:0:
291,246,52177,2,0,L|338:342,1,59.9999981689454
329,117,52314,2,0,L|282:21,1,59.9999981689454
276,296,52450,5,0,0:0:0:0:
276,296,52518,1,0,0:0:0:0:
276,296,52587,2,0,L|313:376,1,59.9999981689454
343,66,52723,1,0,0:0:0:0:
343,66,52791,1,0,0:0:0:0:
343,66,52859,2,0,L|304:-13,1,59.9999981689454
276,204,52996,5,0,0:0:0:0:
362,226,53064,1,0,0:0:0:0:
440,186,53132,2,0,L|493:152,1,59.9999981689454
276,112,53268,5,0,0:0:0:0:
276,204,53336,1,0,0:0:0:0:
276,296,53405,2,0,L|273:363,1,59.9999981689454
440,186,53541,1,0,0:0:0:0:
436,146,53609,1,0,0:0:0:0:
416,111,53677,1,0,0:0:0:0:
384,88,53745,1,0,0:0:0:0:
345,80,53813,1,0,0:0:0:0:
307,88,53881,1,0,0:0:0:0:
276,112,53950,2,0,L|228:163,1,59.9999981689454
70,265,54087,5,0,0:0:0:0:
74,305,54155,1,0,0:0:0:0:
94,340,54223,1,0,0:0:0:0:
126,363,54291,1,0,0:0:0:0:
165,371,54359,1,0,0:0:0:0:
203,363,54427,1,0,0:0:0:0:
234,339,54496,2,0,L|282:288,1,59.9999981689454
77,30,54632,5,0,0:0:0:0:
435,354,54905,5,0,0:0:0:0:
77,30,55723,6,0,P|69:97|141:168,1,129.999994049073
331,212,55996,2,0,P|339:145|267:74,1,129.999994049073
84,242,56268,1,0,0:0:0:0:
165,76,56405,1,0,0:0:0:0:
331,157,56541,1,0,0:0:0:0:
250,323,56677,1,0,0:0:0:0:
100,148,56814,6,0,P|68:93|77:30,1,129.999994049073
393,235,57087,2,0,P|425:180|416:116,1,129.999994049073
76,30,57359,6,0,P|68:93|100:148,1,129.999994049073
416,116,57632,2,0,P|425:180|393:235,1,129.999994049073
84,242,57905,1,0,0:0:0:0:
271,72,58041,1,0,0:0:0:0:
238,242,58177,1,0,0:0:0:0:
331,157,58313,1,0,0:0:0:0:
162,376,58450,6,0,P|109:340|90:279,1,129.999994049073
286,131,58723,2,0,P|281:194|237:241,1,129.999994049073
12,147,58996,6,0,P|69:119|131:133,1,129.999994049073
208,165,59200,1,0,0:0:0:0:
197,90,59268,1,0,0:0:0:0:
84,242,59405,1,0,0:0:0:0:
237,356,59541,5,0,0:0:0:0:
256,320,59677,1,0,0:0:0:0:
464,192,59814,5,0,0:0:0:0:
416,282,59950,2,0,L|379:339,1,64.9999970245363
285,118,60087,2,0,P|224:86|148:117,1,129.999994049073
237,356,60359,1,0,0:0:0:0:
311,263,60496,1,0,0:0:0:0:
311,263,60564,1,0,0:0:0:0:
311,263,60632,1,0,0:0:0:0:
54,195,60768,5,0,0:0:0:0:
97,305,60904,1,0,0:0:0:0:
207,262,61041,1,0,0:0:0:0:
164,152,61177,6,0,B|149:111|104:90|104:90|160:78,1,129.999994049073
214,322,61450,2,0,P|151:335|96:303,1,129.999994049073
336,193,61723,5,0,0:0:0:0:
386,363,61859,1,0,0:0:0:0:
512,82,61996,5,0,0:0:0:0:
462,252,62132,1,0,0:0:0:0:
144,81,62268,6,0,B|215:69|215:69|283:89,1,129.999994049073
126,302,62541,2,0,B|71:319|71:319|0:307,1,129.999994049073
144,81,62814,5,0,0:0:0:0:
270,85,62950,1,0,0:0:0:0:
126,302,63087,5,0,0:0:0:0:
0,307,63223,1,0,0:0:0:0:
270,85,63359,6,0,L|292:173,1,64.9999970245363
386,319,63496,2,0,L|364:231,1,64.9999970245363
223,62,63632,1,0,0:0:0:0:
223,127,63700,1,0,0:0:0:0:
285,148,63768,1,0,0:0:0:0:
323,95,63837,1,0,0:0:0:0:
285,42,63905,5,0,0:0:0:0:
126,302,64041,1,0,0:0:0:0:
285,42,64177,5,0,0:0:0:0:
309,81,64245,1,0,0:0:0:0:
338,128,64314,1,0,0:0:0:0:
372,185,64382,1,0,0:0:0:0:
419,264,64450,5,0,0:0:0:0:
394,59,64587,1,0,0:0:0:0:
214,289,64723,1,0,0:0:0:0:
189,84,64859,1,0,0:0:0:0:
419,264,64996,2,0,P|388:320|328:342,1,129.999994049073
189,84,65268,1,0,0:0:0:0:
301,122,65405,1,0,0:0:0:0:
149,374,65541,6,0,P|115:319|126:256,1,129.999994049073
301,122,65814,1,0,0:0:0:0:
444,380,65950,1,0,0:0:0:0:
444,380,66018,1,0,0:0:0:0:
444,380,66087,2,0,L|497:248,1,129.999994049073
350,1,66359,2,0,L|296:132,1,129.999994049073
149,374,66632,6,0,B|185:311|185:311|244:272,1,129.999994049073
189,84,66905,2,0,B|152:146|152:146|104:178,1,129.999994049073
149,374,67177,1,0,0:0:0:0:
233,279,67314,1,0,0:0:0:0:
189,84,67450,5,0,0:0:0:0:
104,178,67587,1,0,0:0:0:0:
104,178,67655,1,0,0:0:0:0:
104,178,67723,5,0,0:0:0:0:
233,279,67859,1,0,0:0:0:0:
189,84,67996,5,0,0:0:0:0:
318,185,68132,1,0,0:0:0:0:
104,178,68268,2,0,B|59:148|46:92|46:92|101:100,1,129.999994049073
233,279,68541,2,0,B|229:332|187:372|187:372|166:320,1,129.999994049073
256,117,68814,5,0,0:0:0:0:
385,218,68950,1,0,0:0:0:0:
470,49,69087,2,0,P|406:58|364:107,1,129.999994049073
256,288,69359,5,0,0:0:0:0:
127,187,69495,1,0,0:0:0:0:
42,356,69632,2,0,B|105:346|105:346|149:294,1,129.999994049073
256,117,69905,5,0,0:0:0:0:
222,63,69973,1,0,0:0:0:0:
160,58,70041,2,0,L|94:80,1,64.9999970245363
308,203,70177,5,0,0:0:0:0:
350,176,70245,1,0,0:0:0:0:
354,126,70313,2,0,L|334:61,1,64.9999970245363
222,255,70450,5,0,0:0:0:0:
400,305,70587,1,0,0:0:0:0:
354,126,70723,5,0,0:0:0:0:
176,176,70860,1,0,0:0:0:0:
176,176,70927,1,0,0:0:0:0:
176,176,70996,2,0,P|132:224|132:288,1,129.999994049073
400,305,71268,5,0,0:0:0:0:
222,255,71405,1,0,0:0:0:0:
222,255,71472,1,0,0:0:0:0:
222,255,71541,2,0,P|178:206|178:142,1,129.999994049073
446,126,71814,5,0,0:0:0:0:
400,305,71950,1,0,0:0:0:0:
275,59,72087,5,0,0:0:0:0:
376,53,72223,1,0,0:0:0:0:
177,144,72359,5,0,0:0:0:0:
278,150,72495,1,0,0:0:0:0:
78,33,72632,1,0,0:0:0:0:
53,74,72700,1,0,0:0:0:0:
41,122,72768,1,0,0:0:0:0:
43,170,72836,1,0,0:0:0:0:
58,216,72904,1,0,0:0:0:0:
86,256,72972,1,0,0:0:0:0:
124,286,73041,1,0,0:0:0:0:
169,305,73109,1,0,0:0:0:0:
217,310,73177,6,0,B|241:292|283:295|283:295|259:255|211:253,1,129.999994049073
446,126,73450,2,0,B|422:108|380:111|380:111|404:71|452:69,1,129.999994049073
498,80,73655,1,0,0:0:0:0:
498,80,73723,1,0,0:0:0:0:
436,245,73859,1,0,0:0:0:0:
271,183,73996,1,0,0:0:0:0:
333,18,74132,1,0,0:0:0:0:
436,245,74268,5,0,0:0:0:0:
124,286,74405,1,0,0:0:0:0:
302,383,74541,5,0,0:0:0:0:
216,200,74677,1,0,0:0:0:0:
399,114,74814,5,0,0:0:0:0:
302,383,74950,1,0,0:0:0:0:
130,17,75087,5,0,0:0:0:0:
33,286,75223,2,0,P|110:335|209:184,1,300.000011444092
426,253,75632,6,0,B|385:163|385:163|407:82,1,150.000005722046
33,286,75905,2,0,B|74:196|74:196|52:115,1,150.000005722046
454,250,76177,6,0,B|407:147|407:147|433:54,1,150.000005722046
4,288,76450,2,0,B|51:185|51:185|25:92,1,150.000005722046
482,247,76723,5,0,0:0:0:0:
450,326,76859,1,0,0:0:0:0:
39,81,76996,5,0,0:0:0:0:
148,353,77132,1,0,0:0:0:0:
263,101,77268,1,0,0:0:0:0:
315,235,77405,2,0,P|318:327|137:339,1,300.000011444092
401,60,77814,6,0,B|392:116|434:160|434:160|447:117,1,150.000005722046
86,188,78087,2,0,B|95:244|53:288|53:288|40:245,1,150.000005722046
431,47,78359,6,0,B|420:114|470:166|470:166|486:115,1,150.000005722046
55,200,78632,2,0,B|66:267|16:319|16:319|0:268,1,150.000005722046
461,34,78905,5,0,0:0:0:0:
382,66,79041,1,0,0:0:0:0:
461,350,79177,5,0,0:0:0:0:
192,192,79313,1,0,0:0:0:0:
461,34,79450,1,0,0:0:0:0:
138,319,79587,6,0,B|93:346|93:346|137:365|188:362|216:351|216:351|240:329|259:284,1,225.000008583069
189,260,79859,1,0,0:0:0:0:
300,369,79996,1,0,0:0:0:0:
249,210,80132,5,0,0:0:0:0:
138,319,80268,2,0,P|81:331|32:295,1,119.999996337891
309,160,80541,1,0,0:0:0:0:
360,319,80678,1,0,0:0:0:0:
107,333,80814,6,0,P|55:305|41:246,1,119.999996337891
332,127,81087,1,0,0:0:0:0:
398,333,81224,1,0,0:0:0:0:
76,347,81359,1,0,0:0:0:0:
230,239,81496,1,0,0:0:0:0:
384,347,81632,1,0,0:0:0:0:
249,103,81768,2,0,B|217:45|166:33|166:33|127:41|118:85|118:85|131:120|189:120,1,239.999992675781
359,209,82177,6,0,B|381:170|381:170|382:126|382:126|406:78,1,119.999996337891
139,209,82450,2,0,B|117:248|117:248|116:292|116:292|92:340,1,119.999996337891
395,319,82723,6,0,B|381:291|381:291|380:247|380:247|358:208,1,119.999996337891
102,98,82996,2,0,B|115:125|115:125|116:169|116:169|138:208,1,119.999996337891
358,208,83268,1,0,0:0:0:0:
395,98,83405,1,0,0:0:0:0:
395,319,83541,5,0,0:0:0:0:
256,192,83677,1,0,0:0:0:0:
117,319,83814,5,0,0:0:0:0:
256,192,83950,1,0,0:0:0:0:
364,313,85177,6,0,B|405:320|424:336|442:364|442:364|480:316|490:250|477:211|441:172,1,299.999990844727
210,286,85587,2,0,P|251:345|421:260,1,299.999990844727
129,363,85996,5,0,0:0:0:0:
312,256,86132,1,0,0:0:0:0:
142,144,86268,5,0,0:0:0:0:
136,254,86405,1,0,0:0:0:0:
235,205,86541,1,0,0:0:0:0:
402,273,86677,5,0,0:0:0:0:
353,174,86814,1,0,0:0:0:0:
452,125,86950,1,0,0:0:0:0:
501,224,87087,1,0,0:0:0:0:
256,192,87155,12,0,88314,0:0:0:0:
219,110,96087,6,0,L|212:206,1,75.0000028610231
294,312,96359,2,0,P|297:265|317:219,1,75.0000028610231
378,275,96564,1,0,0:0:0:0:
378,275,96632,1,0,0:0:0:0:
210,349,96768,1,0,0:0:0:0:
378,275,96905,1,0,0:0:0:0:
210,201,97041,6,0,P|149:202|113:237,1,100
193,301,97314,1,0,0:0:0:0:
373,126,97450,2,0,P|434:127|470:162,1,100
390,226,97723,2,0,P|329:225|293:190,1,100
378,275,97996,1,0,0:0:0:0:
329,278,98064,1,0,0:0:0:0:
288,250,98132,6,0,P|283:189|315:150,1,100
390,226,98405,1,0,0:0:0:0:
207,244,98541,2,0,P|202:183|234:144,1,100
329,278,98814,5,0,0:0:0:0:
240,344,98950,1,0,0:0:0:0:
322,358,99087,1,0,0:0:0:0:
180,150,99223,2,0,P|156:192|163:241,1,100
281,352,99496,5,0,0:0:0:0:
139,144,99632,2,0,P|115:186|122:235,1,100
240,344,99905,1,0,0:0:0:0:
271,208,100041,1,0,0:0:0:0:
407,239,100177,1,0,0:0:0:0:
375,375,100314,2,0,P|335:345|322:298,1,100
447,231,100587,5,0,0:0:0:0:
351,332,100724,2,0,P|331:286|343:239,1,100
416,352,100996,5,0,0:0:0:0:
256,272,101132,1,0,0:0:0:0:
336,112,101268,1,0,0:0:0:0:
496,192,101405,2,0,P|507:239|487:284,1,100
308,98,101677,5,0,0:0:0:0:
468,178,101814,2,0,P|479:225|459:270,1,100
280,84,102087,2,0,P|315:50|364:45,1,100
293,294,102359,1,0,0:0:0:0:
123,196,102496,2,0,P|89:160|84:111,1,100
269,324,102768,5,0,0:0:0:0:
99,226,102905,2,0,P|65:190|60:141,1,100
246,162,103177,5,0,0:0:0:0:
273,357,103314,1,0,0:0:0:0:
78,384,103450,1,0,0:0:0:0:
51,189,103587,2,0,B|52:133|52:133|84:87,1,100
287,332,103859,5,0,0:0:0:0:
92,359,103996,2,0,B|36:358|36:358|-10:326,1,100
275,135,104268,2,0,B|313:175|313:175|323:230,1,100
287,332,104545,2,0,B|315:298|315:298|321:242,1,100
253,111,104800,5,0,0:0:0:0:
307,359,104936,1,0,0:0:0:0:
338,116,105072,5,0,0:0:0:0:
177,152,105222,1,0,0:0:0:0:
163,104,105290,1,0,0:0:0:0:
183,60,105358,1,0,0:0:0:0:
360,140,105494,1,0,0:0:0:0:
307,359,105630,5,0,0:0:0:0:
483,279,105766,1,0,0:0:0:0:
184,220,105903,6,0,P|163:234|209:225,1,170.000003242493
42,54,106312,6,0,L|-3:234,1,170.000003242493
181,356,106721,5,0,0:0:0:0:
217,233,106857,1,0,0:0:0:0:
42,54,106993,5,0,0:0:0:0:
115,262,107130,1,0,0:0:0:0:
161,124,107403,5,0,0:0:0:0:
256,192,107675,1,0,0:0:0:0:
256,240,107812,5,0,0:0:0:0:
256,144,107948,1,0,0:0:0:0:
328,220,108084,6,0,P|349:234|303:225,1,170.000003242493
470,54,108493,6,0,L|515:234,1,170.000003242493
256,384,108903,5,0,0:0:0:0:
315,63,109175,6,0,P|366:108|375:162,1,100
255,231,109448,2,0,P|268:164|310:129,1,100
431,199,109721,2,0,P|366:220|315:201,1,100
334,40,109993,2,0,P|385:85|394:139,1,100
184,220,110266,6,0,P|163:234|209:225,1,170.000003242493
42,54,110675,6,0,L|-3:234,1,170.000003242493
256,384,111084,5,0,0:0:0:0:
328,220,111357,6,0,P|349:234|303:225,1,170.000003242493
460,384,111766,2,0,L|516:26,1,340.000006484985
256,0,112175,2,0,L|312:358,1,340.000006484985
512,48,112721,5,0,0:0:0:0:
256,0,112993,1,0,0:0:0:0:
512,48,113266,1,0,0:0:0:0:
256,0,113539,5,0,0:0:0:0:
512,48,113675,1,0,0:0:0:0:
256,0,113948,5,0,0:0:0:0:
326,39,114084,1,0,0:0:0:0:
256,78,114221,1,0,0:0:0:0:
326,117,114357,1,0,0:0:0:0:
256,156,114493,1,0,0:0:0:0:
164,61,114630,6,0,P|219:55|268:96,1,100
326,195,114903,1,0,0:0:0:0:
256,234,115039,1,0,0:0:0:0:
124,145,115175,2,0,P|132:90|184:53,1,100
326,117,115448,1,0,0:0:0:0:
326,195,115584,1,0,0:0:0:0:
183,216,115721,2,0,P|137:185|125:122,1,100
326,195,115993,2,0,P|322:250|273:291,1,100
144,244,116266,2,0,P|98:213|86:150,1,100
287,223,116539,1,0,0:0:0:0:
236,359,116675,1,0,0:0:0:0:
195,108,116812,5,0,0:0:0:0:
287,223,116948,1,0,0:0:0:0:
144,244,117084,1,0,0:0:0:0:
195,108,117221,1,0,0:0:0:0:
287,223,117357,6,0,P|294:271|271:314,1,100
195,108,117630,2,0,P|233:77|282:76,1,100
144,244,117903,2,0,P|98:226|72:184,1,100
287,223,118175,5,0,0:0:0:0:
320,287,118312,1,0,0:0:0:0:
340,139,118448,5,0,0:0:0:0:
186,218,118585,1,0,0:0:0:0:
265,371,118721,1,0,0:0:0:0:
419,292,118857,1,0,0:0:0:0:
213,80,118993,5,0,0:0:0:0:
50,284,119130,1,0,0:0:0:0:
340,139,119266,5,0,0:0:0:0:
88,207,119403,1,0,0:0:0:0:
419,292,119539,2,0,P|463:265|478:176,1,119.999996337891
213,80,119812,5,0,0:0:0:0:
196,184,119948,1,0,0:0:0:0:
139,44,120084,2,0,P|181:3|240:0,1,119.999996337891
271,220,120357,2,0,P|228:260|169:264,1,119.999996337891
355,42,120630,5,0,0:0:0:0:
338,146,120766,1,0,0:0:0:0:
442,163,120903,1,0,0:0:0:0:
459,59,121039,1,0,0:0:0:0:
271,220,121175,2,0,L|165:299,1,119.999996337891
508,122,121447,5,0,0:0:0:0:
414,203,121584,1,0,0:0:0:0:
320,283,121720,2,0,L|214:362,1,119.999996337891
157,42,121993,5,0,0:0:0:0:
148,193,122130,1,0,0:0:0:0:
0,222,122266,2,0,P|8:181|23:226,1,119.999996337891
183,44,122539,2,0,P|175:85|160:40,1,119.999996337891
256,352,123357,6,0,P|220:288|243:216,1,129.999994049073
387,86,123630,2,0,P|423:150|400:222,1,129.999994049073
180,182,123903,5,0,0:0:0:0:
463,256,124039,1,0,0:0:0:0:
349,157,124175,5,0,0:0:0:0:
229,235,124312,1,0,0:0:0:0:
109,157,124448,2,0,P|84:98|103:37,1,129.999994049073
229,235,124721,2,0,P|190:285|128:299,1,129.999994049073
199,93,124993,5,0,0:0:0:0:
349,157,125130,1,0,0:0:0:0:
285,307,125266,1,0,0:0:0:0:
135,243,125403,1,0,0:0:0:0:
349,157,125539,2,0,L|392:290,1,129.999994049073
211,14,125812,5,0,0:0:0:0:
171,137,125948,1,0,0:0:0:0:
131,261,126084,2,0,L|88:394,1,129.999994049073
301,14,126357,5,0,0:0:0:0:
381,261,126493,1,0,0:0:0:0:
171,137,126630,2,0,P|136:83|144:20,1,129.999994049073
211,14,126834,1,0,0:0:0:0:
88,0,126903,1,0,0:0:0:0:
204,191,127039,1,0,0:0:0:0:
390,33,127175,5,0,0:0:0:0:
398,79,127312,1,0,0:0:0:0:
256,288,127448,5,0,0:0:0:0:
280,150,127584,2,0,L|293:70,1,64.9999970245363
339,333,127721,2,0,P|291:376|228:379,1,129.999994049073
108,117,127993,1,0,0:0:0:0:
204,191,128130,1,0,0:0:0:0:
204,191,128198,1,0,0:0:0:0:
204,191,128266,1,0,0:0:0:0:
55,75,128403,1,0,0:0:0:0:
108,256,128539,1,0,0:0:0:0:
172,79,128675,1,0,0:0:0:0:
17,185,128812,6,0,B|-3:231|-3:231|-4:287|33:315,1,129.999994049073
283,124,129084,2,0,P|235:81|172:78,1,129.999994049073
301,249,129357,2,0,P|362:229|396:176,1,129.999994049073
183,202,129630,2,0,P|170:265|199:321,1,129.999994049073
310,98,129903,5,0,0:0:0:0:
143,85,130039,1,0,0:0:0:0:
130,252,130175,1,0,0:0:0:0:
297,265,130312,1,0,0:0:0:0:
143,85,130448,5,0,0:0:0:0:
212,341,130584,1,0,0:0:0:0:
310,98,130721,1,0,0:0:0:0:
88,237,130857,1,0,0:0:0:0:
350,256,130993,6,0,L|423:260,1,64.9999970245363
210,138,131130,2,0,L|176:72,1,64.9999970245363
178,319,131266,2,0,L|138:380,1,64.9999970245363
350,256,131403,1,0,0:0:0:0:
357,191,131471,1,0,0:0:0:0:
364,126,131539,2,0,L|373:57,1,64.9999970245363
170,254,131675,2,0,L|178:323,1,64.9999970245363
364,126,131812,5,0,0:0:0:0:
325,74,131880,1,0,0:0:0:0:
260,36,131948,1,0,0:0:0:0:
179,32,132016,1,0,0:0:0:0:
90,75,132084,6,0,P|47:123|44:186,1,129.999994049073
333,131,132357,2,0,P|312:69|259:35,1,129.999994049073
163,313,132630,2,0,P|225:326|282:297,1,129.999994049073
259,35,132903,1,0,0:0:0:0:
44,186,133039,1,0,0:0:0:0:
282,296,133175,6,0,P|305:236|286:176,1,129.999994049073
192,36,133448,2,0,P|255:40|302:83,1,129.999994049073
354,356,133721,5,0,0:0:0:0:
280,239,133857,1,0,0:0:0:0:
163,313,133993,2,0,P|140:354|173:323,1,129.999994049073
384,358,134266,5,0,0:0:0:0:
458,241,134402,1,0,0:0:0:0:
384,124,134539,1,0,0:0:0:0:
458,7,134675,1,0,0:0:0:0:
54,7,134812,5,0,0:0:0:0:
128,124,134948,1,0,0:0:0:0:
54,241,135085,1,0,0:0:0:0:
128,358,135221,1,0,0:0:0:0:
256,192,135357,6,0,P|279:132|260:72,1,129.999994049073
54,241,135630,2,0,P|31:301|50:361,1,129.999994049073
128,358,135834,1,0,0:0:0:0:
128,358,135903,1,0,0:0:0:0:
43,141,136039,1,0,0:0:0:0:
312,58,136175,5,0,0:0:0:0:
227,275,136312,1,0,0:0:0:0:
308,272,136380,1,0,0:0:0:0:
389,269,136448,6,0,B|433:258|433:258|465:233|474:169,1,129.999994049073
115,207,136721,2,0,L|248:288,1,129.999994049073
159,28,136993,1,0,0:0:0:0:
105,239,137130,1,0,0:0:0:0:
306,306,137266,2,0,P|369:295|411:249,1,129.999994049073
226,11,137539,5,0,0:0:0:0:
213,73,137607,1,0,0:0:0:0:
235,134,137675,2,0,L|274:192,1,64.9999970245363
401,297,137812,5,0,0:0:0:0:
411,247,137880,1,0,0:0:0:0:
393,198,137948,2,0,L|352:143,1,64.9999970245363
243,327,138084,1,0,0:0:0:0:
460,198,138221,1,0,0:0:0:0:
158,148,138357,5,0,0:0:0:0:
98,174,138425,1,0,0:0:0:0:
105,239,138493,1,0,0:0:0:0:
168,252,138562,1,0,0:0:0:0:
201,196,138630,5,0,0:0:0:0:
132,319,138766,1,0,0:0:0:0:
9,250,138903,1,0,0:0:0:0:
78,126,139039,1,0,0:0:0:0:
311,188,139175,5,0,0:0:0:0:
380,65,139311,1,0,0:0:0:0:
503,134,139448,1,0,0:0:0:0:
434,258,139584,1,0,0:0:0:0:
78,126,139721,5,0,0:0:0:0:
132,319,139857,1,0,0:0:0:0:
132,319,139925,1,0,0:0:0:0:
132,319,139993,1,0,0:0:0:0:
186,126,140130,1,0,0:0:0:0:
457,347,140266,5,0,0:0:0:0:
386,96,140402,1,0,0:0:0:0:
386,96,140470,1,0,0:0:0:0:
386,96,140539,2,0,L|366:32,1,64.9999970245363
301,219,140675,2,0,L|255:268,1,64.9999970245363
449,231,140812,6,0,L|514:245,1,64.9999970245363
297,187,140948,1,0,0:0:0:0:
410,320,141084,1,0,0:0:0:0:
296,78,141221,2,0,P|295:128|267:83,1,129.999994049073
182,320,141493,1,0,0:0:0:0:
68,78,141630,2,0,P|116:36|179:34,1,129.999994049073
301,219,141903,5,0,0:0:0:0:
173,158,142039,1,0,0:0:0:0:
432,190,142175,5,0,0:0:0:0:
305,251,142311,1,0,0:0:0:0:
493,71,142448,5,0,0:0:0:0:
458,207,142584,1,0,0:0:0:0:
322,172,142721,1,0,0:0:0:0:
357,35,142857,2,0,B|367:6|367:6|390:38|412:51|441:59|441:59|463:108|452:162|425:200,1,259.999988098145
85,356,143266,6,0,B|76:305|76:305|114:210,1,150.000005722046
411,257,143539,2,0,B|420:206|420:206|382:111,1,150.000005722046
53,354,143812,6,0,B|45:314|45:314|82:208,1,150.000005722046
443,255,144084,2,0,B|451:215|451:215|414:109,1,150.000005722046
21,352,144357,5,0,0:0:0:0:
132,294,144493,1,0,0:0:0:0:
491,352,144630,5,0,0:0:0:0:
288,245,144766,1,0,0:0:0:0:
491,138,144903,1,0,0:0:0:0:
288,31,145039,2,0,P|173:43|117:223,1,300.000011444092
458,282,145448,6,0,B|477:249|477:249|483:207|479:170|439:128,1,150.000005722046
108,198,145721,2,0,B|89:165|89:165|83:123|87:86|127:44,1,150.000005722046
494,283,145993,6,0,B|513:250|513:250|525:208|526:172|491:118,1,150.000005722046
72,199,146266,2,0,B|53:166|53:166|41:124|40:88|75:34,1,150.000005722046
478,316,146539,5,0,0:0:0:0:
452,143,146675,1,0,0:0:0:0:
46,26,146812,5,0,0:0:0:0:
72,199,146948,1,0,0:0:0:0:
245,173,147084,1,0,0:0:0:0:
219,0,147221,2,0,B|157:-25|118:0|118:0|124:39|151:65|182:76|182:76|151:94|131:121|136:178,1,300.000011444092
423,343,147630,6,0,B|398:288|416:234|416:234|443:262,1,150.000005722046
91,280,147903,2,0,B|116:225|98:171|98:171|71:199,1,150.000005722046
478,316,148175,6,0,B|453:261|471:207|471:207|510:204,1,150.000005722046
36,253,148448,2,0,B|61:198|43:144|43:144|4:141,1,150.000005722046
465,354,148721,5,0,0:0:0:0:
352,192,148857,1,0,0:0:0:0:
47,30,148993,5,0,0:0:0:0:
160,192,149129,1,0,0:0:0:0:
47,354,149266,1,0,0:0:0:0:
273,30,149403,2,0,P|406:16|513:151,1,300.000011444092
307,258,149812,6,0,B|328:154|328:154|360:205,1,150.000005722046
134,57,150084,2,0,P|122:135|177:202,1,150.000005722046
402,75,150357,2,0,P|340:25|254:39,1,150.000005722046
253,299,150630,2,0,P|326:270|357:189,1,150.000005722046
187,351,150903,1,0,0:0:0:0:
226,384,150971,1,0,0:0:0:0:
277,382,151039,2,0,P|311:367|325:349,1,50
134,57,151175,5,0,0:0:0:0:
116,129,151243,1,0,0:0:0:0:
98,202,151311,1,0,0:0:0:0:
80,275,151379,1,0,0:0:0:0:
62,348,151448,2,0,L|43:271,1,75.0000028610231
190,108,151584,2,0,P|214:182|172:258,1,150.000005722046
60,78,151857,5,0,0:0:0:0:
414,141,151993,2,0,P|440:168|424:116,1,150.000005722046
62,348,152266,6,0,B|118:296|118:296|133:376,1,150.000005722046
80,272,152539,2,0,B|136:220|136:220|151:300,1,150.000005722046
450,36,152812,6,0,B|394:88|394:88|379:8,1,150.000005722046
432,112,153085,2,0,B|376:164|376:164|361:84,1,150.000005722046
149,292,153357,6,0,L|162:366,1,75.0000028610231
109,43,153493,1,0,0:0:0:0:
362,292,153630,6,0,L|350:366,1,75.0000028610231
403,43,153766,2,0,P|414:15|422:67,1,150.000005722046
256,192,154039,1,0,0:0:0:0:
473,346,154175,6,0,B|503:295|503:295|509:242|479:229|479:229|462:258,1,150.000005722046
205,355,154448,2,0,B|314:379|314:379|297:340,1,150.000005722046
154,301,154721,2,0,B|263:325|263:325|246:286,1,150.000005722046
307,29,154993,6,0,B|198:5|198:5|215:44,1,150.000005722046
358,83,155266,2,0,B|249:59|249:59|266:98,1,150.000005722046
363,292,155539,6,0,L|350:366,1,75.0000028610231
403,43,155675,1,0,0:0:0:0:
150,292,155812,6,0,L|162:366,1,75.0000028610231
109,43,155948,2,0,P|98:15|90:67,1,150.000005722046
256,320,156221,1,0,0:0:0:0:
318,49,156357,6,0,P|256:16|176:80,1,150.000005722046
350,365,156630,2,0,B|375:322|375:322|364:271|364:271|390:214,1,150.000005722046
485,139,156903,2,0,B|460:182|460:182|471:233|471:233|445:290,1,150.000005722046
162,365,157175,6,0,B|137:322|137:322|148:271|148:271|122:214,1,150.000005722046
27,139,157448,2,0,B|52:182|52:182|41:233|41:233|67:290,1,150.000005722046
350,365,157721,5,0,0:0:0:0:
162,365,157857,1,0,0:0:0:0:
162,177,157993,1,0,0:0:0:0:
350,177,158130,1,0,0:0:0:0:
256,192,158198,12,0,160516,0:0:0:0:
466,384,162630,6,0,L|519:163,1,200
46,0,163175,6,0,L|-7:221,1,200
512,189,163721,5,0,0:0:0:0:
429,127,163857,1,0,0:0:0:0:
417,230,163993,1,0,0:0:0:0:
0,194,164266,5,0,0:0:0:0:
124,287,164402,1,0,0:0:0:0:
142,132,164538,1,0,0:0:0:0:
417,230,164812,6,0,P|480:334|434:220,1,350
445,195,165357,6,0,P|485:350|401:213,1,450.000017166138
512,384,165903,1,0,0:0:0:0:
337,180,166039,5,0,0:0:0:0:
383,142,166107,1,0,0:0:0:0:
440,126,166175,1,0,0:0:0:0:
457,277,166312,1,0,0:0:0:0:
90,384,166448,5,0,0:0:0:0:
0,192,166584,1,0,0:0:0:0:
121,18,166721,1,0,0:0:0:0:
332,35,166857,1,0,0:0:0:0:
465,369,166993,5,0,0:0:0:0:
487,321,167129,1,0,0:0:0:0:
457,277,167266,2,0,L|414:229,1,59.9999981689454
181,268,167403,6,0,P|229:314|322:308,1,129.999994049073
287,165,167675,1,0,0:0:0:0:
170,298,167812,2,0,P|218:344|311:338,1,129.999994049073
261,42,168084,6,0,P|197:60|155:144,1,129.999994049073
303,293,168357,2,0,P|366:274|408:190,1,129.999994049073
140,44,168630,6,0,P|200:22|260:41,1,129.999994049073
423,284,168903,2,0,P|364:308|302:292,1,129.999994049073
287,165,169175,5,0,0:0:0:0:
403,225,169312,1,0,0:0:0:0:
288,133,169448,5,0,0:0:0:0:
172,193,169585,1,0,0:0:0:0:
282,344,169721,5,0,0:0:0:0:
285,193,169857,1,0,0:0:0:0:
155,114,169993,5,0,0:0:0:0:
156,152,170062,1,0,0:0:0:0:
156,189,170130,1,0,0:0:0:0:
157,227,170198,1,0,0:0:0:0:
158,265,170266,5,0,0:0:0:0:
334,86,170403,1,0,0:0:0:0:
103,168,170539,5,0,0:0:0:0:
282,344,170676,1,0,0:0:0:0:
193,55,170812,5,0,0:0:0:0:
193,55,170880,1,0,0:0:0:0:
193,55,170948,2,0,L|171:-13,1,64.9999970245363
403,190,171084,5,0,0:0:0:0:
403,190,171152,1,0,0:0:0:0:
403,190,171220,2,0,L|425:122,1,64.9999970245363
181,304,171357,6,0,P|115:339|48:317,1,129.999994049073
319,230,171630,2,0,P|316:304|263:351,1,129.999994049073
323,73,171903,1,0,0:0:0:0:
402,162,172040,1,0,0:0:0:0:
181,304,172175,5,0,0:0:0:0:
103,168,172312,1,0,0:0:0:0:
260,169,172448,6,0,B|296:174|330:145|330:145|341:192|322:230,1,129.999994049073
268,84,172721,2,0,B|232:79|198:108|198:108|187:61|206:23,1,129.999994049073
332,198,172993,2,0,P|394:154|386:76,1,129.999994049073
195,54,173266,2,0,P|133:98|141:176,1,129.999994049073
294,339,173539,5,0,0:0:0:0:
316,114,173675,1,0,0:0:0:0:
424,384,173812,2,0,L|389:240,1,129.999994049073
218,339,174084,5,0,0:0:0:0:
196,114,174220,1,0,0:0:0:0:
88,384,174357,2,0,L|123:240,1,129.999994049073
316,114,174630,5,0,0:0:0:0:
256,256,174766,1,0,0:0:0:0:
393,257,174903,1,0,0:0:0:0:
351,157,175039,1,0,0:0:0:0:
182,314,175175,6,0,P|250:352|315:329,1,129.999994049073
187,66,175448,6,0,P|107:114|91:196,1,150.000005722046
398,195,175721,6,0,P|396:57|303:-22,1,200
475,330,175993,2,0,B|442:348|424:374|424:374|378:373|341:326,1,150.000005722046
187,66,176266,1,0,0:0:0:0:
326,113,176403,1,0,0:0:0:0:
303,256,176539,2,0,L|292:338,1,64.9999970245363
222,384,176675,2,0,L|233:302,1,64.9999970245363
463,263,176812,5,0,0:0:0:0:
389,218,176880,1,0,0:0:0:0:
305,199,176948,1,0,0:0:0:0:
219,208,177016,1,0,0:0:0:0:
139,245,177085,5,0,0:0:0:0:
191,207,177153,1,0,0:0:0:0:
228,154,177221,1,0,0:0:0:0:
243,91,177289,1,0,0:0:0:0:
235,27,177357,5,0,0:0:0:0:
244,58,177425,1,0,0:0:0:0:
253,89,177493,1,0,0:0:0:0:
262,121,177561,1,0,0:0:0:0:
292,148,177630,5,0,0:0:0:0:
283,179,177698,1,0,0:0:0:0:
274,210,177766,1,0,0:0:0:0:
265,242,177834,1,0,0:0:0:0:
256,274,177903,6,0,B|208:322|208:322|133:331,1,129.999994049073
262,121,178175,2,0,L|385:226,1,129.999994049073
223,360,178448,1,0,0:0:0:0:
131,140,178584,1,0,0:0:0:0:
368,171,178721,2,0,P|432:204|453:258,1,129.999994049073
115,128,178993,5,0,0:0:0:0:
220,379,179130,1,0,0:0:0:0:
386,163,179266,2,0,P|389:91|353:45,1,129.999994049073
91,312,179539,6,0,L|1:324,1,64.9999970245363
421,312,179675,2,0,L|511:324,1,64.9999970245363
91,94,179812,2,0,L|1:106,1,64.9999970245363
421,94,179948,2,0,L|511:106,1,64.9999970245363
235,314,180084,5,0,0:0:0:0:
162,214,180221,1,0,0:0:0:0:
262,141,180357,1,0,0:0:0:0:
335,241,180493,2,0,P|367:304|345:382,1,129.999994049073
162,214,180766,1,0,0:0:0:0:
162,214,180834,1,0,0:0:0:0:
162,214,180903,2,0,P|130:151|152:73,1,129.999994049073
391,97,181175,5,0,0:0:0:0:
302,314,181312,1,0,0:0:0:0:
427,162,181448,5,0,0:0:0:0:
489,313,181585,1,0,0:0:0:0:
465,99,181721,5,0,0:0:0:0:
326,176,181857,1,0,0:0:0:0:
167,173,181993,1,0,0:0:0:0:
30,90,182130,2,0,B|21:63|37:28|37:28|91:48|114:135|50:205,1,259.999988098145
132,293,182539,2,0,P|141:210|172:167,1,129.999994049073
427,162,182812,6,0,B|444:120|429:85|429:85|401:79|358:104,1,129.999994049073
399,320,183084,2,0,B|426:355|464:360|464:360|483:338|483:289,1,129.999994049073
276,216,183357,2,0,B|231:222|208:252|208:252|217:280|260:304,1,129.999994049073
399,320,183630,5,0,0:0:0:0:
399,320,183766,5,0,0:0:0:0:
427,162,183903,5,0,0:0:0:0:
427,162,184039,5,0,0:0:0:0:
399,320,184175,5,0,0:0:0:0:
427,162,184312,2,0,P|424:111|381:67,1,100
256,184,184584,1,0,0:0:0:0:
302,165,184652,1,0,0:0:0:0:
348,146,184720,5,0,0:0:0:0:
164,222,184857,1,0,0:0:0:0:
387,243,184993,5,0,0:0:0:0:
202,318,185130,1,0,0:0:0:0:
127,132,185266,1,0,0:0:0:0:
313,57,185403,2,0,P|362:58|401:88,1,100
256,184,185675,5,0,0:0:0:0:
140,95,185812,1,0,0:0:0:0:
4,150,185948,1,0,0:0:0:0:
240,286,186084,5,0,0:0:0:0:
258,139,186221,1,0,0:0:0:0:
143,50,186357,1,0,0:0:0:0:
8,104,186493,2,0,P|11:147|30:111,1,100
232,322,186766,5,0,0:0:0:0:
258,139,186903,1,0,0:0:0:0:
75,113,187039,1,0,0:0:0:0:
271,35,187175,5,0,0:0:0:0:
240,255,187312,1,0,0:0:0:0:
459,286,187448,1,0,0:0:0:0:
491,67,187584,1,0,0:0:0:0:
240,255,187721,5,0,0:0:0:0:
0,67,187857,1,0,0:0:0:0:
233,124,187993,6,0,L|266:84,1,50
111,280,188130,2,0,L|77:325,1,50
240,255,188266,1,0,0:0:0:0:
21,211,188403,1,0,0:0:0:0:
192,384,188539,1,0,0:0:0:0:
363,211,188675,2,0,P|389:162|385:108,1,100
252,384,188948,5,0,0:0:0:0:
423,211,189084,2,0,B|449:162|449:162|445:108,1,100
133,61,189357,2,0,B|163:114|215:130|215:130|261:117|291:135|291:135|331:150,1,200
191,326,189766,2,0,P|151:279|256:233,1,200
80,267,190175,2,0,P|97:202|136:166,1,100
267,294,190448,5,0,0:0:0:0:
46,195,190584,1,0,0:0:0:0:
323,209,190721,5,0,0:0:0:0:
102,308,190857,2,0,L|1:353,1,100
343,245,191130,5,0,0:0:0:0:
122,344,191266,2,0,L|21:389,1,100
177,152,191539,5,0,0:0:0:0:
370,215,191675,1,0,0:0:0:0:
251,51,191812,1,0,0:0:0:0:
251,254,191948,1,0,0:0:0:0:
371,90,192084,2,0,P|379:37|353:-11,1,100
312,52,192289,1,0,0:0:0:0:
312,52,192357,5,0,0:0:0:0:
428,127,192493,1,0,0:0:0:0:
256,352,192630,5,0,0:0:0:0:
283,148,192766,1,0,0:0:0:0:
79,121,192903,1,0,0:0:0:0:
52,325,193039,1,0,0:0:0:0:
52,325,193311,5,0,0:0:0:0:
79,121,193448,1,0,0:0:0:0:
79,121,193721,6,0,L|70:189,2,50
52,325,193925,1,0,0:0:0:0:
283,148,193993,1,0,0:0:0:0:
256,352,194130,1,0,0:0:0:0:
256,352,194403,5,0,0:0:0:0:
283,148,194539,2,0,L|289:90,1,50
374,259,194675,6,0,L|380:317,1,50
156,197,194812,1,0,0:0:0:0:
369,120,194948,1,0,0:0:0:0:
242,308,195084,1,0,0:0:0:0:
235,82,195221,1,0,0:0:0:0:
