osu file format v14

[General]
AudioFilename: audio.mp3
AudioLeadIn: 0
PreviewTime: 162016
Countdown: 0
SampleSet: Normal
StackLeniency: 0.7
Mode: 1
LetterboxInBreaks: 0
WidescreenStoryboard: 0

[Editor]
Bookmarks: 20677
DistanceSpacing: 0.9
BeatDivisor: 4
GridSize: 32
TimelineZoom: 1.8

[Metadata]
Title:Yuunagi, Bou, Hana Madoi
TitleUnicode:夕凪、某、花惑い
Artist:Yorushika
ArtistUnicode:ヨルシカ
Creator:Faputa
Version:Oni
Source:
Tags:gaston_2199 Evening Calm, Somewhere, Fireworks nbuna n-buna スイ suis エルマ elma yunagi, hanamadoi jrock j-rock japanese rock
BeatmapID:2743544
BeatmapSetID:1324556

[Difficulty]
HPDrainRate:6
CircleSize:2
OverallDifficulty:6.5
ApproachRate:10
SliderMultiplier:1.4
SliderTickRate:1

[Events]
//Background and Video events
0,0,"fireworks.jpg",0,0
//Break Periods
2,20877,24591
2,88514,92227
//Storyboard Layer 0 (Background)
//Storyboard Layer 1 (Fail)
//Storyboard Layer 2 (Pass)
//Storyboard Layer 3 (Foreground)
//Storyboard Layer 4 (Overlay)
//Storyboard Sound Samples

[TimingPoints]
87,272.727272727273,4,1,0,60,1,0
973,-100,4,1,0,80,0,0
9700,-95.2380952380952,4,1,0,85,0,0
20814,-100,4,1,0,70,0,0
20950,-111.111111111111,4,1,0,70,0,0
29268,-105.263157894737,4,1,0,75,0,0
38405,-105.263157894737,4,1,0,65,0,0
46859,-100,4,1,0,80,0,0
55041,-111.111111111111,4,1,0,70,0,0
55587,-111.111111111111,4,1,0,90,0,0
55723,-90.9090909090909,4,1,0,90,0,1
75223,-90.9090909090909,4,1,0,80,0,0
75359,-95.2380952380952,4,1,0,80,0,0
75496,-100,4,1,0,80,0,0
88587,-111.111111111111,4,1,0,70,0,0
96223,-105.263157894737,4,1,0,75,0,0
103723,300,4,1,0,80,1,0
103723,-95.2380952380952,4,1,0,80,0,0
103873,255.31914893617,4,1,0,80,1,8
103873,-112.359550561798,4,1,0,80,0,0
104383,315.789473684211,4,1,0,80,1,8
104383,-90.9090909090909,4,1,0,80,0,0
104540,260.869565217391,4,1,0,80,1,8
104540,-109.89010989011,4,1,0,80,0,0
104800,272.727272727273,4,1,0,80,1,0
104800,-105.263157894737,4,1,0,80,0,0
105072,315.789473684211,4,1,0,80,1,8
105072,-90.9090909090909,4,1,0,80,0,0
105229,272.727272727273,4,1,0,80,1,8
105229,-105.263157894737,4,1,0,80,0,0
105365,269.058295964126,4,1,0,80,1,8
105365,-106.382978723404,4,1,0,80,0,0
105903,272.727272727273,4,1,0,80,1,0
105903,-105.263157894737,4,1,0,80,0,0
106039,-105.263157894737,4,1,0,65,0,0
114493,-100,4,1,0,80,0,0
122675,-111.111111111111,4,1,0,70,0,0
123221,-111.111111111111,4,1,0,90,0,0
123357,-90.9090909090909,4,1,0,90,0,1
142857,-90.9090909090909,4,1,0,80,0,0
142993,-95.2380952380952,4,1,0,80,0,0
143130,-100,4,1,0,80,0,0
151721,-97.0873786407767,4,1,0,80,0,0
158198,-97.0873786407767,4,1,0,70,0,0
158403,-100,4,1,0,70,0,0
161812,-111.111111111111,4,1,0,70,0,0
162493,-105.263157894737,4,1,0,80,0,0
165221,-103.092783505155,4,1,0,80,0,0
165766,-100,4,1,0,80,0,0
165971,-99.009900990099,4,1,0,80,0,0
166243,-98.0392156862745,4,1,0,80,0,0
166380,-97.0873786407767,4,1,0,80,0,0
166721,-96.1538461538461,4,1,0,80,0,0
166857,-94.3396226415094,4,1,0,80,0,0
166993,-92.5925925925926,4,1,0,80,0,0
167130,-91.743119266055,4,1,0,80,0,0
167266,-90.9090909090909,4,1,0,90,0,1
182130,-90.9090909090909,4,1,0,80,0,0
184448,-93.4579439252336,4,1,0,85,0,0
184584,-95.2380952380952,4,1,0,85,0,0

[HitObjects]
256,192,87,5,8,0:0:0:0:
256,192,359,1,8,0:0:0:0:
256,192,632,1,8,0:0:0:0:
256,192,905,1,8,0:0:0:0:
256,192,1041,1,4,0:0:0:0:
256,192,1314,1,0,0:0:0:0:
256,192,1450,1,8,0:0:0:0:
256,192,1723,1,8,0:0:0:0:
256,192,1996,1,8,0:0:0:0:
256,192,2268,1,8,0:0:0:0:
256,192,2541,1,8,0:0:0:0:
256,192,2814,1,8,0:0:0:0:
256,192,2950,1,0,0:0:0:0:
256,192,3223,1,4,0:0:0:0:
256,192,3496,1,0,0:0:0:0:
256,192,3632,1,8,0:0:0:0:
256,192,3905,1,8,0:0:0:0:
256,192,4041,1,0,0:0:0:0:
256,192,4314,1,4,0:0:0:0:
256,192,4587,1,0,0:0:0:0:
256,192,4723,1,8,0:0:0:0:
256,192,4859,1,0,0:0:0:0:
256,192,4996,1,8,0:0:0:0:
256,192,5132,1,0,0:0:0:0:
256,192,5268,1,8,0:0:0:0:
256,192,5405,1,4,0:0:0:0:
256,192,5677,1,0,0:0:0:0:
256,192,5814,1,8,0:0:0:0:
256,192,6087,1,8,0:0:0:0:
256,192,6359,1,8,0:0:0:0:
256,192,6632,1,8,0:0:0:0:
256,192,6905,1,8,0:0:0:0:
256,192,7177,1,8,0:0:0:0:
256,192,7314,1,0,0:0:0:0:
256,192,7587,1,4,0:0:0:0:
256,192,7859,1,0,0:0:0:0:
256,192,7927,1,0,0:0:0:0:
256,192,7996,1,8,0:0:0:0:
256,192,8064,1,0,0:0:0:0:
256,192,8132,1,0,0:0:0:0:
256,192,8268,1,8,0:0:0:0:
256,192,8405,1,8,0:0:0:0:
256,192,8677,1,12,0:0:0:0:
256,192,8950,1,8,0:0:0:0:
256,192,9018,1,0,0:0:0:0:
256,192,9087,1,8,0:0:0:0:
256,192,9223,1,0,0:0:0:0:
256,192,9359,1,8,0:0:0:0:
256,192,9496,1,0,0:0:0:0:
256,192,9564,1,0,0:0:0:0:
256,192,9632,1,0,0:0:0:0:
256,192,9768,1,12,0:0:0:0:
256,192,10041,1,8,0:0:0:0:
256,192,10109,1,0,0:0:0:0:
256,192,10177,1,8,0:0:0:0:
256,192,10314,1,0,0:0:0:0:
256,192,10450,1,8,0:0:0:0:
256,192,10587,1,8,0:0:0:0:
256,192,10723,1,8,0:0:0:0:
256,192,10859,1,0,0:0:0:0:
256,192,11132,1,0,0:0:0:0:
256,192,11268,1,8,0:0:0:0:
256,192,11405,1,0,0:0:0:0:
256,192,11473,1,0,0:0:0:0:
256,192,11541,1,8,0:0:0:0:
256,192,11677,1,8,0:0:0:0:
256,192,11814,1,0,0:0:0:0:
256,192,11950,1,12,0:0:0:0:
256,192,12223,1,0,0:0:0:0:
256,192,12359,1,8,0:0:0:0:
256,192,12496,1,8,0:0:0:0:
256,192,12632,1,8,0:0:0:0:
256,192,12905,1,8,0:0:0:0:
256,192,13041,1,0,0:0:0:0:
256,192,13177,1,8,0:0:0:0:
256,192,13314,1,8,0:0:0:0:
256,192,13450,1,0,0:0:0:0:
256,192,13587,1,0,0:0:0:0:
256,192,13655,1,0,0:0:0:0:
256,192,13723,1,8,0:0:0:0:
256,192,13859,1,8,0:0:0:0:
256,192,13927,1,8,0:0:0:0:
256,192,13996,1,0,0:0:0:0:
256,192,14132,1,12,0:0:0:0:
256,192,14405,1,0,0:0:0:0:
256,192,14541,1,8,0:0:0:0:
256,192,14677,1,0,0:0:0:0:
256,192,14746,1,0,0:0:0:0:
256,192,14814,1,8,0:0:0:0:
256,192,14950,1,8,0:0:0:0:
256,192,15087,1,0,0:0:0:0:
256,192,15223,1,8,0:0:0:0:
256,192,15496,1,8,0:0:0:0:
256,192,15632,1,0,0:0:0:0:
256,192,15768,1,8,0:0:0:0:
256,192,15905,1,0,0:0:0:0:
256,192,15973,1,0,0:0:0:0:
256,192,16041,1,8,0:0:0:0:
256,192,16177,1,0,0:0:0:0:
256,192,16314,1,12,0:0:0:0:
256,192,16587,1,0,0:0:0:0:
256,192,16723,1,8,0:0:0:0:
256,192,16996,1,0,0:0:0:0:
256,192,17132,1,0,0:0:0:0:
256,192,17200,1,0,0:0:0:0:
256,192,17268,1,8,0:0:0:0:
256,192,17405,1,0,0:0:0:0:
256,192,17541,1,8,0:0:0:0:
256,192,17677,1,8,0:0:0:0:
256,192,17746,1,0,0:0:0:0:
256,192,17814,1,8,0:0:0:0:
256,192,17950,1,0,0:0:0:0:
256,192,18087,1,8,0:0:0:0:
256,192,18223,1,8,0:0:0:0:
256,192,18291,1,8,0:0:0:0:
256,192,18359,1,0,0:0:0:0:
256,192,18496,1,4,0:0:0:0:
256,192,18768,1,8,0:0:0:0:
256,192,18905,1,8,0:0:0:0:
256,192,19177,1,8,0:0:0:0:
256,192,19246,1,0,0:0:0:0:
256,192,19314,1,0,0:0:0:0:
256,192,19450,1,0,0:0:0:0:
256,192,19587,1,12,0:0:0:0:
256,192,19859,1,8,0:0:0:0:
256,192,19996,1,8,0:0:0:0:
256,192,20268,1,8,0:0:0:0:
256,192,20337,1,0,0:0:0:0:
256,192,20405,1,8,0:0:0:0:
256,192,20541,1,8,0:0:0:0:
256,192,20677,1,4,0:0:0:0:
256,192,25041,5,12,0:0:0:0:
256,192,28314,5,8,0:0:0:0:
256,192,28587,1,0,0:0:0:0:
256,192,28655,1,0,0:0:0:0:
256,192,28723,1,8,0:0:0:0:
256,192,28859,1,0,0:0:0:0:
256,192,28996,1,8,0:0:0:0:
256,192,29132,1,0,0:0:0:0:
256,192,29405,1,4,0:0:0:0:
256,192,29677,1,0,0:0:0:0:
256,192,29814,1,8,0:0:0:0:
256,192,30087,1,0,0:0:0:0:
256,192,30359,1,8,0:0:0:0:
256,192,30496,1,0,0:0:0:0:
256,192,30768,1,0,0:0:0:0:
256,192,30905,1,8,0:0:0:0:
256,192,31041,1,8,0:0:0:0:
256,192,31177,1,0,0:0:0:0:
256,192,31450,1,8,0:0:0:0:
256,192,31587,1,0,0:0:0:0:
256,192,31859,1,0,0:0:0:0:
256,192,31996,1,8,0:0:0:0:
256,192,32268,1,0,0:0:0:0:
256,192,32541,1,8,0:0:0:0:
256,192,32677,1,0,0:0:0:0:
256,192,32950,1,0,0:0:0:0:
256,192,33087,1,8,0:0:0:0:
256,192,33223,1,8,0:0:0:0:
256,192,33359,1,0,0:0:0:0:
256,192,33496,1,0,0:0:0:0:
256,192,33632,1,8,0:0:0:0:
256,192,33768,1,4,0:0:0:0:
256,192,34041,1,0,0:0:0:0:
256,192,34177,1,8,0:0:0:0:
256,192,34450,1,0,0:0:0:0:
256,192,34723,1,8,0:0:0:0:
256,192,34859,1,0,0:0:0:0:
256,192,35132,1,0,0:0:0:0:
256,192,35268,1,8,0:0:0:0:
256,192,35541,1,0,0:0:0:0:
256,192,35677,1,0,0:0:0:0:
256,192,35814,1,8,0:0:0:0:
256,192,35950,1,12,0:0:0:0:
256,192,36223,1,0,0:0:0:0:
256,192,36359,1,8,0:0:0:0:
256,192,36632,1,0,0:0:0:0:
256,192,36768,1,8,0:0:0:0:
256,192,36905,1,0,0:0:0:0:
256,192,37041,1,0,0:0:0:0:
256,192,37177,1,12,0:0:0:0:
256,192,37450,1,0,0:0:0:0:
256,192,37587,1,8,0:0:0:0:
256,192,37723,1,8,0:0:0:0:
256,192,37859,1,0,0:0:0:0:
256,192,37996,1,0,0:0:0:0:
256,192,38132,1,0,0:0:0:0:
256,192,38268,1,12,0:0:0:0:
256,192,38541,1,0,0:0:0:0:
256,192,38677,1,0,0:0:0:0:
256,192,38950,1,0,0:0:0:0:
256,192,39087,1,0,0:0:0:0:
256,192,39223,1,0,0:0:0:0:
256,192,39359,1,0,0:0:0:0:
256,192,39632,1,0,0:0:0:0:
256,192,39768,1,0,0:0:0:0:
256,192,39905,1,0,0:0:0:0:
256,192,40177,1,0,0:0:0:0:
256,192,40314,1,0,0:0:0:0:
256,192,40382,1,0,0:0:0:0:
256,192,40450,1,8,0:0:0:0:
256,192,40723,1,0,0:0:0:0:
256,192,40859,1,0,0:0:0:0:
256,192,40996,1,0,0:0:0:0:
256,192,41268,1,0,0:0:0:0:
256,192,41405,1,0,0:0:0:0:
256,192,41541,1,0,0:0:0:0:
256,192,41814,1,0,0:0:0:0:
256,192,41950,1,0,0:0:0:0:
256,192,42087,1,8,0:0:0:0:
256,192,42223,1,0,0:0:0:0:
256,192,42359,1,8,0:0:0:0:
256,192,42496,1,0,0:0:0:0:
256,192,42564,1,0,0:0:0:0:
256,192,42632,1,8,0:0:0:0:
256,192,42905,1,0,0:0:0:0:
256,192,43041,1,0,0:0:0:0:
256,192,43177,1,0,0:0:0:0:
256,192,43450,1,0,0:0:0:0:
256,192,43587,1,0,0:0:0:0:
256,192,43655,1,0,0:0:0:0:
256,192,43723,1,8,0:0:0:0:
256,192,43996,1,0,0:0:0:0:
256,192,44132,1,0,0:0:0:0:
256,192,44268,1,8,0:0:0:0:
256,192,44405,1,8,0:0:0:0:
256,192,44541,1,0,0:0:0:0:
256,192,44677,1,0,0:0:0:0:
256,192,44746,1,0,0:0:0:0:
256,192,44814,1,8,0:0:0:0:
256,192,45087,1,0,0:0:0:0:
256,192,45223,1,0,0:0:0:0:
256,192,45359,1,0,0:0:0:0:
256,192,45632,1,0,0:0:0:0:
256,192,45768,1,0,0:0:0:0:
256,192,45905,1,0,0:0:0:0:
256,192,46041,1,0,0:0:0:0:
256,192,46177,1,8,0:0:0:0:
256,192,46314,1,0,0:0:0:0:
256,192,46450,1,8,0:0:0:0:
256,192,46587,1,0,0:0:0:0:
256,192,46723,1,8,0:0:0:0:
256,192,46996,1,12,0:0:0:0:
256,192,47268,1,8,0:0:0:0:
256,192,47405,1,0,0:0:0:0:
256,192,47541,1,0,0:0:0:0:
256,192,47814,1,8,0:0:0:0:
256,192,47950,1,0,0:0:0:0:
256,192,48087,1,8,0:0:0:0:
256,192,48359,1,8,0:0:0:0:
256,192,48632,1,0,0:0:0:0:
256,192,48768,1,0,0:0:0:0:
256,192,48905,1,8,0:0:0:0:
256,192,49041,1,8,0:0:0:0:
256,192,49109,1,8,0:0:0:0:
256,192,49177,1,0,0:0:0:0:
256,192,49314,1,0,0:0:0:0:
256,192,49450,1,8,0:0:0:0:
256,192,49587,1,0,0:0:0:0:
256,192,49859,1,0,0:0:0:0:
256,192,49996,1,8,0:0:0:0:
256,192,50132,1,0,0:0:0:0:
256,192,50268,1,8,0:0:0:0:
256,192,50541,1,8,0:0:0:0:
256,192,50814,1,0,0:0:0:0:
256,192,50950,1,0,0:0:0:0:
256,192,51087,1,8,0:0:0:0:
256,192,51223,1,0,0:0:0:0:
256,192,51359,1,12,0:0:0:0:
256,192,51496,1,0,0:0:0:0:
256,192,51564,1,0,0:0:0:0:
256,192,51632,1,8,0:0:0:0:
256,192,51768,1,0,0:0:0:0:
256,192,51905,1,8,0:0:0:0:
256,192,52041,1,0,0:0:0:0:
256,192,52109,1,0,0:0:0:0:
256,192,52177,1,8,0:0:0:0:
256,192,52314,1,0,0:0:0:0:
256,192,52450,1,8,0:0:0:0:
256,192,52518,1,8,0:0:0:0:
256,192,52587,1,0,0:0:0:0:
256,192,52655,1,0,0:0:0:0:
256,192,52723,1,8,0:0:0:0:
256,192,52859,1,0,0:0:0:0:
256,192,52996,1,8,0:0:0:0:
256,192,53064,1,8,0:0:0:0:
256,192,53132,1,0,0:0:0:0:
256,192,53200,1,0,0:0:0:0:
256,192,53268,1,8,0:0:0:0:
256,192,53405,1,8,0:0:0:0:
256,192,53541,1,0,0:0:0:0:
256,192,53609,1,0,0:0:0:0:
256,192,53677,1,0,0:0:0:0:
256,192,53746,1,0,0:0:0:0:
256,192,53814,1,8,0:0:0:0:
256,192,53950,1,8,0:0:0:0:
256,192,54087,1,0,0:0:0:0:
256,192,54155,1,0,0:0:0:0:
256,192,54223,1,0,0:0:0:0:
256,192,54291,1,0,0:0:0:0:
256,192,54359,1,8,0:0:0:0:
256,192,54496,1,8,0:0:0:0:
256,192,54564,1,8,0:0:0:0:
256,192,54632,1,0,0:0:0:0:
256,192,54905,1,12,0:0:0:0:
256,64,55177,2,0,L|384:64,1,125.999996154785
256,192,55723,1,12,0:0:0:0:
256,192,55996,1,8,0:0:0:0:
256,192,56132,1,0,0:0:0:0:
256,192,56200,1,0,0:0:0:0:
256,192,56268,1,8,0:0:0:0:
256,192,56405,1,8,0:0:0:0:
256,192,56541,1,0,0:0:0:0:
256,192,56677,1,8,0:0:0:0:
256,192,56746,1,0,0:0:0:0:
256,192,56814,1,8,0:0:0:0:
256,192,56950,1,8,0:0:0:0:
256,192,57087,1,0,0:0:0:0:
256,192,57223,1,0,0:0:0:0:
256,192,57359,1,8,0:0:0:0:
256,192,57496,1,0,0:0:0:0:
256,192,57632,1,8,0:0:0:0:
256,192,57905,1,8,0:0:0:0:
256,192,58041,1,0,0:0:0:0:
256,192,58177,1,8,0:0:0:0:
256,192,58314,1,8,0:0:0:0:
256,192,58450,1,0,0:0:0:0:
256,192,58518,1,0,0:0:0:0:
256,192,58587,1,8,0:0:0:0:
256,192,58655,1,8,0:0:0:0:
256,192,58723,1,0,0:0:0:0:
256,192,58859,1,0,0:0:0:0:
256,192,58996,1,8,0:0:0:0:
256,192,59132,1,8,0:0:0:0:
256,192,59200,1,0,0:0:0:0:
256,192,59268,1,8,0:0:0:0:
256,192,59405,1,0,0:0:0:0:
256,192,59541,1,8,0:0:0:0:
256,192,59677,1,0,0:0:0:0:
256,192,59746,1,0,0:0:0:0:
256,192,59814,1,8,0:0:0:0:
256,192,59950,1,0,0:0:0:0:
256,192,60087,1,12,0:0:0:0:
256,192,60359,1,8,0:0:0:0:
256,192,60496,1,0,0:0:0:0:
256,192,60564,1,8,0:0:0:0:
256,192,60632,1,0,0:0:0:0:
256,192,60768,1,0,0:0:0:0:
256,192,60905,1,8,0:0:0:0:
256,192,61041,1,0,0:0:0:0:
256,192,61177,1,8,0:0:0:0:
256,192,61246,1,8,0:0:0:0:
256,192,61314,1,0,0:0:0:0:
256,192,61382,1,0,0:0:0:0:
256,192,61450,1,8,0:0:0:0:
256,192,61587,1,0,0:0:0:0:
256,192,61723,1,8,0:0:0:0:
256,192,61859,1,8,0:0:0:0:
256,192,61927,1,8,0:0:0:0:
256,192,61996,1,0,0:0:0:0:
256,192,62132,1,0,0:0:0:0:
256,192,62268,1,8,0:0:0:0:
256,192,62541,1,8,0:0:0:0:
256,192,62677,1,0,0:0:0:0:
256,192,62746,1,0,0:0:0:0:
256,192,62814,1,8,0:0:0:0:
256,192,62882,1,0,0:0:0:0:
256,192,62950,1,8,0:0:0:0:
256,192,63087,1,8,0:0:0:0:
256,192,63223,1,0,0:0:0:0:
256,192,63359,1,8,0:0:0:0:
256,192,63427,1,8,0:0:0:0:
256,192,63496,1,0,0:0:0:0:
256,192,63632,1,12,0:0:0:0:
256,192,63905,1,8,0:0:0:0:
256,192,64041,1,8,0:0:0:0:
256,192,64177,1,0,0:0:0:0:
256,192,64314,1,8,0:0:0:0:
256,192,64450,1,4,0:0:0:0:
256,192,64723,1,12,0:0:0:0:
256,192,64859,1,0,0:0:0:0:
256,192,64927,1,0,0:0:0:0:
256,192,64996,1,8,0:0:0:0:
256,192,65132,1,8,0:0:0:0:
256,192,65268,1,0,0:0:0:0:
256,192,65405,1,8,0:0:0:0:
256,192,65473,1,0,0:0:0:0:
256,192,65541,1,8,0:0:0:0:
256,192,65677,1,8,0:0:0:0:
256,192,65814,1,0,0:0:0:0:
256,192,65950,1,0,0:0:0:0:
256,192,66087,1,8,0:0:0:0:
256,192,66223,1,0,0:0:0:0:
256,192,66359,1,8,0:0:0:0:
256,192,66496,1,8,0:0:0:0:
256,192,66632,1,0,0:0:0:0:
256,192,66905,1,8,0:0:0:0:
256,192,67041,1,8,0:0:0:0:
256,192,67109,1,8,0:0:0:0:
256,192,67177,1,0,0:0:0:0:
256,192,67314,1,0,0:0:0:0:
256,192,67450,1,8,0:0:0:0:
256,192,67587,1,0,0:0:0:0:
256,192,67723,1,8,0:0:0:0:
256,192,67791,1,8,0:0:0:0:
256,192,67859,1,0,0:0:0:0:
256,192,67927,1,0,0:0:0:0:
256,192,67996,1,8,0:0:0:0:
256,192,68132,1,8,0:0:0:0:
256,192,68268,1,0,0:0:0:0:
256,192,68405,1,8,0:0:0:0:
256,192,68473,1,8,0:0:0:0:
256,192,68541,1,0,0:0:0:0:
256,192,68677,1,8,0:0:0:0:
256,192,68814,1,4,0:0:0:0:
256,192,69087,1,8,0:0:0:0:
256,192,69223,1,0,0:0:0:0:
256,192,69359,1,8,0:0:0:0:
256,192,69496,1,8,0:0:0:0:
256,192,69632,1,0,0:0:0:0:
256,192,69768,1,8,0:0:0:0:
256,192,69837,1,8,0:0:0:0:
256,192,69905,1,8,0:0:0:0:
256,192,70041,1,0,0:0:0:0:
256,192,70109,1,0,0:0:0:0:
256,192,70177,1,8,0:0:0:0:
256,192,70314,1,0,0:0:0:0:
256,192,70450,1,8,0:0:0:0:
256,192,70587,1,0,0:0:0:0:
256,192,70655,1,0,0:0:0:0:
256,192,70723,1,8,0:0:0:0:
256,192,70859,1,0,0:0:0:0:
256,192,70996,1,12,0:0:0:0:
256,192,71268,1,8,0:0:0:0:
256,192,71405,1,8,0:0:0:0:
256,192,71541,1,0,0:0:0:0:
256,192,71677,1,0,0:0:0:0:
256,192,71814,1,8,0:0:0:0:
256,192,71950,1,0,0:0:0:0:
256,192,72018,1,0,0:0:0:0:
256,192,72087,1,8,0:0:0:0:
256,192,72223,1,8,0:0:0:0:
256,192,72291,1,8,0:0:0:0:
256,192,72359,1,0,0:0:0:0:
256,192,72496,1,8,0:0:0:0:
256,192,72632,1,0,0:0:0:0:
256,192,72700,1,0,0:0:0:0:
256,192,72768,1,8,0:0:0:0:
256,192,72837,1,8,0:0:0:0:
256,192,72905,1,8,0:0:0:0:
256,192,73041,1,0,0:0:0:0:
256,192,73177,1,12,0:0:0:0:
256,192,73450,1,8,0:0:0:0:
256,192,73587,1,0,0:0:0:0:
256,192,73655,1,0,0:0:0:0:
256,192,73723,1,8,0:0:0:0:
256,192,73859,1,0,0:0:0:0:
256,192,73996,1,8,0:0:0:0:
256,192,74132,1,8,0:0:0:0:
256,192,74200,1,8,0:0:0:0:
256,192,74268,1,0,0:0:0:0:
256,192,74405,1,0,0:0:0:0:
256,192,74541,1,8,0:0:0:0:
256,192,74677,1,0,0:0:0:0:
256,192,74746,1,8,0:0:0:0:
256,192,74814,1,8,0:0:0:0:
256,192,74950,1,8,0:0:0:0:
256,192,75087,1,0,0:0:0:0:
256,192,75223,1,12,0:0:0:0:
256,192,75496,1,0,0:0:0:0:
256,192,75632,1,8,0:0:0:0:
256,192,75905,1,8,0:0:0:0:
256,192,76177,1,8,0:0:0:0:
256,192,76450,1,8,0:0:0:0:
256,192,76723,1,8,0:0:0:0:
256,192,76996,1,8,0:0:0:0:
256,192,77132,1,8,0:0:0:0:
256,192,77405,1,4,0:0:0:0:
256,192,77677,1,0,0:0:0:0:
256,192,77814,1,8,0:0:0:0:
256,192,78087,1,0,0:0:0:0:
256,192,78223,1,0,0:0:0:0:
256,192,78359,1,0,0:0:0:0:
256,192,78632,1,8,0:0:0:0:
256,192,78905,1,0,0:0:0:0:
256,192,79041,1,8,0:0:0:0:
256,192,79177,1,8,0:0:0:0:
256,192,79314,1,8,0:0:0:0:
256,192,79450,1,8,0:0:0:0:
256,192,79587,1,4,0:0:0:0:
256,192,79859,1,0,0:0:0:0:
256,192,79996,1,8,0:0:0:0:
256,192,80132,1,0,0:0:0:0:
256,192,80268,1,8,0:0:0:0:
256,192,80405,1,8,0:0:0:0:
256,192,80541,1,8,0:0:0:0:
256,192,80677,1,0,0:0:0:0:
256,192,80746,1,0,0:0:0:0:
256,192,80814,1,8,0:0:0:0:
256,192,80950,1,8,0:0:0:0:
256,192,81087,1,8,0:0:0:0:
256,192,81223,1,0,0:0:0:0:
256,192,81359,1,8,0:0:0:0:
256,192,81496,1,0,0:0:0:0:
256,192,81632,1,8,0:0:0:0:
256,192,81768,1,4,0:0:0:0:
256,192,82041,1,0,0:0:0:0:
256,192,82177,1,8,0:0:0:0:
256,192,82314,1,0,0:0:0:0:
256,192,82382,1,0,0:0:0:0:
256,192,82450,1,8,0:0:0:0:
256,192,82587,1,8,0:0:0:0:
256,192,82723,1,8,0:0:0:0:
256,192,82859,1,0,0:0:0:0:
256,192,82996,1,8,0:0:0:0:
256,192,83132,1,0,0:0:0:0:
256,192,83268,1,8,0:0:0:0:
256,192,83405,1,8,0:0:0:0:
256,192,83541,1,0,0:0:0:0:
256,192,83677,1,8,0:0:0:0:
256,192,83746,1,8,0:0:0:0:
256,192,83814,1,8,0:0:0:0:
256,192,83950,1,4,0:0:0:0:
256,192,84223,1,0,0:0:0:0:
256,192,84359,1,8,0:0:0:0:
256,192,84632,1,0,0:0:0:0:
256,192,84768,1,0,0:0:0:0:
256,192,84905,1,8,0:0:0:0:
256,192,85041,1,8,0:0:0:0:
256,192,85177,1,4,0:0:0:0:
256,192,85450,1,0,0:0:0:0:
256,192,85587,1,12,0:0:0:0:
256,192,85859,1,8,0:0:0:0:
256,192,85996,1,4,0:0:0:0:
256,192,86268,1,12,0:0:0:0:
256,192,86405,1,0,0:0:0:0:
256,192,86473,1,0,0:0:0:0:
256,192,86541,1,0,0:0:0:0:
256,192,86677,1,12,0:0:0:0:
256,192,86950,1,8,0:0:0:0:
256,192,87087,1,4,0:0:0:0:
256,192,87223,12,0,88177,0:0:0:0:
256,192,88314,5,12,0:0:0:0:
256,192,92677,5,12,0:0:0:0:
256,192,94859,1,8,0:0:0:0:
256,192,95268,1,12,0:0:0:0:
256,192,95677,1,8,0:0:0:0:
256,192,95950,1,0,0:0:0:0:
256,192,96087,1,8,0:0:0:0:
256,192,96359,5,0,0:0:0:0:
256,192,96427,1,0,0:0:0:0:
256,192,96496,1,8,0:0:0:0:
256,192,96632,1,8,0:0:0:0:
256,192,96768,1,0,0:0:0:0:
256,192,96905,1,8,0:0:0:0:
256,192,97041,1,4,0:0:0:0:
256,192,97314,1,0,0:0:0:0:
256,192,97450,1,8,0:0:0:0:
256,192,97723,1,0,0:0:0:0:
256,192,97996,1,8,0:0:0:0:
256,192,98132,1,0,0:0:0:0:
256,192,98405,1,0,0:0:0:0:
256,192,98541,1,8,0:0:0:0:
256,192,98677,1,8,0:0:0:0:
256,192,98814,1,0,0:0:0:0:
256,192,99087,1,8,0:0:0:0:
256,192,99223,1,0,0:0:0:0:
256,192,99496,1,0,0:0:0:0:
256,192,99632,1,8,0:0:0:0:
256,192,99905,1,0,0:0:0:0:
256,192,100177,1,8,0:0:0:0:
256,192,100314,1,0,0:0:0:0:
256,192,100587,1,0,0:0:0:0:
256,192,100723,1,8,0:0:0:0:
256,192,100859,1,8,0:0:0:0:
256,192,100996,1,0,0:0:0:0:
256,192,101132,1,0,0:0:0:0:
256,192,101268,1,8,0:0:0:0:
256,192,101405,1,4,0:0:0:0:
256,192,101677,1,0,0:0:0:0:
256,192,101814,1,8,0:0:0:0:
256,192,102087,1,0,0:0:0:0:
256,192,102359,1,8,0:0:0:0:
256,192,102496,1,0,0:0:0:0:
256,192,102768,1,0,0:0:0:0:
256,192,102905,1,8,0:0:0:0:
256,192,103041,1,0,0:0:0:0:
256,192,103177,1,8,0:0:0:0:
256,192,103314,1,8,0:0:0:0:
256,192,103450,1,0,0:0:0:0:
256,192,103587,1,12,0:0:0:0:
256,192,103873,1,0,0:0:0:0:
256,192,104000,1,8,0:0:0:0:
256,192,104255,1,0,0:0:0:0:
256,192,104383,1,8,0:0:0:0:
256,192,104670,1,0,0:0:0:0:
256,192,104800,1,12,0:0:0:0:
256,192,104936,1,0,0:0:0:0:
256,192,105229,1,8,0:0:0:0:
256,192,105365,1,8,0:0:0:0:
256,192,105499,1,0,0:0:0:0:
256,192,105634,1,0,0:0:0:0:
256,192,105768,1,8,0:0:0:0:
256,192,105903,1,4,0:0:0:0:
256,192,106312,1,0,0:0:0:0:
256,192,106448,1,8,0:0:0:0:
256,192,106516,1,8,0:0:0:0:
256,192,106584,1,8,0:0:0:0:
256,192,106721,1,0,0:0:0:0:
256,192,106857,1,0,0:0:0:0:
256,192,106925,1,0,0:0:0:0:
256,192,106993,1,8,0:0:0:0:
256,192,107130,1,0,0:0:0:0:
256,192,107403,1,8,0:0:0:0:
256,192,107675,1,0,0:0:0:0:
256,192,107812,1,8,0:0:0:0:
256,192,107948,1,8,0:0:0:0:
256,192,108084,1,4,0:0:0:0:
256,192,108493,1,0,0:0:0:0:
256,192,108630,1,0,0:0:0:0:
256,192,108698,1,8,0:0:0:0:
256,192,108766,1,8,0:0:0:0:
256,192,108903,1,8,0:0:0:0:
256,192,109039,1,0,0:0:0:0:
256,192,109107,1,0,0:0:0:0:
256,192,109175,1,8,0:0:0:0:
256,192,109312,1,0,0:0:0:0:
256,192,109584,1,8,0:0:0:0:
256,192,109857,1,8,0:0:0:0:
256,192,109993,1,0,0:0:0:0:
256,192,110266,1,12,0:0:0:0:
256,192,110675,1,0,0:0:0:0:
256,192,110812,1,8,0:0:0:0:
256,192,110880,1,8,0:0:0:0:
256,192,110948,1,8,0:0:0:0:
256,192,111084,1,0,0:0:0:0:
256,192,111357,1,12,0:0:0:0:
256,192,111766,1,8,0:0:0:0:
256,192,111903,1,8,0:0:0:0:
256,192,112039,1,0,0:0:0:0:
256,192,112107,1,0,0:0:0:0:
256,192,112175,1,8,0:0:0:0:
256,192,112448,1,4,0:0:0:0:
256,192,112857,1,0,0:0:0:0:
256,192,112993,1,8,0:0:0:0:
256,192,113062,1,8,0:0:0:0:
256,192,113130,1,0,0:0:0:0:
256,192,113266,1,8,0:0:0:0:
256,192,113403,1,0,0:0:0:0:
256,192,113471,1,0,0:0:0:0:
256,192,113539,1,8,0:0:0:0:
256,192,113675,1,0,0:0:0:0:
256,192,113948,1,0,0:0:0:0:
256,192,114084,1,8,0:0:0:0:
256,192,114221,1,8,0:0:0:0:
256,192,114357,1,0,0:0:0:0:
256,192,114630,1,12,0:0:0:0:
256,192,114903,1,8,0:0:0:0:
256,192,115175,1,0,0:0:0:0:
256,192,115312,1,0,0:0:0:0:
256,192,115448,1,8,0:0:0:0:
256,192,115584,1,0,0:0:0:0:
256,192,115653,1,0,0:0:0:0:
256,192,115721,1,8,0:0:0:0:
256,192,115857,1,8,0:0:0:0:
256,192,115993,1,0,0:0:0:0:
256,192,116130,1,8,0:0:0:0:
256,192,116403,1,0,0:0:0:0:
256,192,116539,1,8,0:0:0:0:
256,192,116812,1,4,0:0:0:0:
256,192,117084,1,8,0:0:0:0:
256,192,117221,1,0,0:0:0:0:
256,192,117357,1,8,0:0:0:0:
256,192,117493,1,8,0:0:0:0:
256,192,117630,1,0,0:0:0:0:
256,192,117766,1,8,0:0:0:0:
256,192,117834,1,8,0:0:0:0:
256,192,117903,1,8,0:0:0:0:
256,192,118039,1,0,0:0:0:0:
256,192,118312,1,8,0:0:0:0:
256,192,118448,1,0,0:0:0:0:
256,192,118584,1,0,0:0:0:0:
256,192,118721,1,8,0:0:0:0:
256,192,118857,1,0,0:0:0:0:
256,192,118993,1,12,0:0:0:0:
256,192,119266,1,8,0:0:0:0:
256,192,119403,1,8,0:0:0:0:
256,192,119471,1,8,0:0:0:0:
256,192,119539,1,0,0:0:0:0:
256,192,119675,1,0,0:0:0:0:
256,192,119812,1,8,0:0:0:0:
256,192,119948,1,8,0:0:0:0:
256,192,120084,1,4,0:0:0:0:
256,192,120357,1,8,0:0:0:0:
256,192,120630,1,0,0:0:0:0:
256,192,120766,1,0,0:0:0:0:
256,192,120834,1,0,0:0:0:0:
256,192,120903,1,8,0:0:0:0:
256,192,121039,1,0,0:0:0:0:
256,192,121175,1,12,0:0:0:0:
256,192,121448,1,8,0:0:0:0:
256,192,121516,1,8,0:0:0:0:
256,192,121584,1,8,0:0:0:0:
256,192,121721,1,8,0:0:0:0:
256,192,121789,1,8,0:0:0:0:
256,192,121857,1,8,0:0:0:0:
256,192,121993,1,0,0:0:0:0:
256,192,122062,1,0,0:0:0:0:
256,192,122130,1,8,0:0:0:0:
256,192,122198,1,8,0:0:0:0:
256,192,122266,1,0,0:0:0:0:
256,192,122539,1,12,0:0:0:0:
256,192,122812,2,0,L|384:192,1,125.999996154785
256,192,123357,1,12,0:0:0:0:
256,192,123630,1,8,0:0:0:0:
256,192,123766,1,0,0:0:0:0:
256,192,123834,1,0,0:0:0:0:
256,192,123903,1,8,0:0:0:0:
256,192,124039,1,0,0:0:0:0:
256,192,124175,1,8,0:0:0:0:
256,192,124312,1,8,0:0:0:0:
256,192,124380,1,8,0:0:0:0:
256,192,124448,1,8,0:0:0:0:
256,192,124584,1,0,0:0:0:0:
256,192,124721,1,8,0:0:0:0:
256,192,124857,1,0,0:0:0:0:
256,192,124925,1,0,0:0:0:0:
256,192,124993,1,8,0:0:0:0:
256,192,125062,1,8,0:0:0:0:
256,192,125130,1,0,0:0:0:0:
256,192,125266,1,8,0:0:0:0:
256,192,125403,1,0,0:0:0:0:
256,192,125539,1,8,0:0:0:0:
256,192,125812,1,8,0:0:0:0:
256,192,125948,1,0,0:0:0:0:
256,192,126016,1,0,0:0:0:0:
256,192,126084,1,8,0:0:0:0:
256,192,126221,1,0,0:0:0:0:
256,192,126357,1,8,0:0:0:0:
256,192,126493,1,0,0:0:0:0:
256,192,126562,1,0,0:0:0:0:
256,192,126630,1,8,0:0:0:0:
256,192,126766,1,8,0:0:0:0:
256,192,126834,1,0,0:0:0:0:
256,192,126903,1,8,0:0:0:0:
256,192,127039,1,0,0:0:0:0:
256,192,127175,1,8,0:0:0:0:
256,192,127312,1,8,0:0:0:0:
256,192,127448,1,0,0:0:0:0:
256,192,127516,1,0,0:0:0:0:
256,192,127584,1,8,0:0:0:0:
256,192,127721,1,4,0:0:0:0:
256,192,127993,1,8,0:0:0:0:
256,192,128130,1,0,0:0:0:0:
256,192,128198,1,8,0:0:0:0:
256,192,128266,1,0,0:0:0:0:
256,192,128403,1,0,0:0:0:0:
256,192,128539,1,8,0:0:0:0:
256,192,128675,1,0,0:0:0:0:
256,192,128812,1,8,0:0:0:0:
256,192,128948,1,8,0:0:0:0:
256,192,129016,1,8,0:0:0:0:
256,192,129084,1,0,0:0:0:0:
256,192,129221,1,0,0:0:0:0:
256,192,129357,1,8,0:0:0:0:
256,192,129493,1,0,0:0:0:0:
256,192,129562,1,0,0:0:0:0:
256,192,129630,1,8,0:0:0:0:
256,192,129766,1,8,0:0:0:0:
256,192,129903,1,0,0:0:0:0:
256,192,130175,1,8,0:0:0:0:
256,192,130312,1,8,0:0:0:0:
256,192,130380,1,8,0:0:0:0:
256,192,130448,1,0,0:0:0:0:
256,192,130584,1,0,0:0:0:0:
256,192,130721,1,8,0:0:0:0:
256,192,130857,1,8,0:0:0:0:
256,192,130925,1,8,0:0:0:0:
256,192,130993,1,0,0:0:0:0:
256,192,131062,1,0,0:0:0:0:
256,192,131130,1,8,0:0:0:0:
256,192,131266,1,8,0:0:0:0:
256,192,131403,1,0,0:0:0:0:
256,192,131539,1,12,0:0:0:0:
256,192,131812,1,8,0:0:0:0:
256,192,131880,1,8,0:0:0:0:
256,192,131948,1,8,0:0:0:0:
256,192,132084,1,4,0:0:0:0:
256,192,132357,1,12,0:0:0:0:
256,192,132493,1,0,0:0:0:0:
256,192,132630,1,0,0:0:0:0:
256,192,132766,1,8,0:0:0:0:
256,192,132903,1,0,0:0:0:0:
256,192,133039,1,8,0:0:0:0:
256,192,133107,1,0,0:0:0:0:
256,192,133175,1,8,0:0:0:0:
256,192,133312,1,0,0:0:0:0:
256,192,133448,1,8,0:0:0:0:
256,192,133584,1,8,0:0:0:0:
256,192,133653,1,8,0:0:0:0:
256,192,133721,1,0,0:0:0:0:
256,192,133789,1,0,0:0:0:0:
256,192,133857,1,0,0:0:0:0:
256,192,133993,1,8,0:0:0:0:
256,192,134130,1,0,0:0:0:0:
256,192,134266,1,8,0:0:0:0:
256,192,134539,1,8,0:0:0:0:
256,192,134675,1,0,0:0:0:0:
256,192,134743,1,0,0:0:0:0:
256,192,134812,1,0,0:0:0:0:
256,192,134948,1,0,0:0:0:0:
256,192,135084,1,8,0:0:0:0:
256,192,135153,1,0,0:0:0:0:
256,192,135221,1,8,0:0:0:0:
256,192,135357,1,0,0:0:0:0:
256,192,135493,1,8,0:0:0:0:
256,192,135630,1,0,0:0:0:0:
256,192,135766,1,0,0:0:0:0:
256,192,135903,1,8,0:0:0:0:
256,192,136039,1,0,0:0:0:0:
256,192,136107,1,0,0:0:0:0:
256,192,136175,1,8,0:0:0:0:
256,192,136312,1,0,0:0:0:0:
256,192,136448,1,8,0:0:0:0:
256,192,136721,1,12,0:0:0:0:
256,192,136993,1,0,0:0:0:0:
256,192,137130,1,0,0:0:0:0:
256,192,137266,1,8,0:0:0:0:
256,192,137403,1,0,0:0:0:0:
256,192,137471,1,0,0:0:0:0:
256,192,137539,1,8,0:0:0:0:
256,192,137675,1,8,0:0:0:0:
256,192,137812,1,0,0:0:0:0:
256,192,137948,1,0,0:0:0:0:
256,192,138016,1,0,0:0:0:0:
256,192,138084,1,8,0:0:0:0:
256,192,138221,1,8,0:0:0:0:
256,192,138289,1,8,0:0:0:0:
256,192,138357,1,0,0:0:0:0:
256,192,138493,1,8,0:0:0:0:
256,192,138630,1,4,0:0:0:0:
256,192,138903,1,8,0:0:0:0:
256,192,139039,1,0,0:0:0:0:
256,192,139107,1,8,0:0:0:0:
256,192,139175,1,0,0:0:0:0:
256,192,139312,1,0,0:0:0:0:
256,192,139448,1,8,0:0:0:0:
256,192,139584,1,0,0:0:0:0:
256,192,139653,1,8,0:0:0:0:
256,192,139721,1,0,0:0:0:0:
256,192,139857,1,8,0:0:0:0:
256,192,139925,1,8,0:0:0:0:
256,192,139993,1,8,0:0:0:0:
256,192,140130,1,0,0:0:0:0:
256,192,140266,1,8,0:0:0:0:
256,192,140334,1,8,0:0:0:0:
256,192,140403,1,0,0:0:0:0:
256,192,140471,1,0,0:0:0:0:
256,192,140539,1,8,0:0:0:0:
256,192,140675,1,0,0:0:0:0:
256,192,140812,1,12,0:0:0:0:
256,192,141084,1,8,0:0:0:0:
256,192,141221,1,0,0:0:0:0:
256,192,141289,1,0,0:0:0:0:
256,192,141357,1,8,0:0:0:0:
256,192,141493,1,0,0:0:0:0:
256,192,141630,1,8,0:0:0:0:
256,192,141766,1,8,0:0:0:0:
256,192,141834,1,8,0:0:0:0:
256,192,141903,1,0,0:0:0:0:
256,192,141971,1,8,0:0:0:0:
256,192,142039,1,0,0:0:0:0:
256,192,142175,1,8,0:0:0:0:
256,192,142312,1,0,0:0:0:0:
256,192,142380,1,0,0:0:0:0:
256,192,142448,1,8,0:0:0:0:
256,192,142584,1,0,0:0:0:0:
256,192,142721,1,8,0:0:0:0:
256,192,142857,1,4,0:0:0:0:
256,192,143130,1,0,0:0:0:0:
256,192,143266,1,8,0:0:0:0:
256,192,143539,1,0,0:0:0:0:
256,192,143812,1,8,0:0:0:0:
256,192,144084,1,0,0:0:0:0:
256,192,144357,1,8,0:0:0:0:
256,192,144630,1,0,0:0:0:0:
256,192,144766,1,0,0:0:0:0:
256,192,144903,1,8,0:0:0:0:
256,192,145039,1,12,0:0:0:0:
256,192,145312,1,0,0:0:0:0:
256,192,145448,1,8,0:0:0:0:
256,192,145721,1,0,0:0:0:0:
256,192,145857,1,0,0:0:0:0:
256,192,145993,1,8,0:0:0:0:
256,192,146130,1,8,0:0:0:0:
256,192,146266,1,4,0:0:0:0:
256,192,146539,1,8,0:0:0:0:
256,192,146812,1,8,0:0:0:0:
256,192,146948,1,0,0:0:0:0:
256,192,147084,1,8,0:0:0:0:
256,192,147221,1,4,0:0:0:0:
256,192,147493,1,0,0:0:0:0:
256,192,147630,1,12,0:0:0:0:
256,192,147903,1,0,0:0:0:0:
256,192,148039,1,8,0:0:0:0:
256,192,148175,1,0,0:0:0:0:
256,192,148448,1,12,0:0:0:0:
256,192,148721,1,0,0:0:0:0:
256,192,148857,1,8,0:0:0:0:
256,192,148993,1,0,0:0:0:0:
256,192,149130,1,0,0:0:0:0:
256,192,149266,1,8,0:0:0:0:
256,192,149403,1,4,0:0:0:0:
256,192,149675,1,0,0:0:0:0:
256,192,149812,1,8,0:0:0:0:
256,192,150084,1,0,0:0:0:0:
256,192,150221,1,8,0:0:0:0:
256,192,150357,1,0,0:0:0:0:
256,192,150493,1,0,0:0:0:0:
256,192,150630,1,12,0:0:0:0:
256,192,150903,1,8,0:0:0:0:
256,192,151039,1,0,0:0:0:0:
256,192,151175,1,8,0:0:0:0:
256,192,151243,1,8,0:0:0:0:
256,192,151312,1,0,0:0:0:0:
256,192,151380,1,0,0:0:0:0:
256,192,151448,1,0,0:0:0:0:
256,192,151584,1,12,0:0:0:0:
256,192,151857,1,0,0:0:0:0:
256,192,151993,1,8,0:0:0:0:
256,192,152130,1,0,0:0:0:0:
256,192,152266,1,8,0:0:0:0:
256,192,152403,1,0,0:0:0:0:
256,192,152539,1,8,0:0:0:0:
256,192,152675,1,0,0:0:0:0:
256,192,152743,1,0,0:0:0:0:
256,192,152812,1,8,0:0:0:0:
256,192,152948,1,0,0:0:0:0:
256,192,153084,1,8,0:0:0:0:
256,192,153221,1,0,0:0:0:0:
256,192,153357,1,8,0:0:0:0:
256,192,153493,1,8,0:0:0:0:
256,192,153630,1,8,0:0:0:0:
256,192,153766,1,4,0:0:0:0:
256,192,154039,1,0,0:0:0:0:
256,192,154175,1,8,0:0:0:0:
256,192,154312,1,0,0:0:0:0:
256,192,154448,1,8,0:0:0:0:
256,192,154516,1,8,0:0:0:0:
256,192,154584,1,0,0:0:0:0:
256,192,154721,1,8,0:0:0:0:
256,192,154857,1,0,0:0:0:0:
256,192,154993,1,8,0:0:0:0:
256,192,155130,1,0,0:0:0:0:
256,192,155198,1,0,0:0:0:0:
256,192,155266,1,8,0:0:0:0:
256,192,155403,1,0,0:0:0:0:
256,192,155539,1,8,0:0:0:0:
256,192,155607,1,8,0:0:0:0:
256,192,155675,1,8,0:0:0:0:
256,192,155743,1,8,0:0:0:0:
256,192,155812,1,0,0:0:0:0:
256,192,155948,1,12,0:0:0:0:
256,192,156221,1,0,0:0:0:0:
256,192,156357,1,8,0:0:0:0:
256,192,156493,1,8,0:0:0:0:
256,192,156630,1,0,0:0:0:0:
256,192,156766,1,0,0:0:0:0:
256,192,156903,1,8,0:0:0:0:
256,192,157039,1,0,0:0:0:0:
256,192,157312,1,0,0:0:0:0:
256,192,157448,1,8,0:0:0:0:
256,192,157584,1,0,0:0:0:0:
256,192,157721,1,8,0:0:0:0:
256,192,157857,1,8,0:0:0:0:
256,192,157925,1,8,0:0:0:0:
256,192,157993,1,8,0:0:0:0:
256,192,158130,1,4,0:0:0:0:
256,192,158266,12,0,160448,0:0:0:0:
256,192,162084,5,0,0:0:0:0:
256,192,162630,1,12,0:0:0:0:
256,192,162903,1,8,0:0:0:0:
256,192,163175,1,0,0:0:0:0:
256,192,163312,1,0,0:0:0:0:
256,192,163448,1,8,0:0:0:0:
256,192,163584,1,8,0:0:0:0:
256,192,163721,1,0,0:0:0:0:
256,192,163857,1,0,0:0:0:0:
256,192,163993,1,8,0:0:0:0:
256,192,164266,1,0,0:0:0:0:
256,192,164403,1,0,0:0:0:0:
256,192,164539,1,8,0:0:0:0:
256,192,164675,1,0,0:0:0:0:
256,192,164812,1,12,0:0:0:0:
256,192,165357,1,12,0:0:0:0:
256,192,165903,1,4,0:0:0:0:
256,192,166039,1,8,0:0:0:0:
256,192,166107,1,0,0:0:0:0:
256,192,166175,1,8,0:0:0:0:
256,192,166312,1,8,0:0:0:0:
256,192,166448,1,0,0:0:0:0:
256,192,166516,1,0,0:0:0:0:
256,192,166584,1,8,0:0:0:0:
256,192,166721,1,0,0:0:0:0:
256,192,166857,1,0,0:0:0:0:
256,192,166993,1,8,0:0:0:0:
256,192,167130,1,0,0:0:0:0:
256,192,167266,1,12,0:0:0:0:
256,192,167539,1,0,0:0:0:0:
256,192,167675,1,0,0:0:0:0:
256,192,167812,1,8,0:0:0:0:
256,192,167948,1,0,0:0:0:0:
256,192,168016,1,0,0:0:0:0:
256,192,168084,1,8,0:0:0:0:
256,192,168221,1,8,0:0:0:0:
256,192,168357,1,0,0:0:0:0:
256,192,168493,1,8,0:0:0:0:
256,192,168562,1,8,0:0:0:0:
256,192,168630,1,0,0:0:0:0:
256,192,168766,1,0,0:0:0:0:
256,192,168903,1,8,0:0:0:0:
256,192,169175,1,8,0:0:0:0:
256,192,169312,1,0,0:0:0:0:
256,192,169380,1,0,0:0:0:0:
256,192,169448,1,8,0:0:0:0:
256,192,169584,1,0,0:0:0:0:
256,192,169721,1,8,0:0:0:0:
256,192,169789,1,0,0:0:0:0:
256,192,169857,1,8,0:0:0:0:
256,192,169993,1,8,0:0:0:0:
256,192,170130,1,0,0:0:0:0:
256,192,170266,1,0,0:0:0:0:
256,192,170403,1,8,0:0:0:0:
256,192,170539,1,8,0:0:0:0:
256,192,170675,1,0,0:0:0:0:
256,192,170743,1,0,0:0:0:0:
256,192,170812,1,8,0:0:0:0:
256,192,170880,1,8,0:0:0:0:
256,192,170948,1,0,0:0:0:0:
256,192,171084,1,8,0:0:0:0:
256,192,171221,1,8,0:0:0:0:
256,192,171357,1,4,0:0:0:0:
256,192,171630,1,8,0:0:0:0:
256,192,171766,1,0,0:0:0:0:
256,192,171834,1,0,0:0:0:0:
256,192,171903,1,8,0:0:0:0:
256,192,172039,1,0,0:0:0:0:
256,192,172175,1,8,0:0:0:0:
256,192,172312,1,8,0:0:0:0:
256,192,172380,1,8,0:0:0:0:
256,192,172448,1,8,0:0:0:0:
256,192,172584,1,0,0:0:0:0:
256,192,172721,1,8,0:0:0:0:
256,192,172789,1,8,0:0:0:0:
256,192,172857,1,0,0:0:0:0:
256,192,172925,1,0,0:0:0:0:
256,192,172993,1,8,0:0:0:0:
256,192,173130,1,0,0:0:0:0:
256,192,173266,1,8,0:0:0:0:
256,192,173539,1,8,0:0:0:0:
256,192,173675,1,0,0:0:0:0:
256,192,173743,1,0,0:0:0:0:
256,192,173812,1,8,0:0:0:0:
256,192,173948,1,8,0:0:0:0:
256,192,174084,1,0,0:0:0:0:
256,192,174221,1,0,0:0:0:0:
256,192,174357,1,8,0:0:0:0:
256,192,174425,1,8,0:0:0:0:
256,192,174493,1,0,0:0:0:0:
256,192,174630,1,8,0:0:0:0:
256,192,174766,1,0,0:0:0:0:
256,192,174903,1,8,0:0:0:0:
256,192,175039,1,8,0:0:0:0:
256,192,175107,1,8,0:0:0:0:
256,192,175175,1,0,0:0:0:0:
256,192,175243,1,0,0:0:0:0:
256,192,175312,1,0,0:0:0:0:
256,192,175448,1,8,0:0:0:0:
256,192,175584,1,8,0:0:0:0:
256,192,175721,1,4,0:0:0:0:
256,192,175993,1,12,0:0:0:0:
256,192,176266,1,0,0:0:0:0:
256,192,176403,1,0,0:0:0:0:
256,192,176539,1,8,0:0:0:0:
256,192,176675,1,0,0:0:0:0:
256,192,176743,1,0,0:0:0:0:
256,192,176812,1,8,0:0:0:0:
256,192,176948,1,0,0:0:0:0:
256,192,177084,1,8,0:0:0:0:
256,192,177153,1,8,0:0:0:0:
256,192,177221,1,0,0:0:0:0:
256,192,177289,1,0,0:0:0:0:
256,192,177357,1,8,0:0:0:0:
256,192,177493,1,8,0:0:0:0:
256,192,177562,1,8,0:0:0:0:
256,192,177630,1,0,0:0:0:0:
256,192,177766,1,8,0:0:0:0:
256,192,177903,1,4,0:0:0:0:
256,192,178175,1,8,0:0:0:0:
256,192,178312,1,0,0:0:0:0:
256,192,178448,1,8,0:0:0:0:
256,192,178584,1,8,0:0:0:0:
256,192,178721,1,0,0:0:0:0:
256,192,178857,1,8,0:0:0:0:
256,192,178925,1,8,0:0:0:0:
256,192,178993,1,0,0:0:0:0:
256,192,179130,1,0,0:0:0:0:
256,192,179266,1,8,0:0:0:0:
256,192,179403,1,8,0:0:0:0:
256,192,179539,1,0,0:0:0:0:
256,192,179607,1,0,0:0:0:0:
256,192,179675,1,8,0:0:0:0:
256,192,179743,1,8,0:0:0:0:
256,192,179812,1,8,0:0:0:0:
256,192,179948,1,0,0:0:0:0:
256,192,180084,1,12,0:0:0:0:
256,192,180357,1,8,0:0:0:0:
256,192,180493,1,0,0:0:0:0:
256,192,180562,1,0,0:0:0:0:
256,192,180630,1,8,0:0:0:0:
256,192,180766,1,8,0:0:0:0:
256,192,180903,1,0,0:0:0:0:
256,192,181039,1,8,0:0:0:0:
256,192,181107,1,0,0:0:0:0:
256,192,181175,1,8,0:0:0:0:
256,192,181312,1,8,0:0:0:0:
256,192,181448,1,0,0:0:0:0:
256,192,181584,1,8,0:0:0:0:
256,192,181653,1,8,0:0:0:0:
256,192,181721,1,8,0:0:0:0:
256,192,181857,1,0,0:0:0:0:
256,192,181993,1,8,0:0:0:0:
256,192,182130,1,4,0:0:0:0:
256,192,182403,1,8,0:0:0:0:
256,192,182539,1,4,0:0:0:0:
256,192,182812,1,12,0:0:0:0:
256,192,183084,1,4,0:0:0:0:
256,192,183357,1,12,0:0:0:0:
256,192,183630,1,0,0:0:0:0:
256,192,183766,1,0,0:0:0:0:
256,192,183903,1,8,0:0:0:0:
256,192,184039,1,8,0:0:0:0:
256,192,184175,1,0,0:0:0:0:
256,192,184312,1,12,0:0:0:0:
256,192,184584,1,8,0:0:0:0:
256,192,184653,1,0,0:0:0:0:
256,192,184721,1,8,0:0:0:0:
256,192,184857,1,0,0:0:0:0:
256,192,184993,1,8,0:0:0:0:
256,192,185130,1,8,0:0:0:0:
256,192,185198,1,8,0:0:0:0:
256,192,185266,1,8,0:0:0:0:
256,192,185403,1,0,0:0:0:0:
256,192,185675,1,0,0:0:0:0:
256,192,185812,1,8,0:0:0:0:
256,192,185948,1,0,0:0:0:0:
256,192,186016,1,0,0:0:0:0:
256,192,186084,1,8,0:0:0:0:
256,192,186153,1,0,0:0:0:0:
256,192,186221,1,8,0:0:0:0:
256,192,186357,1,8,0:0:0:0:
256,192,186493,1,4,0:0:0:0:
256,192,186766,1,0,0:0:0:0:
256,192,186903,1,8,0:0:0:0:
256,192,187039,1,8,0:0:0:0:
256,192,187175,1,8,0:0:0:0:
256,192,187448,1,8,0:0:0:0:
256,192,187584,1,8,0:0:0:0:
256,192,187721,1,0,0:0:0:0:
256,192,187857,1,0,0:0:0:0:
256,192,187993,1,8,0:0:0:0:
256,192,188130,1,8,0:0:0:0:
256,192,188266,1,0,0:0:0:0:
256,192,188403,1,8,0:0:0:0:
256,192,188471,1,0,0:0:0:0:
256,192,188539,1,8,0:0:0:0:
256,192,188675,1,4,0:0:0:0:
256,192,188948,1,0,0:0:0:0:
256,192,189084,1,12,0:0:0:0:
256,192,189357,1,8,0:0:0:0:
256,192,189493,1,0,0:0:0:0:
256,192,189562,1,0,0:0:0:0:
256,192,189630,1,8,0:0:0:0:
256,192,189766,1,8,0:0:0:0:
256,192,190039,1,0,0:0:0:0:
256,192,190175,1,8,0:0:0:0:
256,192,190312,1,0,0:0:0:0:
256,192,190448,1,8,0:0:0:0:
256,192,190584,1,8,0:0:0:0:
256,192,190653,1,8,0:0:0:0:
256,192,190721,1,0,0:0:0:0:
256,192,190857,1,12,0:0:0:0:
256,192,191130,1,0,0:0:0:0:
256,192,191266,1,8,0:0:0:0:
256,192,191539,1,0,0:0:0:0:
256,192,191675,1,0,0:0:0:0:
256,192,191812,1,8,0:0:0:0:
256,192,191948,1,0,0:0:0:0:
256,192,192084,1,8,0:0:0:0:
256,192,192221,1,8,0:0:0:0:
256,192,192289,1,0,0:0:0:0:
256,192,192357,1,8,0:0:0:0:
256,192,192493,1,0,0:0:0:0:
256,192,192630,1,8,0:0:0:0:
256,192,192766,1,8,0:0:0:0:
256,192,192903,1,8,0:0:0:0:
256,192,193039,1,4,0:0:0:0:
256,192,193312,1,8,0:0:0:0:
256,192,193448,1,8,0:0:0:0:
256,192,193584,1,0,0:0:0:0:
256,192,193653,1,0,0:0:0:0:
256,192,193721,1,8,0:0:0:0:
256,192,193857,1,8,0:0:0:0:
256,192,193925,1,8,0:0:0:0:
256,192,193993,1,0,0:0:0:0:
256,192,194130,1,12,0:0:0:0:
256,192,194403,1,8,0:0:0:0:
256,192,194471,1,0,0:0:0:0:
256,192,194539,1,8,0:0:0:0:
256,192,194675,1,0,0:0:0:0:
256,192,194743,1,0,0:0:0:0:
256,192,194812,1,8,0:0:0:0:
256,192,194880,1,8,0:0:0:0:
256,192,194948,1,8,0:0:0:0:
256,192,195084,1,8,0:0:0:0:
256,192,195221,1,0,0:0:0:0:
256,192,195493,1,8,0:0:0:0:
256,192,195630,1,8,0:0:0:0:
256,192,195903,1,8,0:0:0:0:
256,192,196175,1,8,0:0:0:0:
256,192,196448,1,8,0:0:0:0:
256,192,196721,1,8,0:0:0:0:
256,192,196993,1,8,0:0:0:0:
256,192,197266,1,0,0:0:0:0:
256,192,197403,1,8,0:0:0:0:
