osu file format v14

[General]
AudioFilename: audio.mp3
AudioLeadIn: 0
PreviewTime: 162016
Countdown: 0
SampleSet: Normal
StackLeniency: 0.7
Mode: 1
LetterboxInBreaks: 0
WidescreenStoryboard: 0

[Editor]
Bookmarks: 20677
DistanceSpacing: 0.9
BeatDivisor: 4
GridSize: 32
TimelineZoom: 2.1

[Metadata]
Title:Yuunagi, Bou, Hana Madoi
TitleUnicode:夕凪、某、花惑い
Artist:Yorushika
ArtistUnicode:ヨルシカ
Creator:Faputa
Version:Muzukashii
Source:
Tags:gaston_2199 Evening Calm, Somewhere, Fireworks nbuna n-buna スイ suis エルマ elma yunagi, hanamadoi jrock j-rock japanese rock
BeatmapID:2745032
BeatmapSetID:1324556

[Difficulty]
HPDrainRate:5
CircleSize:2
OverallDifficulty:5.5
ApproachRate:10
SliderMultiplier:1.4
SliderTickRate:1

[Events]
//Background and Video events
0,0,"fireworks.jpg",0,0
//Break Periods
2,20877,27864
2,88514,95909
//Storyboard Layer 0 (Background)
//Storyboard Layer 1 (Fail)
//Storyboard Layer 2 (Pass)
//Storyboard Layer 3 (Foreground)
//Storyboard Layer 4 (Overlay)
//Storyboard Sound Samples

[TimingPoints]
87,272.727272727273,4,1,0,60,1,0
87,-105.263157894737,4,1,0,60,0,0
973,-105.263157894737,4,1,0,80,0,0
9700,-105.263157894737,4,1,0,85,0,0
20814,-105.263157894737,4,1,0,70,0,0
29268,-105.263157894737,4,1,0,75,0,0
38405,-105.263157894737,4,1,0,65,0,0
46859,-105.263157894737,4,1,0,80,0,0
55041,-105.263157894737,4,1,0,70,0,0
55587,-105.263157894737,4,1,0,90,0,0
55723,-105.263157894737,4,1,0,90,0,1
75223,-105.263157894737,4,1,0,80,0,0
88587,-105.263157894737,4,1,0,70,0,0
96223,-105.263157894737,4,1,0,75,0,0
103723,300,4,1,0,80,1,0
103723,-95.2380952380952,4,1,0,80,0,0
103873,255.31914893617,4,1,0,80,1,8
103873,-112.359550561798,4,1,0,80,0,0
104383,315.789473684211,4,1,0,80,1,8
104383,-90.9090909090909,4,1,0,80,0,0
104540,260.869565217391,4,1,0,80,1,8
104540,-109.89010989011,4,1,0,80,0,0
104800,272.727272727273,4,1,0,80,1,0
104800,-105.263157894737,4,1,0,80,0,0
105072,315.789473684211,4,1,0,80,1,8
105072,-90.9090909090909,4,1,0,80,0,0
105229,272.727272727273,4,1,0,80,1,8
105229,-105.263157894737,4,1,0,80,0,0
105365,269.058295964126,4,1,0,80,1,8
105365,-106.382978723404,4,1,0,80,0,0
105903,272.727272727273,4,1,0,80,1,0
105903,-105.263157894737,4,1,0,80,0,0
106039,-105.263157894737,4,1,0,65,0,0
114493,-105.263157894737,4,1,0,80,0,0
122675,-105.263157894737,4,1,0,70,0,0
123221,-105.263157894737,4,1,0,90,0,0
123357,-105.263157894737,4,1,0,90,0,1
142857,-105.263157894737,4,1,0,80,0,0
158198,-105.263157894737,4,1,0,70,0,0
162493,-105.263157894737,4,1,0,80,0,0
167266,-105.263157894737,4,1,0,90,0,1
182130,-105.263157894737,4,1,0,80,0,0
184448,-105.263157894737,4,1,0,85,0,0

[HitObjects]
256,192,87,5,8,0:0:0:0:
256,192,359,1,8,0:0:0:0:
256,192,632,1,8,0:0:0:0:
256,192,1041,1,4,0:0:0:0:
256,192,1450,1,8,0:0:0:0:
256,192,1723,1,8,0:0:0:0:
256,192,1996,1,8,0:0:0:0:
256,192,2268,1,8,0:0:0:0:
256,192,2541,1,8,0:0:0:0:
256,192,2814,1,8,0:0:0:0:
256,192,2950,1,8,0:0:0:0:
256,192,3223,1,4,0:0:0:0:
256,192,3632,1,8,0:0:0:0:
256,192,3905,1,8,0:0:0:0:
256,192,4314,1,4,0:0:0:0:
256,192,4723,1,8,0:0:0:0:
256,192,4996,1,8,0:0:0:0:
256,192,5132,1,8,0:0:0:0:
256,192,5405,1,4,0:0:0:0:
256,192,5814,1,8,0:0:0:0:
256,192,6087,1,8,0:0:0:0:
256,192,6359,1,8,0:0:0:0:
256,192,6632,1,8,0:0:0:0:
256,192,6905,1,8,0:0:0:0:
256,192,7177,1,8,0:0:0:0:
256,192,7314,1,8,0:0:0:0:
256,192,7587,1,4,0:0:0:0:
256,192,7996,1,8,0:0:0:0:
256,192,8064,1,8,0:0:0:0:
256,192,8132,1,8,0:0:0:0:
256,192,8268,1,8,0:0:0:0:
256,192,8405,1,8,0:0:0:0:
256,192,8677,1,12,0:0:0:0:
256,192,8950,1,0,0:0:0:0:
256,192,9018,1,0,0:0:0:0:
256,192,9087,1,0,0:0:0:0:
256,192,9223,1,0,0:0:0:0:
256,192,9359,1,8,0:0:0:0:
256,192,9496,1,0,0:0:0:0:
256,192,9768,1,12,0:0:0:0:
256,192,10041,1,8,0:0:0:0:
256,192,10109,1,8,0:0:0:0:
256,192,10177,1,8,0:0:0:0:
256,192,10314,1,0,0:0:0:0:
256,192,10450,1,8,0:0:0:0:
256,192,10587,1,8,0:0:0:0:
256,192,10723,1,8,0:0:0:0:
256,192,10859,1,0,0:0:0:0:
256,192,11132,1,8,0:0:0:0:
256,192,11268,1,8,0:0:0:0:
256,192,11405,1,0,0:0:0:0:
256,192,11541,1,0,0:0:0:0:
256,192,11950,1,12,0:0:0:0:
256,192,12223,1,0,0:0:0:0:
256,192,12359,1,8,0:0:0:0:
256,192,12632,1,8,0:0:0:0:
256,192,12768,1,0,0:0:0:0:
256,192,12905,1,8,0:0:0:0:
256,192,13041,1,0,0:0:0:0:
256,192,13177,1,8,0:0:0:0:
256,192,13450,1,0,0:0:0:0:
256,192,13587,1,0,0:0:0:0:
256,192,13723,1,8,0:0:0:0:
256,192,13859,1,0,0:0:0:0:
256,192,14132,1,12,0:0:0:0:
256,192,14405,1,0,0:0:0:0:
256,192,14541,1,8,0:0:0:0:
256,192,14814,1,8,0:0:0:0:
256,192,14950,1,0,0:0:0:0:
256,192,15087,1,0,0:0:0:0:
256,192,15223,1,8,0:0:0:0:
256,192,15496,1,8,0:0:0:0:
256,192,15632,1,0,0:0:0:0:
256,192,15768,1,8,0:0:0:0:
256,192,15905,1,0,0:0:0:0:
256,192,16314,1,12,0:0:0:0:
256,192,16587,1,0,0:0:0:0:
256,192,16723,1,8,0:0:0:0:
256,192,16996,1,0,0:0:0:0:
256,192,17132,1,0,0:0:0:0:
256,192,17268,1,8,0:0:0:0:
256,192,17541,1,8,0:0:0:0:
256,192,17677,1,8,0:0:0:0:
256,192,17746,1,8,0:0:0:0:
256,192,17814,1,8,0:0:0:0:
256,192,17950,1,0,0:0:0:0:
256,192,18087,1,8,0:0:0:0:
256,192,18496,1,4,0:0:0:0:
256,192,18768,1,8,0:0:0:0:
256,192,18905,1,0,0:0:0:0:
256,192,19177,1,8,0:0:0:0:
256,192,19314,1,0,0:0:0:0:
256,192,19587,1,12,0:0:0:0:
256,192,19859,1,8,0:0:0:0:
256,192,19996,1,8,0:0:0:0:
256,192,20268,1,8,0:0:0:0:
256,192,20405,1,8,0:0:0:0:
256,192,20677,1,4,0:0:0:0:
256,192,28314,5,8,0:0:0:0:
256,192,28587,1,0,0:0:0:0:
256,192,28655,1,0,0:0:0:0:
256,192,28723,1,0,0:0:0:0:
256,192,28859,1,0,0:0:0:0:
256,192,28996,1,8,0:0:0:0:
256,192,29132,1,0,0:0:0:0:
256,192,29405,1,4,0:0:0:0:
256,192,29814,1,8,0:0:0:0:
256,192,30087,1,0,0:0:0:0:
256,192,30359,1,8,0:0:0:0:
256,192,30496,1,0,0:0:0:0:
256,192,30768,1,0,0:0:0:0:
256,192,30905,1,8,0:0:0:0:
256,192,31177,1,0,0:0:0:0:
256,192,31450,1,8,0:0:0:0:
256,192,31587,1,0,0:0:0:0:
256,192,31859,1,0,0:0:0:0:
256,192,31996,1,8,0:0:0:0:
256,192,32268,1,0,0:0:0:0:
256,192,32541,1,8,0:0:0:0:
256,192,32677,1,0,0:0:0:0:
256,192,32950,1,0,0:0:0:0:
256,192,33087,1,8,0:0:0:0:
256,192,33223,1,8,0:0:0:0:
256,192,33359,1,0,0:0:0:0:
256,192,33768,1,4,0:0:0:0:
256,192,34177,1,8,0:0:0:0:
256,192,34450,1,0,0:0:0:0:
256,192,34723,1,8,0:0:0:0:
256,192,34859,1,0,0:0:0:0:
256,192,35132,1,0,0:0:0:0:
256,192,35268,1,8,0:0:0:0:
256,192,35405,1,0,0:0:0:0:
256,192,35541,1,0,0:0:0:0:
256,192,35950,1,4,0:0:0:0:
256,192,36223,1,0,0:0:0:0:
256,192,36359,1,8,0:0:0:0:
256,192,36632,1,0,0:0:0:0:
256,192,36768,1,8,0:0:0:0:
256,192,36905,1,0,0:0:0:0:
256,192,37177,1,12,0:0:0:0:
256,192,37587,1,8,0:0:0:0:
256,192,37723,1,8,0:0:0:0:
256,192,37859,1,0,0:0:0:0:
256,192,37996,1,0,0:0:0:0:
256,192,38268,1,12,0:0:0:0:
256,192,38814,1,0,0:0:0:0:
256,192,39359,1,0,0:0:0:0:
256,192,39632,1,0,0:0:0:0:
256,192,39905,1,0,0:0:0:0:
256,192,40314,1,0,0:0:0:0:
256,192,40450,1,8,0:0:0:0:
256,192,40996,1,0,0:0:0:0:
256,192,41268,1,0,0:0:0:0:
256,192,41541,1,0,0:0:0:0:
256,192,41814,1,0,0:0:0:0:
256,192,42087,1,8,0:0:0:0:
256,192,42223,1,0,0:0:0:0:
256,192,42359,1,8,0:0:0:0:
256,192,42496,1,0,0:0:0:0:
256,192,42632,1,8,0:0:0:0:
256,192,43177,1,0,0:0:0:0:
256,192,43450,1,0,0:0:0:0:
256,192,43587,1,0,0:0:0:0:
256,192,43723,1,8,0:0:0:0:
256,192,44268,1,0,0:0:0:0:
256,192,44541,1,0,0:0:0:0:
256,192,44677,1,0,0:0:0:0:
256,192,44814,1,8,0:0:0:0:
256,192,45359,1,0,0:0:0:0:
256,192,45632,1,0,0:0:0:0:
256,192,45905,1,0,0:0:0:0:
256,192,46177,1,8,0:0:0:0:
256,192,46314,1,0,0:0:0:0:
256,192,46450,1,8,0:0:0:0:
256,192,46587,1,0,0:0:0:0:
256,192,46723,1,8,0:0:0:0:
256,192,46996,1,12,0:0:0:0:
256,192,47268,1,8,0:0:0:0:
256,192,47677,1,0,0:0:0:0:
256,192,47814,1,8,0:0:0:0:
256,192,48087,1,0,0:0:0:0:
256,192,48359,1,8,0:0:0:0:
256,192,48632,1,0,0:0:0:0:
256,192,48768,1,0,0:0:0:0:
256,192,48905,1,8,0:0:0:0:
256,192,49177,1,0,0:0:0:0:
256,192,49450,1,8,0:0:0:0:
256,192,49859,1,0,0:0:0:0:
256,192,49996,1,8,0:0:0:0:
256,192,50268,1,8,0:0:0:0:
256,192,50541,1,8,0:0:0:0:
256,192,50814,1,0,0:0:0:0:
256,192,51087,1,8,0:0:0:0:
256,192,51359,1,12,0:0:0:0:
256,192,51632,1,8,0:0:0:0:
256,192,51905,1,0,0:0:0:0:
256,192,52041,1,0,0:0:0:0:
256,192,52177,1,8,0:0:0:0:
256,192,52314,1,0,0:0:0:0:
256,192,52450,1,8,0:0:0:0:
256,192,52723,1,8,0:0:0:0:
256,192,52996,1,0,0:0:0:0:
256,192,53132,1,0,0:0:0:0:
256,192,53268,1,8,0:0:0:0:
256,192,53405,1,8,0:0:0:0:
256,192,53541,1,0,0:0:0:0:
256,192,53609,1,0,0:0:0:0:
256,192,53677,1,0,0:0:0:0:
256,192,53814,1,8,0:0:0:0:
256,192,54087,1,0,0:0:0:0:
256,192,54155,1,0,0:0:0:0:
256,192,54223,1,0,0:0:0:0:
256,192,54359,1,8,0:0:0:0:
256,192,54496,1,8,0:0:0:0:
256,192,54632,1,0,0:0:0:0:
256,192,54905,1,12,0:0:0:0:
256,192,55177,1,0,0:0:0:0:
256,192,55723,1,12,0:0:0:0:
256,192,55996,1,8,0:0:0:0:
256,192,56132,1,0,0:0:0:0:
256,192,56268,1,8,0:0:0:0:
256,192,56541,1,0,0:0:0:0:
256,192,56677,1,8,0:0:0:0:
256,192,56814,1,8,0:0:0:0:
256,192,57087,1,0,0:0:0:0:
256,192,57223,1,0,0:0:0:0:
256,192,57359,1,8,0:0:0:0:
256,192,57496,1,0,0:0:0:0:
256,192,57632,1,8,0:0:0:0:
256,192,57768,1,8,0:0:0:0:
256,192,57905,1,0,0:0:0:0:
256,192,58177,1,8,0:0:0:0:
256,192,58450,1,0,0:0:0:0:
256,192,58587,1,8,0:0:0:0:
256,192,58723,1,0,0:0:0:0:
256,192,58859,1,0,0:0:0:0:
256,192,58996,1,8,0:0:0:0:
256,192,59132,1,8,0:0:0:0:
256,192,59200,1,8,0:0:0:0:
256,192,59268,1,8,0:0:0:0:
256,192,59405,1,0,0:0:0:0:
256,192,59541,1,8,0:0:0:0:
256,192,59814,1,8,0:0:0:0:
256,192,60087,1,12,0:0:0:0:
256,192,60496,1,0,0:0:0:0:
256,192,60632,1,8,0:0:0:0:
256,192,60905,1,0,0:0:0:0:
256,192,61041,1,0,0:0:0:0:
256,192,61177,1,8,0:0:0:0:
256,192,61314,1,0,0:0:0:0:
256,192,61450,1,8,0:0:0:0:
256,192,61723,1,0,0:0:0:0:
256,192,61859,1,0,0:0:0:0:
256,192,61996,1,8,0:0:0:0:
256,192,62268,1,8,0:0:0:0:
256,192,62541,1,8,0:0:0:0:
256,192,62677,1,0,0:0:0:0:
256,192,62814,1,8,0:0:0:0:
256,192,62950,1,8,0:0:0:0:
256,192,63087,1,0,0:0:0:0:
256,192,63223,1,0,0:0:0:0:
256,192,63359,1,8,0:0:0:0:
256,192,63632,1,12,0:0:0:0:
256,192,63905,1,0,0:0:0:0:
256,192,63973,1,0,0:0:0:0:
256,192,64041,1,0,0:0:0:0:
256,192,64177,1,0,0:0:0:0:
256,192,64450,1,4,0:0:0:0:
256,192,64859,1,0,0:0:0:0:
256,192,64996,1,8,0:0:0:0:
256,192,65268,1,0,0:0:0:0:
256,192,65405,1,8,0:0:0:0:
256,192,65541,1,8,0:0:0:0:
256,192,65677,1,0,0:0:0:0:
256,192,65814,1,8,0:0:0:0:
256,192,66087,1,8,0:0:0:0:
256,192,66223,1,0,0:0:0:0:
256,192,66359,1,8,0:0:0:0:
256,192,66496,1,0,0:0:0:0:
256,192,66632,1,8,0:0:0:0:
256,192,66905,1,8,0:0:0:0:
256,192,67177,1,0,0:0:0:0:
256,192,67314,1,0,0:0:0:0:
256,192,67450,1,8,0:0:0:0:
256,192,67587,1,0,0:0:0:0:
256,192,67723,1,8,0:0:0:0:
256,192,67996,1,0,0:0:0:0:
256,192,68132,1,0,0:0:0:0:
256,192,68268,1,8,0:0:0:0:
256,192,68541,1,8,0:0:0:0:
256,192,68814,1,4,0:0:0:0:
256,192,69359,1,8,0:0:0:0:
256,192,69632,1,0,0:0:0:0:
256,192,69768,1,0,0:0:0:0:
256,192,69905,1,8,0:0:0:0:
256,192,69973,1,8,0:0:0:0:
256,192,70041,1,8,0:0:0:0:
256,192,70177,1,0,0:0:0:0:
256,192,70450,1,0,0:0:0:0:
256,192,70518,1,0,0:0:0:0:
256,192,70587,1,0,0:0:0:0:
256,192,70723,1,8,0:0:0:0:
256,192,70996,1,12,0:0:0:0:
256,192,71541,1,8,0:0:0:0:
256,192,71814,1,0,0:0:0:0:
256,192,71950,1,0,0:0:0:0:
256,192,72087,1,8,0:0:0:0:
256,192,72223,1,8,0:0:0:0:
256,192,72291,1,8,0:0:0:0:
256,192,72359,1,8,0:0:0:0:
256,192,72632,1,0,0:0:0:0:
256,192,72768,1,0,0:0:0:0:
256,192,72837,1,0,0:0:0:0:
256,192,72905,1,0,0:0:0:0:
256,192,73177,1,12,0:0:0:0:
256,192,73450,1,8,0:0:0:0:
256,192,73587,1,0,0:0:0:0:
256,192,73723,1,8,0:0:0:0:
256,192,73996,1,8,0:0:0:0:
256,192,74268,1,0,0:0:0:0:
256,192,74405,1,0,0:0:0:0:
256,192,74541,1,8,0:0:0:0:
256,192,74677,1,8,0:0:0:0:
256,192,74814,1,8,0:0:0:0:
256,192,74950,1,0,0:0:0:0:
256,192,75223,1,12,0:0:0:0:
256,192,75632,1,8,0:0:0:0:
256,192,75905,1,8,0:0:0:0:
256,192,76177,1,8,0:0:0:0:
256,192,76450,1,8,0:0:0:0:
256,192,76723,1,8,0:0:0:0:
256,192,76996,1,8,0:0:0:0:
256,192,77132,1,8,0:0:0:0:
256,192,77405,1,4,0:0:0:0:
256,192,77814,1,8,0:0:0:0:
256,192,78087,1,0,0:0:0:0:
256,192,78359,1,0,0:0:0:0:
256,192,78632,1,8,0:0:0:0:
256,192,78905,1,8,0:0:0:0:
256,192,79041,1,8,0:0:0:0:
256,192,79177,1,8,0:0:0:0:
256,192,79314,1,8,0:0:0:0:
256,192,79587,1,4,0:0:0:0:
256,192,79859,1,0,0:0:0:0:
256,192,79996,1,8,0:0:0:0:
256,192,80268,1,0,0:0:0:0:
256,192,80405,1,0,0:0:0:0:
256,192,80541,1,8,0:0:0:0:
256,192,80814,1,8,0:0:0:0:
256,192,81087,1,8,0:0:0:0:
256,192,81359,1,8,0:0:0:0:
256,192,81496,1,0,0:0:0:0:
256,192,81768,1,4,0:0:0:0:
256,192,82177,1,8,0:0:0:0:
256,192,82450,1,8,0:0:0:0:
256,192,82587,1,8,0:0:0:0:
256,192,82723,1,0,0:0:0:0:
256,192,82996,1,8,0:0:0:0:
256,192,83132,1,0,0:0:0:0:
256,192,83268,1,8,0:0:0:0:
256,192,83405,1,8,0:0:0:0:
256,192,83541,1,0,0:0:0:0:
256,192,83677,1,0,0:0:0:0:
256,192,83950,1,4,0:0:0:0:
256,192,84359,1,8,0:0:0:0:
256,192,84632,1,0,0:0:0:0:
256,192,84768,1,0,0:0:0:0:
256,192,84905,1,8,0:0:0:0:
256,192,85177,1,4,0:0:0:0:
256,192,85587,1,12,0:0:0:0:
256,192,85996,1,4,0:0:0:0:
256,192,86268,1,12,0:0:0:0:
256,192,86677,1,12,0:0:0:0:
256,192,87087,1,4,0:0:0:0:
256,192,87223,12,0,88177,0:0:0:0:
256,192,88314,5,12,0:0:0:0:
256,192,96359,5,0,0:0:0:0:
256,192,96496,5,8,0:0:0:0:
256,192,96632,1,8,0:0:0:0:
256,192,96768,1,0,0:0:0:0:
256,192,97041,1,4,0:0:0:0:
256,192,97450,1,8,0:0:0:0:
256,192,97723,1,0,0:0:0:0:
256,192,97996,1,8,0:0:0:0:
256,192,98132,1,0,0:0:0:0:
256,192,98405,1,0,0:0:0:0:
256,192,98541,1,8,0:0:0:0:
256,192,98814,1,0,0:0:0:0:
256,192,99087,1,8,0:0:0:0:
256,192,99223,1,0,0:0:0:0:
256,192,99496,1,0,0:0:0:0:
256,192,99632,1,8,0:0:0:0:
256,192,99905,1,0,0:0:0:0:
256,192,100177,1,8,0:0:0:0:
256,192,100314,1,0,0:0:0:0:
256,192,100587,1,0,0:0:0:0:
256,192,100723,1,8,0:0:0:0:
256,192,100859,1,8,0:0:0:0:
256,192,100996,1,0,0:0:0:0:
256,192,101405,1,4,0:0:0:0:
256,192,101814,1,8,0:0:0:0:
256,192,102087,1,0,0:0:0:0:
256,192,102359,1,8,0:0:0:0:
256,192,102496,1,0,0:0:0:0:
256,192,102768,1,0,0:0:0:0:
256,192,102905,1,8,0:0:0:0:
256,192,103041,1,0,0:0:0:0:
256,192,103177,1,0,0:0:0:0:
256,192,103587,1,12,0:0:0:0:
256,192,103873,1,0,0:0:0:0:
256,192,104000,1,8,0:0:0:0:
256,192,104255,1,0,0:0:0:0:
256,192,104383,1,8,0:0:0:0:
256,192,104800,1,12,0:0:0:0:
256,192,105229,1,8,0:0:0:0:
256,192,105365,1,8,0:0:0:0:
256,192,105499,1,0,0:0:0:0:
256,192,105634,1,0,0:0:0:0:
256,192,105903,1,4,0:0:0:0:
256,192,106312,1,0,0:0:0:0:
256,192,106448,1,8,0:0:0:0:
256,192,106721,1,0,0:0:0:0:
256,192,106857,1,8,0:0:0:0:
256,192,106925,1,8,0:0:0:0:
256,192,106993,1,8,0:0:0:0:
256,192,107130,1,8,0:0:0:0:
256,192,107403,1,8,0:0:0:0:
256,192,107675,1,0,0:0:0:0:
256,192,108084,1,4,0:0:0:0:
256,192,108357,1,8,0:0:0:0:
256,192,108493,1,0,0:0:0:0:
256,192,108630,1,8,0:0:0:0:
256,192,108766,1,0,0:0:0:0:
256,192,109039,1,8,0:0:0:0:
256,192,109107,1,8,0:0:0:0:
256,192,109175,1,8,0:0:0:0:
256,192,109312,1,0,0:0:0:0:
256,192,109584,1,8,0:0:0:0:
256,192,109857,1,8,0:0:0:0:
256,192,110266,1,12,0:0:0:0:
256,192,110675,1,0,0:0:0:0:
256,192,110812,1,8,0:0:0:0:
256,192,111084,1,0,0:0:0:0:
256,192,111357,1,12,0:0:0:0:
256,192,111766,1,8,0:0:0:0:
256,192,111903,1,0,0:0:0:0:
256,192,112175,1,8,0:0:0:0:
256,192,112448,1,4,0:0:0:0:
256,192,112857,1,0,0:0:0:0:
256,192,112993,1,8,0:0:0:0:
256,192,113266,1,0,0:0:0:0:
256,192,113403,1,8,0:0:0:0:
256,192,113471,1,8,0:0:0:0:
256,192,113539,1,8,0:0:0:0:
256,192,113675,1,8,0:0:0:0:
256,192,113948,1,0,0:0:0:0:
256,192,114221,1,8,0:0:0:0:
256,192,114630,1,12,0:0:0:0:
256,192,114903,1,8,0:0:0:0:
256,192,115175,1,0,0:0:0:0:
256,192,115312,1,0,0:0:0:0:
256,192,115448,1,8,0:0:0:0:
256,192,115721,1,8,0:0:0:0:
256,192,115857,1,8,0:0:0:0:
256,192,115993,1,0,0:0:0:0:
256,192,116130,1,8,0:0:0:0:
256,192,116403,1,0,0:0:0:0:
256,192,116812,1,4,0:0:0:0:
256,192,117084,1,8,0:0:0:0:
256,192,117357,1,0,0:0:0:0:
256,192,117493,1,0,0:0:0:0:
256,192,117630,1,8,0:0:0:0:
256,192,117903,1,8,0:0:0:0:
256,192,118039,1,0,0:0:0:0:
256,192,118175,1,0,0:0:0:0:
256,192,118312,1,8,0:0:0:0:
256,192,118584,1,0,0:0:0:0:
256,192,118993,1,12,0:0:0:0:
256,192,119266,1,8,0:0:0:0:
256,192,119539,1,0,0:0:0:0:
256,192,119675,1,0,0:0:0:0:
256,192,119812,1,8,0:0:0:0:
256,192,120084,1,4,0:0:0:0:
256,192,120357,1,8,0:0:0:0:
256,192,120630,1,8,0:0:0:0:
256,192,120766,1,0,0:0:0:0:
256,192,120903,1,8,0:0:0:0:
256,192,121175,1,12,0:0:0:0:
256,192,121448,1,8,0:0:0:0:
256,192,121516,1,8,0:0:0:0:
256,192,121584,1,8,0:0:0:0:
256,192,121721,1,0,0:0:0:0:
256,192,121857,1,8,0:0:0:0:
256,192,121993,1,0,0:0:0:0:
256,192,122062,1,0,0:0:0:0:
256,192,122130,1,0,0:0:0:0:
256,192,122266,1,8,0:0:0:0:
256,192,122539,1,12,0:0:0:0:
256,192,122812,1,0,0:0:0:0:
256,192,123357,1,12,0:0:0:0:
256,192,123630,1,8,0:0:0:0:
256,192,123766,1,0,0:0:0:0:
256,192,123903,1,8,0:0:0:0:
256,192,124175,1,8,0:0:0:0:
256,192,124312,1,8,0:0:0:0:
256,192,124448,1,8,0:0:0:0:
256,192,124721,1,8,0:0:0:0:
256,192,124857,1,0,0:0:0:0:
256,192,124993,1,8,0:0:0:0:
256,192,125130,1,0,0:0:0:0:
256,192,125266,1,8,0:0:0:0:
256,192,125403,1,8,0:0:0:0:
256,192,125539,1,0,0:0:0:0:
256,192,125812,1,8,0:0:0:0:
256,192,126084,1,0,0:0:0:0:
256,192,126221,1,0,0:0:0:0:
256,192,126357,1,8,0:0:0:0:
256,192,126493,1,0,0:0:0:0:
256,192,126630,1,8,0:0:0:0:
256,192,126766,1,8,0:0:0:0:
256,192,126834,1,8,0:0:0:0:
256,192,126903,1,8,0:0:0:0:
256,192,127039,1,0,0:0:0:0:
256,192,127175,1,8,0:0:0:0:
256,192,127448,1,8,0:0:0:0:
256,192,127721,1,4,0:0:0:0:
256,192,128130,1,0,0:0:0:0:
256,192,128266,1,8,0:0:0:0:
256,192,128539,1,8,0:0:0:0:
256,192,128675,1,0,0:0:0:0:
256,192,128812,1,8,0:0:0:0:
256,192,128948,1,8,0:0:0:0:
256,192,129084,1,0,0:0:0:0:
256,192,129221,1,0,0:0:0:0:
256,192,129357,1,8,0:0:0:0:
256,192,129493,1,0,0:0:0:0:
256,192,129630,1,8,0:0:0:0:
256,192,129903,1,0,0:0:0:0:
256,192,130175,1,8,0:0:0:0:
256,192,130312,1,8,0:0:0:0:
256,192,130448,1,0,0:0:0:0:
256,192,130584,1,0,0:0:0:0:
256,192,130721,1,8,0:0:0:0:
256,192,130993,1,8,0:0:0:0:
256,192,131130,1,0,0:0:0:0:
256,192,131266,1,8,0:0:0:0:
256,192,131539,1,12,0:0:0:0:
256,192,132084,1,4,0:0:0:0:
256,192,132357,1,12,0:0:0:0:
256,192,132630,1,0,0:0:0:0:
256,192,132766,1,8,0:0:0:0:
256,192,132903,1,0,0:0:0:0:
256,192,133039,1,0,0:0:0:0:
256,192,133175,1,8,0:0:0:0:
256,192,133448,1,8,0:0:0:0:
256,192,133584,1,8,0:0:0:0:
256,192,133721,1,0,0:0:0:0:
256,192,133857,1,0,0:0:0:0:
256,192,133993,1,8,0:0:0:0:
256,192,134266,1,0,0:0:0:0:
256,192,134539,1,8,0:0:0:0:
256,192,134812,1,0,0:0:0:0:
256,192,134948,1,0,0:0:0:0:
256,192,135084,1,8,0:0:0:0:
256,192,135221,1,8,0:0:0:0:
256,192,135357,1,0,0:0:0:0:
256,192,135630,1,8,0:0:0:0:
256,192,135903,1,8,0:0:0:0:
256,192,136039,1,0,0:0:0:0:
256,192,136175,1,8,0:0:0:0:
256,192,136448,1,0,0:0:0:0:
256,192,136721,1,12,0:0:0:0:
256,192,137130,1,8,0:0:0:0:
256,192,137266,1,0,0:0:0:0:
256,192,137403,1,0,0:0:0:0:
256,192,137539,1,8,0:0:0:0:
256,192,137607,1,8,0:0:0:0:
256,192,137675,1,8,0:0:0:0:
256,192,137812,1,0,0:0:0:0:
256,192,138084,1,0,0:0:0:0:
256,192,138153,1,0,0:0:0:0:
256,192,138221,1,0,0:0:0:0:
256,192,138357,1,8,0:0:0:0:
256,192,138630,1,4,0:0:0:0:
256,192,138903,1,8,0:0:0:0:
256,192,139312,1,0,0:0:0:0:
256,192,139448,1,8,0:0:0:0:
256,192,139584,1,8,0:0:0:0:
256,192,139721,1,0,0:0:0:0:
256,192,139857,1,0,0:0:0:0:
256,192,139925,1,0,0:0:0:0:
256,192,139993,1,0,0:0:0:0:
256,192,140266,1,8,0:0:0:0:
256,192,140403,1,8,0:0:0:0:
256,192,140471,1,8,0:0:0:0:
256,192,140539,1,8,0:0:0:0:
256,192,140812,1,12,0:0:0:0:
256,192,141084,1,8,0:0:0:0:
256,192,141221,1,0,0:0:0:0:
256,192,141357,1,8,0:0:0:0:
256,192,141630,1,8,0:0:0:0:
256,192,141766,1,8,0:0:0:0:
256,192,141903,1,0,0:0:0:0:
256,192,142039,1,8,0:0:0:0:
256,192,142175,1,0,0:0:0:0:
256,192,142448,1,8,0:0:0:0:
256,192,142584,1,0,0:0:0:0:
256,192,142857,1,4,0:0:0:0:
256,192,143266,1,8,0:0:0:0:
256,192,143539,1,0,0:0:0:0:
256,192,143812,1,8,0:0:0:0:
256,192,144084,1,0,0:0:0:0:
256,192,144357,1,8,0:0:0:0:
256,192,144630,1,0,0:0:0:0:
256,192,144766,1,0,0:0:0:0:
256,192,145039,1,12,0:0:0:0:
256,192,145448,1,8,0:0:0:0:
256,192,145721,1,0,0:0:0:0:
256,192,145993,1,8,0:0:0:0:
256,192,146266,1,4,0:0:0:0:
256,192,146539,1,8,0:0:0:0:
256,192,146812,1,8,0:0:0:0:
256,192,146948,1,0,0:0:0:0:
256,192,147221,1,4,0:0:0:0:
256,192,147630,1,12,0:0:0:0:
256,192,147903,1,0,0:0:0:0:
256,192,148175,1,0,0:0:0:0:
256,192,148448,1,12,0:0:0:0:
256,192,148721,1,0,0:0:0:0:
256,192,148993,1,0,0:0:0:0:
256,192,149130,1,8,0:0:0:0:
256,192,149403,1,4,0:0:0:0:
256,192,149812,1,8,0:0:0:0:
256,192,150084,1,8,0:0:0:0:
256,192,150357,1,0,0:0:0:0:
256,192,150630,1,12,0:0:0:0:
256,192,150903,1,8,0:0:0:0:
256,192,151175,1,0,0:0:0:0:
256,192,151312,1,0,0:0:0:0:
256,192,151584,1,12,0:0:0:0:
256,192,151993,1,8,0:0:0:0:
256,192,152130,1,0,0:0:0:0:
256,192,152266,1,8,0:0:0:0:
256,192,152403,1,0,0:0:0:0:
256,192,152539,1,8,0:0:0:0:
256,192,152812,1,8,0:0:0:0:
256,192,152948,1,0,0:0:0:0:
256,192,153084,1,8,0:0:0:0:
256,192,153357,1,8,0:0:0:0:
256,192,153493,1,8,0:0:0:0:
256,192,153766,1,4,0:0:0:0:
256,192,154175,1,8,0:0:0:0:
256,192,154448,1,8,0:0:0:0:
256,192,154584,1,0,0:0:0:0:
256,192,154721,1,8,0:0:0:0:
256,192,154857,1,0,0:0:0:0:
256,192,154993,1,8,0:0:0:0:
256,192,155266,1,8,0:0:0:0:
256,192,155403,1,0,0:0:0:0:
256,192,155539,1,8,0:0:0:0:
256,192,155675,1,8,0:0:0:0:
256,192,155948,1,12,0:0:0:0:
256,192,156221,1,0,0:0:0:0:
256,192,156357,1,8,0:0:0:0:
256,192,156630,1,0,0:0:0:0:
256,192,156903,1,8,0:0:0:0:
256,192,157039,1,0,0:0:0:0:
256,192,157312,1,0,0:0:0:0:
256,192,157448,1,8,0:0:0:0:
256,192,157721,1,8,0:0:0:0:
256,192,157857,1,8,0:0:0:0:
256,192,158130,1,4,0:0:0:0:
256,192,158266,12,0,160448,0:0:0:0:
256,192,162084,5,0,0:0:0:0:
256,192,162630,1,12,0:0:0:0:
256,192,162903,1,8,0:0:0:0:
256,192,163175,1,0,0:0:0:0:
256,192,163448,1,8,0:0:0:0:
256,192,163721,1,0,0:0:0:0:
256,192,163993,1,8,0:0:0:0:
256,192,164266,1,0,0:0:0:0:
256,192,164403,1,0,0:0:0:0:
256,192,164539,1,8,0:0:0:0:
256,192,164812,1,12,0:0:0:0:
256,192,165357,1,12,0:0:0:0:
256,192,165903,1,0,0:0:0:0:
256,192,166039,1,8,0:0:0:0:
256,192,166107,1,8,0:0:0:0:
256,192,166175,1,8,0:0:0:0:
256,192,166312,1,8,0:0:0:0:
256,192,166448,1,0,0:0:0:0:
256,192,166584,1,0,0:0:0:0:
256,192,166721,1,0,0:0:0:0:
256,192,166993,1,8,0:0:0:0:
256,192,167266,1,12,0:0:0:0:
256,192,167675,1,0,0:0:0:0:
256,192,167812,1,8,0:0:0:0:
256,192,168084,1,8,0:0:0:0:
256,192,168221,1,8,0:0:0:0:
256,192,168357,1,0,0:0:0:0:
256,192,168493,1,8,0:0:0:0:
256,192,168630,1,0,0:0:0:0:
256,192,168766,1,0,0:0:0:0:
256,192,168903,1,8,0:0:0:0:
256,192,169175,1,0,0:0:0:0:
256,192,169312,1,0,0:0:0:0:
256,192,169448,1,8,0:0:0:0:
256,192,169721,1,8,0:0:0:0:
256,192,169857,1,0,0:0:0:0:
256,192,169993,1,8,0:0:0:0:
256,192,170130,1,8,0:0:0:0:
256,192,170266,1,0,0:0:0:0:
256,192,170539,1,8,0:0:0:0:
256,192,170675,1,8,0:0:0:0:
256,192,170812,1,0,0:0:0:0:
256,192,170880,1,0,0:0:0:0:
256,192,170948,1,0,0:0:0:0:
256,192,171084,1,8,0:0:0:0:
256,192,171357,1,4,0:0:0:0:
256,192,171766,1,0,0:0:0:0:
256,192,171903,1,8,0:0:0:0:
256,192,172175,1,8,0:0:0:0:
256,192,172312,1,8,0:0:0:0:
256,192,172448,1,8,0:0:0:0:
256,192,172584,1,0,0:0:0:0:
256,192,172721,1,8,0:0:0:0:
256,192,172993,1,0,0:0:0:0:
256,192,173130,1,0,0:0:0:0:
256,192,173266,1,8,0:0:0:0:
256,192,173403,1,0,0:0:0:0:
256,192,173539,1,8,0:0:0:0:
256,192,173812,1,8,0:0:0:0:
256,192,174084,1,0,0:0:0:0:
256,192,174221,1,0,0:0:0:0:
256,192,174357,1,8,0:0:0:0:
256,192,174493,1,0,0:0:0:0:
256,192,174766,1,0,0:0:0:0:
256,192,174903,1,8,0:0:0:0:
256,192,175175,1,0,0:0:0:0:
256,192,175312,1,0,0:0:0:0:
256,192,175448,1,8,0:0:0:0:
256,192,175721,1,4,0:0:0:0:
256,192,175993,1,12,0:0:0:0:
256,192,176403,1,0,0:0:0:0:
256,192,176539,1,8,0:0:0:0:
256,192,176675,1,0,0:0:0:0:
256,192,176812,1,8,0:0:0:0:
256,192,176880,1,8,0:0:0:0:
256,192,176948,1,8,0:0:0:0:
256,192,177084,1,8,0:0:0:0:
256,192,177221,1,0,0:0:0:0:
256,192,177357,1,8,0:0:0:0:
256,192,177425,1,8,0:0:0:0:
256,192,177493,1,8,0:0:0:0:
256,192,177630,1,8,0:0:0:0:
256,192,177903,1,4,0:0:0:0:
256,192,178175,1,8,0:0:0:0:
256,192,178584,1,0,0:0:0:0:
256,192,178721,1,8,0:0:0:0:
256,192,178857,1,8,0:0:0:0:
256,192,178993,1,0,0:0:0:0:
256,192,179130,1,0,0:0:0:0:
256,192,179198,1,0,0:0:0:0:
256,192,179266,1,0,0:0:0:0:
256,192,179403,1,8,0:0:0:0:
256,192,179539,1,0,0:0:0:0:
256,192,179675,1,0,0:0:0:0:
256,192,179743,1,0,0:0:0:0:
256,192,179812,1,0,0:0:0:0:
256,192,180084,1,12,0:0:0:0:
256,192,180357,1,8,0:0:0:0:
256,192,180493,1,0,0:0:0:0:
256,192,180630,1,8,0:0:0:0:
256,192,180903,1,0,0:0:0:0:
256,192,181039,1,0,0:0:0:0:
256,192,181175,1,8,0:0:0:0:
256,192,181312,1,8,0:0:0:0:
256,192,181448,1,0,0:0:0:0:
256,192,181584,1,8,0:0:0:0:
256,192,181721,1,0,0:0:0:0:
256,192,181857,1,0,0:0:0:0:
256,192,182130,1,4,0:0:0:0:
256,192,182539,1,4,0:0:0:0:
256,192,182812,1,12,0:0:0:0:
256,192,183084,1,4,0:0:0:0:
256,192,183357,1,12,0:0:0:0:
256,192,183630,1,0,0:0:0:0:
256,192,183903,1,8,0:0:0:0:
256,192,184039,1,8,0:0:0:0:
256,192,184312,1,12,0:0:0:0:
256,192,184584,1,8,0:0:0:0:
256,192,184653,1,8,0:0:0:0:
256,192,184721,1,8,0:0:0:0:
256,192,184857,1,0,0:0:0:0:
256,192,184993,1,8,0:0:0:0:
256,192,185130,1,8,0:0:0:0:
256,192,185266,1,8,0:0:0:0:
256,192,185403,1,0,0:0:0:0:
256,192,185812,1,8,0:0:0:0:
256,192,185948,1,0,0:0:0:0:
256,192,186084,1,0,0:0:0:0:
256,192,186221,1,8,0:0:0:0:
256,192,186493,1,4,0:0:0:0:
256,192,186766,1,0,0:0:0:0:
256,192,186903,1,8,0:0:0:0:
256,192,187175,1,8,0:0:0:0:
256,192,187312,1,0,0:0:0:0:
256,192,187448,1,8,0:0:0:0:
256,192,187584,1,8,0:0:0:0:
256,192,187721,1,0,0:0:0:0:
256,192,187993,1,0,0:0:0:0:
256,192,188130,1,8,0:0:0:0:
256,192,188266,1,0,0:0:0:0:
256,192,188403,1,8,0:0:0:0:
256,192,188675,1,4,0:0:0:0:
256,192,189084,1,12,0:0:0:0:
256,192,189357,1,8,0:0:0:0:
256,192,189493,1,0,0:0:0:0:
256,192,189630,1,8,0:0:0:0:
256,192,189766,1,8,0:0:0:0:
256,192,190039,1,0,0:0:0:0:
256,192,190175,1,8,0:0:0:0:
256,192,190312,1,0,0:0:0:0:
256,192,190448,1,8,0:0:0:0:
256,192,190584,1,0,0:0:0:0:
256,192,190857,1,12,0:0:0:0:
256,192,191130,1,0,0:0:0:0:
256,192,191266,1,8,0:0:0:0:
256,192,191539,1,0,0:0:0:0:
256,192,191675,1,0,0:0:0:0:
256,192,191812,1,8,0:0:0:0:
256,192,192084,1,0,0:0:0:0:
256,192,192221,1,8,0:0:0:0:
256,192,192289,1,8,0:0:0:0:
256,192,192357,1,8,0:0:0:0:
256,192,192493,1,0,0:0:0:0:
256,192,192630,1,8,0:0:0:0:
256,192,193039,1,4,0:0:0:0:
256,192,193312,1,8,0:0:0:0:
256,192,193448,1,0,0:0:0:0:
256,192,193721,1,8,0:0:0:0:
256,192,193857,1,0,0:0:0:0:
256,192,194130,1,12,0:0:0:0:
256,192,194403,1,8,0:0:0:0:
256,192,194539,1,8,0:0:0:0:
256,192,194812,1,8,0:0:0:0:
256,192,194880,1,8,0:0:0:0:
256,192,194948,1,8,0:0:0:0:
256,192,195084,1,8,0:0:0:0:
256,192,195221,1,0,0:0:0:0:
256,192,195630,1,8,0:0:0:0:
256,192,195903,1,8,0:0:0:0:
256,192,196175,1,8,0:0:0:0:
256,192,196448,1,8,0:0:0:0:
256,192,196721,1,8,0:0:0:0:
256,192,196993,1,0,0:0:0:0:
256,192,197403,1,8,0:0:0:0:
