osu file format v14

[General]
AudioFilename: audio.mp3
AudioLeadIn: 0
PreviewTime: 48837
Countdown: 0
SampleSet: Soft
StackLeniency: 0.7
Mode: 0
LetterboxInBreaks: 0
WidescreenStoryboard: 0

[Editor]
DistanceSpacing: 0.7
BeatDivisor: 4
GridSize: 4
TimelineZoom: 1.9

[Metadata]
Title:Yuunagi, Bou, Hana Madoi
TitleUnicode:夕凪、某、花惑い
Artist:Yorushika
ArtistUnicode:ヨルシカ
Creator:Delis
Version:Extra
Source:
Tags:mirash deetz n-buna suis elma
BeatmapID:2153558
BeatmapSetID:1029921

[Difficulty]
HPDrainRate:7
CircleSize:4
OverallDifficulty:8
ApproachRate:9
SliderMultiplier:1.8
SliderTickRate:1

[Events]
//Background and Video events
0,0,"BG.jpg",0,0
//Break Periods
2,89408,95759
2,160453,162030
//Storyboard Layer 0 (Background)
//Storyboard Layer 1 (Fail)
//Storyboard Layer 2 (Pass)
//Storyboard Layer 3 (Foreground)
//Storyboard Layer 4 (Overlay)
//Storyboard Sound Samples

[TimingPoints]
87,272.727272727273,4,3,1,40,1,0
87,-100,4,3,1,40,0,0
1041,-125,4,3,1,40,0,0
7587,-125,4,3,1,50,0,0
7859,-100,4,3,1,50,0,0
7927,-100,4,3,1,5,0,0
7996,-100,4,1,1,50,0,0
9768,-100,4,1,1,60,0,0
20677,-125,4,3,1,50,0,0
21087,-125,4,3,1,50,0,0
29405,-100,4,3,1,50,0,0
46996,-100,4,2,1,60,0,0
51359,-100,4,1,1,40,0,0
52450,-100,4,1,1,45,0,0
52996,-100,4,1,1,50,0,0
53541,-100,4,1,1,55,0,0
54087,-100,4,1,1,60,0,0
55177,-100,4,1,1,40,0,0
55655,-100,4,1,1,14,0,0
55723,-100,4,2,1,70,0,0
75223,-100,4,3,1,60,0,0
79587,-100,4,1,1,60,0,0
88314,-100,4,2,1,50,0,0
104268,240,4,2,1,50,1,0
104388,315.789473684211,4,2,1,50,1,0
104545,255.31914893617,4,2,1,50,1,0
104800,272.727272727273,4,2,1,50,1,0
105072,300,4,2,1,50,1,0
105222,272.727272727273,4,2,1,50,1,0
105358,272.727272727273,4,2,1,50,1,0
105903,272.727272727273,4,2,1,50,1,0
114630,-100,4,2,1,60,0,0
122812,-100,4,2,1,50,0,0
123357,-100,4,2,1,70,0,0
136448,-100,4,2,1,60,0,0
151584,-83.3333333333333,4,2,1,60,0,0
155675,-83.3333333333333,4,2,1,60,0,0
158130,-83.3333333333333,4,2,1,50,0,0
162630,-100,4,2,1,60,0,0
163993,-100,4,2,1,60,0,0
167266,-100,4,2,1,70,0,0
182130,-100,4,2,1,60,0,0
195221,-100,4,2,1,50,0,0

[Colours]
Combo1 : 89,150,210
Combo2 : 38,217,186
Combo3 : 227,136,209
Combo4 : 227,158,117

[HitObjects]
376,184,87,5,0,0:0:0:0:
376,184,359,1,0,0:0:0:0:
376,184,632,1,0,0:0:0:0:
376,184,905,1,0,0:0:0:0:
288,228,1041,6,2,B|268:152|292:68,1,144.384,0|0,0:0|0:0,1:0:0:0:
364,60,1450,1,2,0:0:0:0:
204,92,1723,1,2,0:0:0:0:
376,184,1996,1,2,0:0:0:0:
224,304,2268,1,2,0:0:0:0:
392,348,2541,1,2,0:0:0:0:
392,348,2814,1,2,0:0:0:0:
316,308,2950,2,0,B|304:220,1,72.1920000000001,2|4,0:0|3:0,1:0:0:0:
236,188,3223,5,4,0:2:0:0:
236,188,3496,1,0,0:0:0:0:
164,228,3632,2,0,B|84:252|20:212,1,144.384,2|2,0:0|0:0,1:0:0:0:
64,148,4041,2,0,B|72:108|56:64,1,72.1920000000001,2|0,0:0|0:0,1:0:0:0:
164,228,4314,2,0,B|136:304|180:376,1,144.384,4|0,0:2|0:0,1:0:0:0:
248,328,4723,1,2,0:0:0:0:
336,280,4859,1,2,0:0:0:0:
324,360,4996,1,2,0:0:0:0:
264,244,5132,1,2,0:0:0:0:
384,268,5268,1,0,0:0:0:0:
448,212,5405,6,0,B|472:132|436:56,1,144.384,4|0,0:2|0:0,1:0:0:0:
372,112,5814,1,2,0:0:0:0:
200,40,6087,1,2,0:0:0:0:
80,152,6359,1,2,0:0:0:0:
264,96,6632,1,2,0:0:0:0:
376,248,6905,1,2,0:0:0:0:
192,292,7177,1,2,0:0:0:0:
112,320,7314,2,0,B|16:300,1,72.1920000000001,2|4,0:0|3:0,1:0:0:0:
168,200,7587,5,4,1:2:0:0:
168,200,7859,2,0,B|288:192,1,90.2400000000001,2|2,0:2|0:0,3:0:0:0:
280,192,8064,1,2,0:0:0:0:
302,190,8132,1,0,0:0:0:0:
264,276,8268,5,2,0:0:0:0:
256,112,8405,1,10,0:0:0:0:
256,112,8677,2,0,B|284:56|376:48|412:112,1,180.48,0|2,0:0|0:0,1:0:0:0:
407,104,9018,1,0,0:0:0:0:
407,104,9087,1,2,0:0:0:0:
396,200,9223,1,2,0:0:0:0:
476,256,9359,1,2,0:0:0:0:
488,164,9496,1,8,0:0:0:0:
476,256,9632,1,8,0:0:0:0:
320,332,9768,6,0,B|264:376|184:348|176:272,1,180.48,4|0,0:0|0:0,1:0:0:0:
204,252,10109,1,2,0:0:0:0:
204,252,10177,1,8,0:0:0:0:
144,172,10314,1,0,0:0:0:0:
96,268,10450,1,2,0:0:0:0:
100,96,10587,1,0,0:0:0:0:
228,160,10723,1,10,0:0:0:0:
300,128,10859,2,0,B|488:120,1,180.48,4|2,0:2|0:2,1:0:0:0:
480,120,11268,5,10,0:0:0:0:
420,200,11405,1,2,0:2:0:0:
368,44,11541,1,2,0:0:0:0:
300,128,11677,2,0,B|252:152|196:136|180:76,1,135.36,2|0,0:2|2:0,1:0:0:0:
160,60,11950,6,2,B|92:60|52:144|116:200,1,180.48,2|2,0:1|0:0,1:0:0:0:
188,232,12359,2,0,B|212:280|228:332,1,90.2400000000001,8|2,0:0|0:0,1:0:0:0:
32,308,12632,2,0,B|104:288|136:284,1,90.2400000000001,0|2,0:0|0:0,1:0:0:0:
292,256,12905,1,8,0:0:0:0:
276,172,13041,1,2,0:0:0:0:
340,256,13177,1,2,0:0:0:0:
352,340,13314,1,0,0:0:0:0:
260,304,13450,1,8,0:0:0:0:
384,220,13587,5,0,0:0:0:0:
384,220,13655,1,0,1:0:0:0:
384,220,13723,1,2,1:3:0:0:
472,256,13859,1,2,0:0:0:0:
456,160,13996,1,8,0:0:0:0:
336,56,14132,6,2,B|292:12|196:32|184:104,1,180.48,6|2,0:1|0:0,1:0:0:0:
104,128,14541,2,0,B|124:172|140:224,1,90.2400000000001,8|2,0:0|0:0,1:0:0:0:
104,288,14814,1,2,0:0:0:0:
248,252,14950,2,0,B|228:212|212:164,1,90.2400000000001,0|2,0:0|0:0,1:0:0:0:
188,312,15223,2,2,B|208:376|292:392|340:352,1,180.48,0|0,0:0|0:0,1:0:0:0:
400,296,15632,2,0,B|440:148,1,135.36,8|0,0:0|1:0,1:0:0:0:
448,124,15905,1,0,0:0:0:0:
376,60,16041,1,2,0:2:0:0:
352,148,16177,1,8,0:0:0:0:
200,88,16314,5,4,0:2:0:0:
200,88,16587,1,8,0:2:0:0:
120,48,16723,2,0,B|104:104|76:152,1,90.2400000000001,2|2,0:2|0:2,1:0:0:0:
212,256,16996,2,0,B|228:200|256:152,1,90.2400000000001,8|2,0:2|0:2,1:0:0:0:
128,208,17268,1,2,0:0:0:0:
144,316,17405,1,2,0:2:0:0:
44,336,17541,5,2,0:0:0:0:
44,336,17677,1,0,0:0:0:0:
144,316,17814,2,0,B|208:316|244:320,1,90.2400000000001,10|8,0:0|0:0,1:0:0:0:
312,284,18087,1,2,0:0:0:0:
400,316,18223,1,2,0:2:0:0:
480,264,18359,1,8,0:0:0:0:
480,168,18496,1,4,0:0:0:0:
64,72,18768,5,2,1:1:0:0:
64,72,18905,1,0,3:0:0:0:
224,76,19177,1,0,3:0:0:0:
224,76,19246,1,2,3:0:0:0:
224,76,19314,2,0,B|192:112|200:176,1,90.2400000000001,2|8,3:0|0:0,1:0:0:0:
324,152,19587,5,4,0:2:0:0:
132,240,19859,1,2,0:0:0:0:
144,328,19996,2,0,B|184:364|240:348,1,90.2400000000001,2|0,3:0|0:0,1:0:0:0:
312,344,20268,1,8,0:0:0:0:
392,332,20405,1,0,0:0:0:0:
472,324,20541,1,8,0:0:0:0:
416,252,20677,6,0,B|376:188|416:108,1,144.384,4|0,0:2|3:0,3:0:0:0:
480,164,21087,1,0,0:0:0:0:
476,168,21359,1,2,0:0:0:0:
472,172,21632,1,0,0:0:0:0:
304,184,21768,2,0,B|344:248|304:328,1,144.384,2|0,0:2|0:0,3:0:0:0:
232,284,22177,1,2,0:2:0:0:
236,288,22450,1,2,0:0:0:0:
240,292,22723,1,0,0:0:0:0:
100,136,22859,6,0,B|140:112|188:124,1,72.1920000000001,2|0,0:2|3:0,3:0:0:0:
112,216,23132,1,0,3:0:0:0:
32,192,23268,2,0,B|-8:124|20:48,2,144.12,0|2|0,0:0|0:0|0:0,3:0:0:0:
112,216,23950,2,2,B|128:316|36:352,1,144.384,2|0,0:2|0:0,3:2:0:0:
20,280,24359,2,0,B|104:272|144:336,1,144.384,2|2,0:2|0:2,3:0:0:0:
220,300,24768,5,0,0:0:0:0:
272,236,24905,1,2,0:2:0:0:
272,152,25041,2,2,B|196:112|216:16,1,144.384,4|0,1:2|3:0,3:2:0:0:
144,88,25450,2,0,B|300:64,1,144.384,0|2,0:0|0:0,3:0:0:0:
286,66,25996,1,0,0:0:0:0:
200,188,26132,2,2,B|124:208|68:152,1,144.384,2|0,0:2|0:0,3:2:0:0:
156,272,26541,2,0,B|208:200|296:208,2,144.12,2|2|2,0:2|0:2|0:2,3:0:0:0:
116,340,27223,6,2,B|100:172,1,144.384,2|0,0:2|0:0,3:2:0:0:
92,116,27632,1,2,0:2:0:0:
96,120,27905,1,2,0:0:0:0:
100,124,28177,1,2,0:2:0:0:
192,72,28314,6,0,B|272:96|336:52,1,144.384,8|8,0:2|0:0,3:0:0:0:
400,104,28723,1,2,0:0:0:0:
348,184,28859,1,2,0:0:0:0:
500,264,28996,5,8,0:1:0:0:
360,280,29132,1,8,0:2:0:0:
472,184,29268,1,4,0:0:0:0:
388,352,29405,6,0,B|300:364|204:356,1,180.48,4|0,0:2|1:0,3:0:0:0:
88,264,29814,2,2,B|180:256|276:264,1,180.48,8|2,0:2|0:0,3:0:0:0:
267,263,30359,1,8,0:1:0:0:
180,264,30496,2,0,B|168:160|180:80,1,180.48,0|0,1:0|1:0,3:0:0:0:
344,88,30905,2,0,B|356:192|344:272,1,180.48,8|0,0:2|0:0,3:0:0:0:
344,267,31450,1,8,0:1:0:0:
348,184,31587,6,2,B|392:176|448:180,1,90.2400000000001,0|0,1:0|3:0,3:0:0:0:
488,244,31859,1,0,1:0:0:0:
344,267,31996,2,0,B|280:272|240:268,1,90.2400000000001,8|0,0:2|0:0,3:0:0:0:
84,192,32268,2,0,B|172:172|268:188,1,180.48,2|8,0:0|0:1,3:0:0:0:
176,256,32677,2,0,B|160:160|176:64,1,180.48,0|0,1:0|1:0,3:0:0:0:
344,32,33087,2,0,B|360:128|344:224,1,180.48,8|2,0:2|1:0,3:0:0:0:
256,316,33496,5,2,1:0:0:0:
256,196,33632,1,8,0:1:0:0:
256,72,33768,2,2,B|152:104|84:28,1,180.48,4|0,1:2|1:0,3:0:0:0:
340,140,34177,2,0,B|408:64|508:84,2,180.15,8|2|8,0:2|0:0|0:1,3:0:0:0:
172,320,34859,2,0,B|100:232|176:144,1,180.48,0|0,1:0|1:0,3:0:0:0:
344,216,35268,2,0,B|416:304|340:392,1,180.48,8|2,0:2|0:0,3:0:0:0:
349,380,35677,1,2,0:0:0:0:
256,280,35814,5,8,0:1:0:0:
256,80,35950,1,4,1:2:0:0:
256,80,36223,1,8,0:0:0:0:
156,108,36359,2,0,B|48:136,1,90.2400000000001,4|0,0:0|3:0,3:0:0:0:
256,80,36632,1,2,0:0:0:0:
256,184,36768,2,0,B|256:276,1,90.2400000000001,8|0,0:0|1:0,3:0:0:0:
256,80,37041,1,0,1:0:0:0:
356,108,37177,2,0,B|464:136,1,90.2400000000001,4|0,1:2|3:0,3:0:0:0:
356,212,37450,2,0,B|352:272|380:308,1,90.2400000000001,2|0,1:1|0:1,3:0:0:0:
304,348,37723,5,8,0:1:0:0:
192,368,37859,1,8,0:1:0:0:
60,168,37996,5,8,0:0:0:0:
80,280,38132,1,8,0:0:0:0:
152,212,38268,5,4,1:2:0:0:
156,216,38405,1,0,0:0:0:0:
264,232,38541,1,2,0:0:0:0:
268,236,38677,1,2,0:0:0:0:
376,252,38814,2,0,B|400:356,1,90.2400000000001,0|0,0:0|0:0,3:0:0:0:
488,264,39087,2,0,B|512:368,1,90.2400000000001,2|2,0:0|0:0,3:0:0:0:
432,164,39359,5,2,0:2:0:0:
424,160,39496,1,0,0:0:0:0:
416,156,39632,1,2,0:0:0:0:
408,152,39768,1,2,0:2:0:0:
400,148,39905,1,0,0:0:0:0:
392,144,40041,1,2,0:0:0:0:
384,140,40177,1,2,0:2:0:0:
296,108,40314,5,0,1:0:0:0:
304,144,40382,1,0,1:0:0:0:
312,180,40450,1,4,1:2:0:0:
104,344,40723,5,2,0:0:0:0:
108,336,40859,1,0,0:0:0:0:
28,176,40996,2,0,B|56:268,1,90.2400000000001,2|0,0:0|0:0,3:0:0:0:
228,276,41268,2,0,B|124:260,1,90.2400000000001,2|2,0:0|0:0,3:0:0:0:
304,332,41541,5,2,0:2:0:0:
312,328,41677,1,0,0:0:0:0:
320,324,41814,1,2,0:0:0:0:
328,320,41950,1,2,0:2:0:0:
420,296,42087,5,8,0:0:0:0:
364,248,42223,1,4,0:0:0:0:
412,192,42359,1,2,0:2:0:0:
360,140,42496,1,2,0:2:0:0:
444,32,42632,6,0,B|464:120,1,90.2400000000001,4|0,1:2|0:0,3:0:0:0:
472,128,42905,1,0,0:0:0:0:
244,52,43041,1,2,0:0:0:0:
240,60,43177,2,0,B|268:176,1,90.2400000000001,2|0,0:0|3:0,3:0:0:0:
160,148,43450,2,0,B|188:252,1,90.2400000000001,0|2,0:0|0:0,3:0:0:0:
56,336,43723,6,0,B|76:224,1,90.2400000000001,4|0,1:2|0:0,3:0:0:0:
156,284,43996,2,0,B|136:384,1,90.2400000000001,2|2,0:0|0:0,3:0:0:0:
356,332,44268,2,0,B|380:216,1,90.2400000000001,0|2,0:0|0:0,3:0:0:0:
456,280,44541,2,0,B|428:400,1,90.2400000000001,0|2,0:0|0:0,3:0:0:0:
256,344,44814,5,4,1:2:0:0:
256,344,46177,1,8,0:0:0:0:
256,352,46314,1,4,0:0:0:0:
224,160,46450,5,2,1:0:0:0:
256,244,46587,1,2,1:0:0:0:
300,124,46723,1,2,1:0:0:0:
260,252,46859,1,2,1:0:0:0:
228,72,46996,6,0,B|256:16|344:0|388:60,1,180.48,4|8,1:0|0:0,2:0:0:0:
384,144,47405,1,2,0:0:0:0:
448,208,47541,2,0,B|476:160|480:92,1,90.2400000000001,2|0,0:0|0:0,2:0:0:0:
288,168,47814,2,0,B|260:216|256:284,1,90.2400000000001,10|2,0:0|0:0,2:0:0:0:
148,332,48087,2,0,B|80:320|60:228|112:180,2,180.15,2|10|4,0:0|0:0|3:0,2:0:0:0:
148,332,48905,2,0,B|196:320|260:320,1,90.2400000000001,10|2,0:0|0:0,2:0:0:0:
316,296,49177,5,0,1:2:0:0:
428,336,49314,1,0,1:0:0:0:
472,224,49450,1,8,0:0:0:0:
428,144,49587,1,2,0:0:0:0:
388,256,49723,1,0,0:0:0:0:
496,296,49859,1,2,0:0:0:0:
344,176,49996,2,0,B|292:164|248:196,1,90.2400000000001,10|0,0:0|0:0,2:0:0:0:
220,268,50268,5,2,3:0:0:0:
184,352,50405,1,0,0:0:0:0:
164,216,50541,1,8,0:2:0:0:
268,296,50677,1,0,0:0:0:0:
124,288,50814,1,2,3:0:0:0:
92,156,50950,1,0,2:0:0:0:
232,192,51087,2,0,B|308:200|360:200,1,90.2400000000001,8|2,0:0|0:1,2:0:0:0:
408,88,51359,5,4,1:2:0:0:
388,76,51427,1,0,1:0:0:0:
367,67,51496,1,0,1:0:0:0:
345,62,51564,1,0,1:0:0:0:
322,60,51632,1,8,1:0:0:0:
299,60,51700,1,0,1:0:0:0:
276,62,51768,1,0,1:0:0:0:
253,66,51837,1,0,1:0:0:0:
231,71,51905,2,0,B|166:91,3,45.12,8|0|0|0,1:0|1:0|1:0|1:0,2:0:0:0:
113,81,52177,2,0,B|91:133,3,45.12,8|0|0|0,1:0|1:0|1:0|1:0,2:0:0:0:
57,189,52450,5,12,1:2:0:0:
60,211,52518,1,0,1:0:0:0:
63,233,52587,1,0,1:0:0:0:
67,255,52655,1,0,1:0:0:0:
71,277,52723,1,8,1:0:0:0:
75,299,52791,1,0,1:0:0:0:
78,321,52859,1,0,1:0:0:0:
81,343,52927,1,0,1:0:0:0:
85,365,52996,2,0,B|129:376|155:368,3,45.12,8|0|0|0,1:0|1:0|1:0|1:0,2:0:0:0:
186,316,53268,2,0,B|222:309|250:319,3,45.12,8|0|0|0,1:0|1:0|1:0|1:0,2:0:0:0:
304,352,53541,5,12,1:2:0:0:
326,348,53609,1,0,1:0:0:0:
345,335,53677,1,0,1:0:0:0:
359,317,53746,1,0,1:0:0:0:
370,297,53814,1,8,1:0:0:0:
370,274,53882,1,0,1:0:0:0:
362,252,53950,1,0,1:0:0:0:
349,233,54018,1,0,1:0:0:0:
330,220,54087,5,12,1:2:0:0:
314,203,54155,1,0,1:0:0:0:
307,181,54223,1,0,1:0:0:0:
307,158,54291,1,0,1:0:0:0:
313,136,54359,1,8,1:0:0:0:
326,117,54427,1,0,1:0:0:0:
342,101,54496,1,0,1:0:0:0:
363,95,54564,1,0,1:0:0:0:
385,95,54632,5,12,0:0:0:0:
195,50,54905,1,12,0:0:0:0:
256,192,55177,12,6,55723,1:0:0:0:
160,324,55996,6,0,B|208:332|248:292,1,90.2400000000001,10|0,1:0|0:0,2:0:0:0:
328,276,56268,2,0,B|268:192|168:228,1,180.48,2|8,1:0|0:1,2:0:0:0:
88,276,56677,1,2,1:0:0:0:
152,152,56814,2,0,B|168:108|156:48,1,90.2400000000001,2|0,1:0|0:0,2:0:0:0:
236,116,57087,2,0,B|284:128|332:120,1,90.2400000000001,10|0,1:0|0:0,2:0:0:0:
172,228,57359,2,0,B|124:216|76:224,1,90.2400000000001,2|0,1:0|1:0,2:0:0:0:
252,192,57632,2,0,B|240:240|248:288,1,90.2400000000001,10|2,1:0|3:0,2:0:0:0:
408,256,57905,5,2,1:0:0:0:
408,256,58177,2,0,B|348:232|336:140|404:100,1,180.48,8|0,1:0|1:3,2:0:0:0:
296,96,58587,1,2,0:2:0:0:
80,64,58723,2,0,B|128:72|180:64,1,90.2400000000001,8|0,0:0|1:0,2:0:0:0:
240,176,58996,1,2,1:0:0:0:
148,176,59132,1,2,1:0:0:0:
148,176,59200,1,2,1:0:0:0:
148,176,59268,1,8,1:1:0:0:
60,160,59405,1,2,1:0:0:0:
40,328,59541,6,0,B|140:316,1,90.2400000000001,0|2,1:0|1:0,2:0:0:0:
236,336,59814,2,0,B|288:320|340:336,1,90.2400000000001,10|2,1:0|1:0,2:0:0:0:
440,328,60087,2,0,B|496:240|424:144,1,180.48,6|10,1:0|1:0,2:0:0:0:
360,84,60496,2,0,B|304:172|376:268,1,180.48,2|0,1:0|0:0,2:0:0:0:
152,300,60905,2,0,B|208:212|136:116,1,180.48,10|2,1:0|1:0,2:0:0:0:
76,88,61314,1,0,0:0:0:0:
12,192,61450,2,0,B|52:220|108:212,1,90.2400000000001,10|2,1:0|0:2,2:0:0:0:
256,200,61723,1,2,1:0:0:0:
288,128,61859,1,2,0:0:0:0:
180,196,61996,1,10,1:0:0:0:
288,268,62132,1,2,0:0:0:0:
384,144,62268,6,0,B|432:136|488:156,1,90.2400000000001,4|0,1:2|0:0,2:0:0:0:
472,232,62541,2,0,B|432:248|384:240,1,90.2400000000001,10|2,1:0|0:0,2:0:0:0:
212,128,62814,2,0,B|192:84|208:28,1,90.2400000000001,4|0,1:2|0:0,2:0:0:0:
112,236,63087,2,0,B|144:272|200:280,1,90.2400000000001,10|2,1:0|1:0,2:0:0:0:
352,344,63359,2,0,B|348:240|240:212,1,180.48,4|12,1:2|0:2,2:0:0:0:
260,320,63768,1,2,3:0:0:0:
396,240,63905,2,0,B|408:124,1,90.2400000000001,0|0,1:0|1:0,2:0:0:0:
328,40,64177,5,8,1:0:0:0:
316,60,64246,1,8,1:0:0:0:
304,80,64314,1,8,1:0:0:0:
292,100,64382,1,8,1:0:0:0:
280,120,64450,2,2,B|232:140|168:120,1,90.2400000000001,6|0,1:0|2:0,2:0:0:0:
56,32,64723,1,10,1:0:0:0:
140,56,64859,1,0,0:0:0:0:
24,148,64996,2,2,B|-24:244|48:320,1,180.48,2|8,1:0|0:0,2:1:0:0:
132,328,65405,1,0,0:0:0:0:
244,292,65541,6,0,B|336:296,1,90.2400000000001,2|0,1:0|0:0,2:0:0:0:
448,336,65814,2,0,B|452:208,1,90.2400000000001,10|0,1:0|0:0,2:0:0:0:
460,44,66087,2,0,B|456:144,1,90.2400000000001,2|0,1:0|1:0,2:0:0:0:
340,80,66359,2,0,B|248:76,1,90.2400000000001,10|0,1:0|0:0,2:0:0:0:
96,232,66632,2,0,B|140:248|192:240,1,90.2400000000001,4|0,1:2|0:0,2:0:0:0:
48,168,66905,2,0,B|-24:248|40:344,1,180.48,10|4,1:0|1:2,2:0:0:0:
144,160,67314,1,2,1:0:0:0:
120,68,67450,1,8,0:0:0:0:
28,44,67587,1,2,1:0:0:0:
208,76,67723,6,0,B|260:80|304:80,1,90.2400000000001,4|0,1:2|2:0,2:0:0:0:
424,288,67996,2,0,B|380:284|324:284,1,90.2400000000001,8|2,0:0|1:0,2:0:0:0:
252,224,68268,1,4,2:0:0:0:
256,320,68405,1,0,1:0:0:0:
244,120,68541,1,8,1:0:0:0:
252,224,68677,1,0,1:0:0:0:
148,264,68814,6,2,B|88:256|52:180|100:120,1,180.48,6|10,1:0|1:1,2:0:0:0:
172,72,69223,1,2,1:0:0:0:
208,160,69359,1,2,1:0:0:0:
304,112,69496,1,0,0:0:0:0:
384,64,69632,2,0,B|388:112|384:168,1,90.2400000000001,10|0,1:0|2:0,2:0:0:0:
380,240,69905,1,2,0:0:0:0:
316,304,70041,2,0,B|268:308|212:304,1,90.2400000000001,2|10,0:0|0:0,2:0:0:0:
148,264,70314,1,2,0:0:0:0:
104,116,70450,6,0,B|156:112|216:116,1,90.2400000000001,2|2,1:0|0:0,2:0:0:0:
308,212,70723,2,0,B|264:216|216:212,1,90.2400000000001,10|2,1:0|0:0,2:0:0:0:
296,100,70996,2,0,B|384:88|480:100,1,180.48,6|10,1:1|1:0,2:0:0:0:
460,180,71405,1,2,1:0:0:0:
376,180,71541,1,0,1:0:0:0:
404,320,71677,1,0,1:0:0:0:
272,280,71814,1,10,1:0:0:0:
204,340,71950,1,0,0:0:0:0:
112,312,72087,2,0,B|108:264|112:204,1,90.2400000000001,0|0,1:0|1:0,2:0:0:0:
216,76,72359,2,0,B|220:124|220:184,1,90.2400000000001,10|2,1:0|1:0,2:0:0:0:
204,252,72632,5,0,1:0:0:0:
304,200,72768,1,2,1:0:0:0:
140,156,72905,1,10,1:0:0:0:
292,92,73041,1,2,1:0:0:0:
132,40,73177,2,2,B|68:20|4:80|28:156,1,180.48,2|10,1:0|1:0,2:1:0:0:
140,156,73587,2,2,B|204:188|200:276|136:312,1,180.48,0|2,1:0|1:0,2:1:0:0:
56,336,73996,2,0,B|76:216,1,90.2400000000001,8|0,1:0|1:0,2:0:0:0:
244,340,74268,5,4,1:2:0:0:
344,304,74405,2,0,B|440:256,1,90.2400000000001,8|10,1:0|0:0,2:0:0:0:
460,176,74677,1,0,2:0:0:0:
424,348,74814,1,0,1:0:0:0:
356,208,74950,1,8,1:0:0:0:
504,288,75087,1,8,1:0:0:0:
348,116,75223,6,0,B|256:68|168:116,1,180.48,4|0,1:2|0:0,3:0:0:0:
112,188,75632,2,0,B|4:160,1,90.2400000000001,2|0,1:0|0:0,3:0:0:0:
192,212,75905,2,0,B|300:240,1,90.2400000000001,2|0,1:0|0:0,3:0:0:0:
108,264,76177,2,0,B|16:296,1,90.2400000000001,2|2,1:0|0:2,3:0:0:0:
200,136,76450,2,0,B|292:104,1,90.2400000000001,2|2,1:0|0:0,3:0:0:0:
192,292,76723,2,0,B|152:376,1,90.2400000000001,2|2,1:0|0:0,3:0:0:0:
128,112,76996,1,2,1:0:0:0:
128,112,77132,2,0,B|168:28,1,90.2400000000001,2|0,1:0|1:0,3:0:0:0:
292,216,77405,6,2,B|396:260|460:152,1,180.48,6|2,1:0|0:1,3:0:0:0:
212,256,77814,2,0,B|316:204,1,90.2400000000001,2|0,1:0|0:0,3:0:0:0:
444,136,78087,2,0,B|340:188,1,90.2400000000001,2|2,1:0|0:2,3:0:0:0:
340,340,78359,2,0,B|360:232,1,90.2400000000001,2|2,1:0|0:0,3:0:0:0:
316,48,78632,2,0,B|296:156,1,90.2400000000001,8|0,1:0|3:0,3:0:0:0:
504,284,78905,2,0,B|416:216,1,90.2400000000001,8|8,1:0|1:0,3:0:0:0:
152,104,79177,1,10,1:0:0:0:
152,104,79314,2,0,B|240:172,1,90.2400000000001,10|10,1:0|1:0,3:0:0:0:
196,296,79587,6,2,B|92:336|28:248,1,180.48,6|2,1:0|0:0,1:0:0:0:
40,160,79996,1,10,0:0:0:0:
116,212,80132,1,2,0:0:0:0:
36,64,80268,2,0,B|76:48|136:48,1,90.2400000000001,2|0,0:0|0:0,1:0:0:0:
208,104,80541,1,10,0:0:0:0:
284,40,80677,1,0,0:0:0:0:
436,132,80814,5,2,0:0:0:0:
448,224,80950,1,2,0:0:0:0:
356,192,81087,1,2,0:0:0:0:
344,104,81223,1,0,0:0:0:0:
252,208,81359,2,0,B|264:312,1,90.2400000000001,2|2,3:0|3:0,1:0:0:0:
332,344,81632,1,2,3:0:0:0:
152,356,81768,6,2,B|180:260|132:172,1,180.48,0|0,0:0|0:0,1:0:0:0:
76,240,82177,2,0,B|36:148|76:56,1,180.48,10|2,0:0|0:0,1:0:0:0:
152,108,82587,1,2,0:0:0:0:
152,108,82655,1,2,0:0:0:0:
152,108,82723,1,10,0:0:0:0:
320,56,82859,1,2,0:0:0:0:
276,132,82996,6,0,B|272:184|276:228,1,90.2400000000001,2|2,0:0|0:2,1:0:0:0:
404,280,83268,2,0,B|408:228|404:184,1,90.2400000000001,2|2,0:0|0:2,1:0:0:0:
380,104,83541,1,8,0:0:0:0:
276,312,83677,1,8,0:0:0:0:
275,222,83814,1,8,0:0:0:0:
88,172,83950,6,0,B|40:264|96:360,1,180.48,4|0,1:2|1:0,2:0:0:0:
176,304,84359,2,0,B|272:352|360:288,2,180.15,8|0|8,0:0|1:0|0:0,2:0:0:0:
168,220,85041,1,0,1:0:0:0:
304,40,85177,2,2,B|384:104|336:224,1,180.48,6|2,1:0|0:1,1:0:0:0:
304,336,85587,2,2,B|224:276|272:152,1,180.48,0|0,0:0|0:0,1:0:0:0:
136,56,85996,2,0,B|164:152,1,90.2400000000001,2|0,0:0|0:0,1:0:0:0:
72,308,86268,5,4,0:2:0:0:
144,360,86405,2,0,B|172:320|156:256,1,90.2400000000001,8|8,0:0|0:0,1:0:0:0:
204,112,86677,1,4,0:2:0:0:
136,56,86814,2,0,B|104:96|120:160,1,90.2400000000001,8|8,0:0|0:0,1:0:0:0:
256,232,87087,2,0,B|368:256|416:176,1,180.48,4|0,2:0|2:0,2:0:0:0:
348,116,87496,2,0,B|436:68,2,90.2400000000001,0|0|0,2:0|2:0|2:0,2:0:0:0:
284,52,87905,1,2,0:0:0:0:
204,112,88041,2,0,B|160:144|104:120,1,90.2400000000001,0|2,2:0|0:0,2:0:0:0:
56,68,88314,1,4,1:2:0:0:
96,336,96359,5,2,0:0:0:0:
96,336,96427,1,0,3:0:0:0:
96,336,96496,1,8,0:2:0:0:
84,228,96632,1,8,0:1:0:0:
184,268,96768,1,8,0:0:0:0:
96,336,96905,1,4,0:0:0:0:
128,144,97041,6,0,B|184:176|256:148|264:72,1,180.48,4|0,0:2|1:0,2:0:0:0:
356,48,97450,2,0,B|308:232,1,180.48,8|0,0:2|0:0,2:0:0:0:
310,222,97996,1,8,0:0:0:0:
332,144,98132,2,0,B|408:140|448:192|432:268,1,180.48,0|0,1:0|1:0,2:0:0:0:
296,304,98541,2,0,B|220:308|180:256|196:180,1,180.48,8|0,0:0|0:0,2:0:0:0:
194,190,99087,1,8,0:0:0:0:
212,268,99223,6,0,B|140:340|40:292,1,180.48,0|0,1:0|1:0,2:0:0:0:
32,132,99632,2,0,B|104:60|204:108,1,180.48,8|0,0:0|0:0,2:0:0:0:
276,152,100041,1,0,2:0:0:0:
197,104,100177,2,0,B|224:64|288:48,1,90.2400000000001,8|0,0:0|1:0,2:0:0:0:
269,53,100587,1,0,1:0:0:0:
276,152,100723,2,0,B|248:336,1,180.48,8|0,0:0|1:0,2:0:0:0:
172,352,101132,5,0,1:0:0:0:
332,304,101268,1,0,1:0:0:0:
176,240,101405,2,0,B|148:304|60:316|16:256,1,180.48,4|0,0:2|1:0,2:0:0:0:
96,216,101814,2,0,B|124:152|212:140|256:200,2,180.15,8|0|8,0:0|0:0|0:0,2:0:0:0:
292,256,102496,2,0,B|480:232,1,180.48,0|0,1:0|1:0,2:0:0:0:
480,148,102905,2,0,B|368:164,1,90.2400000000001,8|0,0:0|0:0,2:0:0:0:
296,176,103177,1,0,1:0:0:0:
280,84,103314,1,0,1:0:0:0:
372,72,103450,1,8,0:0:0:0:
260,136,103587,6,0,B|208:184|128:160|116:96,1,180.48,4|0,1:2|1:0,2:0:0:0:
108,212,103996,2,0,B|44:292,1,90.2400000000001,8|0,0:0|2:0,2:0:0:0:
8,88,104268,1,0,1:0:0:0:
0,216,104388,2,0,B|68:136,1,90.2400000000001,8|0,0:0|1:0,2:0:0:0:
108,80,104672,1,0,1:0:0:0:
220,248,104800,5,12,0:0:0:0:
260,136,104936,1,0,0:0:0:0:
260,136,105222,1,0,1:0:0:0:
312,328,105358,5,8,0:0:0:0:
220,344,105494,1,8,3:0:0:0:
328,324,105630,1,8,3:0:0:0:
200,348,105767,1,4,3:0:0:0:
120,320,105903,6,0,B|112:276|116:224,1,90.2400000000001,4|0,1:2|2:0,2:0:0:0:
148,72,106175,1,0,2:0:0:0:
152,156,106312,1,0,1:0:0:0:
64,120,106448,2,0,B|32:124|0:108,2,45.12,0|0|0,1:0|1:0|0:0,2:0:0:0:
152,156,106721,1,0,1:0:0:0:
236,108,106857,1,0,2:0:0:0:
404,128,106993,5,10,0:2:0:0:
332,168,107130,2,0,B|312:124|320:56,1,90.2400000000001,2|0,0:2|2:0,2:0:0:0:
480,120,107403,1,8,0:0:0:0:
440,240,107539,2,0,B|456:284|456:336,1,90.2400000000001,0|2,2:0|0:0,2:0:0:0:
296,360,107812,2,0,B|280:320|280:268,1,90.2400000000001,0|0,1:0|0:0,2:0:0:0:
356,240,108084,5,2,1:0:0:0:
372,324,108221,1,0,0:0:0:0:
196,264,108357,1,0,0:0:0:0:
212,344,108493,1,0,1:0:0:0:
128,320,108630,1,0,0:0:0:0:
112,236,108766,1,0,0:0:0:0:
244,144,108903,2,0,B|276:180|264:236,1,90.2400000000001,0|0,2:0|0:0,2:0:0:0:
244,60,109175,2,0,B|204:28|144:32,1,90.2400000000001,10|2,0:0|0:0,2:0:0:0:
324,104,109448,2,0,B|368:132|412:128,1,90.2400000000001,0|8,2:0|0:0,2:0:0:0:
488,88,109721,1,2,0:0:0:0:
408,48,109857,5,0,0:0:0:0:
480,168,109993,1,0,1:0:0:0:
372,224,110130,1,0,2:0:0:0:
296,192,110266,6,0,B|248:192|192:208,1,90.2400000000001,2|0,1:0|0:0,2:0:0:0:
156,264,110539,1,0,0:0:0:0:
80,216,110675,1,0,1:0:0:0:
120,132,110812,2,0,B|124:72,2,45.12,0|8|8,0:0|2:0|0:0,2:0:0:0:
80,216,111084,1,0,1:0:0:0:
156,264,111221,2,2,B|164:316|156:372,1,90.2400000000001,0|2,0:0|1:0,2:0:0:0:
81,307,111493,5,0,2:0:0:0:
236,308,111630,1,0,0:0:0:0:
156,184,111766,1,8,3:0:0:0:
81,307,111903,2,0,B|77:251|81:211,1,90.2400000000001,2|2,0:0|0:0,2:0:0:0:
236,218,112175,2,0,B|240:274|236:314,1,90.2400000000001,4|2,3:0|0:0,2:0:0:0:
160,356,112448,5,2,1:0:0:0:
164,360,112857,1,0,1:0:0:0:
168,364,113266,1,0,1:0:0:0:
304,352,113403,1,0,2:0:0:0:
156,264,113539,5,2,1:2:0:0:
236,218,113675,1,2,0:0:0:0:
236,304,113812,1,0,1:0:0:0:
164,184,113948,1,8,0:0:0:0:
312,256,114084,5,8,0:0:0:0:
384,208,114221,1,8,3:0:0:0:
396,124,114357,1,4,3:0:0:0:
344,56,114493,1,0,0:0:0:0:
112,84,114630,6,0,B|160:100|208:76,1,90.2400000000001,4|0,1:0|0:0,2:0:0:0:
276,140,114903,1,10,0:0:0:0:
236,220,115039,1,2,0:0:0:0:
420,216,115175,2,0,B|372:216|328:224,1,90.2400000000001,2|0,0:0|2:0,2:0:0:0:
288,304,115448,1,8,0:0:0:0:
380,300,115584,1,2,0:0:0:0:
172,168,115721,6,0,B|120:192|112:284|172:316,1,180.48,2|8,0:0|0:0,2:0:0:0:
236,220,116130,1,2,0:0:0:0:
232,88,116266,1,0,0:0:0:0:
320,192,116403,1,2,0:0:0:0:
316,68,116539,1,8,0:0:0:0:
404,160,116675,1,2,0:0:0:0:
472,108,116812,6,0,B|492:152|480:200,1,90.2400000000001,2|0,1:0|0:0,2:0:0:0:
440,272,117084,1,8,0:0:0:0:
356,264,117221,1,2,0:0:0:0:
208,344,117357,2,0,B|260:348|308:324,1,90.2400000000001,2|0,0:0|2:0,2:0:0:0:
236,220,117630,2,0,B|184:216|136:240,1,90.2400000000001,10|2,0:0|0:0,2:0:0:0:
104,316,117903,5,2,1:2:0:0:
44,240,118039,1,2,0:0:0:0:
104,316,118175,1,8,0:0:0:0:
140,164,118312,1,2,0:0:0:0:
56,156,118448,5,2,1:1:0:0:
148,244,118584,1,0,1:1:0:0:
236,148,118721,1,10,1:0:0:0:
328,236,118857,1,2,1:1:0:0:
376,72,118993,5,4,1:0:0:0:
448,36,119130,2,0,B|452:84|448:136,1,90.2400000000001,2|8,0:0|0:0,2:0:0:0:
452,252,119403,1,2,0:0:0:0:
376,168,119539,1,2,1:0:0:0:
372,316,119675,1,2,1:0:0:0:
280,248,119812,1,8,0:0:0:0:
452,252,119948,1,2,0:0:0:0:
280,248,120084,2,0,B|232:248|184:240,1,90.2400000000001,4|2,1:2|0:0,2:0:0:0:
108,104,120357,2,0,B|156:104|204:112,1,90.2400000000001,10|0,0:0|0:0,2:0:0:0:
292,104,120630,5,2,1:0:0:0:
292,104,120766,1,2,1:0:0:0:
280,248,120903,1,8,0:0:0:0:
280,248,121039,1,2,1:0:0:0:
420,188,121175,2,0,B|480:220|468:312|400:328,1,180.48,4|8,1:0|0:0,2:0:0:0:
320,336,121584,1,2,0:0:0:0:
200,224,121721,2,0,B|140:192|152:100|220:84,1,180.48,2|8,0:2|0:0,2:0:0:0:
300,64,122130,1,2,0:0:0:0:
224,320,122266,6,0,B|168:320|120:324,1,90.2400000000001,4|0,0:0|0:0,2:0:0:0:
304,152,122539,2,2,B|360:152|408:148,1,90.2400000000001,2|0,1:0|2:0,2:0:0:0:
140,168,122812,5,2,0:1:0:0:
172,232,122948,1,2,0:1:0:0:
236,200,123084,1,2,0:1:0:0:
204,136,123221,1,2,0:1:0:0:
64,288,123357,6,2,B|124:368|236:316,1,180.48,6|10,1:0|1:0,2:0:0:0:
304,356,123766,1,0,0:0:0:0:
440,264,123903,2,2,B|508:184|428:72,1,180.48,2|10,1:0|0:1,2:0:0:0:
376,148,124312,1,2,1:0:0:0:
164,56,124448,2,0,B|96:148|176:248,2,180.15,2|10|2,1:0|1:0|1:0,2:0:0:0:
276,176,125130,1,0,1:0:0:0:
212,128,125266,1,10,1:0:0:0:
284,92,125403,1,2,3:0:0:0:
264,256,125539,6,0,B|248:360,1,90.2400000000001,2|0,1:0|2:0,2:0:0:0:
176,200,125812,2,0,B|188:296|120:372,1,180.48,8|0,1:0|1:3,2:0:0:0:
88,264,126221,1,2,0:2:0:0:
32,200,126357,2,0,B|20:152|44:92,1,90.2400000000001,8|0,0:0|1:0,2:0:0:0:
216,48,126630,5,2,1:0:0:0:
264,124,126766,1,2,1:0:0:0:
264,124,126834,1,2,1:0:0:0:
264,124,126903,1,8,1:1:0:0:
352,152,127039,1,2,1:0:0:0:
464,44,127175,2,0,B|412:48|372:76,1,90.2400000000001,2|2,1:0|1:0,2:0:0:0:
376,260,127448,2,0,B|428:256|468:228,1,90.2400000000001,8|2,1:0|1:0,2:0:0:0:
272,224,127721,6,2,B|156:204|120:328,1,180.48,6|10,1:0|1:0,2:1:0:0:
80,216,128130,2,0,B|56:36,1,180.48,2|0,1:0|2:0,2:0:0:0:
172,116,128539,2,0,B|284:128,1,90.2400000000001,10|0,1:0|0:0,2:0:0:0:
360,76,128812,1,2,1:0:0:0:
444,128,128948,1,0,0:0:0:0:
356,172,129084,1,10,1:0:0:0:
272,224,129221,1,2,0:2:0:0:
336,300,129357,2,0,B|452:292,1,90.2400000000001,2|2,1:0|0:0,2:0:0:0:
208,312,129630,2,0,B|84:320,1,90.2400000000001,10|2,1:0|0:0,2:0:0:0:
100,72,129903,6,0,B|84:116|92:168,1,90.2400000000001,4|0,1:2|0:0,2:0:0:0:
224,240,130175,2,0,B|240:196|232:144,1,90.2400000000001,10|2,1:0|0:0,2:0:0:0:
296,296,130448,2,0,B|340:312|392:304,1,90.2400000000001,4|0,1:2|0:0,2:0:0:0:
464,168,130721,2,0,B|420:152|368:160,1,90.2400000000001,10|2,1:0|1:0,2:0:0:0:
312,96,130993,5,4,1:2:0:0:
200,52,131130,1,2,3:0:0:0:
128,144,131266,1,12,0:2:0:0:
244,176,131403,1,2,3:0:0:0:
144,304,131539,5,0,1:0:0:0:
60,280,131675,1,0,1:0:0:0:
60,280,131743,1,0,1:0:0:0:
60,280,131812,2,0,B|32:240|40:184,1,90.2400000000001,8|8,1:0|1:0,2:0:0:0:
216,348,132084,2,2,B|264:252|380:284,1,180.48,6|10,1:0|1:0,2:1:0:0:
432,332,132493,1,0,0:0:0:0:
324,200,132630,2,2,B|248:124|308:20,1,180.48,2|10,1:0|1:0,2:1:0:0:
368,88,133039,1,0,0:0:0:0:
196,140,133175,5,2,1:0:0:0:
196,140,133243,1,0,0:0:0:0:
196,140,133312,1,0,0:0:0:0:
120,80,133448,2,0,B|100:180,1,90.2400000000001,10|0,1:0|0:0,2:0:0:0:
160,236,133721,2,0,B|116:264|60:252,1,90.2400000000001,2|0,1:0|1:0,2:0:0:0:
192,336,133993,2,0,B|232:312|280:324,1,90.2400000000001,10|0,1:0|0:0,2:0:0:0:
424,244,134266,5,4,1:2:0:0:
424,244,134539,2,0,B|360:272|288:224|292:148,1,180.48,10|0,1:0|1:0,2:0:0:0:
296,68,134948,1,2,1:0:0:0:
380,52,135084,1,8,0:0:0:0:
396,136,135221,1,2,1:0:0:0:
200,168,135357,2,0,B|152:172|96:160,1,90.2400000000001,4|0,1:2|0:0,2:0:0:0:
56,96,135630,5,8,0:0:0:0:
56,96,135903,1,4,0:0:0:0:
96,320,136175,1,8,1:0:0:0:
176,268,136312,1,0,1:0:0:0:
176,268,136380,1,0,2:0:0:0:
176,268,136448,2,0,B|216:240|272:260|288:304|288:304|336:268,1,180.48,6|10,1:0|1:1,2:1:0:0:
400,328,136857,1,0,2:0:0:0:
464,256,136993,2,0,B|436:64,1,180.48,2|10,1:0|1:0,2:0:0:0:
438,77,137403,1,0,0:0:0:0:
360,40,137539,6,0,B|340:88|364:140,1,90.2400000000001,2|2,0:0|0:0,2:0:0:0:
200,104,137812,2,0,B|220:152|196:204,1,90.2400000000001,10|2,0:0|0:0,2:0:0:0:
296,192,138084,2,0,B|288:288,1,90.2400000000001,2|2,1:0|0:0,2:0:0:0:
208,288,138357,2,0,B|112:300,1,90.2400000000001,10|2,1:0|0:0,2:0:0:0:
118,299,138562,1,2,2:0:0:0:
118,299,138630,2,0,B|160:200|72:128,1,180.48,6|10,1:1|1:0,2:0:0:0:
40,224,139039,1,2,1:0:0:0:
64,368,139175,6,0,B|108:376|156:376,1,90.2400000000001,0|2,1:0|1:0,2:0:0:0:
432,336,139448,2,0,B|324:300|260:384,1,180.48,10|2,1:0|1:0,2:0:0:0:
372,240,139857,1,2,1:0:0:0:
448,204,139993,2,0,B|464:108,1,90.2400000000001,10|2,1:0|1:0,2:0:0:0:
192,44,140266,6,0,B|148:64|104:64,1,90.2400000000001,0|2,1:0|1:0,2:0:0:0:
284,172,140539,2,0,B|328:152|372:152,1,90.2400000000001,10|2,1:0|1:0,2:0:0:0:
168,300,140812,2,2,B|224:208|136:120,1,180.48,2|10,1:0|1:0,2:1:0:0:
92,200,141221,2,2,B|36:292|124:380,1,180.48,2|2,1:0|1:0,2:1:0:0:
256,328,141630,2,0,B|280:228,1,90.2400000000001,8|0,1:0|1:0,2:0:0:0:
312,72,141903,5,4,1:2:0:0:
396,76,142039,1,8,1:0:0:0:
280,148,142175,1,10,0:0:0:0:
196,144,142312,1,0,0:0:0:0:
272,68,142448,5,0,1:0:0:0:
268,180,142584,1,8,1:0:0:0:
256,292,142721,1,8,1:0:0:0:
176,336,142857,6,2,B|120:304|128:208|196:188,1,180.48,6|2,1:1|0:1,3:0:0:0:
64,40,143266,2,0,B|48:144,1,90.2400000000001,2|0,1:0|0:0,3:0:0:0:
52,328,143539,2,0,B|68:224,1,90.2400000000001,2|0,1:0|0:0,3:0:0:0:
144,52,143812,2,0,B|128:156,1,90.2400000000001,2|0,1:0|0:0,3:0:0:0:
132,340,144084,2,0,B|148:236,1,90.2400000000001,2|2,1:0|0:0,3:0:0:0:
224,68,144357,2,0,B|208:172,1,90.2400000000001,2|2,1:0|0:0,3:0:0:0:
212,356,144630,1,0,1:0:0:0:
212,356,144766,2,0,B|228:252,1,90.2400000000001,0|8,1:0|1:0,3:0:0:0:
320,64,145039,6,2,B|376:32|456:80|448:152,1,180.48,6|2,1:0|0:1,3:0:0:0:
400,320,145448,2,0,B|348:320|320:272,1,90.2400000000001,2|0,1:0|0:0,3:0:0:0:
208,120,145721,2,0,B|264:112|296:152,1,90.2400000000001,2|0,1:0|0:0,3:0:0:0:
244,300,145993,2,0,B|192:308|156:272,1,90.2400000000001,2|0,1:0|0:0,3:0:0:0:
40,128,146266,2,0,B|76:100|128:104,1,90.2400000000001,8|0,1:0|3:0,3:0:0:0:
88,296,146539,2,0,B|52:324|0:320,1,90.2400000000001,2|0,3:0|3:0,3:0:0:0:
24,240,146812,5,8,1:0:0:0:
188,196,146948,1,8,0:0:0:0:
272,220,147084,1,4,0:0:0:0:
408,112,147221,2,2,B|464:208|384:288,1,180.48,6|2,1:0|0:1,3:0:0:0:
304,264,147630,6,0,B|200:280,1,90.2400000000001,2|0,1:0|0:0,3:0:0:0:
136,336,147903,1,2,1:0:0:0:
108,256,148039,1,8,0:2:0:0:
156,176,148175,2,0,B|144:72,1,90.2400000000001,2|0,1:0|0:0,3:0:0:0:
60,56,148448,2,0,B|72:164,1,90.2400000000001,10|0,1:0|3:0,3:0:0:0:
232,124,148721,1,2,3:0:0:0:
220,32,148857,1,2,1:0:0:0:
224,228,148993,1,2,3:0:0:0:
224,228,149130,2,0,B|236:336,1,90.2400000000001,2|8,1:0|0:0,3:0:0:0:
308,172,149403,6,0,B|408:220|480:136,1,180.48,4|0,0:2|0:0,3:0:0:0:
400,108,149812,2,0,B|400:56|440:20,1,90.2400000000001,2|0,1:0|0:0,3:0:0:0:
448,248,150084,1,2,1:0:0:0:
408,320,150221,2,0,B|372:352|320:344,1,90.2400000000001,8|2,0:2|1:0,3:0:0:0:
252,300,150493,1,0,0:0:0:0:
64,336,150630,6,0,B|168:312,1,90.2400000000001,4|0,1:2|1:0,3:0:0:0:
96,104,150903,2,0,B|72:192,1,90.2400000000001,4|8,0:0|0:0,3:0:0:0:
216,192,151175,1,2,1:0:0:0:
224,156,151243,1,2,1:0:0:0:
232,120,151312,1,2,1:0:0:0:
240,84,151380,1,2,1:0:0:0:
248,48,151448,1,2,1:0:0:0:
288,240,151584,6,0,B|300:316|408:356|468:288,1,216.576005149841,4|0,1:1|1:0,2:0:0:0:
484,100,151993,2,0,B|456:156|392:148,1,108.288002574921,2|0,1:2|0:0,2:0:0:0:
144,168,152266,2,0,B|172:112|236:120,1,108.288002574921,2|0,1:2|0:0,2:0:0:0:
152,304,152539,2,0,B|88:324|48:276,1,108.288002574921,2|0,1:2|0:0,2:0:0:0:
288,240,152812,2,0,B|320:288|320:288|312:340,1,108.288002574921,2|0,1:2|1:2,2:0:0:0:
368,148,153084,2,0,B|372:96|372:96|416:44,1,108.288002574921,2|2,1:2|1:2,2:0:0:0:
208,236,153357,1,2,1:2:0:0:
292,104,153493,1,2,1:0:0:0:
208,236,153630,1,2,3:0:0:0:
28,148,153766,6,0,B|96:200|188:152|176:44,1,216.576005149841,4|0,1:2|1:0,2:0:0:0:
120,252,154175,2,0,B|88:368,1,108.288002574921,2|0,1:2|0:0,2:0:0:0:
336,280,154448,2,2,B|380:240|356:164,1,108.288002574921,2|0,1:2|1:2,1:0:0:0:
192,332,154721,2,0,B|304:352,1,108.288002574921,2|2,1:2|1:2,2:0:0:0:
200,140,154993,2,0,B|156:92|84:120,1,108.288002574921,2|0,1:2|0:0,2:0:0:0:
260,256,155266,2,0,B|280:144,1,108.288002574921,2|0,1:2|0:0,2:0:0:0:
400,48,155539,5,2,1:0:0:0:
312,52,155675,2,0,B|260:64|260:64|208:52|208:52|148:64,1,162.432003862381,8|0,0:0|2:0,2:0:0:0:
116,40,155948,6,0,B|40:64|20:172|88:228,1,216.576005149841,4|8,1:0|0:0,2:0:0:0:
156,296,156357,2,0,B|108:328|52:320,1,108.288002574921,2|0,1:2|2:0,2:0:0:0:
168,196,156630,1,8,0:0:0:0:
260,256,156766,2,0,B|292:208|272:144,1,108.288002574921,2|8,0:0|0:0,2:0:0:0:
312,328,157039,2,0,B|400:240|360:120,1,216.576005149841,2|8,1:2|0:0,2:0:0:0:
448,72,157448,2,0,B|464:200,1,108.288002574921,2|8,0:0|0:0,2:0:0:0:
260,256,157721,5,0,1:0:0:0:
200,56,157857,1,8,0:0:0:0:
180,328,157993,5,8,0:0:0:0:
280,128,158130,1,4,1:0:0:0:
120,316,162630,6,0,B|328:304,1,180.48,4|8,0:0|0:0,2:0:0:0:
392,316,163175,2,0,B|184:304,1,180.48,0|8,0:0|0:0,2:0:0:0:
112,120,163721,1,0,1:0:0:0:
108,204,163857,1,0,1:0:0:0:
184,164,163993,2,0,B|276:176|372:160,1,180.48,8|0,0:0|0:0,2:0:0:0:
484,40,164539,1,8,0:0:0:0:
363,161,164812,6,2,B|359:229|443:269|496:220,1,180.48,6|0,1:0|2:0,2:0:0:0:
491,224,165221,1,0,2:0:0:0:
248,292,165357,2,2,B|252:224|168:184|115:233,1,180.48,4|0,1:2|2:0,2:0:0:0:
119,228,165766,1,0,2:0:0:0:
188,372,165903,5,2,1:0:0:0:
328,240,166039,1,10,0:0:0:0:
328,240,166107,1,10,0:0:0:0:
328,240,166175,1,10,1:0:0:0:
184,144,166312,1,8,0:0:0:0:
256,40,166448,5,10,1:0:0:0:
256,144,166584,1,8,1:0:0:0:
256,248,166721,1,2,0:2:0:0:
256,352,166857,1,2,0:2:0:0:
324,300,166993,5,0,1:0:0:0:
324,300,167130,1,8,0:0:0:0:
184,300,167266,1,4,1:0:0:0:
336,376,167403,2,0,B|404:368|432:288|384:228,1,180.48,2|0,1:0|0:0,2:0:0:0:
308,160,167812,6,0,B|356:148|400:112,1,90.2400000000001,10|0,1:0|0:0,2:0:0:0:
172,100,168084,2,0,B|148:144|140:192,1,90.2400000000001,2|0,1:0|0:0,2:0:0:0:
256,352,168357,2,0,B|280:308|288:260,1,90.2400000000001,10|0,1:0|0:0,2:0:0:0:
232,188,168630,1,2,1:0:0:0:
160,300,168766,1,0,2:0:0:0:
232,188,168903,1,10,0:0:0:0:
72,192,169039,1,2,0:0:0:0:
248,92,169175,6,2,B|276:32|364:28|400:84,1,180.48,2|10,1:0|1:0,2:1:0:0:
492,264,169721,2,2,B|464:324|376:328|340:272,1,180.48,2|10,1:0|1:0,2:1:0:0:
324,172,170130,1,0,2:0:0:0:
412,208,170266,1,2,1:0:0:0:
344,276,170403,1,2,0:0:0:0:
228,168,170539,1,8,0:0:0:0:
128,184,170675,1,2,1:0:0:0:
188,264,170812,1,2,1:0:0:0:
44,272,170948,5,2,1:2:0:0:
12,152,171084,1,2,1:0:0:0:
116,88,171221,1,2,1:0:0:0:
352,40,171357,6,2,B|420:64|436:148|372:208,1,180.48,6|10,1:0|1:1,2:0:0:0:
312,148,171766,1,2,3:0:0:0:
260,328,171903,2,2,B|192:304|176:220|240:160,1,180.48,2|10,1:0|0:1,2:0:0:0:
128,184,172312,1,2,1:0:0:0:
128,184,172380,1,0,1:0:0:0:
128,184,172448,2,0,B|32:216,1,90.2400000000001,2|0,1:0|0:0,2:0:0:0:
96,288,172721,2,2,B|140:192|96:112,1,180.48,10|2,1:0|1:0,2:1:0:0:
48,48,173130,1,0,0:0:0:0:
168,76,173266,1,10,1:0:0:0:
244,48,173403,1,2,1:0:0:0:
212,180,173539,6,0,B|216:272,1,90.2400000000001,2|0,1:0|0:0,2:0:0:0:
152,356,173812,2,0,B|172:296|260:280|308:336,1,180.48,10|2,1:0|3:0,2:0:0:0:
388,312,174221,1,2,1:0:0:0:
432,184,174357,1,8,0:0:0:0:
340,224,174493,1,2,1:0:0:0:
352,104,174630,2,0,B|264:116|156:104,1,180.48,4|12,1:2|0:0,2:0:0:0:
260,32,175039,1,0,0:0:0:0:
256,188,175175,1,2,1:0:0:0:
124,188,175312,1,2,3:0:0:0:
120,336,175448,1,10,1:0:0:0:
32,328,175584,5,4,3:0:0:0:
32,328,175653,1,0,2:0:0:0:
32,328,175721,2,0,B|40:284|32:228,1,90.2400000000001,6|0,1:0|0:0,2:0:0:0:
188,80,175993,2,0,B|136:40|56:72|48:144,1,180.48,12|0,0:0|1:0,2:0:0:0:
156,212,176403,1,0,1:0:0:0:
232,252,176539,2,0,B|300:256|336:248,1,90.2400000000001,8|2,0:0|0:0,2:0:0:0:
400,188,176812,5,0,1:0:0:0:
400,104,176948,1,2,0:0:0:0:
328,144,177084,1,10,0:0:0:0:
472,144,177221,1,2,0:0:0:0:
400,272,177357,1,0,1:0:0:0:
400,188,177493,1,2,1:0:0:0:
472,228,177630,1,8,1:0:0:0:
328,232,177766,5,2,1:0:0:0:
328,232,177834,1,0,2:0:0:0:
328,232,177903,2,0,B|260:220|228:280|228:280|156:252,1,180.48,4|12,1:0|0:0,2:0:0:0:
92,216,178312,1,2,0:0:0:0:
32,68,178448,2,0,B|28:108|32:172,1,90.2400000000001,0|2,1:0|0:0,2:0:0:0:
171,168,178721,2,0,B|175:208|171:272,1,90.2400000000001,10|2,0:0|0:0,2:0:0:0:
24,344,178993,5,2,1:0:0:0:
171,257,179130,1,2,0:0:0:0:
100,380,179266,1,10,1:0:0:0:
24,260,179403,1,2,1:0:0:0:
172,344,179539,1,2,1:0:0:0:
100,300,179675,1,0,0:0:0:0:
244,296,179812,1,10,1:0:0:0:
172,168,179948,5,2,1:0:0:0:
172,168,180016,1,0,2:0:0:0:
172,168,180084,2,0,B|80:104|-4:180,1,180.48,2|2,1:0|1:0,2:0:0:0:
220,96,180493,2,0,B|408:64,1,180.48,2|2,1:0|1:0,2:0:0:0:
464,116,180903,1,2,1:0:0:0:
448,196,181039,1,2,1:0:0:0:
484,276,181175,6,0,B|440:300|380:288,1,90.2400000000001,8|8,0:0|0:0,2:0:0:0:
264,176,181448,1,8,0:0:0:0:
192,232,181584,1,8,0:0:0:0:
356,368,181721,1,2,1:0:0:0:
276,348,181857,2,0,B|260:304|272:248,1,90.2400000000001,2|0,1:0|2:0,2:0:0:0:
328,68,182130,6,2,B|136:88,1,180.48,6|2,1:0|1:1,2:1:0:0:
228,64,182539,2,0,B|112:76,1,90.2400000000001,2|0,1:0|0:0,2:0:0:0:
220,52,182812,2,0,B|104:64,1,90.2400000000001,2|0,1:0|0:0,2:0:0:0:
212,40,183084,2,0,B|96:52,1,90.2400000000001,2|0,1:0|0:0,2:0:0:0:
104,164,183357,2,0,B|120:264,1,90.2400000000001,2|0,1:0|0:0,2:0:0:0:
88,328,183630,5,2,0:0:0:0:
228,280,183766,1,2,0:0:0:0:
172,344,183903,5,2,0:0:0:0:
296,328,184039,1,2,0:0:0:0:
228,280,184175,5,2,0:0:0:0:
360,272,184312,2,2,B|388:188|360:84,1,180.48,6|2,1:1|1:1,2:1:0:0:
362,94,184653,1,0,0:0:0:0:
362,94,184721,2,0,B|424:124|476:120,1,90.2400000000001,12|0,0:0|0:0,2:0:0:0:
432,32,184993,1,2,0:0:0:0:
288,148,185130,1,2,1:0:0:0:
280,36,185266,1,8,0:0:0:0:
188,96,185403,2,0,B|224:184|196:276,1,180.48,2|2,1:0|0:0,2:0:0:0:
136,332,185812,5,10,1:0:0:0:
280,276,185948,1,2,1:0:0:0:
204,372,186084,1,0,1:0:0:0:
120,256,186221,2,0,B|120:208|124:164,1,90.2400000000001,2|8,1:0|0:0,2:0:0:0:
52,92,186493,2,2,B|132:28|236:72,1,180.48,6|2,1:0|1:1,2:1:0:0:
304,112,186903,2,0,B|408:128,1,90.2400000000001,8|2,0:0|1:0,2:0:0:0:
316,216,187175,2,0,B|408:224,1,90.2400000000001,2|2,3:0|1:0,2:0:0:0:
420,316,187448,2,0,B|320:328,1,90.2400000000001,10|2,1:0|1:0,2:0:0:0:
132,296,187721,5,2,3:0:0:0:
228,280,187857,1,2,1:0:0:0:
192,368,187993,1,8,0:0:0:0:
40,244,188130,1,2,1:0:0:0:
160,124,188266,1,2,1:0:0:0:
220,200,188403,1,2,1:0:0:0:
124,212,188539,1,2,1:0:0:0:
256,104,188675,6,2,B|348:136|436:88,1,180.48,2|2,1:0|1:0,1:1:0:0:
430,91,189084,2,0,B|408:184,1,90.2400000000001,10|0,1:0|0:0,2:0:0:0:
472,304,189357,2,2,B|372:264|292:340,1,180.48,2|10,1:0|1:0,2:1:0:0:
48,240,189766,2,2,B|148:200|228:276,1,180,2|2,1:0|1:0,0:1:0:0:
460,176,190175,2,2,B|360:136|280:212,1,180.48,10|10,1:0|1:0,1:1:0:0:
296,292,190584,1,2,0:2:0:0:
376,248,190721,1,10,0:2:0:0:
216,264,190857,6,0,B|200:308|216:360,1,90.2400000000001,4|0,1:2|0:0,2:0:0:0:
213,352,191130,1,2,1:0:0:0:
144,200,191266,2,2,B|192:184|216:120,1,90.2400000000001,10|0,1:1|2:0,2:0:0:0:
128,304,191539,2,0,B|100:256|40:248,1,90.2400000000001,2|2,1:2|0:0,2:0:0:0:
64,160,191812,1,8,0:0:0:0:
128,96,191948,1,2,1:0:0:0:
56,40,192084,5,2,0:0:0:0:
212,52,192221,1,0,0:0:0:0:
212,52,192289,1,2,0:0:0:0:
212,52,192357,1,10,0:0:0:0:
320,40,192493,1,2,0:0:0:0:
224,136,192630,1,0,1:0:0:0:
332,124,192766,1,2,0:0:0:0:
480,188,192903,1,8,1:0:0:0:
456,272,193039,5,4,1:2:0:0:
216,348,193312,1,2,1:0:0:0:
216,348,193448,1,2,1:0:0:0:
48,184,193721,1,2,1:0:0:0:
128,160,193857,1,2,1:0:0:0:
112,240,193993,1,8,0:0:0:0:
80,44,194130,5,4,1:2:0:0:
80,44,194403,1,4,0:0:0:0:
172,80,194539,1,4,3:0:0:0:
208,84,194607,1,8,0:0:0:0:
244,76,194675,1,8,0:0:0:0:
336,44,194812,2,0,B|348:108,1,45.12,2|0,1:0|0:0,2:0:0:0:
296,236,194948,2,0,B|284:172,1,45.12,2|0,1:0|2:0,2:0:0:0:
312,120,195084,2,0,B|324:184,1,45.12,10|0,1:0|2:0,2:0:0:0:
336,272,195221,6,0,B|260:288|196:208,1,135.36,4|0,1:2|2:0,3:0:0:0:
208,196,195493,2,0,B|224:316,1,90.2400000000001,0|2,0:0|0:0,3:0:0:0:
148,344,195903,1,2,0:0:0:0:
20,264,196175,1,2,0:0:0:0:
136,252,196448,1,2,0:0:0:0:
40,164,196721,1,2,0:0:0:0:
136,100,196993,1,2,0:0:0:0:
72,44,197266,5,0,0:0:0:0:
120,176,197403,1,2,0:0:0:0:
