osu file format v14

[General]
AudioFilename: audio.mp3
AudioLeadIn: 0
PreviewTime: 162021
Countdown: 0
SampleSet: Soft
StackLeniency: 0.4
Mode: 0
LetterboxInBreaks: 0
WidescreenStoryboard: 1

[Editor]
DistanceSpacing: 1
BeatDivisor: 4
GridSize: 4
TimelineZoom: 5.899997

[Metadata]
Title:Yuunagi, Bou, Hana Madoi
TitleUnicode:夕凪、某、花惑い
Artist:Yorushika
ArtistUnicode:ヨルシカ
Creator:Deca
Version:synderes' Normal
Source:
Tags:gillstar black loli catgirl nao tomori naotoshi cococolaco coco man fixxis luscent 404anf 404 aimnotfound synderes stwi frostwich nbuna n-buna スイ suis elma yunagi, hanamadoi jrock japanese rock
BeatmapID:2153351
BeatmapSetID:1029377

[Difficulty]
HPDrainRate:3
CircleSize:3
OverallDifficulty:4
ApproachRate:6
SliderMultiplier:0.899999999999999
SliderTickRate:1

[Events]
//Background and Video events
0,0,"68936009_p0.jpg",0,0
//Break Periods
2,20880,28208
2,87289,95844
2,160653,161435
//Storyboard Layer 0 (Background)
//Storyboard Layer 1 (Fail)
//Storyboard Layer 2 (Pass)
//Storyboard Layer 3 (Foreground)
//Storyboard Layer 4 (Overlay)
//Storyboard Sound Samples

[TimingPoints]
87,272.727272727273,4,3,1,40,1,0
87,-100,4,3,1,40,0,0
1041,-100,4,2,1,50,0,0
7859,-100,4,2,1,70,0,0
20677,-100,4,2,1,40,0,0
29405,-100,4,2,1,45,0,0
38268,-111.111111111111,4,2,1,60,0,0
46177,-111.111111111111,4,2,1,50,0,0
46996,-100,4,2,1,60,0,0
51359,-100,4,2,2,50,0,0
52450,-100,4,2,2,55,0,0
53541,-100,4,2,2,60,0,0
54087,-100,4,2,2,65,0,0
54632,-100,4,2,1,80,0,0
55723,-100,4,2,1,80,0,1
75223,-100,4,2,1,60,0,0
79587,-100,4,2,1,70,0,0
83950,-100,4,2,1,50,0,0
85177,-100,4,2,1,70,0,0
87087,-100,4,2,1,40,0,0
95677,-100,4,2,3,40,0,0
95949,-100,4,2,1,40,0,0
95950,-100,4,2,1,40,0,0
96496,-100,4,2,1,45,0,0
97041,-100,4,2,1,45,0,0
101746,-100,4,2,1,45,0,0
101814,-100,4,2,1,45,0,0
104268,240,4,2,1,50,1,0
104388,315.789473684211,4,2,1,50,1,0
104545,255.31914893617,4,2,1,50,1,0
104545,-100,4,2,1,50,0,0
104800,272.727272727273,4,2,1,45,1,0
104800,-100,4,2,1,50,0,0
105072,300,4,2,1,50,1,0
105222,272.727272727273,4,2,1,50,1,0
105222,-100,4,2,1,50,0,0
105358,272.727272727273,4,2,1,50,1,0
105903,272.727272727273,4,2,1,60,1,0
105903,-111.111111111111,4,2,1,60,0,0
110880,-111.111111111111,4,2,2,60,0,0
110948,-111.111111111111,4,2,2,35,0,0
111016,-111.111111111111,4,2,1,60,0,0
114630,-100,4,2,1,70,0,0
122266,-100,4,2,1,80,0,0
123357,-100,4,2,1,80,0,1
142857,-100,4,2,3,55,0,0
151175,-100,4,2,1,55,0,0
151584,-100,4,2,1,70,0,0
151585,-100,4,2,1,70,0,0
162630,-105.263157894737,4,2,1,50,0,0
164812,-100,4,2,1,75,0,0
166993,-100,4,2,1,50,0,0
167266,-100,4,2,1,80,0,1
182130,-100,4,2,1,70,0,0

[Colours]
Combo1 : 213,194,176
Combo2 : 73,122,152
Combo3 : 129,211,194
Combo4 : 231,84,84

[HitObjects]
102,37,1041,6,0,B|122:102|111:187,1,135,0|2,1:3|0:3,0:3:0:0:
172,238,1723,2,0,B|214:224|270:232,1,89.9999999999999,2|2,0:3|0:3,0:3:0:0:
344,266,2268,2,0,B|390:272|433:259,1,89.9999999999999,2|2,0:3|0:3,0:3:0:0:
492,190,2814,2,0,L|477:132,1,45,2|0,0:3|0:3,0:0:0:0:
440,65,3223,6,0,B|368:72|328:133,1,135,2|2,1:3|0:3,0:3:0:0:
263,194,3905,2,0,L|205:185,1,45,0|2,0:3|0:3,0:0:0:0:
129,175,4314,2,0,B|109:240|118:308,1,135,2|2,1:3|0:3,0:3:0:0:
199,346,4996,2,0,B|246:352|288:338,1,89.9999999999999,2|0,0:3|0:3,0:3:0:0:
332,330,5405,6,0,B|408:348|443:277,1,135,2|2,1:3|0:3,0:3:0:0:
453,188,6087,2,0,B|459:142|446:99,1,89.9999999999999,2|2,0:3|0:3,0:3:0:0:
370,49,6632,2,0,B|324:43|281:56,1,89.9999999999999,2|2,0:3|0:3,0:3:0:0:
213,116,7177,2,0,L|167:108,1,45,2|0,0:3|0:3,0:0:0:0:
79,96,7587,6,0,B|47:133|62:183,1,89.9999999999999,2|0,1:3|1:0,0:3:0:0:
90,215,7996,2,0,B|155:235|223:226,1,135,8|2,0:3|1:2,0:0:0:0:
302,182,8677,2,0,B|345:169|391:175,1,89.9999999999999,6|0,1:2|1:0,0:0:0:0:
435,186,9087,1,10,0:2:0:0:
462,271,9359,1,2,1:2:0:0:
348,340,9768,6,2,B|283:320|215:329,1,135,6|14,1:2|0:0,0:1:0:0:
177,303,10314,1,0,0:0:0:0:
140,277,10450,2,0,B|146:231|133:188,1,89.9999999999999,2|10,1:2|0:0,0:0:0:0:
123,143,10859,2,0,B|200:127|202:49,1,135,2|8,1:2|0:0,0:0:0:0:
121,7,11541,2,0,L|27:43,1,89.9999999999999,2|10,1:2|0:2,0:0:0:0:
20,87,11950,6,0,B|11:155|31:220,1,135,6|14,1:2|0:0,0:0:0:0:
84,292,12632,1,2,1:2:0:0:
166,329,12905,1,10,0:2:0:0:
240,278,13177,2,0,L|333:295,1,89.9999999999999,2|8,0:2|0:0,0:0:0:0:
413,324,13723,2,0,L|475:310,1,45,2|2,1:2|1:2,0:0:0:0:
481,282,13996,1,10,0:2:0:0:
495,239,14132,6,2,B|509:175|509:175|476:103,1,135,6|10,1:2|0:0,0:1:0:0:
401,67,14814,2,0,B|364:78|311:71,1,89.9999999999999,2|10,1:2|0:2,0:0:0:0:
270,53,15223,2,0,B|202:44|137:64,1,135,6|2,1:2|1:2,0:0:0:0:
72,128,15905,2,0,B|40:165|55:215,1,89.9999999999999,2|10,1:2|0:2,0:0:0:0:
83,246,16314,6,0,B|139:299|205:255,1,135,6|10,1:2|0:0,0:0:0:0:
278,201,16996,2,0,B|315:190|368:197,1,89.9999999999999,0|8,1:0|0:0,0:0:0:0:
409,214,17405,2,0,B|462:270|418:336,1,135,2|10,1:2|0:0,0:0:0:0:
328,350,18087,2,0,L|226:341,1,89.9999999999999,2|10,1:2|0:2,0:0:0:0:
206,309,18496,2,0,L|65:321,1,135,2|8,1:2|0:0,0:0:0:0:
14,251,19177,2,0,L|25:203,1,45,0|2,1:0|1:2,0:0:0:0:
34,163,19450,1,8,0:0:0:0:
90,146,19587,6,0,B|167:130|169:53,1,135,2|8,1:2|0:0,0:0:0:0:
252,16,20268,2,0,B|305:9|342:20,1,89.9999999999999,10|2,0:2|1:3,0:0:0:0:
379,43,20677,1,2,0:3:0:0:
379,43,29405,6,0,B|415:109|388:177,1,135,2|8,1:2|0:0,0:0:0:0:
328,238,30087,1,2,0:0:0:0:
215,312,30496,2,0,B|144:291|65:289,1,135,2|8,1:2|0:0,0:0:0:0:
32,214,31177,2,0,B|46:163|48:107,1,89.9999999999999,2|8,0:0|0:0,0:0:0:0:
54,80,31587,6,0,B|110:27|176:71,1,135,2|8,1:2|0:0,0:0:0:0:
250,122,32268,1,0,0:0:0:0:
348,214,32677,2,0,B|386:223|414:206|413:198|432:183|477:199,1,135,0|8,1:0|0:0,0:0:0:0:
510,282,33359,2,0,B|495:332|494:370,1,89.9999999999999,2|8,1:2|0:0,0:0:0:0:
448,368,33768,6,0,B|377:347|298:345,1,135,2|8,1:2|0:2,0:0:0:0:
236,302,34450,1,2,0:3:0:0:
114,364,34859,2,0,B|33:344|49:262,1,135,2|10,1:2|0:0,0:0:0:0:
110,199,35541,2,0,B|124:151|92:114,1,89.9999999999999,2|10,1:2|0:2,0:0:0:0:
79,71,35950,6,0,B|150:92|229:94,1,135,4|8,1:2|0:0,0:0:0:0:
282,149,36632,1,0,1:0:0:0:
347,210,36905,2,0,L|352:263,1,45,2|0,1:2|1:0,0:0:0:0:
335,296,37177,2,0,B|287:297|233:313,1,89.9999999999999,12|0,0:0|1:0,0:0:0:0:
172,256,37723,2,0,B|124:254|70:238,1,89.9999999999999,8|8,0:0|0:3,0:0:0:0:
20,176,38268,6,0,L|30:89,1,80.9999975280762,6|0,1:2|0:0,0:0:0:0:
28,95,40450,6,0,L|36:175,1,80.9999975280762,6|0,1:2|0:0,0:0:0:0:
392,369,42087,2,0,L|431:360,1,40.4999987640381,8|8,0:3|0:3,0:0:0:0:
454,326,42359,2,0,L|462:286,1,40.4999987640381,8|8,0:3|0:3,0:0:0:0:
436,255,42632,6,0,L|416:167,1,80.9999975280762,6|0,1:2|0:0,0:0:0:0:
223,29,43723,6,0,L|205:107,1,80.9999975280762,2|0,1:2|0:0,0:0:0:0:
69,309,44814,6,0,L|51:230,1,80.9999975280762,2|0,1:2|0:0,0:0:0:0:
51,230,46996,6,0,B|63:279|103:312,2,89.9999999999999,2|10|2,1:2|0:0|1:2,0:0:0:0:
96,152,47814,1,10,0:0:0:0:
74,64,48087,2,0,L|179:40,1,89.9999999999999,2|10,1:2|0:0,0:0:0:0:
239,89,48632,2,0,B|329:104,1,89.9999999999999,2|10,1:2|0:0,0:0:0:0:
396,161,49177,6,0,B|435:145|435:145|482:155,2,89.9999999999999,2|10|0,1:2|0:0|0:0,0:0:0:0:
366,246,49996,1,8,0:0:0:0:
301,308,50268,2,0,P|259:323|199:317,1,89.9999999999999,0|8,0:0|0:0,0:0:0:0:
148,259,50814,2,0,B|155:206|144:169,1,89.9999999999999,0|8,0:0|0:0,0:0:0:0:
256,192,51359,12,14,54632,0:0:0:0:
141,158,55723,6,0,B|194:165|231:154,1,89.9999999999999,6|12,1:2|0:2,0:2:0:0:
298,95,56268,2,0,B|334:83|387:90,1,89.9999999999999,2|8,1:2|0:2,0:0:0:0:
430,105,56677,1,0,1:2:0:0:
471,125,56814,2,0,B|496:167|475:211,1,89.9999999999999,6|10,1:2|0:2,0:2:0:0:
416,278,57359,1,2,1:2:0:0:
323,269,57632,1,10,0:2:0:0:
255,337,57905,6,0,B|189:368|189:368|87:319,1,180,6|0,1:2|1:2,0:2:0:0:
32,254,58723,1,10,0:2:0:0:
108,207,58996,2,0,B|115:154|104:117,1,89.9999999999999,2|10,1:2|0:2,0:0:0:0:
99,72,59405,1,2,0:2:0:0:
82,30,59541,2,0,B|119:19|172:26,1,89.9999999999999,2|10,1:2|0:2,0:0:0:0:
249,71,60087,6,0,B|291:46|335:67,1,89.9999999999999,6|8,1:2|0:2,0:2:0:0:
373,90,60496,1,2,0:2:0:0:
407,120,60632,2,0,B|432:162|411:206,1,89.9999999999999,0|10,1:2|0:2,0:0:0:0:
352,274,61177,1,6,1:2:0:0:
256,263,61450,1,10,0:2:0:0:
202,345,61723,2,0,B|149:352|112:341,1,89.9999999999999,2|10,1:2|0:2,0:0:0:0:
88,254,62268,6,0,L|-9:271,2,89.9999999999999,6|10|2,1:2|0:2|1:2,0:0:0:0:
127,172,63087,1,10,0:2:0:0:
214,192,63359,2,0,B|251:203|304:196,1,89.9999999999999,6|8,1:2|0:2,0:0:0:0:
373,139,63905,1,2,1:2:0:0:
438,200,64177,2,0,L|431:253,1,45,8|8,1:3|0:3,0:0:0:0:
401,278,64450,6,0,B|357:257|315:282,1,89.9999999999999,6|12,1:2|0:2,0:2:0:0:
234,323,64996,2,0,B|195:282|225:231,1,89.9999999999999,2|8,1:2|0:2,0:2:0:0:
234,197,65405,1,0,1:2:0:0:
257,166,65541,2,0,B|268:129|261:76,1,89.9999999999999,6|10,1:2|0:2,0:2:0:0:
188,22,66087,1,2,1:2:0:0:
98,11,66359,1,10,0:2:0:0:
44,89,66632,6,0,B|31:141|55:180|66:179|87:206|64:268,1,180,6|0,1:2|1:2,0:0:0:0:
36,346,67450,1,10,0:2:0:0:
123,365,67723,2,0,B|160:354|213:361,1,89.9999999999999,0|8,1:2|0:2,0:2:0:0:
256,371,68132,1,0,0:2:0:0:
301,376,68268,2,0,B|322:332|297:290,1,89.9999999999999,2|10,1:2|0:2,0:0:0:0:
228,230,68814,6,0,B|218:154|236:96,1,135,6|0,1:2|0:2,0:2:0:0:
278,81,69359,2,0,B|322:102|364:77,1,89.9999999999999,0|10,1:2|0:2,0:0:0:0:
453,61,69905,2,0,B|464:98|457:151,1,89.9999999999999,2|10,1:2|0:2,0:2:0:0:
451,195,70314,1,0,0:2:0:0:
435,237,70450,2,0,B|398:248|345:241,1,89.9999999999999,2|10,1:2|0:2,0:2:0:0:
267,196,70996,6,0,B|201:152|145:205,1,135,6|2,1:2|0:2,0:2:0:0:
122,244,71541,2,0,B|85:255|32:248,1,89.9999999999999,2|10,1:2|0:2,0:0:0:0:
9,160,72087,2,0,L|27:61,1,89.9999999999999,2|10,1:2|0:2,0:2:0:0:
108,37,72632,1,2,1:2:0:0:
124,125,72905,1,10,0:2:0:0:
192,183,73177,6,0,B|236:204|278:179,1,89.9999999999999,6|8,1:2|0:2,0:2:0:0:
319,160,73587,2,0,B|361:135|405:156,1,89.9999999999999,2|0,0:2|0:2,0:0:0:0:
447,172,73996,1,10,0:2:0:0:
495,248,74268,1,6,1:2:0:0:
496,338,74541,1,2,1:2:0:0:
404,361,74814,2,0,L|316:344,1,89.9999999999999,2|0,1:2|1:2,0:0:0:0:
278,318,75223,6,0,B|234:252|287:196,1,135,6|8,1:2|0:0,0:2:0:0:
364,148,75905,1,0,1:0:0:0:
376,59,76177,1,8,0:0:0:0:
281,34,76450,2,0,L|177:53,1,89.9999999999999,0|8,1:0|0:0,0:0:0:0:
103,67,76996,2,0,L|112:121,1,45,2|10,1:2|0:0,0:0:0:0:
75,194,77405,6,0,B|155:218|183:271,1,135,6|8,1:0|0:0,0:0:0:0:
244,335,78087,2,0,B|288:356|330:331,1,89.9999999999999,0|0,1:0|1:0,0:0:0:0:
412,294,78632,1,0,1:0:0:0:
453,213,78905,1,0,1:0:0:0:
366,185,79177,2,0,B|359:132|370:95,1,89.9999999999999,8|0,0:0|1:0,0:0:0:0:
385,53,79587,6,2,B|329:0|263:44,1,135,6|8,1:2|0:2,1:0:0:0:
197,106,80268,2,0,B|176:150|201:192,1,89.9999999999999,10|10,0:2|0:2,0:0:0:0:
233,223,80677,1,2,1:2:0:0:
275,237,80814,2,0,B|315:225|315:225|374:240,1,89.9999999999999,2|10,1:2|0:2,0:0:0:0:
447,264,81359,2,0,B|454:211|443:174,1,89.9999999999999,10|10,0:2|0:2,0:0:0:0:
417,137,81768,6,2,B|345:120|285:107,1,135,6|10,1:2|0:2,1:0:0:0:
218,46,82450,2,0,B|183:53|130:66,1,89.9999999999999,2|10,1:2|0:2,0:0:0:0:
106,104,82859,1,2,0:2:0:0:
82,143,82996,2,0,B|89:177|102:230,1,89.9999999999999,2|10,1:2|0:2,0:0:0:0:
165,294,83541,2,0,B|213:283|253:305,1,89.9999999999999,4|8,1:2|0:2,0:0:0:0:
290,329,83950,6,0,B|366:346|430:310,1,135,4|8,1:2|0:0,0:0:0:0:
485,251,84632,1,0,1:0:0:0:
481,161,84905,1,8,0:0:0:0:
402,118,85177,2,0,L|302:138,1,89.9999999999999,6|0,1:2|1:0,0:0:0:0:
271,152,85587,2,0,L|135:124,1,135,14|14,0:0|0:0,0:0:0:0:
49,112,86268,6,0,B|42:165|53:202,1,89.9999999999999,6|8,1:2|0:0,0:0:0:0:
90,226,86677,2,0,B|100:307|83:364,1,135,6|6,1:2|1:2,0:0:0:0:
84,360,97041,6,0,B|114:288|210:319,1,135,2|8,1:2|0:0,0:0:0:0:
274,360,97723,1,2,0:0:0:0:
394,298,98132,2,0,B|412:240|401:156,1,135,2|8,1:2|0:0,0:0:0:0:
334,104,98814,2,0,B|286:90|249:122,1,89.9999999999999,2|8,0:0|0:0,0:0:0:0:
249,166,99223,6,0,B|229:247|147:231,1,135,2|8,1:2|0:0,0:0:0:0:
72,176,99905,2,0,L|86:87,1,89.9999999999999,0|8,0:0|0:0,0:0:0:0:
76,42,100314,2,0,B|155:46|210:27,1,135,0|8,1:0|0:0,0:0:0:0:
287,72,100996,2,0,B|328:57|387:60,1,89.9999999999999,2|10,1:2|0:2,0:0:0:0:
417,78,101405,6,0,B|459:109|439:217,1,135,2|10,1:2|0:0,0:0:0:0:
391,280,102087,1,2,0:0:0:0:
274,348,102496,2,0,B|216:330|132:341,1,135,2|8,1:2|0:0,0:0:0:0:
68,285,103177,2,0,B|70:237|56:196,1,89.9999999999999,2|10,1:2|0:0,0:0:0:0:
45,152,103587,6,0,B|124:167|144:86,1,135,6|8,1:2|0:0,0:0:0:0:
204,19,104268,1,0,1:0:0:0:
270,79,104545,1,0,1:0:0:0:
352,99,104800,2,0,B|338:140|340:188,1,89.9999999999999,8|0,0:0|0:0,0:0:0:0:
399,251,105358,2,0,B|400:280|391:306,1,45,8|8,0:0|0:3,0:0:0:0:
371,334,105630,2,0,B|345:350|319:355,1,45,8|8,0:3|0:3,0:0:0:0:
292,338,105903,6,0,P|251:329|211:325,1,80.9999975280762,6|0,1:2|0:0,0:0:0:0:
140,288,106448,1,4,0:0:0:0:
185,132,106993,2,0,P|243:112|291:77,1,121.499996292114,10|10,0:2|0:2,0:0:0:0:
387,3,107812,1,0,1:0:0:0:
445,58,108084,6,0,B|465:97|444:138,1,80.9999975280762,6|0,1:2|0:0,0:0:0:0:
395,199,108630,2,0,B|356:219|317:199,1,80.9999975280762,0|0,0:0|1:0,0:0:0:0:
249,154,109175,2,0,B|178:135|145:209,1,121.499996292114,14|10,0:2|0:2,0:0:0:0:
104,314,109993,1,0,0:0:0:0:
48,255,110266,6,0,B|50:193|30:135,1,121.499996292114,6|0,1:2|0:0,0:0:0:0:
61,108,110812,2,0,P|102:117|141:120,1,80.9999975280762
210,161,111357,6,0,B|261:117|327:139,1,121.499996292114,8|12,0:0|0:3,0:0:0:0:
444,149,112175,1,0,1:0:0:0:
475,223,112448,6,0,B|440:278|420:331,1,121.499996292114,6|0,1:2|0:0,0:0:0:0:
390,358,112993,1,4,0:0:0:0:
219,337,113539,6,0,B|176:351|95:369,1,121.499996292114,10|10,0:2|0:0,0:0:0:0:
90,334,114084,1,8,0:0:0:0:
106,255,114357,1,8,0:3:0:0:
121,166,114630,6,0,B|67:151|57:91,2,89.9999999999999,6|10|2,1:2|0:0|0:0,0:0:0:0:
198,120,115448,1,10,0:0:0:0:
256,179,115721,2,0,B|323:192|342:203,1,89.9999999999999,0|8,1:0|0:0,0:0:0:0:
415,255,116266,2,0,B|426:236|439:169,1,89.9999999999999,0|8,1:0|0:0,0:0:0:0:
434,123,116675,1,0,0:0:0:0:
423,79,116812,6,0,L|525:66,2,89.9999999999999,6|10|2,1:2|0:2|1:2,0:0:0:0:
348,29,117630,1,10,0:0:0:0:
270,75,117903,2,0,B|203:88|184:99,1,89.9999999999999,2|8,1:2|0:0,0:0:0:0:
127,169,118448,1,2,1:2:0:0:
124,259,118721,1,10,0:2:0:0:
185,328,118993,6,0,B|226:361|281:339,1,89.9999999999999,6|10,1:2|0:2,0:0:0:0:
314,333,119403,1,2,0:2:0:0:
356,319,119539,2,0,B|367:300|380:233,1,89.9999999999999,2|8,1:2|0:0,0:0:0:0:
391,131,120084,6,0,B|346:116|346:116|302:132,1,89.9999999999999,6|10,1:2|0:0,0:0:0:0:
267,153,120493,1,0,0:0:0:0:
228,177,120630,2,0,B|187:191|187:191|142:176,1,89.9999999999999,2|10,1:2|0:2,0:0:0:0:
54,156,121175,6,0,B|65:135|78:64,1,89.9999999999999,6|10,1:2|0:2,0:0:0:0:
98,28,121584,1,2,0:2:0:0:
140,11,121721,2,0,B|159:22|226:35,1,89.9999999999999,6|10,1:2|0:0,0:0:0:0:
300,86,122266,1,10,1:2:0:0:
387,64,122539,1,14,1:2:0:0:
333,246,123357,6,0,B|340:299|329:336,1,89.9999999999999,6|12,1:2|0:2,0:2:0:0:
250,379,123903,2,0,B|187:376|175:314,1,89.9999999999999,2|8,1:2|0:2,0:0:0:0:
194,289,124312,1,0,0:2:0:0:
211,247,124448,2,0,B|244:206|222:151,1,89.9999999999999,6|10,1:2|0:2,0:2:0:0:
164,95,124993,1,2,1:2:0:0:
90,50,125266,1,10,0:2:0:0:
17,104,125539,6,0,B|31:184|36:282,1,180,6|0,1:2|1:2,0:2:0:0:
93,352,126357,1,10,0:2:0:0:
163,295,126630,2,0,B|170:242|159:205,1,89.9999999999999,2|10,1:2|0:2,0:0:0:0:
135,167,127039,1,2,0:2:0:0:
107,131,127175,2,0,B|96:94|103:41,1,89.9999999999999,2|10,1:2|0:2,0:0:0:0:
190,19,127721,6,0,L|289:34,1,89.9999999999999,6|8,1:2|0:2,0:2:0:0:
311,64,128130,1,2,1:2:0:0:
337,100,128266,2,0,L|425:86,1,89.9999999999999,0|10,1:2|0:2,0:0:0:0:
495,143,128812,2,0,B|513:186|480:227,1,89.9999999999999,6|10,1:2|0:2,0:2:0:0:
422,296,129357,1,2,1:2:0:0:
323,297,129630,1,10,0:2:0:0:
277,200,129903,6,0,B|283:147|287:110,2,89.9999999999999,6|10|2,1:2|0:2|1:2,0:0:0:0:
205,254,130721,1,10,0:2:0:0:
128,206,130993,2,0,B|113:165|113:165|128:120,1,89.9999999999999,6|8,1:2|0:2,0:0:0:0:
192,57,131539,1,2,1:2:0:0:
276,26,131812,2,0,L|320:27,1,45,8|8,1:3|0:3,0:0:0:0:
359,51,132084,5,6,1:2:0:0:
366,142,132357,1,12,0:2:0:0:
450,186,132630,2,0,L|433:287,1,89.9999999999999,2|8,1:2|0:2,0:2:0:0:
419,316,133039,1,0,1:2:0:0:
394,353,133175,2,0,B|350:371|309:338,1,89.9999999999999,6|10,1:2|0:2,0:0:0:0:
244,275,133721,1,2,1:2:0:0:
149,279,133993,1,10,0:2:0:0:
84,348,134266,6,0,B|37:313|30:284|60:172,1,180,6|0,1:2|1:2,0:0:0:0:
90,100,135084,1,10,0:2:0:0:
177,78,135357,2,0,B|228:65|265:63,1,89.9999999999999,0|8,1:2|0:2,0:0:0:0:
290,100,135766,1,0,1:2:0:0:
314,138,135903,2,0,B|351:140|402:153,1,89.9999999999999,2|10,1:2|0:2,0:0:0:0:
477,203,136448,6,0,B|530:259|486:325,1,135,6|0,1:2|0:2,0:2:0:0:
443,342,136993,2,0,B|392:329|355:327,1,89.9999999999999,0|10,1:2|0:2,0:0:0:0:
267,351,137539,2,0,B|252:310|252:310|267:265,1,89.9999999999999,2|10,1:2|0:2,0:2:0:0:
291,228,137948,1,2,0:2:0:0:
320,193,138084,2,0,B|334:149|334:149|319:108,1,89.9999999999999,2|10,1:2|0:2,0:0:0:0:
251,49,138630,6,0,B|156:62|156:62|118:113,1,135,6|2,1:2|0:2,0:2:0:0:
130,138,139175,2,0,B|132:175|145:226,1,89.9999999999999,2|10,1:2|0:2,0:0:0:0:
196,301,139721,2,0,B|236:333|280:315,1,89.9999999999999,6|10,1:2|0:2,0:0:0:0:
365,285,140266,1,6,1:2:0:0:
392,190,140539,1,10,0:2:0:0:
320,131,140812,6,0,B|343:68|343:44,1,89.9999999999999,6|8,1:2|0:2,0:2:0:0:
308,15,141221,2,0,B|310:8|208:46,1,89.9999999999999,2|0,1:2|1:2,0:0:0:0:
180,55,141630,1,10,0:2:0:0:
153,141,141903,2,0,B|102:128|65:126,1,89.9999999999999,6|2,1:2|1:2,0:0:0:0:
2,191,142448,2,0,B|4:228|17:279,1,89.9999999999999,2|0,1:2|1:2,0:0:0:0:
59,294,142857,6,2,B|133:276|169:347,1,135,6|8,1:2|0:3,1:0:0:0:
258,364,143539,2,0,B|309:351|346:349,1,89.9999999999999,8|8,0:3|0:0,0:0:0:0:
434,367,144084,2,0,B|436:330|449:279,1,89.9999999999999,8|8,0:3|0:0,0:0:0:0:
457,188,144630,2,0,L|448:139,1,45,8|0,0:3|1:0,0:0:0:0:
385,80,145039,6,2,B|325:92|252:107,1,135,6|10,1:2|0:0,0:1:0:0:
165,83,145721,2,0,B|133:123|151:167,1,89.9999999999999,2|2,1:2|1:2,0:0:0:0:
216,228,146266,2,0,B|269:221|306:232,1,89.9999999999999,10|4,0:0|1:0,0:0:0:0:
391,257,146812,2,0,B|398:310|387:347,1,89.9999999999999,8|0,0:0|1:0,0:0:0:0:
344,359,147221,6,2,B|271:343|211:331,1,135,6|12,1:2|0:0,0:1:0:0:
124,355,147903,2,0,B|111:295|83:238,1,89.9999999999999,2|2,1:2|1:2,0:0:0:0:
54,192,148448,2,0,B|67:132|95:75,1,89.9999999999999,12|2,0:0|1:2,0:0:0:0:
168,85,148993,2,0,B|181:110|194:170,1,89.9999999999999,2|8,1:2|0:0,0:0:0:0:
210,213,149403,6,2,B|284:195|320:266,1,135,6|10,1:2|0:0,0:1:0:0:
381,333,150084,2,0,B|425:351|465:319,1,89.9999999999999,2|2,1:2|1:2,0:0:0:0:
498,235,150630,1,12,0:0:0:0:
471,148,150903,1,12,0:0:0:0:
398,96,151175,2,0,L|322:117,1,45,8|8,0:0|0:0,0:0:0:0:
310,116,151448,1,8,0:0:0:0:
266,128,151584,6,2,L|109:84,1,135,6|10,0:1|0:2,0:1:0:0:
71,153,152266,1,2,1:2:0:0:
93,240,152539,1,10,0:0:0:0:
165,293,152812,2,0,B|190:279|250:266,1,89.9999999999999,6|10,1:2|0:0,0:0:0:0:
324,318,153357,2,0,L|311:375,2,45,6|0|10,1:0|1:0|0:1,0:0:0:0:
363,295,153766,6,2,B|359:222|349:160,1,135,6|10,1:2|0:0,0:1:0:0:
305,81,154448,1,2,1:2:0:0:
217,58,154721,1,10,0:0:0:0:
128,75,154993,1,6,1:2:0:0:
71,139,155266,1,8,0:0:0:0:
139,200,155539,2,0,L|199:190,2,45,6|8|10,1:1|0:0|0:1,0:0:0:0:
103,228,155948,6,2,B|143:290|159:350,1,135,6|2,1:2|0:0,0:1:0:0:
245,375,156630,2,0,B|255:336|282:293,1,89.9999999999999,2|8,1:2|0:0,0:0:0:0:
319,266,157039,2,0,B|306:206|292:181,1,89.9999999999999,8|0,0:0|0:0,0:0:0:0:
270,140,157448,1,2,1:2:0:0:
225,61,157721,2,0,L|234:5,2,45,10|8|10,0:1|0:0|0:1,0:0:0:0:
256,192,158130,12,0,160448,0:0:0:0:
212,21,162630,6,0,B|159:14|122:25,1,85.4999977169037,6|8,1:2|0:0,0:0:0:0:
46,52,163175,2,0,B|14:87|33:131,1,85.4999977169037,2|8,1:2|0:0,0:0:0:0:
36,174,163584,1,0,0:0:0:0:
53,213,163721,2,0,B|82:197|114:154,1,85.4999977169037,2|10,1:2|0:0,0:0:0:0:
182,103,164266,2,0,B|211:119|243:161,1,85.4999977169037,2|8,0:0|0:0,0:0:0:0:
214,247,164812,6,2,B|266:260|305:236|304:225|331:204|393:227,1,180,6|6,0:2|1:2,0:1:0:0:
489,372,165903,2,0,B|469:327|420:319,1,89.9999999999999,2|10,1:2|0:2,0:0:0:0:
331,328,166448,2,0,L|273:337,1,45,10|8,0:0|0:3,0:0:0:0:
243,347,166721,1,8,0:3:0:0:
158,318,166993,1,0,1:0:0:0:
184,227,167266,6,0,L|165:130,1,89.9999999999999,14|0,1:2|1:2,0:0:0:0:
189,60,167812,1,10,0:2:0:0:
278,65,168084,2,0,B|311:106|289:161,1,89.9999999999999,6|10,1:2|0:2,0:2:0:0:
285,194,168493,1,0,0:2:0:0:
271,237,168630,2,0,B|314:255|355:222,1,89.9999999999999,2|10,1:2|0:2,0:0:0:0:
415,155,169175,6,0,B|446:171|480:217,1,89.9999999999999,6|10,1:2|0:2,0:0:0:0:
497,258,169584,1,0,0:2:0:0:
506,302,169721,2,0,B|474:318|440:364,1,89.9999999999999,2|10,1:2|0:2,0:0:0:0:
352,365,170266,1,6,1:2:0:0:
262,363,170539,1,8,0:2:0:0:
194,289,170812,2,0,L|149:297,2,45,2|0|8,1:2|1:2|1:0,0:0:0:0:
252,220,171357,5,6,1:2:0:0:
235,131,171630,1,12,0:2:0:0:
254,40,171903,2,0,B|295:34|352:44,1,89.9999999999999,2|8,1:2|0:2,0:2:0:0:
384,63,172312,1,0,1:2:0:0:
425,80,172448,2,0,B|458:121|436:176,1,89.9999999999999,6|10,1:2|0:2,0:0:0:0:
387,238,172993,1,2,1:2:0:0:
311,286,173266,1,10,0:2:0:0:
242,344,173539,6,0,B|185:244|80:273,1,180,6|0,1:2|1:2,0:0:0:0:
9,306,174357,1,10,0:2:0:0:
0,216,174630,2,0,L|19:121,1,89.9999999999999,0|8,1:2|0:2,0:2:0:0:
57,106,175039,1,0,0:2:0:0:
99,90,175175,2,0,L|116:178,1,89.9999999999999,2|10,1:2|0:2,0:0:0:0:
204,199,175721,6,0,B|214:123|246:71,1,135,6|0,1:2|0:2,0:2:0:0:
286,51,176266,2,0,B|325:46|375:55,1,89.9999999999999,0|10,1:2|0:2,0:0:0:0:
451,104,176812,2,0,B|484:145|462:200,1,89.9999999999999,2|10,1:2|0:2,0:0:0:0:
433,219,177221,1,0,0:2:0:0:
397,247,177357,2,0,B|356:214|312:232,1,89.9999999999999,2|10,1:2|0:2,0:0:0:0:
239,284,177903,6,0,B|161:281|146:204,1,135,6|2,1:2|0:2,0:0:0:0:
167,163,178448,2,0,B|208:134|232:102,1,89.9999999999999,2|10,1:2|0:2,0:0:0:0:
310,55,178993,2,0,B|353:36|394:69,1,89.9999999999999,6|10,1:2|0:2,0:0:0:0:
440,146,179539,1,6,1:2:0:0:
436,236,179812,1,10,0:2:0:0:
379,305,180084,6,0,B|340:300|290:309,1,89.9999999999999,6|8,1:2|0:2,0:2:0:0:
256,340,180493,2,0,B|203:330|162:335,1,89.9999999999999,2|0,1:2|1:2,0:0:0:0:
122,346,180903,1,10,0:2:0:0:
33,363,181175,2,0,B|3:326|24:277,1,89.9999999999999,6|2,1:2|1:2,0:0:0:0:
68,199,181721,2,0,B|95:161|147:169,1,89.9999999999999,2|0,1:2|1:2,0:0:0:0:
185,194,182130,6,0,B|244:191|256:132,1,89.9999999999999,4|0,1:2|1:0,0:0:0:0:
266,102,182539,1,8,0:0:0:0:
300,18,182812,2,0,B|352:9|379:47,1,89.9999999999999,0|8,1:0|0:0,0:0:0:0:
402,134,183357,1,4,1:0:0:0:
169,353,184312,6,2,L|150:203,1,135,6|8,1:2|0:0,0:1:0:0:
105,141,184993,2,0,L|118:33,1,89.9999999999999,2|10,1:2|0:0,0:0:0:0:
156,31,185403,2,0,B|222:-13|278:40,1,135,2|8,1:2|0:0,0:0:0:0:
352,91,186084,6,0,L|411:95,2,45,2|2|10,1:2|1:2|0:2,0:0:0:0:
354,136,186493,2,0,B|329:192|350:270,1,135,6|14,1:2|0:0,0:0:0:0:
391,348,187175,1,2,1:2:0:0:
305,377,187448,1,10,0:2:0:0:
267,352,187584,2,0,L|124:375,1,135,2|8,1:2|0:0,0:0:0:0:
91,293,188266,2,0,L|107:185,1,89.9999999999999,2|10,1:2|0:2,0:0:0:0:
103,158,188675,6,2,B|164:116|227:108,1,135,6|10,1:2|0:0,0:1:0:0:
317,115,189357,2,0,B|359:119|399:147,1,89.9999999999999,2|10,1:2|0:2,0:0:0:0:
435,174,189766,2,0,B|471:241|412:294,1,135,6|2,1:2|1:2,0:0:0:0:
336,342,190448,2,0,B|287:352|253:316,1,89.9999999999999,2|10,1:2|0:2,0:0:0:0:
228,280,190857,6,0,B|161:265|93:269,1,135,6|10,1:2|0:0,0:0:0:0:
37,198,191539,2,0,B|41:135,1,45,0|0,1:0|1:0,0:0:0:0:
48,108,191812,1,8,0:0:0:0:
60,65,191948,2,0,B|126:21|182:74,1,135,2|10,1:2|0:0,0:0:0:0:
259,121,192630,2,0,B|294:155|284:203,1,89.9999999999999,2|10,1:2|0:2,0:0:0:0:
251,234,193039,6,0,B|234:312|291:368,1,135,6|8,1:2|0:0,0:0:0:0:
373,354,193721,2,0,L|427:343,1,45,0|2,1:0|1:2,0:0:0:0:
451,315,193993,1,8,0:0:0:0:
478,278,194130,2,0,L|450:141,1,135,6|0,1:2|1:0,0:0:0:0:
371,103,194812,2,0,B|358:154|297:166,1,89.9999999999999,2|10,1:2|0:2,0:0:0:0:
265,169,195221,5,6,1:2:0:0:
163,258,195630,2,0,L|64:269,1,89.9999999999999,2|2,0:0|0:2,0:0:0:0:
26,191,196175,2,0,L|37:92,1,89.9999999999999,2|2,0:2|0:2,0:0:0:0:
117,63,196721,1,2,0:2:0:0:
204,94,196993,2,0,B|252:97|278:52,1,89.9999999999999,2|0,0:2|0:0,0:0:0:0:
299,13,197403,1,2,0:0:0:0:
