osu file format v14

[General]
AudioFilename: audio.mp3
AudioLeadIn: 0
PreviewTime: 162021
Countdown: 0
SampleSet: Soft
StackLeniency: 0.5
Mode: 0
LetterboxInBreaks: 0
WidescreenStoryboard: 1

[Editor]
Bookmarks: 88314,142857,197539
DistanceSpacing: 0.4
BeatDivisor: 4
GridSize: 32
TimelineZoom: 2.599999

[Metadata]
Title:Yuunagi, Bou, Hana Madoi
TitleUnicode:夕凪、某、花惑い
Artist:Yorushika
ArtistUnicode:ヨルシカ
Creator:Deca
Version:coco's Extra
Source:
Tags:gillstar black loli catgirl nao tomori naotoshi cococolaco coco man fixxis luscent 404anf 404 aimnotfound synderes stwi frostwich nbuna n-buna スイ suis elma yunagi, hanamadoi jrock japanese rock
BeatmapID:2156980
BeatmapSetID:1029377

[Difficulty]
HPDrainRate:6
CircleSize:4
OverallDifficulty:8
ApproachRate:9.2
SliderMultiplier:1.8
SliderTickRate:1

[Events]
//Background and Video events
0,0,"68936009_p0.jpg",0,0
//Break Periods
//Storyboard Layer 0 (Background)
//Storyboard Layer 1 (Fail)
//Storyboard Layer 2 (Pass)
//Storyboard Layer 3 (Foreground)
//Storyboard Layer 4 (Overlay)
//Storyboard Sound Samples

[TimingPoints]
87,272.727272727273,4,3,1,40,1,0
87,-100,4,2,1,50,0,0
1041,-133.333333333333,4,2,1,50,0,0
7859,-133.333333333333,4,2,1,70,0,0
7996,-100,4,2,1,70,0,0
20677,-100,4,2,1,40,0,0
21087,-133.333333333333,4,2,1,40,0,0
29405,-133.333333333333,4,2,1,45,0,0
38268,-133.333333333333,4,2,1,60,0,0
46177,-133.333333333333,4,2,1,50,0,0
46996,-111.111111111111,4,2,1,60,0,0
51359,-111.111111111111,4,2,2,50,0,0
52450,-111.111111111111,4,2,2,55,0,0
53541,-111.111111111111,4,2,2,60,0,0
54087,-111.111111111111,4,2,2,65,0,0
54632,-111.111111111111,4,2,1,80,0,0
55723,-90.9090909090909,4,2,1,80,0,1
66632,-166.666666666667,4,2,1,80,0,1
66905,-90.9090909090909,4,2,1,80,0,1
67177,-166.666666666667,4,2,1,80,0,1
67450,-90.9090909090909,4,2,1,80,0,1
75223,-111.111111111111,4,2,1,60,0,0
79587,-111.111111111111,4,2,1,70,0,0
83950,-133.333333333333,4,2,1,50,0,0
85177,-133.333333333333,4,2,1,70,0,0
87087,-133.333333333333,4,2,1,40,0,0
88314,-133.333333333333,4,2,1,40,0,0
95677,-133.333333333333,4,2,3,40,0,0
95950,-133.333333333333,4,2,1,40,0,0
96496,-133.333333333333,4,2,1,45,0,0
104268,240,4,2,1,45,1,0
104388,315.789473684211,4,2,1,45,1,0
104388,-100,4,2,1,45,0,0
104545,255.31914893617,4,2,1,45,1,0
104545,-100,4,2,1,45,0,0
104779,-100,4,2,1,45,0,0
104800,272.727272727273,4,2,1,45,1,0
105072,300,4,2,1,45,1,0
105222,272.727272727273,4,2,1,45,1,0
105222,-100,4,2,1,45,0,0
105358,272.727272727273,4,2,1,45,1,0
105903,272.727272727273,4,2,1,45,1,0
105903,-133.333333333333,4,2,1,60,0,0
110880,-100,4,2,2,60,0,0
110948,-100,4,2,2,35,0,0
111016,-100,4,2,1,60,0,0
114630,-111.111111111111,4,2,1,70,0,0
122266,-111.111111111111,4,2,1,80,0,0
123357,-90.9090909090909,4,2,1,80,0,1
134266,-166.666666666667,4,2,1,80,0,1
134539,-90.9090909090909,4,2,1,80,0,1
134812,-166.666666666667,4,2,1,80,0,1
135084,-90.9090909090909,4,2,1,80,0,1
142857,-111.111111111111,4,2,3,55,0,0
151175,-111.111111111111,4,2,1,55,0,0
151584,-111.111111111111,4,2,1,70,0,0
162630,-111.111111111111,4,2,1,50,0,0
164812,-90.9090909090909,4,2,1,75,0,0
165084,-133.333333333333,4,2,1,75,0,0
165357,-90.9090909090909,4,2,1,75,0,0
165630,-133.333333333333,4,2,1,75,0,0
165903,-90.9090909090909,4,2,1,75,0,0
166993,-90.9090909090909,4,2,1,50,0,0
167266,-90.9090909090909,4,2,1,80,0,1
182130,-90.9090909090909,4,2,1,70,0,1
184312,-100,4,2,1,70,0,0

[Colours]
Combo1 : 213,194,176
Combo2 : 70,151,168
Combo3 : 220,78,78
Combo4 : 132,232,215

[HitObjects]
29,233,87,5,2,0:3:0:0:
29,233,359,1,2,0:3:0:0:
29,233,632,1,2,0:3:0:0:
29,233,905,1,2,0:3:0:0:
29,233,1041,2,0,B|69:206|69:206|170:227,1,135.000005149842,0|0,1:3|0:3,0:3:0:0:
153,223,1450,1,2,0:3:0:0:
230,177,1723,2,0,B|270:204|270:204|371:183,1,135.000005149842,2|2,0:3|0:3,0:3:0:0:
429,113,2268,2,0,B|464:193|464:193|440:256,1,135.000005149842,2|2,0:3|0:3,0:3:0:0:
447,237,2814,1,2,0:3:0:0:
393,303,2950,1,0,0:3:0:0:
461,356,3223,6,0,L|318:337,1,135.000005149842,2|0,1:3|0:3,0:3:0:0:
218,376,3632,2,0,B|242:329|242:329|216:230,1,135.000005149842,2|0,0:3|0:3,0:3:0:0:
221,249,4041,1,2,0:3:0:0:
296,193,4314,2,0,B|272:146|272:146|277:95|298:47,1,135.000005149842,2|0,1:3|0:3,0:3:0:0:
98,220,4723,2,0,P|134:238|161:256,1,67.5000025749208,2|0,0:3|0:3,0:0:0:0:
68,125,4996,2,0,P|33:147|5:161,1,67.5000025749208,2|0,0:3|0:3,0:3:0:0:
176,163,5268,5,0,0:3:0:0:
176,163,5405,2,0,P|163:83|162:17,1,135.000005149842,2|0,1:3|0:3,0:3:0:0:
161,29,5814,1,2,0:3:0:0:
255,69,6087,2,0,B|330:44|330:44|400:73,1,135.000005149842,2|2,0:3|0:3,0:3:0:0:
386,156,6632,2,0,B|461:181|461:181|531:152,1,135.000005149842,2|2,0:3|0:3,0:3:0:0:
512,159,7177,1,2,0:3:0:0:
458,89,7314,1,0,0:3:0:0:
386,253,7587,2,0,B|345:260|345:260|325:276|325:276|282:286,1,101.250003862381,2|0,1:3|0:0,0:3:0:0:
282,297,7859,1,0,1:0:0:0:
102,214,7996,6,0,L|62:184,2,45,8|8|2,0:3|0:3|1:2,0:0:0:0:
194,311,8268,1,10,0:0:0:0:
122,210,8405,2,0,L|105:344,1,135,2|0,1:2|0:0,0:0:0:0:
194,311,8677,6,0,B|178:263|115:219|33:273,1,180,6|0,1:2|1:0,0:0:0:0:
44,265,9018,1,0,0:0:0:0:
44,265,9087,1,10,0:2:0:0:
216,188,9223,1,10,0:2:0:0:
64,101,9359,2,0,P|108:110|152:116,1,90,2|10,1:2|0:2,0:0:0:0:
345,50,9632,1,10,0:0:0:0:
216,188,9768,6,2,B|198:152|191:120|191:120|202:85|222:46,1,135,6|0,1:2|0:0,0:1:0:0:
236,52,10041,2,0,L|226:7,2,45,0|2|14,1:0|0:0|0:0,0:0:0:0:
295,131,10314,1,2,0:2:0:0:
443,83,10450,1,2,1:2:0:0:
345,50,10587,1,2,1:2:0:0:
450,183,10723,1,10,0:2:0:0:
362,209,10859,1,2,1:2:0:0:
362,209,10996,6,0,P|367:164|376:120,1,90,0|0,1:0|1:0,0:0:0:0:
121,244,11268,2,0,P|129:288|135:332,1,90,8|0,0:0|1:0,0:0:0:0:
308,283,11541,1,2,1:2:0:0:
272,202,11677,1,2,1:2:0:0:
219,270,11814,1,10,0:2:0:0:
348,174,11950,6,0,B|287:160|287:160|242:180|242:180|157:159,1,180,6|0,1:2|1:0,0:0:0:0:
27,80,12359,2,0,P|71:71|124:58,1,90,14|0,0:0|0:0,0:0:0:0:
234,261,12632,1,2,1:2:0:0:
241,369,12768,1,0,1:0:0:0:
219,270,12905,2,0,P|175:259|131:250,1,90,10|2,0:2|1:2,0:0:0:0:
84,169,13177,1,2,1:2:0:0:
198,54,13314,1,2,1:2:0:0:
255,197,13450,1,8,0:0:0:0:
180,142,13587,1,0,0:0:0:0:
284,18,13723,5,2,1:2:0:0:
121,0,13859,1,2,1:2:0:0:
180,142,13996,1,10,0:2:0:0:
272,108,14132,6,2,P|337:98|413:94,1,135,6|0,1:2|0:0,0:1:0:0:
421,108,14405,2,0,L|436:12,1,90,0|10,1:0|0:0,0:0:0:0:
255,197,14677,1,0,1:0:0:0:
344,345,14814,2,0,L|331:257,1,90,2|2,1:2|1:2,0:0:0:0:
131,188,15087,1,10,0:2:0:0:
199,108,15223,2,0,B|229:153|233:198|233:198|215:238|212:295,1,180,6|0,1:2|1:0,0:0:0:0:
27,303,15632,2,0,L|129:279,1,90,2|8,1:2|0:0,0:0:0:0:
114,282,15837,1,8,0:0:0:0:
114,282,15905,1,2,1:2:0:0:
46,129,16041,2,0,B|23:172|23:172|35:219,1,90,2|10,1:2|0:2,0:0:0:0:
218,209,16314,6,0,P|173:196|116:185,1,90,6|0,1:2|0:0,0:0:0:0:
130,187,16587,1,2,1:2:0:0:
268,111,16723,2,0,B|217:101|160:101|160:101|124:77|101:50,1,180,10|0,0:0|1:0,0:0:0:0:
105,55,17132,1,0,1:0:0:0:
194,14,17268,1,8,0:0:0:0:
375,107,17405,1,2,1:2:0:0:
375,107,17541,2,0,P|357:159|345:202,1,90,2|2,0:2|1:2,0:0:0:0:
355,278,17746,1,0,1:0:0:0:
355,278,17814,2,0,P|342:234|327:192,1,90,10|0,0:0|1:0,0:0:0:0:
241,164,18087,1,2,1:2:0:0:
437,212,18223,1,2,1:2:0:0:
241,164,18359,1,10,0:2:0:0:
177,231,18496,6,0,B|58:234|132:288|3:299,1,180,2|0,1:2|1:0,0:0:0:0:
264,352,18905,2,0,B|272:336|281:311|281:311|274:284|252:261,1,90,8|0,0:0|0:0,0:0:0:0:
79,79,19177,2,0,B|65:92|58:119|58:119|66:145|75:160,1,90,0|2,1:0|1:2,0:0:0:0:
174,322,19450,1,8,0:0:0:0:
160,129,19587,6,0,L|311:111,1,135,2|0,1:2|0:0,0:0:0:0:
304,103,19859,1,2,1:2:0:0:
377,158,19996,1,8,0:0:0:0:
335,18,20132,1,0,1:0:0:0:
335,18,20200,1,0,0:0:0:0:
335,18,20268,1,10,0:2:0:0:
459,101,20405,1,2,1:2:0:0:
428,14,20541,1,2,1:3:0:0:
377,158,20677,6,0,B|356:254|397:235|373:356,1,180,2|0,0:3|0:3,0:3:0:0:
376,336,21087,1,2,0:3:0:0:
292,280,21359,2,0,B|217:264|217:264|157:299,1,135.000005149842,0|0,0:3|0:0,0:0:0:0:
158,309,21768,2,0,L|67:323,2,67.5000025749208,2|0|0,0:3|0:3|0:0,0:0:0:0:
138,201,22177,2,0,P|83:191|-3:172,1,135.000005149842,0|2,0:3|0:3,0:0:0:0:
215,152,22587,2,0,B|190:123|190:123|152:114,1,67.5000025749208,0|2,0:0|0:3,0:0:0:0:
65,90,22859,6,0,B|99:40|99:40|191:10,2,135.000005149842,2|0|0,0:3|0:3|0:0,0:3:0:0:
138,201,23541,2,0,L|148:337,1,135.000005149842,2|0,0:3|0:0,0:3:0:0:
9,242,23950,2,0,P|31:207|123:188,1,135.000005149842,2|0,0:3|0:0,0:0:0:0:
227,264,24359,2,0,L|298:277,1,67.5000025749208,2|0,0:3|0:0,0:0:0:0:
337,361,24632,5,2,0:3:0:0:
456,238,24768,1,0,0:3:0:0:
456,238,24905,1,2,0:3:0:0:
379,283,25041,2,0,L|246:258,1,135.000005149842,2|0,1:3|0:3,0:3:0:0:
322,102,25450,2,0,P|327:133|336:176,1,67.5000025749208,2|0,0:3|0:0,0:0:0:0:
147,275,25723,2,0,P|153:241|159:208,1,67.5000025749208,2|0,0:3|0:0,0:0:0:0:
230,146,25996,1,2,0:3:0:0:
151,194,26132,6,0,B|67:201|105:227|12:233,1,135.000005149842,2|0,0:3|0:0,0:3:0:0:
245,239,26541,1,2,0:3:0:0:
74,122,26814,2,0,B|59:85|59:85|72:45,1,67.5000025749208,2|0,0:3|0:0,0:3:0:0:
162,87,27087,1,0,0:3:0:0:
162,87,27223,2,0,L|308:68,1,135.000005149842,2|0,0:3|0:0,0:0:0:0:
295,69,27632,5,2,0:3:0:0:
295,69,27905,1,2,0:3:0:0:
295,69,28177,1,2,0:3:0:0:
488,154,28314,2,0,B|423:132|423:132|394:143|333:154,1,135.000005149842,8|8,0:0|0:3,0:0:0:0:
297,215,28723,2,0,P|291:245|285:296,1,67.5000025749208,0|8,1:0|0:3,0:0:0:0:
207,171,28996,1,8,0:0:0:0:
309,286,29132,1,8,0:3:0:0:
157,333,29268,1,8,0:3:0:0:
123,242,29405,6,0,P|117:175|109:96,1,135.000005149842,2|0,1:2|1:0,0:0:0:0:
326,48,29814,2,0,P|375:68|396:138,1,101.250003862381,8|0,0:0|0:0,0:0:0:0:
404,125,30087,2,0,P|396:161|392:201,1,67.5000025749208,2|0,0:0|0:0,0:0:0:0:
191,169,30359,1,8,0:0:0:0:
310,136,30496,6,0,L|168:155,1,135.000005149842,2|0,1:2|1:0,0:0:0:0:
31,235,30905,2,0,L|173:254,2,135.000005149842,8|2|8,0:0|0:0|0:0,0:0:0:0:
234,371,31587,6,0,B|248:336|248:336|239:301,1,67.5000025749208,2|0,1:2|0:0,0:0:0:0:
94,159,31859,1,0,1:0:0:0:
94,159,31996,2,0,L|77:77,1,67.5000025749208,8|0,0:0|0:0,0:0:0:0:
173,243,32268,2,0,B|135:315|169:295|130:378,1,135.000005149842,0|8,0:0|0:0,0:0:0:0:
312,118,32677,2,0,B|389:99|430:172|430:172,1,135.000005149842,0|0,1:0|1:0,0:0:0:0:
242,35,33087,2,0,P|278:28|323:18,1,67.5000025749208,8|2,0:0|1:2,0:0:0:0:
247,188,33359,1,2,1:2:0:0:
312,118,33496,1,0,1:0:0:0:
173,93,33632,1,8,0:0:0:0:
112,155,33768,6,0,B|97:227|121:218|101:305,1,135.000005149842,2|0,1:2|1:0,0:0:0:0:
33,85,34177,2,0,P|44:44|134:23,1,135.000005149842,8|2,0:2|0:3,0:0:0:0:
124,18,34723,1,10,0:0:0:0:
173,93,34859,2,0,L|246:103,1,67.5000025749208,2|0,1:2|0:0,0:0:0:0:
328,158,35132,1,0,0:0:0:0:
196,296,35268,2,0,P|144:304|93:315,1,101.250003862381,10|0,0:0|0:0,0:0:0:0:
79,305,35541,1,2,1:2:0:0:
112,223,35677,1,2,1:2:0:0:
144,145,35814,1,10,0:2:0:0:
27,229,35950,1,4,1:2:0:0:
194,219,36087,6,0,L|110:197,1,67.5000025749208,6|0,0:0|0:0,0:0:0:0:
0,90,36359,2,0,P|67:80|128:35,1,135.000005149842,8|0,0:0|1:0,0:0:0:0:
27,229,36768,1,8,0:0:0:0:
210,70,36905,2,0,B|227:109|227:109|215:147,1,67.5000025749208,2|0,1:2|1:0,0:0:0:0:
108,335,37177,6,0,L|131:182,1,135.000005149842,12|0,0:0|1:0,0:0:0:0:
128,201,37518,1,8,0:3:0:0:
128,201,37587,1,8,0:3:0:0:
138,122,37723,1,8,0:0:0:0:
27,229,37859,1,8,0:3:0:0:
212,297,37996,1,8,0:3:0:0:
27,229,38132,1,8,0:3:0:0:
212,297,38268,6,0,P|217:255|225:217,1,67.5000025749208,6|0,1:2|0:0,0:0:0:0:
363,60,40450,6,0,P|370:92|379:131,1,67.5000025749208,6|0,1:2|0:0,0:0:0:0:
88,49,42087,5,8,0:3:0:0:
55,131,42223,1,8,0:3:0:0:
177,72,42359,1,8,0:3:0:0:
116,190,42496,1,8,0:3:0:0:
200,155,42632,2,0,P|235:152|271:148,1,67.5000025749208,6|0,1:2|0:0,0:0:0:0:
44,315,43723,6,0,P|77:310|111:308,1,67.5000025749208,2|0,1:2|0:0,0:0:0:0:
468,315,44814,6,0,P|434:310|400:308,1,67.5000025749208,2|0,1:2|0:0,0:0:0:0:
256,192,46177,5,8,0:3:0:0:
317,246,46314,1,8,0:3:0:0:
273,111,46450,1,8,0:3:0:0:
178,212,46587,1,8,0:3:0:0:
238,273,46723,1,8,0:3:0:0:
338,167,46859,1,8,0:3:0:0:
189,126,46996,6,0,L|25:140,1,161.999995056153,2|10,1:2|0:0,0:0:0:0:
33,286,47405,1,0,0:0:0:0:
97,222,47541,2,0,P|138:215|178:211,1,80.9999975280763,2|0,1:2|0:0,0:0:0:0:
273,111,47814,1,10,0:0:0:0:
220,41,47950,1,2,0:0:0:0:
273,111,48087,6,0,B|367:76|419:149|419:149,2,161.999995056153,2|10|2,1:2|0:0|1:2,0:0:0:0:
177,211,48768,1,0,0:0:0:0:
104,165,48905,2,0,P|94:126|103:84,1,80.9999975280763,10|0,0:0|0:0,0:0:0:0:
329,201,49177,5,2,1:2:0:0:
274,271,49314,1,0,1:0:0:0:
423,223,49450,1,10,0:0:0:0:
286,289,49587,2,0,L|97:269,1,161.999995056153,2|0,0:0|0:0,0:0:0:0:
424,323,49996,2,0,B|393:348|393:348|340:358,1,80.9999975280763,8|0,0:0|0:0,0:0:0:0:
237,190,50268,6,0,P|230:127|219:57,1,121.499996292114,0|0,0:2|0:0,0:0:0:0:
207,61,50541,2,0,P|165:68|122:71,1,80.9999975280763,8|0,0:0|0:0,0:0:0:0:
322,254,50814,2,0,P|362:257|402:263,1,80.9999975280763
404,153,51087,1,8,0:0:0:0:
330,113,51223,1,0,0:0:0:0:
255,158,51359,6,0,B|161:169|201:195|93:202,2,161.999995056153,14|8|10,0:0|0:0|0:0,0:0:0:0:
255,158,51973,1,8,0:0:0:0:
255,158,52041,1,8,0:0:0:0:
255,158,52109,1,8,0:0:0:0:
255,158,52177,1,8,0:0:0:0:
354,25,52314,1,8,0:0:0:0:
217,79,52450,6,0,B|172:79|172:79|129:59,1,80.9999975280763,14|8,0:0|0:0,0:0:0:0:
139,63,52655,1,8,0:0:0:0:
139,63,52723,2,0,L|133:15,3,40.4999987640381,8|8|8|8,0:0|0:0|0:0|0:0,0:0:0:0:
177,169,52996,1,10,0:0:0:0:
145,161,53064,1,8,0:0:0:0:
113,153,53132,1,8,0:0:0:0:
81,162,53200,1,8,0:0:0:0:
50,172,53268,1,8,0:0:0:0:
163,313,53405,1,8,0:0:0:0:
24,274,53541,5,14,0:0:0:0:
55,267,53609,1,8,0:0:0:0:
86,260,53677,1,8,0:0:0:0:
118,253,53746,1,8,0:0:0:0:
149,246,53814,2,0,L|143:309,1,40.4999987640381,10|8,0:0|0:0,0:0:0:0:
238,225,53950,2,0,L|232:288,1,40.4999987640381,8|8,0:0|0:0,0:0:0:0:
461,198,54087,5,14,0:0:0:0:
430,191,54155,1,8,0:0:0:0:
399,184,54223,1,8,0:0:0:0:
367,177,54291,1,8,0:0:0:0:
336,170,54359,2,0,L|342:233,1,40.4999987640381,10|8,0:0|0:0,0:0:0:0:
247,149,54496,2,0,L|253:212,1,40.4999987640381,8|8,0:0|0:0,0:0:0:0:
245,53,54632,6,2,L|232:143,1,80.9999975280763,10|0,1:2|0:0,0:1:0:0:
230,378,54905,2,2,B|212:324|212:324|235:283|235:283|238:217,1,161.999995056153,14|0,0:0|0:0,0:1:0:0:
36,54,55723,6,0,B|10:148|10:148|41:193,1,148.50000453186,6|0,1:2|0:0,0:2:0:0:
54,202,55996,2,0,L|158:187,1,99.0000030212403,12|0,0:2|1:2,0:2:0:0:
151,187,56200,1,0,1:0:0:0:
151,187,56268,1,2,1:2:0:0:
232,129,56405,1,0,1:2:0:0:
242,340,56541,1,8,0:2:0:0:
417,299,56677,1,0,1:2:0:0:
417,299,56814,6,0,L|313:284,1,99.0000030212403,6|0,1:2|0:2,0:2:0:0:
198,211,57087,2,0,B|231:219|268:212|268:212|307:191|345:177,1,148.50000453186,10|0,0:2|0:0,0:2:0:0:
338,179,57359,1,2,1:2:0:0:
140,126,57496,1,0,1:2:0:0:
243,30,57632,6,0,P|236:76|232:128,1,99.0000030212403,10|0,0:2|1:2,0:0:0:0:
138,362,57905,2,0,P|129:302|99:205,1,148.50000453186,6|0,1:2|0:0,0:2:0:0:
89,205,58177,2,0,B|42:190|42:190|-6:209,1,99.0000030212403,10|0,0:2|0:0,0:2:0:0:
140,126,58450,1,0,1:2:0:0:
289,199,58587,1,0,0:2:0:0:
246,27,58723,1,10,0:2:0:0:
212,228,58859,1,2,0:2:0:0:
318,81,58996,5,2,1:2:0:0:
247,126,59132,1,2,0:2:0:0:
247,126,59200,1,2,0:2:0:0:
247,126,59268,2,0,L|136:111,1,99.0000030212403,10|2,0:2|0:2,0:0:0:0:
338,263,59541,1,2,1:2:0:0:
254,311,59677,1,0,1:2:0:0:
342,247,59814,1,10,0:2:0:0:
396,339,59950,1,0,1:2:0:0:
347,233,60087,6,0,B|254:252|254:252|206:289|145:288,1,198.000006042481,6|8,1:2|0:2,0:2:0:0:
64,82,60496,2,0,P|122:85|156:144,1,99.0000030212403,2|0,0:2|1:2,0:2:0:0:
20,252,60768,1,0,0:2:0:0:
254,165,60905,2,0,B|171:154|182:184|83:174,1,148.50000453186,10|0,0:2|0:0,0:2:0:0:
89,171,61177,6,0,P|99:219|107:274,1,99.0000030212403,6|0,1:2|0:2,0:2:0:0:
327,41,61450,2,0,P|334:89|344:138,1,99.0000030212403,10|0,0:2|0:2,0:2:0:0:
410,233,61723,2,0,P|402:281|392:330,1,99.0000030212403,2|0,1:2|1:2,0:0:0:0:
174,8,61996,2,0,P|163:56|156:105,1,99.0000030212403,10|0,0:2|0:2,0:2:0:0:
288,346,62268,6,0,B|265:267|297:277|276:198,1,148.50000453186,6|0,1:2|0:0,0:0:0:0:
261,186,62541,2,0,P|209:196|155:201,1,99.0000030212403,10|0,0:2|1:2,0:0:0:0:
163,200,62746,1,0,1:0:0:0:
163,200,62814,1,2,1:2:0:0:
95,260,62950,1,0,0:2:0:0:
152,119,63087,5,10,0:2:0:0:
176,305,63223,1,0,0:2:0:0:
152,119,63359,5,6,1:2:0:0:
285,57,63496,1,0,1:2:0:0:
401,184,63632,1,8,0:2:0:0:
262,149,63768,1,0,1:2:0:0:
426,94,63905,2,0,L|482:83,3,49.5000015106202,2|0|0|0,1:2|0:0|1:2|0:0,0:0:0:0:
360,134,64177,1,8,1:3:0:0:
360,134,64246,1,8,0:3:0:0:
360,134,64314,1,8,0:3:0:0:
360,134,64382,1,8,0:3:0:0:
360,134,64450,6,0,P|347:220|336:310,1,148.50000453186,6|0,1:2|0:0,0:2:0:0:
351,292,64723,1,12,0:2:0:0:
212,247,64859,1,0,0:2:0:0:
132,320,64996,2,0,P|122:271|110:223,1,99.0000030212403,2|0,1:2|0:0,0:2:0:0:
295,124,65268,2,0,P|312:172|296:217,1,99.0000030212403,8|0,0:2|1:2,0:0:0:0:
27,157,65541,6,0,B|84:141|137:117|137:117|174:132|218:169,2,198.000006042481,6|10|2,1:2|0:2|1:2,0:2:0:0:
212,247,66223,1,0,0:2:0:0:
29,255,66359,2,0,P|81:244|134:235,1,99.0000030212403,10|0,0:2|0:2,0:2:0:0:
460,75,66632,6,0,P|416:104|402:139,1,80.9999975280763,6|0,1:2|0:0,0:0:0:0:
392,141,66905,2,0,L|294:123,1,99.0000030212403,10|0,0:2|1:2,0:0:0:0:
281,312,67177,6,0,P|237:283|223:248,1,80.9999975280763,0|0,1:2|0:0,0:2:0:0:
212,247,67450,2,0,L|114:264,1,99.0000030212403,10|10,0:2|0:2,0:0:0:0:
49,122,67723,1,0,1:2:0:0:
115,58,67859,1,0,1:2:0:0:
115,58,67927,1,0,1:0:0:0:
115,58,67996,1,8,0:2:0:0:
134,172,68132,1,0,1:2:0:0:
200,104,68268,6,0,P|201:49|210:3,1,99.0000030212403,2|0,1:2|0:2,0:0:0:0:
44,217,68541,2,0,P|42:271|34:318,1,99.0000030212403,10|0,0:2|0:2,0:2:0:0:
390,280,68814,6,0,P|341:217|227:199,2,198.000006042481,6|8|0,1:2|0:2|1:2,0:2:0:0:
448,181,69496,1,0,1:2:0:0:
335,114,69632,2,0,B|361:118|387:116|387:116|408:104|436:93,1,99.0000030212403,10|0,0:2|1:2,0:0:0:0:
149,160,69905,5,2,1:2:0:0:
187,152,69973,1,2,0:2:0:0:
226,157,70041,1,2,0:2:0:0:
259,178,70109,1,2,0:2:0:0:
273,214,70177,2,0,L|258:332,1,99.0000030212403,10|2,0:2|0:2,0:2:0:0:
260,312,70382,1,2,0:0:0:0:
260,312,70450,1,2,1:2:0:0:
357,198,70587,1,0,0:2:0:0:
79,263,70723,2,0,P|128:255|178:250,1,99.0000030212403,10|0,0:2|0:2,0:2:0:0:
461,141,70996,6,0,P|387:149|290:50,2,198.000006042481,6|8|2,1:2|0:2|1:2,0:2:0:0:
350,21,71677,1,2,0:2:0:0:
288,85,71814,2,0,L|178:97,1,99.0000030212403,10|0,0:2|0:2,0:2:0:0:
49,201,72087,5,2,1:2:0:0:
86,189,72155,1,2,0:2:0:0:
125,194,72223,1,2,0:2:0:0:
159,212,72291,1,2,0:2:0:0:
180,244,72359,2,0,L|191:298,1,49.5000015106202,10|0,0:2|0:0,0:0:0:0:
247,180,72496,5,2,0:2:0:0:
284,192,72564,1,2,0:2:0:0:
323,187,72632,1,2,1:2:0:0:
357,169,72700,1,2,0:2:0:0:
378,137,72768,2,0,L|389:83,5,49.5000015106202,2|0|10|0|0|0,1:2|0:0|0:2|0:0|1:2|0:0,0:0:0:0:
331,249,73177,6,0,B|320:149|302:198|286:92,1,148.50000453186,6|0,1:2|0:0,0:2:0:0:
296,97,73450,1,8,0:2:0:0:
135,53,73587,2,0,P|122:106|110:152,1,99.0000030212403,2|0,0:2|1:2,0:0:0:0:
177,219,73859,1,0,0:2:0:0:
228,41,73996,1,10,0:2:0:0:
228,41,74064,1,0,1:0:0:0:
228,41,74132,1,0,1:2:0:0:
22,172,74268,5,6,1:2:0:0:
110,148,74405,1,8,0:2:0:0:
81,236,74541,1,2,1:2:0:0:
233,293,74677,1,0,1:2:0:0:
78,314,74814,5,2,1:2:0:0:
177,219,74950,1,0,1:2:0:0:
88,137,75087,1,0,1:2:0:0:
196,209,75223,6,0,L|180:371,1,161.999995056153,6|0,1:2|1:2,0:2:0:0:
180,370,75632,1,8,0:0:0:0:
180,370,75905,1,0,1:0:0:0:
180,370,76177,1,8,0:0:0:0:
180,370,76450,1,0,1:0:0:0:
180,370,76723,1,8,0:0:0:0:
307,297,76996,5,2,1:2:0:0:
258,133,77132,1,10,0:0:0:0:
258,133,77405,6,0,B|318:109|318:109|415:151,1,161.999995056153,6|0,1:0|1:0,0:0:0:0:
407,147,77814,2,0,L|422:243,1,80.9999975280763,8|0,0:0|0:0,0:0:0:0:
338,300,78087,2,0,L|325:219,1,80.9999975280763,0|0,1:0|0:0,0:0:0:0:
182,101,78359,1,0,1:0:0:0:
130,174,78496,1,0,0:0:0:0:
219,189,78632,5,0,1:0:0:0:
281,124,78768,1,0,0:0:0:0:
218,60,78905,1,0,1:0:0:0:
151,123,79041,1,0,1:0:0:0:
291,103,79177,5,8,0:0:0:0:
139,131,79314,1,0,1:0:0:0:
390,83,79450,1,0,1:0:0:0:
390,83,79587,6,2,P|380:153|372:245,1,161.999995056153,6|0,1:2|1:0,1:0:0:0:
300,323,79996,2,0,P|281:252|271:225,1,80.9999975280763,8|2,0:2|1:2,0:0:0:0:
43,129,80268,2,0,P|62:200|72:227,1,80.9999975280763,10|2,0:2|1:2,0:0:0:0:
148,261,80541,1,10,0:2:0:0:
34,335,80677,1,2,1:2:0:0:
148,261,80814,6,0,P|155:212|165:171,1,80.9999975280763,2|2,1:2|1:2,0:0:0:0:
76,38,81087,2,0,P|114:68|145:97,1,80.9999975280763,10|2,0:2|1:2,0:0:0:0:
309,85,81359,1,10,0:2:0:0:
309,85,81496,2,0,P|263:103|222:115,1,80.9999975280763,2|10,1:2|0:2,0:0:0:0:
447,327,81768,6,2,B|410:289|384:275|384:275|341:271|295:278,1,161.999995056153,6|0,1:2|1:2,1:0:0:0:
449,158,82177,2,0,B|400:164|400:164|377:179|377:179|320:184,1,121.499996292114,10|0,0:2|0:0,0:0:0:0:
318,178,82450,2,0,L|303:133,3,40.4999987640381,2|0|2|0,1:2|0:0|0:2|0:0,0:0:0:0:
304,276,82723,2,0,B|292:316|292:316|307:368,1,80.9999975280763,10|2,0:2|0:2,0:0:0:0:
226,215,82996,1,2,1:2:0:0:
211,374,83132,1,2,0:2:0:0:
50,338,83268,2,0,L|144:322,1,80.9999975280763,10|2,0:2|0:2,0:0:0:0:
234,117,83541,5,4,1:2:0:0:
304,276,83677,1,8,0:2:0:0:
132,243,83814,1,8,0:2:0:0:
153,156,83950,6,0,P|143:82|134:13,1,135.000005149842,4|0,1:2|1:0,0:0:0:0:
320,44,84359,2,0,P|330:118|339:187,1,135.000005149842,8|0,0:0|1:0,0:0:0:0:
415,218,84768,1,0,1:0:0:0:
484,174,84905,1,8,0:0:0:0:
484,174,85041,1,0,0:0:0:0:
436,310,85177,6,0,L|367:297,1,67.5000025749208,6|0,1:2|0:0,0:0:0:0:
290,276,85450,1,0,1:0:0:0:
203,374,85587,6,0,L|215:290,1,67.5000025749208,14|0,0:0|0:0,0:0:0:0:
290,276,85859,1,0,0:0:0:0:
269,121,85996,2,0,L|278:187,1,67.5000025749208,14|0,0:0|0:0,0:0:0:0:
177,52,86268,6,0,B|160:141|160:141|112:190,1,135.000005149842,6|8,1:2|0:0,0:0:0:0:
292,113,86677,2,0,B|309:202|309:202|357:251,1,135.000005149842,6|8,1:2|0:0,0:0:0:0:
261,21,87087,1,6,1:2:0:0:
256,192,87155,12,6,88314,1:3:0:0:
103,266,88723,5,2,0:3:0:0:
103,266,88996,2,0,L|89:120,1,135.000005149842,2|0,0:3|0:0,0:3:0:0:
152,59,89405,2,0,B|199:112|199:112|180:183,1,135.000005149842,2|0,0:3|0:0,0:0:0:0:
182,173,89814,1,2,0:3:0:0:
371,104,90087,2,0,B|288:86|316:126|212:101,1,135.000005149842,2|0,0:3|0:3,0:3:0:0:
86,259,90496,2,0,B|169:241|141:281|245:256,1,135.000005149842,2|0,0:3|0:0,0:3:0:0:
259,335,90905,6,0,P|266:258|278:196,1,135.000005149842,0|0,0:3|0:3,0:0:0:0:
349,168,91314,1,0,0:3:0:0:
182,32,91587,2,0,P|193:98|199:165,1,135.000005149842,2|0,0:3|0:0,0:3:0:0:
133,219,91996,1,2,0:3:0:0:
420,65,92268,5,2,0:3:0:0:
343,39,92405,1,2,0:3:0:0:
289,102,92541,1,2,0:3:0:0:
232,167,92677,2,0,L|99:142,1,135.000005149842,6|0,0:3|0:0,0:3:0:0:
99,142,93087,1,2,0:3:0:0:
283,265,93359,2,0,L|150:240,1,135.000005149842,2|0,0:3|0:3,0:3:0:0:
54,230,93768,2,0,P|32:284|82:371,1,135.000005149842,2|0,0:3|0:0,0:3:0:0:
105,154,94177,2,0,P|127:100|77:13,1,135.000005149842,2|2,0:3|0:3,0:0:0:0:
164,78,94587,1,0,0:0:0:0:
246,44,94723,1,0,0:3:0:0:
307,101,94859,6,0,L|389:112,1,67.5000025749208,6|0,0:3|0:0,0:0:0:0:
260,182,95132,1,0,0:0:0:0:
260,182,95268,2,0,L|291:258,1,67.5000025749208,6|0,0:3|0:0,0:3:0:0:
156,293,95541,1,0,0:3:0:0:
156,293,95677,2,0,L|173:159,1,135.000005149842,2|2,0:3|0:3,0:0:0:0:
112,361,96087,2,0,L|129:227,1,135.000005149842,6|0,0:3|1:0,0:0:0:0:
126,222,96427,1,0,1:0:0:0:
122,217,96496,1,8,0:0:0:0:
56,163,96632,1,8,0:0:0:0:
35,279,96768,1,8,0:3:0:0:
56,163,96905,1,8,0:3:0:0:
176,302,97041,6,0,B|229:304|229:304|258:323|258:323|329:334,1,135.000005149842,2|0,1:2|1:0,0:0:0:0:
432,129,97450,2,0,B|421:72|406:56|406:56|366:21|335:12,2,135.000005149842,8|2|8,0:0|0:0|0:0,0:0:0:0:
317,239,98132,2,0,L|335:116,1,101.250003862381,2|0,1:2|0:0,0:0:0:0:
346,124,98405,1,0,1:0:0:0:
242,156,98541,2,0,L|165:162,1,67.5000025749208,8|0,0:0|0:0,0:0:0:0:
265,63,98814,2,0,P|211:52|131:26,1,135.000005149842,2|8,0:0|0:0,0:0:0:0:
317,239,99223,2,0,B|300:273|300:273|313:309,1,67.5000025749208,2|0,1:2|0:0,0:0:0:0:
451,183,99496,1,0,1:0:0:0:
376,142,99632,2,0,L|230:157,2,135.000005149842,8|0|8,0:0|0:0|0:0,0:0:0:0:
295,262,100314,2,0,L|160:248,1,135.000005149842,0|0,1:0|1:0,0:0:0:0:
160,248,100723,1,8,0:0:0:0:
82,55,100996,5,2,1:2:0:0:
44,131,101132,1,2,1:2:0:0:
160,88,101268,1,10,0:2:0:0:
41,144,101405,2,0,B|113:147|94:168|184:179,1,135.000005149842,2|0,1:2|0:0,0:0:0:0:
394,39,101814,2,0,P|351:46|318:69,1,67.5000025749208,10|0,0:0|0:0,0:0:0:0:
351,236,102087,2,0,P|357:267|367:309,1,67.5000025749208,2|0,0:0|0:0,0:0:0:0:
418,163,102359,1,10,0:0:0:0:
270,182,102496,2,0,P|262:243|249:325,1,135.000005149842,2|0,1:2|0:0,0:0:0:0:
167,265,102905,2,0,L|52:287,1,101.250003862381,8|0,0:0|0:0,0:0:0:0:
56,299,103177,5,2,1:2:0:0:
135,189,103314,1,0,1:0:0:0:
26,147,103450,1,10,0:0:0:0:
157,191,103587,2,0,L|139:44,1,135.000005149842,6|2,1:2|1:2,0:0:0:0:
331,40,103996,2,0,P|323:72|315:120,1,67.5000025749208,8|0,0:0|0:0,0:0:0:0:
270,182,104268,1,0,1:0:0:0:
368,292,104388,1,8,0:0:0:0:
288,332,104545,1,0,1:0:0:0:
356,213,104672,1,0,1:0:0:0:
225,266,104800,5,12,0:0:0:0:
225,266,105222,1,8,0:3:0:0:
356,213,105358,1,8,0:0:0:0:
270,182,105494,1,8,0:3:0:0:
288,332,105630,1,8,0:3:0:0:
368,292,105767,1,8,0:3:0:0:
225,266,105903,6,0,P|189:260|150:255,1,67.5000025749208,6|0,1:2|0:0,0:0:0:0:
102,86,106857,5,0,0:0:0:0:
102,86,106925,1,2,0:2:0:0:
102,86,106993,1,10,0:2:0:0:
173,28,107130,2,0,P|182:60|188:98,1,67.5000025749208,2|0,0:2|0:0,0:0:0:0:
28,148,107403,2,0,P|22:181|13:213,1,67.5000025749208,10|0,0:2|0:0,0:0:0:0:
183,297,107675,2,0,B|163:218|142:253|123:167,1,135.000005149842,2|0,0:2|0:0,0:0:0:0:
282,56,108084,6,0,P|294:104|238:174,1,135.000005149842,6|0,1:2|0:0,0:0:0:0:
374,306,109039,5,2,0:0:0:0:
374,306,109107,1,2,0:2:0:0:
374,306,109175,1,14,0:2:0:0:
434,237,109312,2,0,L|421:160,1,67.5000025749208,2|0,0:2|0:0,0:0:0:0:
235,266,109584,2,0,L|288:319,1,67.5000025749208,10|0,0:2|0:0,0:0:0:0:
330,217,109857,1,10,0:0:0:0:
330,217,109993,6,0,L|266:80,2,135.000005149842,0|6|0,0:0|1:2|0:0,0:0:0:0:
80,307,111357,6,0,B|73:268|58:242|58:242|58:213|83:163,1,135,8|0,0:0|0:0,0:0:0:0:
432,77,112448,6,0,B|439:116|454:142|454:142|454:171|429:221,1,135,6|0,1:2|0:0,0:0:0:0:
159,168,113266,5,6,1:2:0:0:
159,168,113403,1,0,0:0:0:0:
226,115,113539,1,10,0:2:0:0:
174,50,113675,1,2,1:2:0:0:
226,115,113812,1,0,1:0:0:0:
280,181,113948,5,10,0:0:0:0:
174,50,114084,1,8,0:0:0:0:
280,181,114221,5,8,0:3:0:0:
344,130,114357,1,8,0:3:0:0:
299,64,114493,1,8,0:3:0:0:
399,203,114630,6,0,L|412:316,1,80.9999975280763,6|0,1:2|0:0,0:0:0:0:
487,229,114903,1,10,0:0:0:0:
420,369,115039,1,0,0:0:0:0:
306,160,115175,2,0,L|290:281,1,121.499996292114,2|0,0:0|0:0,0:0:0:0:
299,296,115448,2,0,L|206:306,1,80.9999975280763,10|2,0:0|1:2,0:0:0:0:
215,309,115653,1,0,1:0:0:0:
211,312,115721,1,0,1:0:0:0:
65,187,115857,6,0,P|51:139|63:102,1,80.9999975280763,0|8,0:0|0:0,0:0:0:0:
167,53,116130,2,0,L|150:141,1,80.9999975280763,2|0,0:0|1:0,0:0:0:0:
101,306,116403,1,0,1:0:0:0:
225,206,116539,2,0,L|133:227,1,80.9999975280763,8|0,0:0|0:0,0:0:0:0:
379,112,116812,5,6,1:2:0:0:
300,81,116948,1,2,0:2:0:0:
310,172,117084,1,10,0:2:0:0:
225,206,117221,1,2,0:2:0:0:
477,214,117357,6,0,L|311:186,2,161.999995056153,2|10|2,1:2|0:0|1:2,0:0:0:0:
385,240,118039,1,0,0:0:0:0:
445,114,118175,1,8,0:0:0:0:
324,175,118312,2,0,L|225:188,1,80.9999975280763,0|2,0:0|1:2,0:0:0:0:
162,53,118584,1,2,1:2:0:0:
5,97,118721,2,0,L|104:110,1,80.9999975280763,10|2,0:2|0:2,0:0:0:0:
171,236,118993,5,6,1:2:0:0:
243,104,119130,1,2,0:2:0:0:
93,194,119266,1,10,0:2:0:0:
243,185,119403,1,2,0:2:0:0:
85,107,119539,1,2,1:2:0:0:
162,53,119675,1,2,1:2:0:0:
171,236,119812,1,0,0:0:0:0:
83,277,119948,1,0,0:0:0:0:
93,194,120084,6,0,P|96:147|97:103,1,80.9999975280763,6|0,1:2|1:0,0:0:0:0:
183,45,120289,1,0,1:0:0:0:
183,45,120357,2,0,P|184:85|186:125,1,80.9999975280763,10|0,0:0|0:0,0:0:0:0:
301,252,120630,1,2,1:2:0:0:
372,191,120766,1,2,1:2:0:0:
288,265,120903,1,10,0:2:0:0:
411,337,121039,1,2,1:2:0:0:
279,281,121175,6,0,B|233:277|192:268|192:268|156:291,1,121.499996292114,6|0,1:2|0:0,0:0:0:0:
163,286,121448,2,0,L|148:368,1,80.9999975280763,10|2,0:2|0:2,0:0:0:0:
8,144,121721,6,0,P|48:175|144:178,1,121.499996292114,6|0,1:2|0:0,0:0:0:0:
116,185,121993,2,0,B|153:172|153:172|211:180,1,80.9999975280763,10|2,0:0|0:0,0:0:0:0:
472,107,122266,2,2,B|414:130|414:130|312:106,1,161.999995056153,10|14,1:2|1:2,0:1:0:0:
317,107,122812,6,0,L|306:24,1,80.9999975280763,2|0,0:0|0:0,0:0:0:0:
225,68,123084,1,2,0:0:0:0:
469,301,123357,6,0,B|440:248|400:237|400:237|401:250|401:250|364:224|309:247,1,198.000006042481,6|12,1:2|0:2,0:2:0:0:
127,130,123766,1,0,1:2:0:0:
131,117,123834,1,0,1:0:0:0:
136,103,123903,1,2,1:2:0:0:
225,68,124039,1,0,1:2:0:0:
288,135,124175,1,8,0:2:0:0:
381,17,124312,1,0,0:2:0:0:
278,152,124448,6,0,P|327:163|383:173,1,99.0000030212403,6|0,1:2|0:2,0:2:0:0:
197,355,124721,2,0,P|246:344|302:334,1,99.0000030212403,10|0,0:2|1:2,0:0:0:0:
130,167,124993,1,2,1:2:0:0:
176,248,125130,1,0,1:2:0:0:
99,305,125266,1,10,0:2:0:0:
194,259,125403,1,0,1:2:0:0:
32,221,125539,6,0,P|41:162|46:114,1,99.0000030212403,6|0,1:2|0:2,0:2:0:0:
248,20,125812,2,0,P|236:84|226:179,1,148.50000453186,10|0,0:2|0:0,0:2:0:0:
227,166,126084,1,0,1:2:0:0:
304,216,126221,1,0,1:2:0:0:
396,185,126357,1,10,0:2:0:0:
436,54,126493,1,2,0:2:0:0:
463,254,126630,5,2,1:2:0:0:
335,116,126766,2,0,L|300:80,2,49.5000015106202,2|2|10,0:2|0:2|0:2,0:0:0:0:
396,185,127039,1,2,0:2:0:0:
461,130,127175,1,2,1:2:0:0:
331,240,127312,1,2,1:2:0:0:
267,293,127448,1,10,0:2:0:0:
256,302,127584,1,0,1:2:0:0:
175,349,127721,6,0,P|164:266|164:188,1,148.50000453186,6|0,1:2|0:0,0:2:0:0:
163,201,127993,1,8,0:2:0:0:
110,129,128130,2,0,P|66:144|9:153,1,99.0000030212403,2|0,1:2|1:2,0:2:0:0:
294,175,128403,1,0,1:2:0:0:
281,82,128539,2,0,P|237:66|180:58,1,99.0000030212403,10|0,0:2|1:2,0:0:0:0:
185,59,128743,1,0,1:0:0:0:
185,59,128812,6,0,B|241:163|169:130|232:250,2,198.000006042481,6|10|2,1:2|0:2|1:2,0:2:0:0:
361,229,129493,1,0,1:2:0:0:
444,91,129630,2,0,B|460:136|460:136|437:195,1,99.0000030212403,10|0,0:2|0:2,0:0:0:0:
290,171,129903,5,6,1:2:0:0:
443,271,130039,1,2,0:2:0:0:
453,267,130107,1,2,0:2:0:0:
461,262,130175,1,10,0:2:0:0:
422,350,130312,1,0,0:2:0:0:
366,131,130448,5,2,1:2:0:0:
282,265,130584,1,0,1:2:0:0:
282,265,130653,1,0,1:0:0:0:
282,265,130721,1,10,0:2:0:0:
361,229,130857,1,0,1:2:0:0:
226,112,130993,5,6,1:2:0:0:
111,151,131130,1,0,1:2:0:0:
0,187,131266,1,8,0:2:0:0:
166,230,131403,1,0,1:2:0:0:
17,178,131539,6,0,B|4:113|4:113|35:66|30:22,1,148.50000453186,2|8,1:2|0:3,0:0:0:0:
201,111,131812,2,0,B|214:176|214:176|183:223|188:267,1,148.50000453186,8|0,1:3|0:0,0:0:0:0:
19,268,132084,6,0,B|140:238|99:305|225:278,1,198.000006042481,6|12,1:2|0:2,0:2:0:0:
408,126,132493,1,0,0:2:0:0:
329,70,132630,2,0,B|309:114|309:114|321:168,1,99.0000030212403,2|0,1:2|0:0,0:2:0:0:
436,369,132903,2,0,L|400:221,1,148.50000453186,8|0,0:2|0:0,0:0:0:0:
400,224,133175,6,0,P|453:232|503:243,1,99.0000030212403,6|0,1:2|1:2,0:0:0:0:
139,52,133448,2,0,P|191:43|241:33,1,99.0000030212403,10|0,0:2|0:2,0:0:0:0:
62,284,133721,1,2,1:2:0:0:
224,333,133857,1,0,1:2:0:0:
62,284,133993,2,0,P|50:229|39:176,1,99.0000030212403,10|0,0:2|1:2,0:0:0:0:
139,52,134266,6,0,P|136:95|126:153,1,80.9999975280763,6|0,1:2|0:0,0:0:0:0:
122,148,134539,2,0,L|235:133,1,99.0000030212403,10|0,0:2|0:2,0:0:0:0:
325,349,134812,6,0,P|319:308|316:268,1,80.9999975280763,0|0,1:2|0:0,0:0:0:0:
328,254,135084,2,0,L|441:269,1,99.0000030212403,10|10,0:2|0:2,0:0:0:0:
238,221,135357,5,0,1:2:0:0:
396,176,135493,1,0,1:2:0:0:
396,176,135562,1,0,0:0:0:0:
396,176,135630,1,8,0:2:0:0:
280,61,135766,1,0,1:2:0:0:
220,134,135903,6,0,P|215:185|209:236,1,99.0000030212403,2|0,1:2|0:2,0:0:0:0:
377,84,136175,1,10,0:2:0:0:
350,0,136312,1,0,0:2:0:0:
220,134,136448,6,0,B|106:137|145:183|20:187,2,198.000006042481,6|8|0,1:2|0:2|1:2,0:2:0:0:
310,153,137130,1,0,1:2:0:0:
393,335,137266,2,0,P|399:273|409:227,1,99.0000030212403,10|0,0:2|1:2,0:0:0:0:
167,73,137539,5,2,1:2:0:0:
138,99,137607,1,0,0:0:0:0:
125,136,137675,1,0,0:2:0:0:
134,174,137743,1,0,0:0:0:0:
161,201,137812,2,0,L|263:190,1,99.0000030212403,10|2,0:2|0:2,0:0:0:0:
118,287,138084,1,2,1:2:0:0:
287,345,138221,1,2,0:2:0:0:
118,384,138357,2,0,B|173:372|173:372|210:337,1,99.0000030212403,10|2,0:2|0:2,0:0:0:0:
204,342,138562,1,0,1:0:0:0:
204,342,138630,6,0,L|181:129,2,198.000006042481,6|8|2,1:2|0:2|1:2,0:2:0:0:
363,101,139312,1,2,0:2:0:0:
338,183,139448,2,0,L|318:281,1,99.0000030212403,10|0,0:2|0:2,0:2:0:0:
204,342,139721,5,6,1:2:0:0:
216,305,139789,1,2,0:2:0:0:
211,266,139857,1,2,0:2:0:0:
193,232,139925,1,2,0:2:0:0:
161,211,139993,2,0,L|107:200,1,49.5000015106202,10|2,0:2|0:2,0:0:0:0:
225,144,140130,5,2,0:2:0:0:
213,107,140198,1,2,0:2:0:0:
218,68,140266,1,6,1:2:0:0:
236,34,140334,1,2,0:2:0:0:
268,13,140403,2,0,L|322:2,5,49.5000015106202,2|2|10|2|2|2,0:2|0:2|0:2|0:2|0:2|0:2,0:0:0:0:
291,106,140812,6,0,B|192:105|248:72|126:68,1,148.50000453186,6|0,1:2|0:0,0:2:0:0:
135,59,141084,1,8,0:2:0:0:
355,191,141221,2,0,P|312:203|252:209,1,99.0000030212403,2|0,1:2|1:2,0:0:0:0:
169,323,141493,1,0,1:2:0:0:
17,232,141630,2,0,P|66:236|113:249,1,99.0000030212403,10|0,0:2|1:2,0:2:0:0:
113,249,141834,1,0,1:0:0:0:
113,249,141903,6,0,B|130:212|122:185|122:185|94:152|86:103,1,148.50000453186,6|0,1:2|0:0,0:0:0:0:
103,98,142175,2,0,B|109:138|137:171|137:171|145:198|129:236,1,148.50000453186,2|0,1:2|0:0,0:0:0:0:
128,236,142448,1,2,1:2:0:0:
258,208,142584,1,0,1:2:0:0:
372,169,142721,1,0,1:2:0:0:
263,381,142857,6,2,L|278:213,1,161.999995056153,6|0,1:2|1:0,1:0:0:0:
258,208,143266,2,0,L|345:199,1,80.9999975280763,8|0,0:3|1:0,0:0:0:0:
136,74,143539,2,0,L|223:65,1,80.9999975280763,8|0,0:3|1:0,0:0:0:0:
63,285,143812,2,0,L|143:293,1,80.9999975280763,8|0,0:0|1:0,0:0:0:0:
351,357,144084,2,0,L|431:365,1,80.9999975280763,8|0,0:3|1:0,0:0:0:0:
258,208,144357,2,0,L|338:199,1,80.9999975280763,8|0,0:0|1:0,0:0:0:0:
410,68,144630,5,8,0:3:0:0:
328,30,144766,1,0,1:0:0:0:
410,68,144903,1,8,0:0:0:0:
237,192,145039,6,2,L|70:213,1,161.999995056153,6|0,1:2|1:0,0:1:0:0:
306,132,145448,2,0,B|276:106|276:106|217:105,1,80.9999975280763,10|8,0:0|0:3,0:0:0:0:
180,249,145721,1,2,1:2:0:0:
213,324,145857,1,8,0:3:0:0:
158,251,145993,1,2,1:2:0:0:
191,326,146130,1,8,0:3:0:0:
64,292,146266,6,0,P|72:241|76:195,1,80.9999975280763,10|8,0:0|0:3,0:0:0:0:
234,105,146539,1,4,1:0:0:0:
135,1,146675,2,0,P|138:41|146:81,1,80.9999975280763,8|8,0:3|0:0,0:0:0:0:
0,156,146948,1,8,0:3:0:0:
158,251,147084,1,0,1:0:0:0:
75,211,147221,6,2,P|160:199|241:188,1,161.999995056153,6|0,1:2|1:0,0:1:0:0:
254,177,147630,2,0,L|243:269,1,80.9999975280763,12|0,0:0|0:0,0:0:0:0:
432,86,147903,2,0,L|421:178,1,80.9999975280763,2|8,1:2|0:0,0:0:0:0:
146,81,148175,2,0,L|135:173,1,80.9999975280763,2|0,1:2|1:0,0:0:0:0:
349,244,148448,2,0,L|360:336,1,80.9999975280763,12|0,0:0|0:0,0:0:0:0:
119,251,148721,2,0,L|108:343,1,80.9999975280763,2|8,1:2|0:0,0:0:0:0:
333,145,148993,5,2,1:2:0:0:
266,100,149130,1,0,1:0:0:0:
224,172,149266,1,8,0:0:0:0:
7,134,149403,6,2,P|49:90|158:86,1,161.999995056153,6|0,1:2|1:0,0:1:0:0:
318,207,149812,2,0,P|276:251|167:255,1,161.999995056153,10|2,0:0|1:2,0:0:0:0:
179,260,150221,1,8,0:0:0:0:
360,377,150357,2,0,P|367:328|373:295,1,80.9999975280763,2|0,1:2|1:0,0:0:0:0:
268,104,150630,1,12,0:0:0:0:
221,173,150766,1,0,1:0:0:0:
341,152,150903,1,12,0:0:0:0:
177,240,151039,1,8,0:0:0:0:
95,215,151175,1,8,0:0:0:0:
90,203,151243,1,8,0:0:0:0:
86,191,151312,1,8,0:0:0:0:
82,179,151380,1,8,0:0:0:0:
78,167,151448,1,8,0:0:0:0:
48,72,151584,6,2,B|81:83|116:79|116:79|140:103|140:103|164:111|203:108,1,161.999995056153,6|0,0:1|1:0,0:1:0:0:
305,249,151993,2,0,P|300:283|289:338,1,80.9999975280763,10|0,0:2|0:0,0:0:0:0:
452,182,152266,2,0,P|437:112|426:49,1,121.499996292114,2|0,1:2|0:0,0:0:0:0:
428,62,152539,2,0,P|385:83|343:90,1,80.9999975280763,10|0,0:0|0:0,0:0:0:0:
138,227,152812,2,0,P|177:235|213:253,1,80.9999975280763,6|0,1:2|0:0,0:0:0:0:
440,290,153084,2,0,P|432:250|426:210,1,80.9999975280763,10|0,0:0|0:0,0:0:0:0:
275,113,153357,1,6,1:0:0:0:
309,191,153493,2,0,P|316:230|322:270,1,80.9999975280763,0|10,1:0|0:1,0:0:0:0:
5,217,153766,6,2,B|16:158|43:126|43:126|75:106|124:99,1,161.999995056153,6|0,1:2|1:0,0:1:0:0:
138,227,154175,2,0,B|98:297|140:299|93:385,2,161.999995056153,10|2|10,0:0|1:2|0:0,0:0:0:0:
266,150,154857,1,0,0:0:0:0:
187,111,154993,2,0,P|178:66|164:32,1,80.9999975280763,6|0,1:2|0:0,0:0:0:0:
407,245,155266,2,0,P|416:200|430:166,1,80.9999975280763,8|0,0:0|0:0,0:0:0:0:
214,285,155539,1,6,1:1:0:0:
295,336,155675,1,8,0:0:0:0:
214,285,155812,1,10,0:1:0:0:
306,211,155948,6,2,P|291:117|280:45,1,161.999995056153,6|0,1:2|1:0,0:1:0:0:
138,227,156357,2,0,B|53:250|95:293|9:325,2,161.999995056153,2|2|8,0:0|1:2|0:0,0:0:0:0:
211,169,157039,1,8,0:0:0:0:
39,117,157175,2,0,P|78:130|134:137,1,80.9999975280763,6|0,1:2|0:0,0:0:0:0:
176,10,157448,2,0,P|184:50|206:102,1,80.9999975280763,2|0,1:2|0:0,0:0:0:0:
285,125,157721,1,10,0:1:0:0:
408,32,157857,1,8,0:0:0:0:
334,6,157993,1,10,0:1:0:0:
362,213,158130,5,6,1:0:0:0:
256,192,158198,12,0,160448,0:0:0:0:
365,98,162630,6,0,B|342:43|286:18|208:53,2,161.999995056153,6|8|2,1:2|0:0|1:2,0:0:0:0:
286,291,163312,1,0,0:0:0:0:
212,347,163448,2,0,P|200:298|189:247,1,80.9999975280763,8|0,0:0|0:0,0:0:0:0:
341,186,163721,5,2,1:2:0:0:
419,231,163857,1,0,1:0:0:0:
341,186,163993,2,0,P|300:191|254:200,1,80.9999975280763,10|0,0:0|0:0,0:0:0:0:
142,39,164266,2,0,P|102:34|63:27,1,80.9999975280763,2|0,0:0|0:0,0:0:0:0:
82,322,164539,2,0,B|102:303|102:303|111:249,1,80.9999975280763,8|0,0:0|0:0,0:0:0:0:
25,174,164812,6,2,B|69:148|105:146|105:146|146:158|189:146,1,148.50000453186,6|0,0:2|0:0,0:1:0:0:
167,150,165084,2,0,L|242:137,1,67.5000025749208
415,65,165357,6,2,B|368:100|368:100|337:197,1,148.50000453186,6|0,1:1|0:0,0:1:0:0:
340,185,165630,2,0,P|346:216|358:263,1,67.5000025749208,0|0,0:0|0:1,0:0:0:0:
211,375,165903,1,2,1:2:0:0:
142,328,166039,1,10,0:2:0:0:
142,328,166107,1,10,0:2:0:0:
142,328,166175,2,0,P|136:296|120:225,1,99.0000030212403,10|10,0:2|0:0,0:0:0:0:
167,150,166448,5,10,0:0:0:0:
40,259,166584,1,8,0:3:0:0:
225,283,166721,1,8,0:3:0:0:
40,259,166857,1,8,0:3:0:0:
69,167,166993,2,0,P|74:105|75:65,1,99.0000030212403,0|0,1:0|0:0,0:0:0:0:
75,68,167266,6,0,B|149:32|149:32|209:35|268:72,1,198.000006042481,14|0,1:2|1:2,0:0:0:0:
225,283,167675,1,0,1:2:0:0:
404,221,167812,2,0,L|307:236,1,99.0000030212403,10|0,0:2|1:2,0:0:0:0:
127,368,168084,6,0,P|115:295|159:208,1,148.50000453186,6|0,1:2|0:0,0:2:0:0:
141,227,168357,1,10,0:2:0:0:
225,283,168493,1,0,0:2:0:0:
230,97,168630,2,0,B|213:130|213:130|233:203,1,99.0000030212403,2|0,1:2|1:2,0:0:0:0:
420,324,168903,2,0,B|437:291|437:291|417:218,1,99.0000030212403,10|0,0:2|1:2,0:0:0:0:
456,137,169175,5,6,1:2:0:0:
338,268,169312,1,0,1:2:0:0:
338,268,169380,1,0,1:0:0:0:
338,268,169448,1,10,0:2:0:0:
257,217,169584,1,0,1:2:0:0:
104,113,169721,5,2,1:2:0:0:
22,165,169857,1,0,1:2:0:0:
22,165,169925,1,0,1:0:0:0:
22,165,169993,1,10,0:2:0:0:
66,246,170130,1,0,1:2:0:0:
251,368,170266,5,6,1:2:0:0:
209,295,170403,1,0,1:2:0:0:
257,217,170539,1,8,0:2:0:0:
257,217,170675,1,0,1:2:0:0:
297,69,170812,5,2,1:2:0:0:
220,33,170948,1,0,1:2:0:0:
175,106,171084,2,0,B|164:143|164:143|169:159|169:159|156:211,1,99.0000030212403,8|8,1:0|0:3,0:0:0:0:
424,321,171357,6,0,B|439:266|470:235|470:235|442:182,1,148.50000453186,6|0,1:2|0:0,0:2:0:0:
446,190,171630,2,0,L|333:207,1,99.0000030212403,12|0,0:2|1:2,0:0:0:0:
348,204,171834,1,0,1:0:0:0:
348,204,171903,1,2,1:2:0:0:
377,106,172039,1,0,1:0:0:0:
266,253,172175,2,0,L|168:238,1,99.0000030212403,8|0,0:2|1:2,0:0:0:0:
23,118,172448,6,0,B|93:106|161:70|161:70|166:106|151:140,1,198.000006042481,6|10,1:2|0:2,0:0:0:0:
162,338,172857,1,0,1:2:0:0:
79,282,172993,2,0,B|68:251|65:233|65:233|71:208|88:179,1,99.0000030212403,2|0,1:2|1:2,0:0:0:0:
257,31,173266,2,0,B|268:62|271:80|271:80|264:104|248:134,1,99.0000030212403,10|0,0:2|1:2,0:0:0:0:
473,323,173539,6,0,P|435:273|340:272,1,148.50000453186,6|0,1:2|0:0,0:0:0:0:
354,265,173812,1,10,0:2:0:0:
269,322,173948,1,0,1:2:0:0:
25,243,174084,6,0,P|63:193|158:192,1,148.50000453186,0|0,1:2|0:0,0:0:0:0:
143,185,174357,1,10,0:2:0:0:
229,242,174493,1,10,0:2:0:0:
338,105,174630,5,0,1:2:0:0:
285,40,174766,1,0,1:0:0:0:
285,40,174834,1,0,1:0:0:0:
285,40,174903,1,8,0:2:0:0:
198,49,175039,1,0,1:2:0:0:
311,192,175175,6,0,L|419:177,1,99.0000030212403,2|0,1:2|1:2,0:0:0:0:
137,277,175448,2,0,L|29:262,1,99.0000030212403,10|8,0:2|0:3,0:0:0:0:
162,353,175653,1,8,0:3:0:0:
162,353,175721,6,0,B|170:262|210:248|211:134,2,198.000006042481,6|8|0,1:2|0:2|1:2,0:2:0:0:
364,280,176403,1,0,1:2:0:0:
409,178,176539,2,0,P|360:190|306:194,1,99.0000030212403,10|0,0:2|1:2,0:0:0:0:
246,84,176812,5,2,1:2:0:0:
214,69,176880,1,2,0:2:0:0:
179,72,176948,1,2,0:2:0:0:
150,88,177016,1,2,0:2:0:0:
135,119,177084,1,10,0:2:0:0:
121,152,177153,1,2,0:2:0:0:
92,168,177221,1,2,0:2:0:0:
56,171,177289,1,2,0:2:0:0:
26,156,177357,1,2,1:2:0:0:
32,71,177493,1,2,0:2:0:0:
217,166,177630,2,0,P|209:202|201:266,1,99.0000030212403,10|0,0:2|0:2,0:2:0:0:
467,278,177903,6,0,B|445:234|404:173|296:233,2,198.000006042481,6|8|2,1:2|0:2|1:2,0:0:0:0:
210,358,178584,1,2,1:2:0:0:
210,358,178721,2,0,B|191:310|191:310|201:260,1,99.0000030212403,10|0,0:2|1:2,0:0:0:0:
44,89,178993,5,6,1:2:0:0:
75,112,179062,1,2,0:2:0:0:
112,124,179130,1,2,0:2:0:0:
151,121,179198,1,2,0:2:0:0:
186,103,179266,1,10,0:2:0:0:
192,109,179334,1,2,0:2:0:0:
197,114,179403,1,2,0:2:0:0:
203,120,179471,1,2,0:2:0:0:
210,127,179539,5,6,1:2:0:0:
245,109,179607,1,2,0:2:0:0:
284,106,179675,1,2,1:2:0:0:
321,118,179743,1,2,0:2:0:0:
352,141,179812,2,0,L|363:198,1,49.5000015106202,10|2,0:2|0:2,0:0:0:0:
325,369,179948,2,0,L|334:320,1,49.5000015106202,2|2,1:2|0:2,0:0:0:0:
441,202,180084,6,0,B|388:208|388:208|362:230|362:230|274:241,1,148.50000453186,6|0,1:2|0:0,0:2:0:0:
294,250,180357,1,8,0:2:0:0:
63,324,180493,2,0,P|72:267|80:218,1,99.0000030212403,2|0,0:2|1:2,0:0:0:0:
210,127,180766,1,0,0:2:0:0:
12,62,180903,2,0,B|3:112|3:112|30:167,1,99.0000030212403,10|0,0:2|0:2,0:0:0:0:
168,259,181175,5,6,1:2:0:0:
111,103,181312,1,8,0:2:0:0:
0,260,181448,1,2,1:2:0:0:
99,203,181584,1,0,1:2:0:0:
211,146,181721,5,2,1:2:0:0:
313,180,181857,1,0,1:2:0:0:
330,186,181993,1,0,1:2:0:0:
441,219,182130,6,0,L|246:254,1,198.000006042481,4|0,1:2|1:0,0:0:0:0:
34,59,182539,2,0,B|112:48|112:48|187:96,1,148.50000453186,8|0,0:0|0:0,0:0:0:0:
170,85,182812,2,0,P|156:138|141:191,1,99.0000030212403,0|0,1:0|0:0,0:0:0:0:
356,281,183084,2,0,P|342:233|329:185,1,99.0000030212403,8|0,0:0|0:0,0:0:0:0:
492,254,183357,2,0,B|433:291|433:291|355:280,1,148.50000453186,4|0,1:0|0:0,0:0:0:0:
356,281,183630,5,2,1:2:0:0:
356,281,183903,1,2,1:2:0:0:
278,322,184039,1,2,1:2:0:0:
200,358,184175,1,2,1:2:0:0:
294,229,184312,6,2,P|284:170|282:74,1,135,6|0,1:2|0:0,0:1:0:0:
297,82,184584,2,0,L|347:50,2,45,0|0|8,1:0|1:0|0:0,0:0:0:0:
207,146,184857,1,0,0:0:0:0:
57,84,184993,1,2,1:2:0:0:
162,51,185130,1,2,1:2:0:0:
44,187,185266,1,10,0:0:0:0:
140,236,185403,1,2,1:2:0:0:
140,236,185539,6,0,P|131:179|120:130,1,90,0|0,0:0|1:0,0:0:0:0:
435,83,185812,2,0,P|426:127|419:171,1,90,8|0,0:0|1:0,0:0:0:0:
257,313,186084,1,2,1:2:0:0:
234,222,186221,1,2,1:2:0:0:
195,58,186357,1,10,0:2:0:0:
338,241,186493,6,0,B|296:139|353:165|289:42,1,180,6|0,1:2|1:0,0:0:0:0:
155,265,186903,2,0,P|141:311|163:353,1,90,14|0,0:0|0:0,0:0:0:0:
236,133,187175,1,2,1:2:0:0:
102,71,187312,1,0,1:0:0:0:
245,144,187448,1,10,0:2:0:0:
66,228,187584,1,2,1:2:0:0:
145,156,187721,5,2,0:2:0:0:
145,156,187857,2,0,L|125:57,2,90,2|8|0,1:2|0:0|0:0,0:0:0:0:
249,333,188266,1,2,1:2:0:0:
378,222,188403,1,2,1:2:0:0:
378,222,188471,1,0,1:0:0:0:
378,222,188539,1,10,0:2:0:0:
187,263,188675,6,2,B|99:287|99:287|43:268,1,135,6|0,1:2|0:0,0:1:0:0:
57,272,188948,1,0,1:0:0:0:
279,247,189084,2,0,L|293:147,1,90,10|0,0:0|1:0,0:0:0:0:
237,58,189357,1,2,1:2:0:0:
160,98,189493,1,2,0:2:0:0:
254,69,189630,2,0,B|301:63|301:63|358:80,1,90,10|6,0:2|1:2,0:0:0:0:
101,24,189903,2,0,B|54:18|54:18|-3:35,1,90,0|0,0:0|1:0,0:0:0:0:
130,282,190175,2,0,L|147:189,1,90,2|0,1:2|0:0,0:0:0:0:
62,109,190448,5,2,1:2:0:0:
238,206,190584,1,2,1:2:0:0:
55,235,190721,1,10,0:2:0:0:
238,206,190857,6,0,L|220:63,1,135,6|0,1:2|0:0,0:0:0:0:
221,72,191130,1,2,1:2:0:0:
346,152,191266,2,0,B|332:254|332:254|302:281|287:329,1,180,10|0,0:0|1:0,0:0:0:0:
341,384,191675,1,0,1:0:0:0:
119,321,191812,2,0,P|170:296|210:292,1,90,8|2,0:0|1:2,0:0:0:0:
290,318,192084,5,0,1:0:0:0:
254,124,192221,1,2,1:2:0:0:
254,124,192289,1,0,1:0:0:0:
254,124,192357,1,10,0:0:0:0:
206,195,192493,1,0,1:0:0:0:
81,68,192630,5,2,1:2:0:0:
117,211,192766,1,2,1:2:0:0:
48,158,192903,1,10,0:2:0:0:
206,195,193039,6,0,P|251:201|300:214,1,90,6|0,1:2|0:0,0:0:0:0:
384,134,193312,1,0,1:0:0:0:
323,46,193448,2,0,P|368:40|417:27,1,90,8|0,0:0|1:0,0:0:0:0:
411,28,193653,1,0,1:0:0:0:
411,28,193721,1,0,1:0:0:0:
460,170,193857,1,2,1:2:0:0:
384,134,193993,1,8,0:0:0:0:
294,212,194130,6,0,B|179:185|218:248|89:211,1,180,6|2,1:2|1:2,0:0:0:0:
37,80,194539,1,0,1:0:0:0:
58,64,194607,1,0,1:0:0:0:
82,63,194675,1,0,1:0:0:0:
149,295,194812,5,2,1:2:0:0:
91,145,194948,1,2,1:2:0:0:
35,262,195084,1,10,0:2:0:0:
178,111,195221,6,0,B|246:95|246:95|288:110|362:122,1,180,6|0,1:2|0:0,0:0:0:0:
353,120,195630,1,2,0:0:0:0:
353,120,195903,1,2,0:2:0:0:
353,120,196175,1,2,0:2:0:0:
353,120,196448,1,2,0:2:0:0:
353,120,196721,1,2,0:2:0:0:
353,120,196993,1,2,0:2:0:0:
341,216,197266,1,0,0:0:0:0:
341,216,197403,1,2,0:0:0:0:
