osu file format v14

[General]
AudioFilename: audio.mp3
AudioLeadIn: 0
PreviewTime: 162021
Countdown: 0
SampleSet: Soft
StackLeniency: 0.6
Mode: 0
LetterboxInBreaks: 0
WidescreenStoryboard: 1

[Editor]
Bookmarks: 105903
DistanceSpacing: 1
BeatDivisor: 4
GridSize: 32
TimelineZoom: 5.399998

[Metadata]
Title:Yuunagi, Bou, Hana Madoi
TitleUnicode:夕凪、某、花惑い
Artist:Yorushika
ArtistUnicode:ヨルシカ
Creator:Deca
Version:Decatoshi's Hard
Source:
Tags:gillstar black loli catgirl nao tomori naotoshi cococolaco coco man fixxis luscent 404anf 404 aimnotfound synderes stwi frostwich nbuna n-buna スイ suis elma yunagi, hanamadoi jrock japanese rock
BeatmapID:2155953
BeatmapSetID:1029377

[Difficulty]
HPDrainRate:4.5
CircleSize:3.2
OverallDifficulty:6.5
ApproachRate:8
SliderMultiplier:1.2
SliderTickRate:1

[Events]
//Background and Video events
0,0,"68936009_p0.jpg",0,0
//Break Periods
2,20880,27564
2,88317,95609
2,143062,150834
2,160517,161880
//Storyboard Layer 0 (Background)
//Storyboard Layer 1 (Fail)
//Storyboard Layer 2 (Pass)
//Storyboard Layer 3 (Foreground)
//Storyboard Layer 4 (Overlay)
//Storyboard Sound Samples

[TimingPoints]
87,272.727272727273,4,3,1,40,1,0
87,-200,4,2,1,50,0,0
1041,-125,4,2,1,50,0,0
7859,-125,4,2,1,70,0,0
7996,-100,4,2,1,70,0,0
20677,-100,4,2,1,40,0,0
28314,-142.857142857143,4,2,1,40,0,0
29405,-142.857142857143,4,2,1,45,0,0
38268,-200,4,2,1,60,0,0
46177,-200,4,2,1,50,0,0
46996,-100,4,2,1,60,0,0
51359,-100,4,2,2,50,0,0
52450,-100,4,2,2,55,0,0
53541,-100,4,2,2,60,0,0
54087,-100,4,2,2,65,0,0
54632,-100,4,2,1,80,0,0
55723,-83.3333333333333,4,2,1,80,0,0
75223,-100,4,2,1,60,0,0
79587,-100,4,2,1,70,0,0
83950,-100,4,2,1,50,0,0
85177,-100,4,2,1,70,0,0
87087,-100,4,2,1,40,0,0
95677,-100,4,2,3,40,0,0
95950,-100,4,2,1,40,0,0
96496,-100,4,2,1,45,0,0
97041,-125,4,2,1,45,0,0
104268,240,4,2,1,45,1,0
104388,315.789473684211,4,2,1,45,1,0
104388,-100,4,2,1,45,0,0
104545,255.31914893617,4,2,1,45,1,0
104545,-125,4,2,1,45,0,0
104800,272.727272727273,4,2,1,45,1,0
104800,-125,4,2,1,45,0,0
105072,300,4,2,1,45,1,0
105222,272.727272727273,4,2,1,45,1,0
105222,-125,4,2,1,45,0,0
105358,272.727272727273,4,2,1,45,1,0
105358,-125,4,2,1,45,0,0
105903,272.727272727273,4,2,1,45,1,0
105903,-125,4,2,1,60,0,0
110880,-111.111111111111,4,2,2,60,0,0
110948,-111.111111111111,4,2,2,35,0,0
111016,-125,4,2,1,60,0,0
114630,-100,4,2,1,70,0,0
122266,-100,4,2,1,80,0,0
122812,-83.3333333333333,4,2,1,80,0,0
142857,-83.3333333333333,4,2,3,55,0,0
151175,-83.3333333333333,4,2,1,55,0,0
151584,-83.3333333333333,4,2,1,70,0,0
162630,-125,4,2,1,50,0,0
164812,-100,4,2,1,75,0,0
166993,-200,4,2,1,50,0,0
167266,-83.3333333333333,4,2,1,80,0,0
182130,-83.3333333333333,4,2,1,70,0,0
183630,-111.111111111111,4,2,1,70,0,0
184312,-99.9999999999999,4,2,1,70,0,0
195630,-200,4,2,1,70,0,0

[Colours]
Combo1 : 213,194,176
Combo2 : 70,151,168
Combo3 : 220,78,78
Combo4 : 132,232,215

[HitObjects]
107,281,87,6,0,P|99:245|87:216,3,60,2|2|2|2,0:3|0:3|0:3|0:3,0:0:0:0:
35,156,1041,22,0,P|101:185|174:148,1,144,0|2,1:3|0:3,0:3:0:0:
227,43,1723,1,2,0:3:0:0:
227,43,1996,1,2,0:3:0:0:
227,43,2268,1,2,0:3:0:0:
227,43,2541,1,2,0:3:0:0:
354,111,2814,21,2,0:3:0:0:
354,111,2950,1,0,0:3:0:0:
184,166,3223,1,2,1:3:0:0:
311,211,3496,21,0,0:3:0:0:
311,211,3632,2,0,L|322:332,1,96,2|0,0:3|0:3,0:3:0:0:
392,356,4041,1,2,0:3:0:0:
225,285,4314,22,0,P|165:275|102:305,1,96,2|0,1:3|0:3,0:3:0:0:
52,246,4723,2,0,L|30:123,2,96,2|2|0,0:3|0:3|0:3,0:0:0:0:
3,326,5405,1,2,1:3:0:0:
127,180,5677,21,0,0:3:0:0:
127,180,5814,2,0,L|143:60,1,96,2|2,0:3|0:3,0:3:0:0:
281,142,6359,2,0,L|293:237,2,96,2|2|2,0:3|0:3|0:3,0:3:0:0:
383,51,7177,1,2,0:3:0:0:
383,51,7314,1,0,0:3:0:0:
482,169,7587,22,0,P|497:229|481:282,1,96,2|0,1:3|1:0,0:3:0:0:
404,341,7996,1,8,0:3:0:0:
325,304,8132,1,2,1:2:0:0:
325,304,8268,2,0,L|222:326,1,60,10|2,0:0|1:2,0:0:0:0:
239,336,8677,6,0,P|151:302|99:346,1,120,6|0,1:2|1:0,0:0:0:0:
30,270,9087,2,0,L|14:197,1,60,10|10,0:2|0:2,0:0:0:0:
87,129,9359,2,0,L|93:67,2,60,2|10|10,1:2|0:2|0:0,0:0:0:0:
179,192,9768,22,2,B|246:169|225:225|328:184,1,120,6|0,1:2|1:0,0:1:0:0:
315,186,10109,1,0,0:0:0:0:
315,186,10177,2,0,P|320:134|318:117,1,60,14|0,0:0|0:0,0:0:0:0:
228,30,10450,2,0,P|223:82|225:99,1,60,2|2,1:2|1:2,0:0:0:0:
134,127,10723,1,10,0:0:0:0:
134,127,10859,22,0,P|83:121|28:185,1,120,2|0,1:2|1:0,0:0:0:0:
76,259,11268,2,0,P|88:310|91:336,1,60,8|0,0:0|1:0,0:0:0:0:
189,356,11541,1,2,1:2:0:0:
189,356,11677,2,0,P|197:314|203:284,1,60,2|10,1:2|0:2,0:0:0:0:
280,168,11950,22,0,P|289:233|298:305,1,120,6|0,1:2|1:0,0:0:0:0:
385,236,12359,2,0,B|388:206|388:206|373:173,1,60,14|0,0:0|0:0,0:0:0:0:
280,168,12632,2,0,B|277:138|277:138|292:105,1,60,2|0,1:2|1:0,0:0:0:0:
379,48,12905,1,10,0:2:0:0:
379,48,13041,1,2,1:2:0:0:
280,10,13177,22,0,L|221:6,1,60,2|2,0:2|1:2,0:0:0:0:
151,72,13450,2,0,P|100:95|29:69,2,120,8|2|10,0:0|1:2|0:2,0:0:0:0:
239,166,14132,22,2,L|370:156,1,120,6|0,1:2|1:0,0:1:0:0:
460,211,14541,1,10,0:0:0:0:
460,211,14677,1,0,1:0:0:0:
384,273,14814,1,2,1:2:0:0:
384,273,14950,2,0,P|373:316|366:351,1,60,2|10,1:2|0:2,0:0:0:0:
256,367,15223,22,0,P|217:355|136:375,1,120,6|0,1:2|1:0,0:0:0:0:
55,327,15632,2,0,P|43:296|40:268,1,60,2|0,1:2|0:0,0:0:0:0:
115,203,15905,1,2,1:2:0:0:
115,203,16041,2,0,P|125:160|128:144,1,60,2|10,1:2|0:2,0:0:0:0:
85,67,16314,22,0,B|126:93|126:93|210:77,1,120,6|2,1:2|1:2,0:0:0:0:
380,123,16723,2,0,P|319:123|280:166,2,120,10|0|8,0:0|1:0|0:0,0:0:0:0:
470,177,17405,1,2,1:2:0:0:
470,177,17541,22,0,L|455:264,1,60,0|2,0:0|1:2,0:0:0:0:
376,320,17814,2,0,L|358:257,1,60,10|0,0:0|1:0,0:0:0:0:
270,314,18087,1,2,1:2:0:0:
270,314,18223,2,0,B|237:310|237:310|196:320,1,60,2|10,1:2|0:2,0:0:0:0:
72,366,18496,22,0,P|56:297|51:229,1,120,2|0,1:2|1:0,0:0:0:0:
168,144,18905,2,0,P|162:203|148:262,2,120,8|0|8,0:0|1:0|0:0,0:0:0:0:
264,216,19587,22,0,P|327:228|403:226,1,120,2|2,1:2|1:2,0:0:0:0:
510,138,19996,2,0,P|447:126|371:128,1,120,8|10,0:0|0:2,0:0:0:0:
312,55,20405,2,0,L|300:-8,1,60,2|2,1:2|1:3,0:0:0:0:
221,96,20677,21,2,0:3:0:0:
32,37,28314,6,0,P|18:75|17:124,1,83.9999974365235,8|8,0:0|0:3,0:0:0:0:
84,195,28723,2,0,L|139:189,1,41.9999987182618,0|8,1:0|0:3,0:0:0:0:
224,134,28996,1,8,0:0:0:0:
224,134,29132,2,0,L|277:139,1,41.9999987182618,8|8,0:3|0:3,0:0:0:0:
364,182,29405,22,0,B|385:217|385:217|372:271,1,83.9999974365235,2|0,1:2|1:0,0:0:0:0:
303,332,29814,2,0,P|264:316|210:323,2,83.9999974365235,8|2|8,0:0|0:0|0:0,0:0:0:0:
401,367,30496,2,0,P|449:359|480:323,1,83.9999974365235,2|0,1:2|1:0,0:0:0:0:
445,246,30905,1,8,0:0:0:0:
445,246,31041,2,0,L|435:153,1,83.9999974365235
458,65,31450,1,8,0:0:0:0:
381,6,31587,22,0,P|351:24|291:23,1,83.9999974365235,2|0,1:2|1:0,0:0:0:0:
214,75,31996,1,8,0:0:0:0:
214,75,32132,2,0,L|119:65,1,83.9999974365235
46,114,32541,1,8,0:0:0:0:
46,114,32677,2,0,P|26:149|35:203,1,83.9999974365235,0|0,1:0|1:0,0:0:0:0:
111,254,33087,2,0,P|121:284|102:338,1,83.9999974365235,8|2,0:0|1:2,0:0:0:0:
19,368,33496,1,0,1:0:0:0:
19,368,33632,1,8,0:0:0:0:
126,345,33768,22,0,L|223:340,1,83.9999974365235,2|0,1:2|1:0,0:0:0:0:
294,283,34177,2,0,P|323:270|410:297,1,125.999996154785,8|0,0:2|0:0,0:0:0:0:
490,225,34723,1,10,0:0:0:0:
490,225,34859,2,0,L|472:134,1,83.9999974365235,2|0,1:2|0:0,0:0:0:0:
371,103,35268,2,0,L|387:185,1,83.9999974365235,10|2,0:0|1:2,0:0:0:0:
322,261,35677,2,0,P|297:269|269:270,1,41.9999987182618,2|10,1:2|0:2,0:0:0:0:
194,331,35950,22,0,P|137:317|97:319,1,83.9999974365235,4|0,1:2|0:0,0:0:0:0:
17,282,36359,2,0,L|7:234,1,41.9999987182618,8|0,0:0|0:0,0:0:0:0:
67,155,36632,1,0,1:0:0:0:
67,155,36768,2,0,L|72:94,1,41.9999987182618,8|2,0:0|1:2,0:0:0:0:
26,24,37041,1,0,1:0:0:0:
26,24,37177,21,12,0:0:0:0:
183,152,37450,2,0,L|229:144,1,41.9999987182618,0|8,1:0|0:3,0:0:0:0:
315,76,37723,1,8,0:0:0:0:
377,127,37859,1,8,0:3:0:0:
405,205,37996,1,8,0:3:0:0:
390,286,38132,1,8,0:3:0:0:
337,349,38268,21,6,1:2:0:0:
349,361,40177,1,2,1:2:0:0:
273,314,40314,1,0,1:0:0:0:
273,314,40382,1,0,1:0:0:0:
273,314,40450,21,6,1:2:0:0:
219,364,42087,22,0,L|178:360,1,30,8|8,0:3|0:3,0:0:0:0:
83,320,42359,2,0,L|112:312,1,30,8|8,0:3|0:3,0:0:0:0:
174,236,42632,21,6,1:2:0:0:
338,236,43723,21,2,1:2:0:0:
256,96,44814,21,2,1:2:0:0:
256,288,46177,22,0,L|294:283,1,30,8|8,0:3|0:3,0:0:0:0:
369,324,46450,1,8,0:3:0:0:
369,324,46587,1,8,0:3:0:0:
439,268,46723,2,0,L|450:211,1,45,8|0,0:3|0:0,0:0:0:0:
480,213,46996,22,0,L|445:95,1,120,2|10,1:2|0:0,0:0:0:0:
352,85,47405,1,0,0:0:0:0:
352,85,47541,2,0,P|312:96|284:95,1,60,2|0,1:2|0:0,0:0:0:0:
212,58,47814,2,0,P|171:54|139:58,1,60,10|2,0:0|0:0,0:0:0:0:
65,54,48087,22,0,L|55:126,1,60,2|0,1:2|0:0,0:0:0:0:
108,285,48359,2,0,P|128:246|115:162,2,120,10|2|10,0:0|1:2|0:0,0:0:0:0:
184,348,49041,1,0,0:0:0:0:
276,294,49177,22,0,L|356:278,1,60,2|0,1:2|1:0,0:0:0:0:
413,233,49450,1,10,0:0:0:0:
413,233,49587,2,0,P|425:272|421:302,1,60,2|0,0:0|0:0,0:0:0:0:
410,376,49859,1,0,0:0:0:0:
410,376,49996,2,0,L|333:368,1,60,8|0,0:0|0:0,0:0:0:0:
275,316,50268,22,0,P|240:342|147:329,2,120,0|8|0,0:0|0:0|0:0,0:0:0:0:
317,224,50950,1,0,0:0:0:0:
237,163,51087,2,0,L|225:96,1,60,8|0,0:0|0:0,0:0:0:0:
141,59,51359,22,0,P|136:94|115:193,1,120,14|8,0:0|0:0,0:0:0:0:
52,246,51768,1,8,0:0:0:0:
52,246,51837,1,8,0:0:0:0:
52,246,51905,2,0,P|5:237|-12:233,1,60,10|8,0:0|0:0,0:0:0:0:
126,306,52177,2,0,L|197:292,1,60,8|8,0:0|0:0,0:0:0:0:
207,304,52382,1,8,0:0:0:0:
207,304,52450,22,0,P|254:321|322:306,1,120,14|8,0:0|0:0,0:0:0:0:
380,223,52859,1,8,0:0:0:0:
380,223,52927,1,8,0:0:0:0:
380,223,52996,2,0,L|366:150,1,60,10|8,0:0|0:0,0:0:0:0:
475,253,53268,2,0,L|472:317,1,60,8|8,0:0|0:0,0:0:0:0:
368,250,53541,22,0,B|346:187|384:199|358:126,1,120,14|10,0:0|0:0,0:0:0:0:
289,62,53950,1,8,0:0:0:0:
289,62,54018,1,8,0:0:0:0:
289,62,54087,2,0,P|233:46|162:67,1,120,14|10,0:0|0:0,0:0:0:0:
100,125,54496,1,8,0:0:0:0:
100,125,54632,21,10,1:2:0:0:
147,231,54905,1,14,0:0:0:0:
39,312,55177,1,0,0:0:0:0:
32,326,55723,6,0,P|83:312|144:345,1,107.999996704102,6|0,1:2|0:0,0:2:0:0:
158,351,55996,2,0,L|234:332,1,71.9999978027344,12|0,0:2|0:2,0:2:0:0:
334,370,56268,2,0,P|338:314|345:204,1,143.999995605469,2|8,1:2|0:2,0:0:0:0:
351,134,56677,1,0,1:2:0:0:
444,178,56814,22,0,P|457:224|446:270,1,71.9999978027344,6|0,1:2|0:2,0:2:0:0:
365,318,57087,2,0,L|281:312,1,71.9999978027344,10|0,0:2|0:2,0:2:0:0:
188,349,57359,2,0,L|103:362,1,71.9999978027344,2|0,1:2|1:2,0:0:0:0:
41,312,57632,1,10,0:2:0:0:
80,158,57905,22,0,L|91:42,1,107.999996704102,6|0,1:2|0:0,0:2:0:0:
104,25,58177,2,0,L|130:188,2,143.999995605469,10|0|10,0:2|1:2|0:2,0:2:0:0:
211,68,58859,1,2,0:2:0:0:
211,68,58996,2,0,P|255:73|295:59,1,71.9999978027344,2|2,1:2|0:2,0:0:0:0:
430,134,59268,2,0,P|386:129|346:143,1,71.9999978027344,10|2,0:2|0:2,0:0:0:0:
283,209,59541,2,0,L|272:293,1,71.9999978027344,2|0,1:2|1:2,0:0:0:0:
379,376,59814,2,0,L|365:283,1,71.9999978027344,10|0,0:2|1:2,0:0:0:0:
254,291,60087,22,0,B|170:284|203:334|113:321,1,143.999995605469,6|8,1:2|0:2,0:2:0:0:
0,350,60496,2,0,P|17:307|33:206,1,143.999995605469,2|0,1:2|0:2,0:2:0:0:
111,129,60905,2,0,P|118:167|132:214,1,71.9999978027344,10|0,0:2|0:2,0:2:0:0:
233,240,61177,22,0,L|318:232,1,71.9999978027344,6|0,1:2|0:2,0:2:0:0:
441,201,61450,2,0,P|458:250|454:289,1,71.9999978027344,10|0,0:2|0:2,0:2:0:0:
391,354,61723,2,0,P|374:305|378:266,1,71.9999978027344,2|0,1:2|1:2,0:0:0:0:
290,213,61996,2,0,L|172:190,1,107.999996704102,10|0,0:2|0:0,0:2:0:0:
148,202,62268,22,0,P|131:136|157:42,1,143.999995605469,6|10,1:2|0:2,0:0:0:0:
0,112,62814,2,0,P|6:160|6:191,1,71.9999978027344,2|0,1:2|0:2,0:2:0:0:
71,238,63087,2,0,P|66:274|66:310,1,71.9999978027344,10|0,0:2|0:2,0:2:0:0:
8,377,63359,22,0,P|56:347|160:367,1,143.999995605469,6|8,1:2|0:2,0:0:0:0:
351,272,63905,2,0,P|399:302|503:282,1,143.999995605469,2|8,1:2|1:3,0:0:0:0:
437,209,64314,1,8,0:3:0:0:
437,209,64382,1,8,0:3:0:0:
437,209,64450,22,0,L|416:54,1,143.999995605469,6|12,1:2|0:2,0:2:0:0:
338,16,64859,1,0,0:2:0:0:
255,72,64996,2,0,P|237:116|269:211,1,143.999995605469,2|8,1:2|0:2,0:2:0:0:
126,292,65541,22,0,P|78:300|32:293,1,71.9999978027344,6|0,1:2|0:2,0:2:0:0:
185,355,65814,2,0,L|266:365,1,71.9999978027344,10|0,0:2|0:2,0:2:0:0:
343,332,66087,2,0,P|357:286|353:249,1,71.9999978027344,2|0,1:2|0:2,0:2:0:0:
352,176,66359,1,10,0:2:0:0:
392,20,66632,22,0,L|403:105,1,71.9999978027344,6|0,1:2|1:2,0:0:0:0:
454,171,66905,2,0,L|438:315,2,143.999995605469,10|0|10,0:2|1:2|0:2,0:0:0:0:
352,176,67587,1,10,0:2:0:0:
352,176,67655,1,0,0:0:0:0:
352,176,67723,22,0,B|275:160|303:221|201:194,1,143.999995605469,0|8,1:2|0:2,0:2:0:0:
107,327,68268,2,0,P|96:277|89:248,1,71.9999978027344,2|0,1:2|1:2,0:0:0:0:
202,207,68541,2,0,P|193:242|181:277,1,71.9999978027344,10|0,0:2|0:2,0:2:0:0:
229,345,68814,22,0,B|296:321|296:321|383:344,2,143.999995605469,6|8|0,1:2|0:2|1:2,0:2:0:0:
181,275,69496,1,0,1:2:0:0:
189,195,69632,2,0,P|198:148|201:113,1,71.9999978027344,10|0,0:2|1:2,0:0:0:0:
292,58,69905,22,0,P|305:117|334:211,2,143.999995605469,2|10|2,1:2|0:2|1:2,0:2:0:0:
400,147,70587,1,0,1:2:0:0:
329,197,70723,2,0,P|267:193|241:189,1,71.9999978027344,10|0,0:2|0:2,0:2:0:0:
160,250,70996,22,0,P|94:243|11:243,2,143.999995605469,6|8|2,1:2|0:2|1:2,0:2:0:0:
263,304,71677,1,2,0:2:0:0:
263,304,71814,2,0,P|321:302|350:304,1,71.9999978027344,10|0,0:2|0:2,0:2:0:0:
416,338,72087,22,0,P|373:294|407:138,1,215.999993408203,2|2,1:2|0:2,0:2:0:0:
463,68,72632,2,0,L|378:66,1,71.9999978027344,2|0,1:2|1:2,0:0:0:0:
327,11,72905,1,10,0:2:0:0:
173,60,73177,22,0,B|131:119|131:119|137:205,1,143.999995605469,6|8,1:2|0:2,0:2:0:0:
232,285,73587,2,0,L|220:138,1,143.999995605469,2|0,1:2|0:2,0:0:0:0:
294,96,73996,2,0,P|335:88|382:92,1,71.9999978027344,10|0,0:2|0:2,0:2:0:0:
455,143,74268,21,6,1:2:0:0:
455,143,74405,1,8,0:2:0:0:
371,182,74541,2,0,B|296:167|321:233|221:202,1,143.999995605469,2|2,1:2|1:2,0:0:0:0:
148,159,74950,1,0,1:2:0:0:
148,159,75087,1,0,1:2:0:0:
71,211,75223,38,0,L|81:345,1,120,6|0,1:2|1:2,0:2:0:0:
167,371,75632,1,8,0:0:0:0:
167,371,75905,1,0,1:0:0:0:
167,371,76177,2,0,L|226:354,1,60,8|0,0:0|0:0,0:0:0:0:
301,310,76450,2,0,L|370:316,1,60,0|0,1:0|0:0,0:0:0:0:
446,293,76723,2,0,P|455:260|451:214,1,60,8|0,0:0|0:0,0:0:0:0:
368,86,76996,21,2,1:2:0:0:
368,86,77132,2,0,L|379:219,2,120,10|6|0,0:0|1:0|1:0,0:0:0:0:
288,34,77814,2,0,P|279:69|278:103,1,60,8|0,0:0|0:0,0:0:0:0:
200,148,78087,2,0,L|215:227,1,60,0|0,1:0|0:0,0:0:0:0:
128,256,78359,2,0,L|117:198,1,60,0|0,1:0|0:0,0:0:0:0:
36,145,78632,22,0,P|19:115|28:25,1,120,0|0,1:0|1:0,0:0:0:0:
104,78,79041,2,0,L|169:68,1,60,0|8,1:0|0:0,0:0:0:0:
275,88,79314,2,0,L|340:78,1,60,0|0,1:0|1:0,0:0:0:0:
433,131,79587,6,2,B|451:168|451:168|424:213|435:266,1,120,6|0,1:2|1:0,1:0:0:0:
373,308,79996,2,0,P|324:324|296:322,1,60,8|2,0:2|1:2,0:0:0:0:
239,289,80268,2,0,P|190:280|157:286,1,60,10|2,0:2|1:2,0:0:0:0:
96,341,80541,2,0,L|72:266,1,60,10|2,0:2|1:2,0:0:0:0:
113,197,80814,21,2,1:2:0:0:
113,197,80950,1,2,1:2:0:0:
33,143,81087,2,0,L|46:66,1,60,10|2,0:2|1:2,0:0:0:0:
123,22,81359,2,0,L|136:96,2,60,10|2|10,0:2|1:2|0:2,0:0:0:0:
226,30,81768,22,2,P|262:53|251:143,1,120,6|0,1:2|1:2,1:0:0:0:
192,196,82177,2,0,L|183:260,1,60,10|0,0:2|1:2,0:0:0:0:
277,307,82450,2,0,L|286:248,1,60,2|2,1:2|0:2,0:0:0:0:
308,229,82655,1,0,0:0:0:0:
308,229,82723,2,0,P|352:217|376:218,1,60,10|2,0:2|0:2,0:0:0:0:
464,247,82996,21,2,1:2:0:0:
464,247,83132,1,2,0:2:0:0:
486,144,83268,2,0,L|473:64,1,60,10|2,0:2|0:2,0:0:0:0:
377,37,83541,1,4,1:2:0:0:
305,91,83677,2,0,B|273:93|273:93|228:79,1,60,8|8,0:2|0:2,0:0:0:0:
137,118,83950,22,0,L|10:104,1,120,4|0,1:2|1:0,0:0:0:0:
47,204,84359,2,0,L|167:218,1,120,8|0,0:0|1:0,0:0:0:0:
257,273,84768,1,0,1:0:0:0:
257,273,84905,2,0,P|287:264|323:262,1,60,8|0,0:0|0:0,0:0:0:0:
389,329,85177,22,0,P|361:288|406:166,2,180,6|14|14,1:2|0:0|0:0,0:0:0:0:
275,149,86268,2,0,L|263:74,2,60,6|8|8,1:2|0:0|0:0,0:0:0:0:
198,222,86677,2,0,P|143:209|8:208,1,180,6|6,1:2|1:2,0:0:0:0:
137,244,96359,5,0,0:0:0:0:
137,244,96427,1,0,0:0:0:0:
137,244,96496,2,0,L|140:168,1,60,8|8,0:0|0:0,0:0:0:0:
204,113,96768,1,8,0:3:0:0:
204,113,96905,1,8,0:3:0:0:
283,166,97041,22,0,P|335:174|384:156,1,96,2|0,1:2|1:0,0:0:0:0:
451,262,97450,2,0,P|399:254|350:272,2,96,8|2|8,0:0|0:0|0:0,0:0:0:0:
411,347,98132,22,0,L|308:342,1,96,2|0,1:2|1:0,0:0:0:0:
228,364,98541,2,0,L|125:359,2,96,8|2|8,0:0|0:0|0:0,0:0:0:0:
304,300,99223,22,0,P|310:244|306:196,1,96,2|0,1:2|1:0,0:0:0:0:
215,219,99632,2,0,P|209:163|213:115,2,96,8|0|8,0:0|0:0|0:0,0:0:0:0:
147,287,100314,22,0,P|81:282|46:278,1,96,0|0,1:0|1:0,0:0:0:0:
0,182,100723,2,0,P|66:187|101:191,1,96,8|2,0:0|1:2,0:0:0:0:
173,139,101132,2,0,P|180:96|184:78,1,48,2|10,1:2|0:2,0:0:0:0:
272,51,101405,22,0,P|282:125|285:163,1,96,2|0,1:2|0:0,0:0:0:0:
370,183,101814,2,0,P|363:229|355:294,2,96,10|2|10,0:0|0:0|0:0,0:0:0:0:
271,237,102496,22,0,B|210:235|242:253|166:261,1,96,2|0,1:2|0:0,0:0:0:0:
98,213,102905,2,0,P|91:179|149:186,2,96,8|2|10,0:0|1:2|0:0,0:0:0:0:
244,323,103587,22,0,L|348:313,1,96,6|2,1:2|1:2,0:0:0:0:
419,357,103996,1,8,0:0:0:0:
490,196,104268,1,0,1:0:0:0:
490,196,104388,1,8,0:0:0:0:
417,151,104545,2,0,L|406:93,1,48,0|0,1:0|1:0,0:0:0:0:
344,198,104800,22,0,B|267:187|267:187|284:211,1,96,12|0,0:0|0:0,0:0:0:0:
200,246,105222,1,8,0:3:0:0:
128,206,105358,2,0,L|123:152,1,48,8|8,0:0|0:3,0:0:0:0:
50,225,105630,2,0,L|43:272,1,48,8|8,0:3|0:3,0:0:0:0:
136,313,105903,21,6,1:2:0:0:
136,313,106993,1,10,0:2:0:0:
136,313,107130,2,0,B|173:345|173:345|241:344,2,96,2|10|2,0:2|0:2|0:2,0:0:0:0:
0,370,108084,21,6,1:2:0:0:
0,370,109175,1,14,0:2:0:0:
52,298,109312,2,0,P|59:251|62:185,2,96,2|10|10,0:2|0:2|0:0,0:0:0:0:
234,214,110266,21,6,1:2:0:0:
234,214,110675,2,0,P|274:224|288:228,1,48
280,225,110880,1,8,0:0:0:0:
280,225,110948,1,8,0:0:0:0:
401,347,111357,22,0,P|395:304|376:185,2,144,8|12|0,0:0|0:3|1:0,0:0:0:0:
268,376,112448,21,6,1:2:0:0:
268,376,113403,1,0,0:0:0:0:
211,313,113539,2,0,P|179:315|111:331,1,96,10|0,0:2|1:0,0:0:0:0:
29,371,113948,1,10,0:0:0:0:
29,371,114084,2,0,P|35:333|35:312,1,48,8|8,0:0|0:3,0:0:0:0:
87,252,114357,2,0,P|81:214|81:193,1,48,8|8,0:3|0:3,0:0:0:0:
0,116,114630,22,0,P|47:122|125:124,2,120,6|10|2,1:2|0:0|0:0,0:0:0:0:
171,57,115448,2,0,P|200:64|236:70,1,60,10|2,0:0|0:0,0:0:0:0:
316,32,115721,1,0,1:0:0:0:
316,32,115857,2,0,P|322:70|331:114,1,60,0|8,0:0|0:0,0:0:0:0:
407,127,116130,2,0,P|398:175|389:261,2,120,2|0|0,0:0|1:0|0:0,0:0:0:0:
458,49,116812,21,6,1:2:0:0:
458,49,116948,1,2,0:2:0:0:
512,149,117084,2,0,P|505:195|504:234,1,60,10|2,0:2|0:2,0:0:0:0:
460,298,117357,2,0,P|425:288|327:319,1,120,2|10,1:2|0:0,0:0:0:0:
306,192,117766,1,0,0:0:0:0:
259,271,117903,2,0,P|220:296|134:293,1,120,2|8,1:2|0:0,0:0:0:0:
34,196,118448,22,0,P|40:159|46:116,1,60,2|2,1:2|1:2,0:0:0:0:
129,134,118721,2,0,P|124:163|119:193,1,60,10|2,0:2|0:2,0:0:0:0:
217,176,118993,22,0,P|259:168|343:199,1,120,6|10,1:2|0:2,0:0:0:0:
400,136,119403,1,2,0:2:0:0:
489,113,119539,1,2,1:2:0:0:
465,203,119675,2,0,P|446:145|453:74,1,120,2|0,1:2|0:0,0:0:0:0:
494,13,120084,2,0,P|451:6|422:3,1,60,6|0,1:2|0:0,0:0:0:0:
360,57,120357,2,0,P|321:64|286:74,1,60,10|0,0:0|0:0,0:0:0:0:
203,2,120630,22,0,P|212:40|211:76,1,60,2|2,1:2|1:2,0:0:0:0:
112,137,120903,2,0,P|113:112|128:69,1,60,10|2,0:2|1:2,0:0:0:0:
266,145,121175,2,0,P|225:156|162:224,1,120,6|10,1:2|0:2,0:0:0:0:
100,267,121584,1,2,0:2:0:0:
201,288,121721,2,0,P|241:293|269:302,1,60,6|0,1:2|0:0,0:0:0:0:
342,351,121993,1,10,0:0:0:0:
342,351,122130,1,2,0:0:0:0:
428,325,122266,21,10,1:2:0:0:
471,150,122539,1,14,1:2:0:0:
318,226,122812,1,0,0:0:0:0:
319,211,123357,38,0,P|323:164|337:79,1,107.999996704102,6|0,1:2|0:0,0:2:0:0:
327,83,123630,2,0,P|289:96|243:89,1,71.9999978027344,12|0,0:2|0:2,0:0:0:0:
157,11,123903,22,0,B|164:64|164:64|174:81|174:81|184:161,1,143.999995605469,2|8,1:2|0:2,0:0:0:0:
140,231,124312,1,0,0:2:0:0:
49,254,124448,2,0,P|89:267|134:285,1,71.9999978027344,6|0,1:2|0:2,0:2:0:0:
188,326,124721,2,0,P|231:319|266:309,1,71.9999978027344,10|0,0:2|1:2,0:0:0:0:
338,246,124993,2,0,L|352:326,1,71.9999978027344,2|0,1:2|1:2,0:0:0:0:
419,193,125266,2,0,L|435:274,1,71.9999978027344,10|0,0:2|1:2,0:0:0:0:
491,339,125539,21,6,1:2:0:0:
509,156,125812,2,0,B|419:156|468:108|369:107,2,143.999995605469,10|0|10,0:2|1:2|0:2,0:2:0:0:
512,18,126493,1,2,0:2:0:0:
512,18,126562,1,0,0:0:0:0:
512,18,126630,2,0,P|469:29|423:37,1,71.9999978027344,2|2,1:2|0:2,0:0:0:0:
370,101,126903,2,0,P|322:92|279:83,1,71.9999978027344,10|2,0:2|0:2,0:0:0:0:
236,13,127175,2,0,P|216:55|218:92,1,71.9999978027344,2|2,1:2|1:2,0:0:0:0:
169,175,127448,2,0,P|152:134|117:106,1,71.9999978027344,10|0,0:2|1:2,0:0:0:0:
0,69,127721,22,0,P|57:53|151:21,1,143.999995605469,6|8,1:2|0:2,0:2:0:0:
215,79,128130,2,0,P|279:56|367:25,1,143.999995605469,2|0,1:2|1:2,0:2:0:0:
444,4,128539,2,0,P|435:51|434:103,1,71.9999978027344,10|0,0:2|1:2,0:0:0:0:
512,190,128812,22,0,P|469:169|415:160,1,71.9999978027344,6|0,1:2|0:2,0:2:0:0:
319,258,129084,2,0,P|348:252|382:215,1,71.9999978027344,10|0,0:2|1:2,0:0:0:0:
344,63,129357,2,0,P|358:118|362:152,1,71.9999978027344,2|0,1:2|1:2,0:0:0:0:
265,146,129630,2,0,P|249:194|247:223,1,71.9999978027344,10|0,0:2|0:2,0:0:0:0:
244,314,129903,22,0,P|207:303|93:298,2,143.999995605469,6|10|2,1:2|0:2|1:2,0:0:0:0:
329,282,130584,1,0,1:2:0:0:
331,377,130721,2,0,P|366:365|405:347,1,71.9999978027344,10|0,0:2|1:2,0:0:0:0:
493,377,130993,2,0,P|478:325|472:234,1,143.999995605469,6|8,1:2|0:2,0:0:0:0:
512,64,131539,2,0,B|429:61|471:20|356:15,1,143.999995605469,2|8,1:2|1:3,0:0:0:0:
295,67,131948,21,8,0:3:0:0:
295,67,132016,1,0,0:0:0:0:
295,67,132084,2,0,P|300:110|297:192,1,107.999996704102,6|0,1:2|0:0,0:2:0:0:
278,188,132357,2,0,P|230:181|180:180,1,71.9999978027344,12|0,0:2|0:2,0:0:0:0:
99,151,132630,2,0,P|132:130|148:23,1,143.999995605469,2|8,1:2|0:2,0:2:0:0:
55,14,133039,1,0,1:2:0:0:
0,83,133175,2,0,P|11:133|15:173,1,71.9999978027344,6|0,1:2|1:2,0:0:0:0:
1,246,133448,2,0,P|56:242|161:258,2,143.999995605469,10|2|10,0:2|1:2|0:2,0:0:0:0:
208,337,134266,22,0,P|247:329|281:323,1,71.9999978027344,6|0,1:2|0:0,0:0:0:0:
385,382,134539,2,0,P|366:326|368:214,2,143.999995605469,10|0|10,0:2|1:2|0:2,0:0:0:0:
459,280,135221,1,10,0:2:0:0:
459,280,135289,1,0,0:0:0:0:
459,280,135357,2,0,P|465:242|476:204,1,71.9999978027344,0|0,1:2|1:2,0:0:0:0:
428,132,135630,2,0,P|422:92|412:47,1,71.9999978027344,8|0,0:2|1:2,0:0:0:0:
345,4,135903,21,2,1:2:0:0:
224,60,136175,1,10,0:2:0:0:
76,90,136448,22,0,P|124:99|173:161,1,107.999996704102,6|0,1:2|0:0,0:2:0:0:
173,154,136721,2,0,P|164:202|154:302,1,143.999995605469,8|0,0:2|1:2,0:0:0:0:
264,250,137130,1,0,1:2:0:0:
264,250,137266,2,0,P|306:239|357:236,1,71.9999978027344,10|0,0:2|1:2,0:0:0:0:
409,290,137539,2,0,P|416:257|420:237,2,35.9999989013672,2|2|2,1:2|0:0|0:2,0:2:0:0:
487,322,137812,2,0,P|490:339|494:357,2,35.9999989013672,10|2|2,0:2|0:2|0:2,0:0:0:0:
498,209,138084,22,0,P|489:180|480:140,1,71.9999978027344,2|2,1:2|0:2,0:0:0:0:
497,53,138357,1,10,0:2:0:0:
356,132,138630,22,0,P|297:127|223:80,2,143.999995605469,6|8|2,1:2|0:2|1:2,0:2:0:0:
402,225,139312,1,2,0:2:0:0:
402,225,139448,2,0,P|355:232|315:246,1,71.9999978027344,10|0,0:2|0:2,0:2:0:0:
269,311,139721,2,0,L|24:293,1,215.999993408203,6|2,1:2|0:2,0:0:0:0:
7,218,140266,22,0,P|17:181|23:142,1,71.9999978027344,6|2,1:2|0:2,0:0:0:0:
100,110,140539,2,0,P|91:75|86:33,1,71.9999978027344,10|2,0:2|0:2,0:0:0:0:
193,17,140812,22,0,P|246:28|347:81,1,143.999995605469,6|8,1:2|0:2,0:2:0:0:
404,13,141221,1,2,1:2:0:0:
404,13,141357,2,0,P|429:47|434:82,1,71.9999978027344,0|0,1:2|1:2,0:0:0:0:
500,129,141630,2,0,P|481:165|476:207,1,71.9999978027344,10|0,0:2|0:2,0:2:0:0:
506,310,141903,22,0,P|453:288|406:281,1,71.9999978027344,6|8,1:2|0:2,0:0:0:0:
377,218,142175,2,0,P|323:234|297:234,1,71.9999978027344,2|0,1:2|0:0,0:0:0:0:
225,291,142448,2,0,P|220:250|214:213,2,71.9999978027344,2|0|0,1:2|1:2|1:2,0:0:0:0:
156,367,142857,21,6,1:2:0:0:
145,194,151584,22,2,P|193:186|298:216,1,143.999995605469,6|0,0:1|1:0,0:1:0:0:
359,271,151993,2,0,P|372:235|410:206,1,71.9999978027344,10|0,0:2|0:0,0:0:0:0:
478,239,152266,2,0,P|502:268|508:315,1,71.9999978027344,2|0,1:2|0:0,0:0:0:0:
443,362,152539,2,0,P|405:368|361:350,1,71.9999978027344,10|0,0:0|0:0,0:0:0:0:
274,305,152812,22,0,P|232:317|199:329,1,71.9999978027344,6|0,1:2|0:0,0:0:0:0:
133,372,153084,2,0,P|96:367|54:364,1,71.9999978027344,10|0,0:0|0:0,0:0:0:0:
9,287,153357,21,6,1:0:0:0:
9,287,153493,1,0,1:0:0:0:
9,287,153630,1,10,0:1:0:0:
9,287,153766,2,2,P|19:233|27:132,1,143.999995605469,6|0,1:2|1:0,0:1:0:0:
90,70,154175,2,0,P|129:73|180:84,1,71.9999978027344,10|0,0:0|0:0,0:0:0:0:
236,21,154448,2,0,P|274:36|304:72,1,71.9999978027344,2|0,1:2|0:0,0:0:0:0:
387,32,154721,2,0,P|401:60|402:111,1,71.9999978027344,10|0,0:0|0:0,0:0:0:0:
488,186,154993,22,0,P|433:180|393:183,1,71.9999978027344,6|0,1:2|0:0,0:0:0:0:
349,238,155266,2,0,P|310:249|269:254,1,71.9999978027344,8|0,0:0|0:0,0:0:0:0:
197,188,155539,1,6,1:1:0:0:
197,188,155675,1,8,0:0:0:0:
197,188,155812,1,10,0:1:0:0:
197,188,155948,2,2,P|183:254|201:348,1,143.999995605469,6|0,1:2|1:0,0:1:0:0:
97,254,156357,22,0,P|58:244|22:239,1,71.9999978027344,2|0,0:0|0:0,0:0:0:0:
78,133,156630,1,2,1:2:0:0:
78,133,156766,2,0,P|43:142|8:149,1,71.9999978027344,2|8,1:2|0:0,0:0:0:0:
162,77,157039,2,0,P|206:90|311:135,1,143.999995605469,8|0,0:0|0:0,0:0:0:0:
386,101,157448,2,0,P|389:145|395:185,1,71.9999978027344,2|0,1:2|0:0,0:0:0:0:
446,249,157721,21,10,0:1:0:0:
446,249,157857,1,8,0:0:0:0:
446,249,157993,1,10,0:1:0:0:
446,249,158130,1,6,1:0:0:0:
256,192,158198,12,4,160312,0:3:0:0:
222,177,162630,6,0,P|259:188|315:194,1,96,6|8,1:2|0:0,0:0:0:0:
474,229,163175,2,0,P|445:238|382:259,1,96,2|8,1:2|0:0,0:0:0:0:
280,294,163721,1,2,1:2:0:0:
280,294,163993,1,10,0:0:0:0:
111,239,164266,2,0,P|201:230|222:229,1,96,2|8,0:0|0:0,0:0:0:0:
388,182,164812,22,2,P|327:156|205:141,1,180,6|0,0:2|0:0,0:1:0:0:
192,52,165357,2,2,P|135:73|8:84,1,180,6|2,1:1|0:1,0:1:0:0:
11,174,165903,1,2,1:2:0:0:
92,220,166039,2,0,P|82:242|72:263,2,30,10|10|10,0:2|0:2|0:2,0:0:0:0:
9,289,166312,1,10,0:0:0:0:
75,354,166448,2,0,P|110:342|147:335,1,60,10|8,0:0|0:3,0:0:0:0:
214,264,166721,2,0,P|251:281|287:294,1,60,8|8,0:3|0:3,0:0:0:0:
365,336,166993,1,0,1:0:0:0:
365,336,167266,38,0,P|371:281|386:168,1,143.999995605469,14|0,1:2|1:2,0:0:0:0:
472,228,167675,1,0,1:2:0:0:
461,136,167812,2,0,P|455:108|443:61,1,71.9999978027344,10|0,0:2|1:2,0:0:0:0:
315,142,168084,2,0,B|228:134|283:96|178:91,1,143.999995605469,6|10,1:2|0:2,0:2:0:0:
170,0,168493,1,0,0:2:0:0:
88,24,168630,2,0,P|78:71|70:110,1,71.9999978027344,2|0,1:2|1:2,0:0:0:0:
179,172,168903,2,0,P|176:136|172:101,1,71.9999978027344,10|0,0:2|1:2,0:0:0:0:
8,180,169175,22,0,P|64:183|96:201,1,71.9999978027344,6|0,1:2|1:2,0:0:0:0:
245,244,169448,2,0,P|203:260|146:259,1,71.9999978027344,10|0,0:2|0:2,0:0:0:0:
75,355,169721,2,0,P|86:309|90:275,1,71.9999978027344,2|0,1:2|1:2,0:0:0:0:
191,349,169993,2,0,P|180:303|176:269,1,71.9999978027344,10|0,0:2|0:2,0:2:0:0:
174,167,170266,2,0,P|233:145|320:190,1,143.999995605469,6|8,1:2|0:2,0:0:0:0:
366,259,170675,1,0,1:2:0:0:
366,259,170743,1,0,1:0:0:0:
366,259,170812,2,0,P|384:223|387:188,1,71.9999978027344,2|0,1:2|1:2,0:0:0:0:
469,152,171084,2,0,P|462:117|438:85,1,71.9999978027344,8|8,1:0|0:3,0:0:0:0:
394,6,171357,22,0,P|349:20|247:47,1,143.999995605469,6|12,1:2|0:2,0:2:0:0:
166,16,171766,1,0,1:2:0:0:
144,110,171903,2,0,P|161:152|179:258,1,143.999995605469,2|8,1:2|0:2,0:2:0:0:
100,308,172312,1,0,1:2:0:0:
177,355,172448,2,0,P|221:360|257:367,1,71.9999978027344,6|0,1:2|1:2,0:0:0:0:
273,276,172721,2,0,P|308:270|343:263,1,71.9999978027344,10|0,0:2|1:2,0:0:0:0:
470,371,172993,2,0,P|441:339|434:297,1,71.9999978027344,2|0,1:2|1:2,0:0:0:0:
486,177,173266,2,0,P|499:225|478:273,1,71.9999978027344,10|0,0:2|1:2,0:0:0:0:
383,187,173539,1,6,1:2:0:0:
198,96,173812,22,0,P|312:112|357:107,2,143.999995605469,10|0|10,0:2|1:2|0:2,0:0:0:0:
123,31,174493,1,10,0:2:0:0:
82,111,174630,2,0,P|99:147|105:181,1,71.9999978027344,0|0,1:2|0:0,0:2:0:0:
199,191,174903,2,0,P|195:239|173:277,1,71.9999978027344,8|0,0:2|0:2,0:2:0:0:
120,324,175175,2,0,P|75:330|38:339,1,71.9999978027344,2|0,1:2|1:2,0:0:0:0:
262,313,175448,2,0,P|308:330|381:339,1,107.999996704102,10|8,0:2|0:3,0:0:0:0:
384,337,175721,22,0,B|417:243|369:270|397:197,2,143.999995605469,6|8|0,1:2|0:2|1:2,0:2:0:0:
495,343,176403,1,0,1:2:0:0:
495,343,176539,2,0,P|484:298|482:273,1,71.9999978027344,10|0,0:2|1:2,0:0:0:0:
462,151,176812,2,0,P|488:160|503:163,3,35.9999989013672,2|2|2|2,1:2|0:2|0:2|0:2,0:0:0:0:
448,133,177084,2,0,P|441:93|434:41,1,71.9999978027344,10|0,0:2|0:2,0:2:0:0:
311,36,177357,2,0,P|299:36|268:33,3,35.9999989013672,2|2|2|2,1:2|0:2|0:2|0:2,0:0:0:0:
333,29,177630,2,0,P|342:81|347:133,1,71.9999978027344,10|0,0:2|0:2,0:2:0:0:
295,205,177903,22,0,B|224:199|263:152|150:145,2,143.999995605469,6|8|2,1:2|0:2|1:2,0:0:0:0:
249,293,178584,1,2,1:2:0:0:
169,252,178721,2,0,P|119:265|79:277,1,71.9999978027344,10|0,0:2|1:2,0:0:0:0:
26,360,178993,2,0,P|16:315|-5:196,1,143.999995605469,6|10,1:2|0:2,0:0:0:0:
5,131,179403,1,2,0:2:0:0:
85,173,179539,2,0,P|96:135|105:95,1,71.9999978027344,6|2,1:2|1:2,0:0:0:0:
32,30,179812,2,0,P|78:21|127:9,1,71.9999978027344,10|2,0:2|1:2,0:0:0:0:
203,113,180084,22,0,P|248:119|354:148,1,143.999995605469,6|8,1:2|0:2,0:2:0:0:
406,69,180493,2,0,P|446:81|477:111,1,71.9999978027344,2|0,0:2|1:2,0:0:0:0:
492,194,180766,1,0,1:2:0:0:
492,194,180903,2,0,P|477:236|468:280,1,71.9999978027344,10|0,0:2|0:2,0:0:0:0:
415,334,181175,21,6,1:2:0:0:
415,334,181312,1,8,0:2:0:0:
321,258,181448,2,0,P|280:269|243:283,1,71.9999978027344,2|0,1:2|1:2,0:0:0:0:
186,353,181721,2,0,P|135:345|30:329,1,143.999995605469,2|0,1:2|1:2,0:0:0:0:
0,226,182130,6,0,P|14:188|33:70,1,143.999995605469,4|0,1:2|1:0,0:0:0:0:
109,27,182539,1,8,0:0:0:0:
109,27,182812,1,0,1:0:0:0:
109,27,183084,1,8,0:0:0:0:
109,27,183357,1,0,1:0:0:0:
109,27,183630,2,0,P|142:37|178:46,1,53.9999983520508,2|2,1:2|0:2,0:0:0:0:
240,93,183903,1,0,0:0:0:0:
240,93,184039,1,0,0:0:0:0:
240,185,184175,1,0,0:0:0:0:
139,163,184312,6,2,P|147:209|164:300,1,120,6|0,1:2|1:0,0:1:0:0:
157,308,184653,1,0,1:0:0:0:
158,307,184721,2,0,P|208:313|230:321,1,60,8|0,0:0|0:0,0:0:0:0:
284,380,184993,2,0,P|323:375|355:367,1,60,2|2,1:2|1:2,0:0:0:0:
416,314,185266,1,10,0:0:0:0:
334,250,185403,2,0,P|340:214|353:105,1,120,2|0,1:2|1:0,0:0:0:0:
433,67,185812,2,0,P|423:36|422:0,2,60,8|0|2,0:0|1:0|1:2,0:0:0:0:
330,47,186221,2,0,P|286:42|254:39,1,60,2|10,1:2|0:2,0:0:0:0:
176,112,186493,22,0,P|111:122|71:160,1,120,6|0,1:2|1:0,0:0:0:0:
8,228,186903,2,0,P|17:256|24:286,1,60,14|0,0:0|0:0,0:0:0:0:
114,326,187175,2,0,P|110:285|103:242,1,60,2|0,1:2|1:0,0:0:0:0:
192,227,187448,1,10,0:2:0:0:
192,227,187584,1,2,1:2:0:0:
253,293,187721,2,0,P|288:303|316:307,1,60,2|2,0:2|1:2,0:0:0:0:
387,384,187993,2,0,P|394:335|416:260,2,120,8|2|10,0:0|1:2|0:2,0:0:0:0:
311,306,188675,22,2,P|311:257|294:170,1,120,6|0,1:2|1:0,0:1:0:0:
324,92,189084,1,10,0:0:0:0:
187,205,189357,2,0,P|131:208|62:185,1,120,2|10,1:2|0:2,0:0:0:0:
21,101,189766,2,0,B|-1:179|52:145|24:244,1,120,6|0,1:2|1:0,0:0:0:0:
38,320,190175,22,0,P|83:309|125:307,1,60,2|0,1:2|0:0,0:0:0:0:
182,369,190448,1,2,1:2:0:0:
182,369,190584,1,2,1:2:0:0:
182,369,190721,1,10,0:2:0:0:
182,369,190857,2,0,P|246:375|309:380,1,120,6|2,1:2|1:2,0:0:0:0:
404,345,191266,22,0,P|458:325|458:200,1,180,10|0,0:0|1:0,0:0:0:0:
391,150,191812,2,0,P|429:143|462:134,2,60,8|2|0,0:0|1:2|1:0,0:0:0:0:
306,92,192221,1,2,1:2:0:0:
306,92,192289,1,0,0:0:0:0:
306,92,192357,1,10,0:0:0:0:
233,147,192493,1,0,1:0:0:0:
159,76,192630,2,0,P|143:101|130:144,1,60,2|2,1:2|1:2,0:0:0:0:
60,185,192903,1,10,0:2:0:0:
135,245,193039,22,0,P|153:288|164:378,1,120,6|0,1:2|1:0,0:0:0:0:
247,290,193448,1,8,0:0:0:0:
247,290,193721,1,0,1:0:0:0:
328,342,193857,2,0,P|367:336|457:328,1,120,2|6,1:2|1:2,0:0:0:0:
496,184,194403,1,2,1:2:0:0:
408,124,194539,2,0,P|404:165|400:206,1,60,0|0,1:0|1:0,0:0:0:0:
317,204,194812,2,0,P|259:188|186:183,1,120,2|10,1:2|0:2,0:0:0:0:
132,126,195221,1,6,1:2:0:0:
288,78,195630,6,0,P|329:91|349:100,2,60,2|2|2,0:0|0:2|0:2,0:0:0:0:
188,106,196448,2,0,P|160:117|131:125,2,60,2|2|2,0:2|0:2|0:2,0:0:0:0:
219,18,197266,1,0,0:2:0:0:
219,18,197403,1,2,0:0:0:0:
