osu file format v14

[General]
AudioFilename: audio.mp3
AudioLeadIn: 0
PreviewTime: 64895
Countdown: 0
SampleSet: Normal
StackLeniency: 0.9
Mode: 0
LetterboxInBreaks: 0
WidescreenStoryboard: 0

[Editor]
Bookmarks: 26104,47437,66103,87437,122103,140770,159437,183437
DistanceSpacing: 1
BeatDivisor: 4
GridSize: 4
TimelineZoom: 1.6

[Metadata]
Title:Yoru Magai
TitleUnicode:夜紛い
Artist:Yorushika
ArtistUnicode:ヨルシカ
Creator:CoLouRed GlaZeE
Version:Collab Extra
Source:
Tags:deetz delis smm shirohamymommy だから僕は音楽を辞め dakara boku wa ongaku wo yameta n-buna suis japanese pop
BeatmapID:2427894
BeatmapSetID:1163834

[Difficulty]
HPDrainRate:5
CircleSize:4
OverallDifficulty:8
ApproachRate:9
SliderMultiplier:1.7
SliderTickRate:1

[Events]
//Background and Video events
0,0,"dontmuchcare.jpg",0,0
//Break Periods
2,87770,98103
//Storyboard Layer 0 (Background)
//Storyboard Layer 1 (Fail)
//Storyboard Layer 2 (Pass)
//Storyboard Layer 3 (Foreground)
//Storyboard Layer 4 (Overlay)
//Storyboard Sound Samples

[TimingPoints]
104,333.333333333333,4,3,0,35,1,0
104,-133.333333333333,4,3,0,35,0,0
2104,333.333333333333,4,1,0,60,1,0
12770,-133.333333333333,4,1,0,60,0,0
16770,-100,4,1,0,60,0,0
25770,-100,4,1,0,5,0,0
26103,-133.333333333333,4,3,0,40,0,0
28770,-133.333333333333,4,3,0,25,0,0
28853,-133.333333333333,4,3,0,40,0,0
47437,-153.846153846154,4,3,0,40,0,0
52770,-133.333333333333,4,3,0,45,0,0
57937,-117.647058823529,4,3,0,50,0,0
64937,-166.666666666667,4,3,0,50,0,0
66103,-90.9090909090909,4,1,0,65,0,1
68770,-200,4,1,0,65,0,1
69020,-200,4,1,0,5,0,1
69103,-90.9090909090909,4,1,0,65,0,1
82103,-90.9090909090909,4,1,0,65,0,0
83437,-90.9090909090909,4,1,0,65,0,1
83603,-90.9090909090909,4,1,0,65,0,0
84770,-133.333333333333,4,3,0,65,0,0
100770,-133.333333333333,4,3,0,40,0,0
103437,-133.333333333333,4,3,0,25,0,0
103520,-133.333333333333,4,3,0,40,0,0
127437,-100,4,3,0,45,0,0
135437,-100,4,3,0,50,0,0
139603,-125,4,3,0,40,0,0
140770,-90.9090909090909,4,1,0,65,0,1
157937,-90.9090909090909,4,1,0,65,0,0
159437,-90.9090909090909,4,1,0,65,0,1
180770,-90.9090909090909,4,1,0,65,0,0
183437,-133.333333333333,4,1,0,40,0,0
186103,-83.3333333333333,4,1,0,60,0,0
186937,-100,4,1,0,60,0,0
196770,-133.333333333333,4,1,0,60,0,0
202103,-100,4,1,0,60,0,0
207520,-100,4,1,0,50,0,0
210103,-100,4,1,0,40,0,0
212770,-100,4,1,0,30,0,0
215437,-100,4,1,0,20,0,0
218103,-100,4,1,0,10,0,0
220687,-100,4,2,0,5,0,0

[Colours]
Combo1 : 17,254,176
Combo2 : 173,255,95
Combo3 : 255,88,100
Combo4 : 255,94,55

[HitObjects]
458,178,104,6,0,P|433:130|427:102,1,63.7500024318696,0|2,0:0|0:0,0:0:0:0:
430,120,353,1,2,0:0:0:0:
430,120,437,2,0,P|417:173|374:247,1,127.500004863739,4|4,0:2|0:3,0:0:0:0:
382,236,1770,1,8,0:0:0:0:
231,296,1937,5,4,0:3:0:0:
231,296,2020,1,4,0:3:0:0:
231,296,2104,2,0,P|221:345|196:398,1,85,4|0,0:2|0:0,0:0:0:0:
51,289,2437,2,0,P|90:304|132:312,1,85,8|2,0:0|0:3,0:0:0:0:
282,207,2770,5,4,0:3:0:0:
134,10,2937,1,2,0:3:0:0:
320,102,3103,1,8,0:0:0:0:
80,166,3270,2,0,P|129:158|168:141,1,85,2|4,0:3|0:3,0:0:0:0:
248,279,3603,2,0,P|233:335|216:378,1,85,10|8,0:3|0:0,0:0:0:0:
238,140,3937,2,2,P|237:58|329:4,1,170,4|2,0:3|0:0,0:0:0:0:
377,43,4437,1,8,0:0:0:0:
460,31,4603,1,2,0:3:0:0:
344,223,4770,6,0,P|395:213|438:212,1,85,4|2,0:3|0:3,0:0:0:0:
479,144,5103,1,8,0:0:0:0:
479,144,5270,1,2,0:3:0:0:
483,294,5437,5,4,0:3:0:0:
447,370,5603,1,2,0:3:0:0:
370,332,5770,1,8,0:0:0:0:
222,375,5937,5,2,0:3:0:0:
222,375,6020,1,2,0:3:0:0:
222,375,6103,1,4,0:3:0:0:
334,257,6270,1,2,0:3:0:0:
144,182,6437,1,8,0:0:0:0:
224,288,6603,2,2,B|216:200|250:236|243:106,1,170,2|4,0:0|0:3,0:0:0:0:
242,35,7103,1,8,0:0:0:0:
141,130,7270,5,8,0:3:0:0:
141,130,7353,1,8,0:3:0:0:
141,130,7437,2,0,P|92:116|46:106,1,85,4|2,0:2|0:3,0:0:0:0:
326,163,7770,2,0,P|335:121|347:80,1,85,8|2,0:0|0:3,0:0:0:0:
200,211,8103,5,4,0:3:0:0:
401,296,8270,1,2,0:3:0:0:
199,361,8437,1,8,0:0:0:0:
395,206,8603,2,0,P|466:195|506:199,1,85,2|4,0:3|0:3,0:0:0:0:
303,369,8937,2,0,P|301:326|292:285,1,85,10|8,0:3|0:0,0:0:0:0:
69,169,9270,2,2,P|68:227|165:287,1,170,4|2,0:3|0:0,0:0:0:0:
200,211,9770,1,8,0:0:0:0:
76,66,9937,1,2,0:3:0:0:
200,211,10103,6,0,P|212:157|221:126,1,85,4|2,0:3|0:3,0:0:0:0:
171,16,10437,2,0,P|159:70|150:101,1,85,8|2,0:0|0:3,0:0:0:0:
296,246,10770,2,0,P|336:234|378:225,1,85,4|2,0:3|0:3,0:0:0:0:
297,73,11103,2,0,P|308:113|317:155,1,85,8|2,0:0|0:3,0:0:0:0:
402,13,11437,5,8,0:3:0:0:
441,27,11520,1,8,0:3:0:0:
466,60,11603,1,4,0:3:0:0:
468,102,11687,1,4,0:3:0:0:
447,138,11770,2,8,L|394:152,1,42.5,8|8,0:3|0:3,0:3:0:0:
501,221,11937,2,4,L|515:273,1,42.5,4|4,0:3|0:3,0:3:0:0:
286,173,12103,5,8,0:3:0:0:
349,364,12270,1,8,0:3:0:0:
349,364,12353,1,8,0:3:0:0:
349,364,12437,1,8,0:3:0:0:
430,259,12603,1,4,0:3:0:0:
214,331,12770,6,0,P|142:316|74:314,1,127.500004863739,4|0,0:2|0:3,0:0:0:0:
283,283,13270,1,4,0:3:0:0:
58,222,13437,2,0,P|99:226|144:230,1,63.7500024318696
331,219,13770,2,2,P|290:203|225:230,1,95.6250036478044,2|0,0:0|2:0,0:0:0:0:
195,156,14103,5,2,0:0:0:0:
193,149,14270,1,2,0:0:0:0:
191,142,14437,1,2,0:0:0:0:
189,135,14603,1,2,0:0:0:0:
187,128,14770,5,2,0:0:0:0:
361,141,14937,1,4,0:3:0:0:
184,54,15103,2,0,P|237:66|265:78,1,63.7500024318696,8|2,0:0|0:3,0:0:0:0:
245,69,15353,1,2,0:3:0:0:
245,69,15437,6,0,P|274:28|365:15,1,127.500004863739,4|0,0:2|0:0,0:0:0:0:
340,226,15937,1,4,0:3:0:0:
439,170,16103,2,0,P|426:225|412:258,1,63.7500024318696,8|0,0:0|0:0,0:0:0:0:
461,90,16437,2,0,P|474:35|488:2,1,63.7500024318696
276,280,16770,6,0,P|285:310|297:372,1,85,8|0,0:3|0:0,0:0:0:0:
295,362,17020,1,8,0:3:0:0:
295,362,17103,2,8,L|358:350,1,42.5,8|8,0:3|0:3,0:3:0:0:
163,285,17270,2,8,L|171:326,1,42.5,8|8,0:3|0:3,0:3:0:0:
240,152,17437,2,4,L|198:160,1,42.5,4|4,0:3|0:3,0:3:0:0:
372,229,17603,2,4,L|363:187,1,42.5,4|4,0:3|0:3,0:3:0:0:
280,279,17770,5,4,0:3:0:0:
280,279,17853,1,4,0:3:0:0:
280,279,17937,1,4,0:3:0:0:
280,279,18020,1,4,0:3:0:0:
280,279,18103,6,0,P|286:331|298:368,1,85,4|0,0:2|0:0,0:0:0:0:
352,167,18437,2,0,P|380:95|318:-2,1,170,8|0,0:0|0:0,0:0:0:0:
67,74,18937,2,0,P|119:68|156:56,1,85,4|8,0:3|0:0,0:0:0:0:
113,231,19270,2,0,P|85:303|147:400,1,170,4|4,0:3|0:3,0:0:0:0:
52,162,19770,1,8,0:0:0:0:
204,343,19937,2,0,P|156:339|19:335,1,170,4|4,0:3|0:3,0:0:0:0:
174,154,20437,5,8,0:0:0:0:
253,274,20603,1,2,0:2:0:0:
253,274,20687,1,2,0:2:0:0:
253,274,20770,1,4,0:3:0:0:
324,233,20937,1,0,0:0:0:0:
293,354,21103,5,8,0:0:0:0:
483,277,21270,1,0,0:0:0:0:
283,160,21437,1,2,0:0:0:0:
460,369,21603,1,8,0:3:0:0:
371,305,21770,5,10,0:0:0:0:
504,188,21937,2,6,P|449:161|344:224,1,170,4|2,0:3|0:1,0:0:0:0:
229,347,22437,5,10,0:0:0:0:
35,297,22603,1,8,0:3:0:0:
89,110,22770,1,8,0:3:0:0:
283,160,22936,1,4,0:3:0:0:
162,213,23103,5,4,0:3:0:0:
212,56,23270,1,4,0:3:0:0:
187,135,23437,5,4,0:2:0:0:
256,192,23520,12,4,25770,0:0:0:0:
112,256,26103,6,0,P|168:288|232:280,1,127.500004863739,4|0,0:2|0:0,0:0:0:0:
240,272,26770,1,0,0:0:0:0:
252,264,27103,1,0,0:0:0:0:
204,208,27270,1,0,0:0:0:0:
280,188,27437,1,2,0:2:0:0:
224,36,27770,2,0,L|220:116,1,63.7500024318696,0|2,0:0|0:2,0:0:0:0:
208,52,28270,2,0,L|204:144,1,63.7500024318696,4|0,0:3|0:0,0:0:0:0:
208,328,28770,5,4,0:2:0:0:
208,328,29103,2,0,P|272:300|348:316,2,127.500004863739
144,284,29937,1,0,0:0:0:0:
208,244,30103,2,0,P|210:209|208:152,1,63.7500024318696,2|0,0:2|0:0,0:0:0:0:
140,156,30437,1,0,0:0:0:0:
209,180,30603,1,2,0:2:0:0:
128,128,30937,1,4,0:3:0:0:
197,152,31103,1,2,0:3:0:0:
416,52,31437,6,0,P|376:80|364:112,1,63.7500024318696,4|0,0:3|0:0,0:0:0:0:
296,80,31770,2,0,P|308:152|352:200,1,127.500004863739
416,176,32270,1,0,0:0:0:0:
392,264,32437,2,0,P|356:272|308:264,1,63.7500024318696
256,248,32770,1,2,0:2:0:0:
208,184,32937,1,0,0:0:0:0:
284,176,33103,1,2,0:2:0:0:
216,224,33437,5,0,0:0:0:0:
248,152,33603,1,4,0:3:0:0:
292,220,33770,1,0,0:0:0:0:
128,140,33937,5,2,0:3:0:0:
60,104,34103,2,0,P|56:176|60:244,1,127.500004863739,4|0,0:2|0:0,0:0:0:0:
116,344,34603,1,2,0:2:0:0:
180,296,34770,2,0,L|244:308,2,63.7500024318696,2|0|0,0:2|0:0|0:0,0:0:0:0:
140,228,35270,2,0,P|184:200|268:196,1,127.500004863739,0|4,0:0|0:3,0:0:0:0:
148,128,35770,2,0,L|68:100,1,63.7500024318696,8|0,0:0|0:0,0:0:0:0:
148,128,36103,2,0,P|176:116|216:112,1,63.7500024318696,0|4,0:0|0:3,0:0:0:0:
372,196,36437,5,8,0:0:0:0:
372,196,36770,1,4,0:2:0:0:
344,280,36937,1,0,0:0:0:0:
288,212,37103,2,0,B|292:144|288:64,1,127.500004863739,8|0,0:0|0:0,0:0:0:0:
360,88,37603,1,0,0:0:0:0:
220,92,37770,2,0,P|180:92|144:88,1,63.7500024318696,8|0,0:0|0:0,0:0:0:0:
80,72,38103,5,4,0:3:0:0:
100,144,38270,1,4,0:3:0:0:
80,72,38437,1,8,0:0:0:0:
24,128,38603,2,0,P|12:188|40:256,1,127.500004863739,2|2,0:0|0:0,0:0:0:0:
100,292,39103,1,8,0:0:0:0:
184,288,39270,5,2,0:2:0:0:
184,288,39353,1,2,0:2:0:0:
184,288,39437,2,0,L|256:292,1,63.7500024318696,4|0,0:0|0:0,0:0:0:0:
308,240,39770,1,8,0:0:0:0:
388,236,39937,2,0,P|376:176|396:100,1,127.500004863739
320,72,40437,2,0,L|296:144,1,63.7500024318696,8|0,0:0|0:0,0:0:0:0:
236,180,40770,5,4,0:3:0:0:
164,156,40937,1,4,0:3:0:0:
224,104,41103,1,8,0:0:0:0:
164,236,41437,5,2,0:0:0:0:
292,256,41603,1,2,0:0:0:0:
200,352,41770,1,8,0:0:0:0:
200,352,42103,2,0,P|260:344|344:352,1,127.500004863739,4|8,0:2|0:0,0:0:0:0:
392,304,42603,5,0,0:0:0:0:
464,268,42770,2,0,P|468:304|464:352,1,63.7500024318696
344,224,43103,1,8,0:0:0:0:
408,184,43270,1,0,0:0:0:0:
336,144,43437,5,4,0:0:0:0:
456,100,43603,1,4,0:0:0:0:
340,40,43770,1,8,0:0:0:0:
156,144,44103,5,2,0:0:0:0:
228,192,44269,1,4,0:0:0:0:
152,228,44437,1,8,0:0:0:0:
152,228,44770,2,0,P|128:300|156:360,2,127.500004863739,4|8|4,0:2|0:0|0:3,0:0:0:0:
300,184,45603,2,0,L|284:256,1,63.7500024318696,4|2,0:3|0:0,0:0:0:0:
240,312,45937,2,0,P|304:320|360:272,1,127.500004863739,8|4,0:0|0:0,0:0:0:0:
436,312,46437,2,0,L|456:168,1,127.500004863739,8|4,0:0|0:0,0:0:0:0:
356,196,46937,5,8,0:0:0:0:
305,204,47020,1,8,0:0:0:0:
254,211,47103,1,8,0:0:0:0:
203,219,47187,1,8,0:0:0:0:
152,224,47270,1,4,0:0:0:0:
101,227,47353,1,4,0:0:0:0:
53,235,47437,5,4,0:2:0:0:
53,235,47770,2,0,P|41:190|40:166,1,55.2499974708558,2|8,0:0|0:1,0:0:0:0:
76,314,48103,2,0,P|88:359|89:383,1,55.2499974708558,2|4,0:0|0:3,0:0:0:0:
171,361,48437,1,8,0:1:0:0:
171,361,48603,1,8,0:1:0:0:
187,247,48770,5,4,0:3:0:0:
266,351,48937,1,4,0:3:0:0:
187,247,49103,1,2,0:0:0:0:
266,351,49270,2,0,P|279:297|279:224,1,110.499994941712,8|0,0:0|0:0,0:0:0:0:
313,171,49770,1,8,0:0:0:0:
387,148,49937,1,4,0:0:0:0:
363,297,50103,5,4,0:2:0:0:
363,297,50437,2,0,P|410:280|441:274,1,55.2499974708558,2|8,0:3|0:1,0:0:0:0:
476,174,50770,2,0,P|493:221|499:252,1,55.2499974708558,2|4,0:0|0:3,0:0:0:0:
494,90,51103,1,8,0:1:0:0:
494,90,51270,1,8,0:1:0:0:
367,213,51437,5,4,0:3:0:0:
374,103,51603,1,4,0:3:0:0:
300,20,51770,1,8,0:1:0:0:
300,20,52103,5,4,0:2:0:0:
395,112,52270,1,4,0:2:0:0:
481,10,52437,1,8,0:1:0:0:
311,164,52603,5,2,0:0:0:0:
311,164,52687,1,2,0:0:0:0:
311,164,52770,2,0,P|269:134|245:113,1,63.7500024318696,4|0,0:2|0:0,0:0:0:0:
23,189,53103,2,0,P|75:192|100:191,1,63.7500024318696,8|0,0:1|0:0,0:0:0:0:
168,145,53437,5,4,0:3:0:0:
160,35,53603,1,4,0:3:0:0:
3,53,53770,1,8,0:1:0:0:
90,110,53937,1,2,0:0:0:0:
246,29,54103,5,4,0:0:0:0:
80,2,54270,1,4,0:0:0:0:
168,145,54437,2,0,P|174:181|182:209,1,63.7500024318696,8|2,0:1|0:0,0:0:0:0:
0,183,54770,2,0,P|36:177|64:169,1,63.7500024318696,0|2,0:0|0:0,0:0:0:0:
72,382,55103,1,8,0:1:0:0:
35,256,55270,1,2,0:2:0:0:
195,291,55437,6,0,P|231:285|259:277,1,63.7500024318696,4|0,0:2|0:0,0:0:0:0:
444,334,55770,1,8,0:1:0:0:
444,334,56103,5,4,0:3:0:0:
322,353,56270,1,4,0:3:0:0:
362,190,56437,1,8,0:1:0:0:
376,288,56603,1,2,0:0:0:0:
463,212,56770,5,4,0:0:0:0:
265,272,56937,1,4,0:0:0:0:
463,212,57103,1,8,0:1:0:0:
453,125,57270,1,8,0:1:0:0:
512,285,57437,5,4,0:3:0:0:
379,210,57603,2,0,P|372:164|364:137,1,63.7500024318696,8|0,0:1|0:0,0:0:0:0:
512,39,57937,6,2,P|457:21|379:56,1,144.500002756119,4|2,0:2|0:1,0:1:0:0:
283,194,58437,1,8,0:1:0:0:
283,194,58770,2,4,P|287:242|297:283,1,72.2500013780594,4|4,0:3|0:3,0:3:0:0:
304,344,59103,1,8,0:1:0:0:
252,116,59270,6,2,P|197:98|119:133,1,144.500002756119,4|2,0:3|0:1,0:1:0:0:
35,369,59770,2,0,P|81:361|166:350,1,108.375002067089,8|0,0:1|0:0,0:0:0:0:
169,367,60103,5,4,0:3:0:0:
6,218,60270,1,8,0:1:0:0:
169,367,60437,1,4,0:3:0:0:
72,278,60603,6,2,P|115:275|169:186,1,144.500002756119,4|2,0:2|0:1,0:1:0:0:
167,125,61103,1,8,0:1:0:0:
167,125,61270,1,0,0:0:0:0:
72,28,61437,6,0,P|38:63|29:98,1,72.2500013780594,2|2,0:1|0:3,0:0:0:0:
48,154,61770,1,8,0:1:0:0:
249,112,61937,6,0,P|239:64|216:36,1,72.2500013780594,2|2,0:1|0:3,0:0:0:0:
159,20,62270,1,4,0:3:0:0:
150,209,62437,6,0,P|207:224|242:213,1,72.2500013780594,10|0,0:1|0:0,0:0:0:0:
394,96,62770,1,4,0:3:0:0:
366,240,62937,2,0,P|356:291|346:326,1,72.2500013780594,2|4,0:1|0:3,0:0:0:0:
316,56,63270,6,2,P|347:21|441:20,1,144.500002756119,4|2,0:2|0:1,0:1:0:0:
458,205,63770,1,8,0:1:0:0:
458,205,63937,1,0,0:0:0:0:
294,175,64103,1,8,0:3:0:0:
262,351,64270,1,8,0:1:0:0:
426,381,64436,1,8,0:1:0:0:
373,224,64603,5,4,0:2:0:0:
373,224,64937,2,0,P|366:257|364:281,1,50.9999984436036,2|2,0:0|0:0,0:0:0:0:
354,345,65270,1,2,0:0:0:0:
356,212,65603,2,0,P|349:245|347:269,1,50.9999984436036,2|2,0:0|0:0,0:0:0:0:
337,333,65936,1,2,0:0:0:0:
372,114,66103,5,4,0:1:0:0:
444,80,66270,1,0,0:0:0:0:
280,112,66437,5,10,0:1:0:0:
208,136,66603,1,2,0:0:0:0:
196,216,66770,1,2,0:0:0:0:
268,192,66937,1,2,0:0:0:0:
120,192,67103,5,10,0:0:0:0:
48,216,67270,1,0,0:0:0:0:
104,268,67437,1,2,0:0:0:0:
112,72,67603,6,0,P|156:36|220:28,1,93.5000028533936,8|8,0:3|0:0,0:0:0:0:
112,72,67937,2,2,P|208:84|292:144,1,187.000005706787,2|0,0:0|0:0,0:0:0:0:
352,160,68437,1,10,0:0:0:0:
384,232,68603,1,0,0:0:0:0:
176,364,68770,6,0,L|192:296,1,63.75,4|0,0:2|2:0,0:0:0:0:
190,301,69103,5,8,0:0:0:0:
156,240,69270,1,2,0:0:0:0:
336,168,69437,5,2,0:0:0:0:
312,244,69603,1,2,0:0:0:0:
260,184,69770,1,10,0:0:0:0:
280,352,69937,5,2,0:0:0:0:
356,336,70103,1,0,0:0:0:0:
456,200,70270,6,0,P|456:152|436:100,1,93.5000028533936,8|8,0:3|0:0,0:0:0:0:
512,284,70603,2,2,P|440:236|344:244,1,187.000005706787,2|0,0:0|0:0,0:0:0:0:
272,212,71103,1,10,0:0:0:0:
204,252,71270,1,4,0:3:0:0:
164,276,71353,1,4,0:3:0:0:
116,284,71437,2,0,P|76:256|12:244,1,93.5000028533936,4|0,0:2|0:0,0:0:0:0:
276,284,71770,5,8,0:0:0:0:
204,252,71937,2,2,P|160:188|196:80,1,187.000005706787
256,60,72437,1,10,0:0:0:0:
336,56,72603,1,2,0:0:0:0:
400,228,72770,5,4,0:3:0:0:
392,116,72936,1,4,0:3:0:0:
308,180,73103,1,10,0:0:0:0:
472,164,73270,2,2,P|504:252|476:348,1,187.000005706787
408,320,73770,2,0,L|292:328,1,93.5000028533936,10|0,0:0|0:0,0:0:0:0:
244,300,74103,5,4,0:3:0:0:
128,328,74270,1,4,0:3:0:0:
28,260,74437,1,8,0:0:0:0:
148,216,74603,5,0,0:0:0:0:
300,232,74770,1,2,0:3:0:0:
408,128,74937,5,0,0:3:0:0:
272,160,75103,1,8,0:0:0:0:
180,56,75270,1,2,0:2:0:0:
312,40,75437,1,4,0:3:0:0:
386,243,75603,5,8,0:3:0:0:
360,272,75687,1,8,0:3:0:0:
328,292,75770,1,8,0:3:0:0:
292,304,75853,1,8,0:3:0:0:
256,308,75937,1,8,0:3:0:0:
220,300,76020,1,8,0:3:0:0:
180,328,76103,5,4,0:3:0:0:
204,284,76187,1,4,0:3:0:0:
200,236,76270,1,4,0:3:0:0:
180,196,76353,1,4,0:3:0:0:
144,164,76437,1,4,0:3:0:0:
44,200,76603,5,4,0:3:0:0:
44,200,76687,1,4,0:3:0:0:
44,200,76770,2,0,P|56:156|44:88,1,93.5000028533936,4|0,0:2|0:0,0:0:0:0:
108,52,77103,1,8,0:0:0:0:
256,112,77270,5,2,0:0:0:0:
256,32,77437,1,2,0:0:0:0:
456,64,77603,5,2,0:0:0:0:
392,104,77770,1,10,0:0:0:0:
456,144,77937,1,2,0:0:0:0:
460,332,78103,5,0,0:0:0:0:
388,364,78270,1,2,0:0:0:0:
384,288,78437,1,8,0:0:0:0:
452,248,78603,1,2,0:0:0:0:
316,172,78770,5,2,0:0:0:0:
260,224,78937,1,2,0:0:0:0:
240,148,79103,1,10,0:0:0:0:
340,256,79270,5,4,0:3:0:0:
340,256,79353,1,4,0:3:0:0:
340,256,79437,1,4,0:3:0:0:
188,336,79603,5,2,0:0:0:0:
92,320,79770,1,10,0:0:0:0:
164,256,79937,1,2,0:0:0:0:
292,140,80103,5,0,0:0:0:0:
248,224,80270,1,2,0:0:0:0:
208,144,80437,1,10,0:0:0:0:
332,220,80603,1,2,0:0:0:0:
436,120,80770,6,4,L|420:8,1,93.5000028533936,4|4,0:3|0:3,0:3:0:0:
440,312,81103,2,0,L|345:372,1,93.5000028533936,8|0,0:0|0:0,0:0:0:0:
332,120,81437,1,8,0:3:0:0:
440,220,81603,1,8,0:0:0:0:
472,240,81687,1,8,0:0:0:0:
504,256,81770,1,8,0:0:0:0:
324,224,81937,1,0,0:0:0:0:
436,120,82103,5,4,0:2:0:0:
48,220,83437,5,4,0:0:0:0:
264,192,84270,5,8,0:3:0:0:
208,256,84437,1,4,0:3:0:0:
260,324,84603,1,4,0:3:0:0:
228,56,84770,6,0,P|276:72|300:100,1,63.7500024318696,4|8,0:2|0:0,0:0:0:0:
336,140,85103,1,4,0:0:0:0:
372,340,85270,2,0,P|340:292|348:212,1,127.500004863739,4|4,0:0|0:0,0:0:0:0:
488,112,85770,2,0,L|412:148,1,63.7500024318696,8|8,0:0|0:0,0:0:0:0:
248,216,86103,5,4,0:0:0:0:
224,128,86270,1,2,0:0:0:0:
342,224,86437,1,12,0:2:0:0:
156,200,86603,1,10,0:0:0:0:
320,148,86770,1,8,0:0:0:0:
224,32,86937,5,8,0:0:0:0:
192,40,87020,1,8,0:0:0:0:
160,48,87103,1,8,0:0:0:0:
128,56,87187,1,8,0:0:0:0:
156,72,87270,1,8,0:0:0:0:
184,88,87353,1,8,0:0:0:0:
216,104,87437,1,4,0:2:0:0:
119,160,100770,6,0,P|81:162|48:161,2,63.7500024318696,4|0|0,0:2|0:0|0:0,0:0:0:0:
357,136,101437,2,0,P|394:133|427:134,2,63.7500024318696
280,138,101937,1,0,0:0:0:0:
212,102,102103,5,2,0:2:0:0:
243,370,102437,2,0,L|253:295,1,63.7500024318696,0|2,0:0|0:2,0:0:0:0:
270,297,102937,2,0,L|261:360,1,63.7500024318696,4|0,0:3|0:0,0:0:0:0:
486,269,103437,5,4,0:2:0:0:
486,269,103770,1,0,0:0:0:0:
499,193,103937,1,0,0:0:0:0:
423,180,104103,2,0,P|410:228|395:329,1,127.500004863739
383,380,104603,1,0,0:0:0:0:
316,271,104770,2,0,P|307:223|229:196,1,127.500004863739,2|0,0:2|0:0,0:0:0:0:
368,94,105270,1,2,0:2:0:0:
368,94,105603,2,0,P|359:142|355:185,1,63.7500024318696,4|2,0:3|0:0,0:0:0:0:
101,0,106103,5,4,0:0:0:0:
174,20,106270,1,0,0:0:0:0:
247,40,106437,1,0,0:0:0:0:
247,40,106770,5,0,0:0:0:0:
320,20,106937,1,0,0:0:0:0:
393,0,107104,1,0,0:0:0:0:
469,111,107270,1,0,0:0:0:0:
380,78,107437,6,0,P|390:140|417:198,1,127.500004863739,2|2,0:2|0:2,0:0:0:0:
453,266,107937,1,0,0:0:0:0:
298,352,108103,5,8,0:3:0:0:
255,279,108270,1,0,0:3:0:0:
357,274,108437,2,0,P|376:310|392:341,1,63.7500024318696,8|0,0:0|0:0,0:0:0:0:
495,288,108770,5,4,0:2:0:0:
495,288,108937,1,0,0:0:0:0:
405,201,109103,2,0,P|415:136|415:46,1,127.500004863739
325,184,109603,1,0,0:0:0:0:
325,184,109770,2,0,P|322:225|318:260,1,63.7500024318696
311,323,110103,5,0,0:0:0:0:
80,291,110270,1,8,0:3:0:0:
241,359,110437,1,4,0:3:0:0:
241,359,110770,5,8,0:3:0:0:
154,257,110937,1,4,0:3:0:0:
232,145,111103,1,4,0:3:0:0:
319,247,111270,1,4,0:3:0:0:
235,252,111437,6,0,P|181:281|156:295,2,63.7500024318696,4|0|4,0:2|0:0|0:0,0:0:0:0:
432,298,111937,1,0,0:0:0:0:
432,298,112103,2,0,P|486:269|511:255,2,63.7500024318696,8|0|4,0:0|0:0|0:0,0:0:0:0:
295,320,112603,5,8,0:0:0:0:
295,320,112770,2,0,P|293:363|292:388,1,63.7500024318696,0|8,0:0|0:0,0:0:0:0:
344,174,113103,2,0,P|346:131|347:106,1,63.7500024318696,0|4,0:0|0:0,0:0:0:0:
199,177,113437,2,0,P|176:148|82:136,1,127.500004863739,8|0,0:0|0:0,0:0:0:0:
274,241,113937,5,2,0:0:0:0:
274,241,114020,1,2,0:0:0:0:
274,241,114103,2,0,P|317:245|343:248,1,63.7500024318696,4|8,0:0|0:0,0:0:0:0:
146,348,114437,2,0,P|189:352|215:355,1,63.7500024318696,4|0,0:0|0:0,0:0:0:0:
191,146,114770,2,0,P|234:150|260:153,1,63.7500024318696,4|0,0:2|0:0,0:0:0:0:
63,253,115104,2,0,P|106:257|132:260,1,63.7500024318696,4|0,0:0|0:0,0:0:0:0:
207,280,115437,5,4,0:0:0:0:
207,280,115603,1,8,0:0:0:0:
0,326,115770,2,0,P|43:330|69:333,1,63.7500024318696,4|8,0:0|0:0,0:0:0:0:
63,332,116020,1,8,0:0:0:0:
63,332,116103,1,8,0:0:0:0:
17,186,116270,1,4,0:3:0:0:
46,115,116436,1,4,0:3:0:0:
75,44,116603,1,4,0:3:0:0:
126,166,116770,6,0,P|106:221|92:251,1,63.7500024318696,4|0,0:0|0:0,0:0:0:0:
103,225,117103,2,0,P|158:245|188:259,1,63.7500024318696,4|0,0:0|0:0,0:0:0:0:
308,185,117437,2,0,P|344:157|439:148,1,127.500004863739,8|0,0:0|0:0,0:0:0:0:
234,157,117937,1,8,0:0:0:0:
234,157,118103,2,0,P|229:120|226:87,1,63.7500024318696,4|8,0:0|0:0,0:0:0:0:
248,249,118437,2,0,P|282:263|312:277,1,63.7500024318696,4|4,0:0|0:0,0:0:0:0:
500,233,118770,2,0,P|448:242|387:260,1,95.6250036478044,8|0,0:0|2:2,0:0:0:0:
380,237,119103,2,8,P|390:290|394:322,1,63.7500024318696
345,38,119437,5,4,0:2:0:0:
345,38,119770,1,8,0:0:0:0:
363,156,119937,1,8,0:0:0:0:
482,128,120103,1,8,0:0:0:0:
277,227,120270,5,8,0:0:0:0:
262,114,120437,1,8,0:0:0:0:
262,114,120603,1,2,0:2:0:0:
19,220,120770,5,8,0:0:0:0:
150,245,120937,1,4,0:0:0:0:
175,114,121103,1,8,0:0:0:0:
44,89,121270,1,8,0:0:0:0:
51,103,121353,1,8,0:0:0:0:
57,117,121437,5,4,0:0:0:0:
147,88,121603,1,4,0:0:0:0:
176,178,121770,1,4,0:0:0:0:
86,207,121937,1,4,0:0:0:0:
256,108,122103,5,4,0:2:0:0:
332,96,122270,2,2,P|392:84|456:96,2,127.500004863739,2|2|0,0:0|0:0|0:0,0:0:0:0:
264,216,123103,2,8,L|344:232,1,63.7500024318696,8|8,0:1|0:1,0:1:0:0:
192,344,123437,2,0,L|296:336,1,95.6250036478044,4|0,0:3|0:0,0:0:0:0:
287,336,123770,2,0,P|248:300|232:272,1,63.7500024318696,2|8,0:3|0:0,0:0:0:0:
208,228,124103,1,2,0:3:0:0:
236,48,124270,1,4,0:0:0:0:
180,104,124437,1,4,0:0:0:0:
100,108,124603,1,4,0:0:0:0:
264,160,124770,6,0,P|300:172|340:176,1,63.7500024318696,4|0,0:2|0:0,0:0:0:0:
396,144,125103,1,0,0:0:0:0:
392,280,125270,1,10,0:1:0:0:
316,260,125437,2,0,P|319:301|328:344,1,63.7500024318696
244,360,125770,5,10,0:1:0:0:
160,332,125937,1,8,0:1:0:0:
76,304,126103,2,0,P|84:244|64:168,1,127.500004863739,0|8,0:0|0:1,0:0:0:0:
69,179,126603,1,0,0:0:0:0:
200,224,126770,5,0,0:0:0:0:
324,176,126937,1,2,0:1:0:0:
200,128,127103,1,8,0:1:0:0:
312,64,127270,1,2,0:0:0:0:
312,64,127353,1,2,0:0:0:0:
312,64,127437,2,0,P|400:40|488:56,1,170,4|8,0:2|0:1,0:0:0:0:
496,132,127937,5,0,0:0:0:0:
480,216,128103,1,4,0:3:0:0:
408,128,128270,1,4,0:3:0:0:
372,228,128437,1,8,0:1:0:0:
440,312,128603,1,0,0:0:0:0:
296,260,128770,6,4,P|248:256|200:264,1,85,4|4,0:3|0:3,0:3:0:0:
108,292,129103,1,8,0:1:0:0:
112,184,129270,1,2,0:0:0:0:
36,136,129437,1,4,0:3:0:0:
32,228,129603,1,6,0:3:0:0:
200,236,129770,1,8,0:1:0:0:
104,372,129936,1,10,0:3:0:0:
180,328,130103,6,0,P|264:304|344:332,2,170,4|8|4,0:2|0:1|0:3,0:0:0:0:
100,284,130937,1,6,0:0:0:0:
172,228,131103,2,0,L|196:136,1,85,8|0,0:1|0:0,0:0:0:0:
100,72,131437,2,4,P|92:124|100:164,1,85,6|4,0:0|0:0,0:0:0:0:
264,208,131770,6,0,P|344:168|432:180,1,170,8|4,0:1|0:3,0:0:0:0:
312,292,132270,1,8,0:1:0:0:
168,208,132437,1,2,0:0:0:0:
216,280,132603,2,0,P|168:320|60:304,1,170,4|0,0:2|0:0,0:0:0:0:
20,240,133103,5,10,0:1:0:0:
56,128,133270,1,0,0:0:0:0:
20,240,133437,1,4,0:3:0:0:
124,208,133603,1,4,0:3:0:0:
20,240,133770,1,10,0:1:0:0:
104,316,133937,2,2,L|296:328,1,170,2|6,0:0|0:3,0:0:0:0:
352,296,134437,5,8,0:1:0:0:
368,204,134603,1,2,0:0:0:0:
308,132,134770,1,2,0:1:0:0:
292,232,134937,1,8,0:3:0:0:
428,260,135103,1,0,0:0:0:0:
388,120,135270,1,4,0:2:0:0:
232,172,135437,6,0,P|184:176|140:176,1,85,2|0,0:3|0:0,0:0:0:0:
84,100,135770,1,8,0:3:0:0:
180,96,135937,1,4,0:3:0:0:
180,96,136020,1,4,0:3:0:0:
180,96,136103,1,2,0:1:0:0:
328,124,136270,1,4,0:3:0:0:
416,116,136437,1,8,0:1:0:0:
488,60,136603,5,2,0:1:0:0:
484,208,136770,2,0,P|440:212|388:212,1,85,4|6,0:3|0:3,0:0:0:0:
216,344,137103,2,2,P|320:328|364:332,1,127.5,10|0,0:1|0:1,0:1:0:0:
384,344,137437,1,0,0:0:0:0:
280,216,137603,1,2,0:1:0:0:
176,232,137770,1,8,0:0:0:0:
368,80,137937,6,2,P|400:164|368:252,1,170,4|2,0:2|0:1,0:1:0:0:
264,96,138437,2,0,L|180:104,1,85,8|2,0:1|0:0,0:0:0:0:
140,84,138687,1,2,0:0:0:0:
104,64,138770,1,4,0:3:0:0:
28,200,138937,1,8,0:3:0:0:
140,308,139103,1,8,0:3:0:0:
272,220,139270,1,4,0:2:0:0:
268,224,139603,6,0,L|276:308,2,68,2|2|2,0:0|0:0|0:0,0:0:0:0:
252,204,140270,2,0,L|260:296,1,68,2|2,0:0|0:0,0:0:0:0:
274,373,140603,5,2,0:0:0:0:
274,373,140687,1,2,0:0:0:0:
274,373,140770,1,4,0:1:0:0:
346,352,140937,1,0,0:0:0:0:
274,373,141103,5,8,0:0:0:0:
306,137,141270,1,2,0:0:0:0:
232,123,141437,1,2,0:0:0:0:
350,272,141603,5,2,0:0:0:0:
422,251,141770,1,10,0:0:0:0:
368,198,141937,1,2,0:0:0:0:
469,72,142103,5,0,0:0:0:0:
469,72,142270,2,0,P|469:132|457:184,1,93.5000028533936,8|8,0:3|0:0,0:0:0:0:
139,103,142603,2,2,P|144:54|265:12,1,187.000005706787,2|0,0:0|0:0,0:0:0:0:
305,238,143103,2,0,P|305:298|293:350,1,93.5000028533936,10|0,0:0|0:0,0:0:0:0:
182,237,143437,5,4,0:2:0:0:
182,237,143770,5,8,0:0:0:0:
165,310,143937,1,2,0:0:0:0:
82,142,144103,5,2,0:0:0:0:
10,164,144270,1,2,0:0:0:0:
63,216,144437,1,10,0:0:0:0:
154,47,144603,5,2,0:1:0:0:
154,47,144687,1,0,0:0:0:0:
154,47,144770,1,0,0:0:0:0:
198,185,144937,2,0,P|222:238|233:286,1,93.5000028533936,8|8,0:3|0:0,0:0:0:0:
276,100,145270,2,2,P|327:52|441:62,1,187.000005706787,2|0,0:0|0:0,0:0:0:0:
512,114,145770,1,10,0:0:0:0:
330,205,145937,5,8,0:3:0:0:
373,220,146020,1,8,0:3:0:0:
418,231,146103,2,0,P|475:242|509:256,1,93.5000028533936,4|0,0:2|0:0,0:0:0:0:
411,148,146437,2,0,P|422:91|436:57,1,93.5000028533936,8|0,0:0|0:0,0:0:0:0:
326,329,146770,5,0,0:0:0:0:
278,134,146937,1,0,0:0:0:0:
326,329,147103,1,10,0:0:0:0:
433,283,147270,6,2,P|375:245|262:271,1,187.000005706787,2|0,0:0|0:0,0:0:0:0:
159,364,147770,1,8,0:0:0:0:
141,161,147937,2,2,P|72:169|2:261,1,187.000005706787,2|2,0:0|0:0,3:0:0:0:
95,301,148437,2,0,P|157:286|196:282,1,93.5000028533936,10|8,0:0|0:0,0:0:0:0:
233,192,148770,5,4,0:3:0:0:
233,192,148937,1,4,0:3:0:0:
273,113,149103,5,8,0:0:0:0:
307,273,149270,1,0,0:0:0:0:
381,200,149437,5,2,0:3:0:0:
347,40,149604,1,0,0:0:0:0:
180,102,149770,1,8,0:0:0:0:
214,262,149937,1,2,0:2:0:0:
350,122,150103,5,4,0:2:0:0:
293,219,150270,1,8,0:3:0:0:
301,264,150353,1,8,0:3:0:0:
328,301,150436,1,8,0:3:0:0:
370,322,150520,1,8,0:3:0:0:
416,321,150603,2,8,L|468:312,1,46.7500014266968,8|8,0:3|0:3,0:3:0:0:
440,225,150770,1,8,0:3:0:0:
447,230,150853,1,8,0:3:0:0:
454,235,150937,2,4,L|503:225,1,46.7500014266968,4|4,0:3|0:3,0:3:0:0:
455,153,151103,5,4,0:3:0:0:
422,153,151186,1,4,0:3:0:0:
393,167,151269,1,4,0:3:0:0:
372,192,151353,1,4,0:3:0:0:
365,224,151437,6,0,P|300:238|267:239,1,93.5000028533936,4|0,0:2|0:0,0:0:0:0:
100,276,151770,2,0,P|165:262|198:261,1,93.5000028533936,8|2,0:0|0:0,0:0:0:0:
267,79,152103,5,2,0:0:0:0:
220,137,152270,1,2,0:0:0:0:
206,28,152437,1,10,0:0:0:0:
433,119,152603,5,2,0:0:0:0:
433,119,152770,1,0,0:0:0:0:
469,366,152937,5,2,0:0:0:0:
396,347,153103,1,8,0:0:0:0:
418,275,153270,1,2,0:0:0:0:
270,361,153437,6,0,P|279:302|289:266,1,93.5000028533936,2|8,0:0|0:3,0:0:0:0:
68,226,153770,2,0,P|127:217|163:207,1,93.5000028533936,10|4,0:0|0:3,0:0:0:0:
400,36,154103,5,2,0:0:0:0:
326,20,154270,1,2,0:0:0:0:
379,110,154437,1,10,0:0:0:0:
274,207,154603,5,2,0:0:0:0:
348,191,154770,1,2,0:0:0:0:
295,281,154937,1,2,0:0:0:0:
454,291,155103,1,8,0:0:0:0:
457,136,155270,1,2,0:0:0:0:
454,291,155437,6,4,P|442:340|436:391,1,93.5000028533936,4|4,0:3|0:3,0:3:0:0:
169,320,155770,2,0,P|181:271|187:220,1,93.5000028533936,8|0,0:0|0:0,0:0:0:0:
388,250,156103,5,0,0:0:0:0:
247,320,156270,1,8,0:3:0:0:
319,286,156437,1,8,0:3:0:0:
319,286,156603,1,4,0:3:0:0:
249,111,156770,6,0,P|261:62|267:11,1,93.5000028533936,4|0,0:2|0:0,0:0:0:0:
425,16,157103,1,8,0:3:0:0:
455,27,157186,1,8,0:3:0:0:
477,51,157269,1,8,0:3:0:0:
488,81,157353,1,8,0:3:0:0:
484,114,157436,1,8,0:3:0:0:
369,217,157603,2,0,P|320:205|269:199,1,93.5000028533936,4|0,0:3|0:0,0:0:0:0:
35,159,157937,5,4,0:2:0:0:
35,159,158270,1,2,0:3:0:0:
124,360,158437,5,4,0:2:0:0:
235,125,158603,2,0,P|167:153|123:177,1,93.5000028533936,0|2,0:0|0:2,0:0:0:0:
114,194,158853,1,2,0:2:0:0:
107,239,158936,1,2,0:2:0:0:
131,278,159019,1,2,0:2:0:0:
174,293,159103,1,2,0:2:0:0:
217,277,159186,1,2,0:2:0:0:
247,242,159270,1,2,0:2:0:0:
291,226,159353,1,2,0:2:0:0:
336,239,159437,5,4,0:2:0:0:
472,72,159603,5,0,0:0:0:0:
480,152,159770,1,8,0:0:0:0:
352,40,159937,5,2,0:0:0:0:
364,160,160103,1,2,0:0:0:0:
216,96,160270,5,2,0:0:0:0:
228,228,160437,1,10,0:0:0:0:
148,248,160603,5,2,0:0:0:0:
312,236,160770,1,0,0:0:0:0:
216,96,160937,1,2,0:0:0:0:
272,296,161103,5,8,0:0:0:0:
196,300,161270,1,2,0:0:0:0:
228,228,161437,1,2,0:0:0:0:
360,308,161603,1,2,0:0:0:0:
440,176,161770,1,10,0:0:0:0:
308,92,161937,1,0,0:0:0:0:
340,176,162103,5,4,0:2:0:0:
340,176,162437,2,0,L|236:180,1,93.5000028533936,8|2,0:0|0:0,0:0:0:0:
176,144,162770,1,2,0:0:0:0:
112,100,162937,1,2,0:0:0:0:
328,76,163104,5,10,0:0:0:0:
252,104,163271,1,2,0:0:0:0:
188,56,163437,1,0,0:0:0:0:
440,112,163603,5,2,0:0:0:0:
476,236,163770,1,10,0:0:0:0:
360,192,163937,2,2,P|336:304|368:364,1,187.000005706787,8|4,0:3|0:3,0:0:0:0:
272,360,164437,2,0,L|232:252,1,93.5000028533936,10|8,0:0|0:3,0:0:0:0:
228,252,164687,5,8,0:3:0:0:
220,232,164770,1,4,0:2:0:0:
148,264,164937,1,0,0:0:0:0:
48,180,165103,5,10,0:0:0:0:
120,144,165270,1,0,0:0:0:0:
288,88,165437,5,2,0:0:0:0:
252,156,165603,1,0,0:0:0:0:
404,132,165770,5,10,0:0:0:0:
464,80,165937,2,0,P|480:128|472:184,1,93.5000028533936,2|0,0:0|0:0,0:0:0:0:
340,308,166270,2,0,L|228:296,1,93.5000028533936,2|8,0:3|0:0,0:0:0:0:
36,236,166603,2,2,P|140:216|180:144,1,187.000005706787
284,220,167103,2,0,L|264:100,1,93.5000028533936,10|0,0:0|0:0,0:0:0:0:
364,164,167437,5,4,0:3:0:0:
376,84,167603,1,4,0:3:0:0:
436,136,167770,1,8,0:0:0:0:
364,164,167937,5,0,0:0:0:0:
292,36,168103,1,2,0:3:0:0:
448,44,168270,1,0,0:0:0:0:
364,164,168437,5,8,0:0:0:0:
180,140,168603,1,2,0:2:0:0:
352,80,168770,1,4,0:2:0:0:
264,248,168937,5,8,0:3:0:0:
264,248,169020,1,8,0:3:0:0:
264,248,169103,2,0,L|188:256,1,46.7500014266968,8|0,0:3|0:0,0:0:0:0:
128,344,169270,1,8,0:3:0:0:
128,344,169353,2,0,P|148:332|168:304,1,46.7500014266968,8|0,0:3|2:0,0:0:0:0:
104,188,169520,1,4,0:3:0:0:
104,188,169603,2,0,P|124:200|144:228,1,46.7500014266968,4|0,0:3|2:0,0:0:0:0:
32,236,169770,1,4,0:3:0:0:
20,280,169853,1,4,0:3:0:0:
36,324,169937,1,4,0:3:0:0:
184,136,170103,5,4,0:2:0:0:
264,128,170270,1,0,0:0:0:0:
256,48,170437,1,8,0:0:0:0:
180,56,170603,1,2,0:0:0:0:
332,80,170770,5,0,0:0:0:0:
412,72,170937,1,2,0:0:0:0:
420,152,171103,1,10,0:0:0:0:
340,160,171270,1,2,0:0:0:0:
228,248,171437,6,0,L|116:252,1,93.5000028533936,0|2,0:0|0:0,0:0:0:0:
140,332,171770,2,0,L|252:328,1,93.5000028533936,8|2,0:0|0:0,0:0:0:0:
300,288,172103,5,0,0:0:0:0:
432,280,172270,1,2,0:0:0:0:
424,148,172436,1,10,0:0:0:0:
292,156,172603,1,2,0:0:0:0:
360,224,172770,5,4,0:2:0:0:
356,128,172937,1,2,0:0:0:0:
352,32,173103,1,10,0:0:0:0:
440,60,173270,5,4,0:2:0:0:
436,64,173437,1,0,0:0:0:0:
272,56,173603,5,2,0:0:0:0:
268,64,173770,1,8,0:0:0:0:
88,68,173937,5,2,0:0:0:0:
96,72,174103,2,2,L|88:180,1,93.5000028533936,4|0,0:2|0:1,0:1:0:0:
132,232,174437,1,8,0:0:0:0:
356,168,174603,2,2,P|260:192|192:120,1,187.000005706787,6|0,0:2|0:0,0:0:0:0:
280,272,175103,2,0,P|296:316|292:368,1,93.5000028533936,8|0,0:0|0:0,0:0:0:0:
212,328,175437,5,4,0:2:0:0:
184,252,175603,1,0,0:0:0:0:
240,196,175770,1,8,0:0:0:0:
432,44,175937,5,2,0:0:0:0:
460,120,176103,1,0,0:0:0:0:
404,176,176270,1,2,0:0:0:0:
200,100,176437,6,0,L|296:84,1,93.5000028533936,10|0,0:0|0:0,0:0:0:0:
104,116,176770,1,0,0:0:0:0:
104,116,176937,1,0,0:0:0:0:
48,232,177103,1,8,0:0:0:0:
48,232,177270,1,2,0:1:0:0:
172,304,177437,5,0,0:0:0:0:
216,140,177603,1,2,0:1:0:0:
116,196,177770,1,10,0:1:0:0:
264,276,177937,1,2,0:1:0:0:
320,112,178103,2,0,B|380:132|380:132|420:80|504:88,2,187.000005706787,4|8|0,0:2|0:0|0:0,0:0:0:0:
224,48,178937,2,0,P|164:60|112:64,1,93.5000028533936,0|8,0:0|0:0,0:0:0:0:
196,248,179270,5,2,0:2:0:0:
196,248,179353,1,2,0:2:0:0:
196,248,179437,1,2,0:2:0:0:
284,188,179603,1,8,0:3:0:0:
168,128,179770,1,4,0:3:0:0:
364,168,179937,5,8,0:3:0:0:
364,168,180020,1,8,0:3:0:0:
364,168,180103,1,8,0:0:0:0:
244,108,180270,1,8,0:3:0:0:
364,168,180437,1,4,0:3:0:0:
196,248,180603,1,4,0:3:0:0:
256,192,180770,5,4,0:2:0:0:
256,192,182103,5,4,0:0:0:0:
256,192,182937,5,8,0:3:0:0:
344,136,183103,1,4,0:3:0:0:
256,84,183270,1,4,0:3:0:0:
256,192,183437,6,0,P|264:234|269:264,2,63.7500024318696,4|0|2,0:2|0:0|0:2,0:0:0:0:
201,328,183937,2,0,P|250:341|337:342,1,127.500004863739,8|0,0:3|0:0,0:0:0:0:
124,330,184437,1,4,0:3:0:0:
124,330,184603,2,0,P|91:334|52:340,1,63.7500024318696,2|0,0:2|0:0,0:0:0:0:
151,236,184937,5,4,0:3:0:0:
173,163,185103,1,4,0:2:0:0:
171,86,185270,2,0,P|117:59|88:60,1,63.7500024318696
47,167,185603,5,8,0:3:0:0:
70,188,185686,1,8,0:3:0:0:
98,204,185769,1,8,0:3:0:0:
128,214,185853,1,8,0:3:0:0:
159,219,185936,1,8,0:3:0:0:
191,218,186019,1,8,0:3:0:0:
224,211,186103,5,2,2:0:0:0:
224,211,186437,6,2,B|284:162|284:162|357:197|343:285,1,203.999993774414,6|0,0:0|0:0,0:0:0:0:
512,322,186937,1,2,0:3:0:0:
383,132,187103,1,8,0:0:0:0:
418,333,187270,2,0,P|435:268|443:247,1,85,2|4,0:3|0:3,0:0:0:0:
434,46,187603,2,0,P|473:100|488:117,1,85,10|8,0:3|0:0,0:0:0:0:
322,205,187937,2,2,P|290:154|181:125,1,170,6|2,0:3|0:0,0:0:0:0:
106,143,188437,1,8,0:0:0:0:
44,330,188603,5,2,0:3:0:0:
44,330,188687,1,2,0:3:0:0:
44,330,188770,2,0,P|99:313|126:308,1,85,4|2,0:3|0:3,0:0:0:0:
207,333,189103,1,8,0:0:0:0:
207,333,189270,1,2,0:3:0:0:
87,206,189437,5,4,0:3:0:0:
116,126,189604,1,2,0:3:0:0:
39,93,189770,1,8,0:0:0:0:
327,146,189937,5,2,0:3:0:0:
327,146,190020,1,2,0:3:0:0:
327,146,190103,1,4,0:3:0:0:
166,227,190270,1,2,0:3:0:0:
229,12,190437,1,8,0:0:0:0:
236,109,190603,2,2,B|221:209|274:169|255:294,1,170,2|0,0:0|0:0,0:0:0:0:
257,372,191103,1,8,0:0:0:0:
405,315,191270,5,8,0:3:0:0:
405,315,191353,1,8,0:3:0:0:
405,315,191437,2,0,P|464:281|498:276,1,85,4|2,0:2|0:3,0:0:0:0:
242,227,191770,2,0,P|201:214|167:189,1,85,8|2,0:0|0:3,0:0:0:0:
458,45,192103,5,4,0:3:0:0:
406,223,192270,1,2,0:3:0:0:
273,59,192437,1,8,0:0:0:0:
402,133,192603,2,0,P|452:133|489:135,1,85,2|4,0:3|0:3,0:0:0:0:
317,261,192937,2,0,P|319:218|318:176,1,85,10|8,0:3|0:0,0:0:0:0:
179,13,193270,2,2,P|114:15|58:121,1,170,4|2,0:3|0:0,0:0:0:0:
46,179,193770,1,8,0:0:0:0:
213,208,193937,1,2,0:3:0:0:
46,179,194103,6,0,P|89:186|138:196,1,85,4|2,0:3|0:3,0:0:0:0:
224,294,194437,2,0,P|181:287|132:277,1,85,8|2,0:0|0:3,0:0:0:0:
224,294,194770,1,4,0:3:0:0:
33,260,194937,2,0,P|24:301|17:343,2,85,2|10|2,0:0|0:0|0:0,0:0:0:0:
213,208,195437,5,8,0:3:0:0:
253,195,195520,1,8,0:3:0:0:
281,164,195603,1,4,0:3:0:0:
291,123,195687,1,4,0:3:0:0:
281,83,195770,2,8,L|229:60,1,42.5,8|8,0:3|0:3,0:3:0:0:
367,103,195937,2,4,L|406:119,1,42.5,4|4,0:3|0:3,0:3:0:0:
312,0,196103,5,8,0:3:0:0:
366,195,196270,1,4,0:3:0:0:
366,195,196353,1,4,0:3:0:0:
366,195,196437,1,4,0:3:0:0:
461,56,196603,1,4,0:3:0:0:
505,234,196770,6,2,P|483:291|347:330,1,191.250007295609,6|4,0:2|0:3,0:0:0:0:
188,316,197437,2,0,P|268:323|310:328,2,95.6250036478044,10|2|2,0:0|0:0|0:0,0:0:0:0:
103,358,198103,5,4,0:3:0:0:
93,357,198353,1,4,0:3:0:0:
83,356,198603,1,4,0:3:0:0:
9,295,198770,6,0,P|-3:251|3:227,1,63.7500024318696,10|0,0:0|0:0,0:0:0:0:
210,189,199103,2,0,P|189:216|173:244,1,63.7500024318696,2|2,0:0|0:3,0:0:0:0:
174,241,199353,1,2,0:3:0:0:
174,241,199437,2,0,P|179:189|117:118,1,127.500004863739,4|0,0:3|0:0,0:0:0:0:
0,6,199937,1,4,0:3:0:0:
24,83,200103,2,0,P|72:72|104:64,1,63.7500024318696,8|0,0:0|0:0,0:0:0:0:
324,179,200437,2,0,P|293:171|261:164,1,63.7500024318696,4|0,0:3|0:0,0:0:0:0:
169,38,200770,5,8,0:3:0:0:
198,26,200853,1,8,0:3:0:0:
230,25,200936,1,4,0:3:0:0:
259,37,201020,1,4,0:3:0:0:
282,58,201103,1,8,0:3:0:0:
305,79,201186,1,8,0:3:0:0:
334,91,201270,1,4,0:3:0:0:
366,90,201353,1,4,0:3:0:0:
396,79,201437,2,0,P|438:58|460:59,1,63.7500024318696,8|4,0:3|0:3,0:0:0:0:
467,255,201770,5,4,0:3:0:0:
467,255,201853,2,0,L|448:336,1,63.7500024318696,4|4,0:3|0:3,0:0:0:0:
376,285,202103,6,0,P|383:239|405:187,1,85,4|0,0:2|0:0,0:0:0:0:
288,34,202437,2,0,P|228:39|181:135,1,170,8|0,0:0|0:0,0:0:0:0:
241,353,202937,2,0,P|302:358|335:362,1,85,4|8,0:3|0:0,0:0:0:0:
131,214,203270,2,4,P|101:161|-5:159,1,170,4|4,0:3|0:3,0:3:0:0:
147,300,203770,1,8,0:0:0:0:
212,199,203937,2,4,P|157:209|39:235,1,170,4|4,0:3|0:3,0:3:0:0:
226,354,204437,5,8,0:0:0:0:
100,377,204603,1,2,0:2:0:0:
100,377,204687,1,2,0:2:0:0:
100,377,204770,1,4,0:3:0:0:
226,354,204937,1,0,0:0:0:0:
139,262,205103,5,8,0:0:0:0:
351,237,205270,1,0,0:0:0:0:
304,375,205437,1,8,0:3:0:0:
207,168,205603,1,2,0:0:0:0:
254,270,205770,5,8,0:0:0:0:
307,81,205937,2,2,P|367:85|406:206,1,170
509,338,206437,5,8,0:3:0:0:
302,384,206603,1,8,0:3:0:0:
279,192,206770,1,4,0:3:0:0:
486,146,206936,1,4,0:3:0:0:
480,264,207103,5,8,0:3:0:0:
403,265,207270,2,0,P|356:267|304:272,1,85,2|2,0:3|0:2,0:0:0:0:
256,192,207520,12,0,220770,0:0:0:0:
