osu file format v14

[General]
AudioFilename: audio.mp3
AudioLeadIn: 0
PreviewTime: 73574
Countdown: 0
SampleSet: Normal
StackLeniency: 0.7
Mode: 1
LetterboxInBreaks: 0
WidescreenStoryboard: 1

[Editor]
Bookmarks: 241,32240,53574,74907,96240,117574,138907,160240,181574,208240,208324,208407,208490,208574,208657,208740,208824,208907,208990,209074,209157,209240,209324,209407,209490,209574,209657,209740,209824,209907,209990,210074,210157,210240,210324,210407,210490,210574,210657,210740,210824,210907,210990,211074,211157,211240,211324,211407,211490,211574,211657,211740,211824,211907,211990,212074,212157,212240,212324,212407,212490,212574,212657,212740,212824,212907,212990,213074,213157,213240,213324,213407,213490,213574,213657,213740,213824,213907,213990,214074,214157,214240,214324,214407,214490,214574,214657,214740,214824,214907,214990,215074,215157,215240,215324,215407,215490,215574,215657,215740,215824,215907,215990,216074,216157,216240,216324,216407,216490,216574,216657,216740,216824,216907,216990,217074,217157,217240,217324,217407,217490,217574,218907,229574,250907,282907
DistanceSpacing: 0.3
BeatDivisor: 4
GridSize: 32
TimelineZoom: 1.6

[Metadata]
Title:Toumin
TitleUnicode:冬眠
Artist:Yorushika
ArtistUnicode:ヨルシカ
Creator:Hivie
Version:Futsuu (feat. Nao)
Source:
Tags:gaston_2199 radar nao tomori faputa pop rock jpop j-pop jrock j-rock スイ 負け犬にアンコールはいらない ナブナ japanese makeinu ni encore wa iranai a loser doesn't need an n-buna suis
BeatmapID:3591429
BeatmapSetID:1754951

[Difficulty]
HPDrainRate:6
CircleSize:2
OverallDifficulty:4
ApproachRate:10
SliderMultiplier:1.4
SliderTickRate:1

[Events]
//Background and Video events
0,0,"sexy.jpg",0,0
//Break Periods
2,157607,159790
2,208440,217307
2,227107,228974
//Storyboard Layer 0 (Background)
//Storyboard Layer 1 (Fail)
//Storyboard Layer 2 (Pass)
//Storyboard Layer 3 (Foreground)
//Storyboard Layer 4 (Overlay)
//Storyboard Sound Samples

[TimingPoints]
241,333.333333333333,4,1,0,60,1,0
241,-100,4,1,0,60,0,0
10907,-100,4,1,0,60,0,0
74907,-100,4,1,0,60,0,1
96240,-100,4,1,0,60,0,0
160240,-100,4,1,0,60,0,1
181574,-100,4,1,0,60,0,0
184240,-100,4,1,0,60,0,1
202907,-100,4,1,0,60,0,0
203074,-100,4,1,0,40,0,0
217824,-100,4,1,0,60,0,0
229574,-100,4,1,0,60,0,1
250907,-100,4,1,0,60,0,0
275157,-100,4,1,0,50,0,0
278657,-100,4,1,0,40,0,0
280657,-100,4,1,0,30,0,0
282824,-100,4,1,0,20,0,0

[HitObjects]
256,96,241,5,4,0:0:0:0:
256,192,740,1,8,0:0:0:0:
256,192,1240,1,8,0:0:0:0:
256,192,1574,1,0,0:0:0:0:
256,192,2240,1,8,0:0:0:0:
256,192,2907,1,0,0:0:0:0:
256,192,3407,1,8,0:0:0:0:
256,192,3907,1,8,0:0:0:0:
256,192,4240,1,0,0:0:0:0:
256,192,4907,1,8,0:0:0:0:
256,192,5573,1,0,0:0:0:0:
256,192,6074,1,8,0:0:0:0:
256,192,6574,1,8,0:0:0:0:
256,192,6907,1,0,0:0:0:0:
256,192,7573,1,8,0:0:0:0:
256,192,8240,1,0,0:0:0:0:
256,192,8740,1,8,0:0:0:0:
256,192,9240,1,8,0:0:0:0:
256,192,9574,1,0,0:0:0:0:
256,96,10907,1,4,0:0:0:0:
256,192,11240,1,8,0:0:0:0:
256,192,11574,1,0,0:0:0:0:
256,192,11907,1,8,0:0:0:0:
256,192,12074,1,8,0:0:0:0:
256,192,12240,1,0,0:0:0:0:
256,192,12574,1,8,0:0:0:0:
256,192,12907,1,0,0:0:0:0:
256,192,13074,1,8,0:0:0:0:
256,192,13240,1,0,0:0:0:0:
256,192,13574,1,8,0:0:0:0:
256,192,13907,1,8,0:0:0:0:
256,192,14240,1,0,0:0:0:0:
256,192,14407,1,0,0:0:0:0:
256,192,14574,1,8,0:0:0:0:
256,192,14907,1,0,0:0:0:0:
256,192,15074,1,8,0:0:0:0:
256,192,15407,1,0,0:0:0:0:
256,192,15574,1,8,0:0:0:0:
256,192,15907,1,8,0:0:0:0:
256,192,16240,1,0,0:0:0:0:
256,192,16908,1,0,0:0:0:0:
256,192,17241,1,8,0:0:0:0:
256,192,17408,1,8,0:0:0:0:
256,192,17574,1,0,0:0:0:0:
256,192,17908,1,8,0:0:0:0:
256,192,18241,1,0,0:0:0:0:
256,192,18408,1,0,0:0:0:0:
256,192,18574,1,8,0:0:0:0:
256,96,18907,1,12,0:0:0:0:
256,192,19407,1,8,0:0:0:0:
256,192,19574,1,0,0:0:0:0:
256,96,20074,1,12,0:0:0:0:
256,192,20574,1,8,0:0:0:0:
256,192,20907,1,0,0:0:0:0:
256,192,21074,1,0,0:0:0:0:
256,192,21240,1,8,0:0:0:0:
256,192,21407,1,8,0:0:0:0:
256,96,21574,1,4,0:0:0:0:
256,192,22240,1,0,0:0:0:0:
256,192,22573,1,8,0:0:0:0:
256,192,22740,1,8,0:0:0:0:
256,192,22906,1,0,0:0:0:0:
256,192,23240,1,8,0:0:0:0:
256,192,23573,1,0,0:0:0:0:
256,192,23740,1,8,0:0:0:0:
256,192,23906,1,0,0:0:0:0:
256,192,24240,1,8,0:0:0:0:
256,192,24573,1,8,0:0:0:0:
256,192,24906,1,0,0:0:0:0:
256,192,25073,1,0,0:0:0:0:
256,192,25240,1,8,0:0:0:0:
256,192,25573,1,0,0:0:0:0:
256,192,25740,1,8,0:0:0:0:
256,192,26073,1,0,0:0:0:0:
256,192,26240,1,8,0:0:0:0:
256,192,26573,1,8,0:0:0:0:
256,192,26906,1,0,0:0:0:0:
256,192,27574,1,0,0:0:0:0:
256,192,27907,1,8,0:0:0:0:
256,192,28074,1,8,0:0:0:0:
256,192,28240,1,0,0:0:0:0:
256,192,28574,1,8,0:0:0:0:
256,192,28907,1,0,0:0:0:0:
256,192,29074,1,0,0:0:0:0:
256,192,29240,1,8,0:0:0:0:
256,96,29573,1,12,0:0:0:0:
256,96,30074,1,12,0:0:0:0:
256,192,30574,1,8,0:0:0:0:
256,96,31074,1,12,0:0:0:0:
256,192,31574,1,8,0:0:0:0:
256,192,31907,1,8,0:0:0:0:
256,192,32074,1,8,0:0:0:0:
256,192,32240,1,4,0:0:0:0:
286,186,34907,1,0,0:0:0:0:
286,187,37574,1,0,0:0:0:0:
246,197,40240,1,8,0:0:0:0:
246,197,40740,1,0,0:0:0:0:
246,197,41240,1,8,0:0:0:0:
246,197,43240,1,12,0:0:0:0:
217,166,43907,1,8,0:0:0:0:
214,167,44074,1,0,0:0:0:0:
173,137,44574,1,8,0:0:0:0:
208,135,44740,1,0,0:0:0:0:
189,138,45074,1,0,0:0:0:0:
173,138,45240,1,8,0:0:0:0:
241,121,45574,1,0,0:0:0:0:
235,122,45907,1,8,0:0:0:0:
235,122,46074,1,0,0:0:0:0:
235,122,46407,1,0,0:0:0:0:
235,122,46574,1,8,0:0:0:0:
189,138,47240,1,0,0:0:0:0:
189,138,47574,1,8,0:0:0:0:
189,138,47907,1,8,0:0:0:0:
185,140,48240,1,0,0:0:0:0:
185,140,48740,1,8,0:0:0:0:
185,140,49240,1,8,0:0:0:0:
185,140,49907,1,8,0:0:0:0:
179,143,50240,1,0,0:0:0:0:
179,143,50407,1,8,0:0:0:0:
179,143,50574,1,0,0:0:0:0:
178,144,50907,1,12,0:0:0:0:
191,154,51407,1,12,0:0:0:0:
232,157,51907,1,12,0:0:0:0:
232,157,52407,1,0,0:0:0:0:
232,157,52574,1,8,0:0:0:0:
230,157,52907,1,8,0:0:0:0:
230,157,53240,1,8,0:0:0:0:
256,96,53574,5,4,0:0:0:0:
256,192,54240,1,0,0:0:0:0:
256,192,54574,1,8,0:0:0:0:
256,192,54907,1,0,0:0:0:0:
256,192,55074,1,0,0:0:0:0:
256,192,55240,1,8,0:0:0:0:
256,192,55574,1,0,0:0:0:0:
256,192,55907,1,8,0:0:0:0:
256,192,56240,1,0,0:0:0:0:
256,192,56574,1,8,0:0:0:0:
256,192,56740,1,0,0:0:0:0:
256,192,56907,1,8,0:0:0:0:
256,192,57240,1,8,0:0:0:0:
256,192,57574,1,0,0:0:0:0:
256,192,57740,1,0,0:0:0:0:
256,192,57907,1,8,0:0:0:0:
256,192,58240,1,0,0:0:0:0:
256,192,58574,1,8,0:0:0:0:
256,192,58740,1,8,0:0:0:0:
256,96,58907,1,0,0:0:0:0:
256,192,59574,1,0,0:0:0:0:
256,192,59907,1,8,0:0:0:0:
256,192,60240,1,0,0:0:0:0:
256,192,60407,1,0,0:0:0:0:
256,192,60574,1,8,0:0:0:0:
256,192,60907,1,0,0:0:0:0:
256,192,61240,1,8,0:0:0:0:
256,192,61574,1,0,0:0:0:0:
256,192,61907,1,8,0:0:0:0:
256,192,62074,1,0,0:0:0:0:
256,192,62240,1,8,0:0:0:0:
256,192,62407,1,0,0:0:0:0:
256,96,62740,1,12,0:0:0:0:
256,192,63074,1,0,0:0:0:0:
256,192,63240,1,8,0:0:0:0:
256,192,63574,1,0,0:0:0:0:
256,192,63740,1,0,0:0:0:0:
256,192,63907,1,8,0:0:0:0:
256,192,64074,1,8,0:0:0:0:
256,96,64240,1,4,0:0:0:0:
256,192,64574,1,8,0:0:0:0:
256,192,65240,1,8,0:0:0:0:
256,192,65574,1,0,0:0:0:0:
256,192,65907,1,8,0:0:0:0:
256,192,66240,1,0,0:0:0:0:
256,192,66407,1,0,0:0:0:0:
256,192,66574,1,8,0:0:0:0:
256,192,66907,1,0,0:0:0:0:
256,192,67240,1,0,0:0:0:0:
256,192,67574,1,8,0:0:0:0:
256,192,67740,1,0,0:0:0:0:
256,192,68074,1,8,0:0:0:0:
256,192,68240,1,8,0:0:0:0:
256,192,68574,1,0,0:0:0:0:
256,192,68907,1,8,0:0:0:0:
256,192,69074,1,0,0:0:0:0:
256,192,69407,1,0,0:0:0:0:
256,192,69574,1,8,0:0:0:0:
256,192,69907,1,8,0:0:0:0:
256,192,70574,1,8,0:0:0:0:
256,192,70740,1,0,0:0:0:0:
256,192,71074,1,8,0:0:0:0:
256,192,71407,1,8,0:0:0:0:
256,192,71740,1,0,0:0:0:0:
256,192,72074,1,8,0:0:0:0:
256,192,72240,1,0,0:0:0:0:
256,192,72574,1,8,0:0:0:0:
256,192,72907,1,8,0:0:0:0:
256,192,73074,1,0,0:0:0:0:
256,192,73240,1,0,0:0:0:0:
256,192,73407,1,8,0:0:0:0:
256,192,73574,1,0,0:0:0:0:
256,192,73907,1,8,0:0:0:0:
256,192,74074,1,8,0:0:0:0:
256,192,74240,1,0,0:0:0:0:
256,96,74907,1,12,0:0:0:0:
251,135,75240,1,8,0:0:0:0:
200,168,75407,1,0,0:0:0:0:
200,168,75740,1,0,0:0:0:0:
200,168,75907,1,8,0:0:0:0:
198,170,76240,1,0,0:0:0:0:
198,170,76574,1,0,0:0:0:0:
198,170,76907,1,8,0:0:0:0:
198,170,77240,1,0,0:0:0:0:
191,171,77574,1,0,0:0:0:0:
191,171,77740,1,8,0:0:0:0:
190,172,78074,1,8,0:0:0:0:
269,146,78574,1,8,0:0:0:0:
252,145,78907,1,0,0:0:0:0:
231,144,79240,1,8,0:0:0:0:
208,144,79574,1,0,0:0:0:0:
208,144,79907,1,8,0:0:0:0:
208,144,80074,1,8,0:0:0:0:
207,144,80240,1,4,0:0:0:0:
221,166,80740,1,0,0:0:0:0:
220,166,81240,1,8,0:0:0:0:
216,166,81574,1,0,0:0:0:0:
214,168,81907,1,8,0:0:0:0:
214,168,82240,1,8,0:0:0:0:
214,168,82407,1,8,0:0:0:0:
198,170,82574,1,0,0:0:0:0:
198,200,82907,1,4,0:0:0:0:
255,198,83407,1,8,0:0:0:0:
150,127,83574,1,8,0:0:0:0:
194,164,83740,1,0,0:0:0:0:
238,197,83907,1,0,0:0:0:0:
235,189,84074,1,12,0:0:0:0:
190,177,84907,1,8,0:0:0:0:
190,177,85074,1,0,0:0:0:0:
190,177,85240,1,8,0:0:0:0:
190,177,85407,1,8,0:0:0:0:
170,169,85574,1,4,0:0:0:0:
207,210,86074,1,8,0:0:0:0:
197,216,86407,1,0,0:0:0:0:
197,216,86574,1,8,0:0:0:0:
169,216,86907,1,0,0:0:0:0:
169,216,87240,1,0,0:0:0:0:
167,216,87574,1,8,0:0:0:0:
167,216,87740,1,8,0:0:0:0:
167,216,87907,1,0,0:0:0:0:
166,217,88240,1,8,0:0:0:0:
166,217,88407,1,0,0:0:0:0:
163,215,88740,1,8,0:0:0:0:
163,215,89240,1,0,0:0:0:0:
257,204,89574,1,8,0:0:0:0:
257,206,89907,1,8,0:0:0:0:
192,196,90074,1,8,0:0:0:0:
192,196,90240,1,0,0:0:0:0:
174,206,90574,1,8,0:0:0:0:
158,212,90907,1,4,0:0:0:0:
158,212,91407,1,0,0:0:0:0:
158,212,91907,1,8,0:0:0:0:
158,212,92240,1,0,0:0:0:0:
158,212,92574,1,8,0:0:0:0:
158,212,92907,1,8,0:0:0:0:
158,212,93240,1,0,0:0:0:0:
158,212,93574,1,12,0:0:0:0:
158,212,94074,1,12,0:0:0:0:
158,212,94574,1,12,0:0:0:0:
158,212,95074,1,12,0:0:0:0:
158,212,95574,1,12,0:0:0:0:
158,212,95907,1,0,0:0:0:0:
256,96,96240,5,4,0:0:0:0:
256,192,96907,1,0,0:0:0:0:
256,192,97240,1,8,0:0:0:0:
256,192,97407,1,8,0:0:0:0:
256,192,97573,1,0,0:0:0:0:
256,192,97740,1,8,0:0:0:0:
256,192,98074,1,0,0:0:0:0:
256,192,98240,1,8,0:0:0:0:
256,192,98573,1,8,0:0:0:0:
256,192,98907,1,0,0:0:0:0:
256,192,99240,1,8,0:0:0:0:
256,192,99573,1,0,0:0:0:0:
256,192,99740,1,0,0:0:0:0:
256,192,99907,1,8,0:0:0:0:
256,192,100240,1,0,0:0:0:0:
256,192,100407,1,8,0:0:0:0:
256,192,100740,1,0,0:0:0:0:
256,192,100907,1,8,0:0:0:0:
256,192,101240,1,8,0:0:0:0:
256,192,101573,1,0,0:0:0:0:
256,192,102241,1,0,0:0:0:0:
256,192,102574,1,8,0:0:0:0:
256,192,102741,1,8,0:0:0:0:
256,192,102907,1,0,0:0:0:0:
256,192,103074,1,8,0:0:0:0:
256,192,103407,1,0,0:0:0:0:
256,192,103574,1,0,0:0:0:0:
256,192,103907,1,8,0:0:0:0:
256,96,104240,1,12,0:0:0:0:
256,192,104740,1,8,0:0:0:0:
256,192,104907,1,0,0:0:0:0:
256,96,105407,1,12,0:0:0:0:
256,192,105907,1,8,0:0:0:0:
256,192,106240,1,0,0:0:0:0:
256,192,106407,1,0,0:0:0:0:
256,192,106573,1,8,0:0:0:0:
256,192,106740,1,8,0:0:0:0:
256,96,106907,1,4,0:0:0:0:
256,192,107573,1,0,0:0:0:0:
256,192,107906,1,8,0:0:0:0:
256,192,108073,1,8,0:0:0:0:
256,192,108239,1,0,0:0:0:0:
256,192,108407,1,8,0:0:0:0:
256,192,108740,1,0,0:0:0:0:
256,192,108907,1,8,0:0:0:0:
256,192,109239,1,0,0:0:0:0:
256,192,109573,1,8,0:0:0:0:
256,192,109906,1,8,0:0:0:0:
256,192,110239,1,0,0:0:0:0:
256,192,110406,1,0,0:0:0:0:
256,192,110573,1,8,0:0:0:0:
256,192,110906,1,0,0:0:0:0:
256,192,111073,1,8,0:0:0:0:
256,192,111406,1,0,0:0:0:0:
256,192,111573,1,8,0:0:0:0:
256,192,111906,1,8,0:0:0:0:
256,192,112239,1,0,0:0:0:0:
256,192,112907,1,0,0:0:0:0:
256,192,113240,1,8,0:0:0:0:
256,192,113407,1,8,0:0:0:0:
256,192,113573,1,0,0:0:0:0:
256,192,113740,1,8,0:0:0:0:
256,192,114074,1,0,0:0:0:0:
256,192,114240,1,0,0:0:0:0:
256,192,114573,1,8,0:0:0:0:
256,96,114906,1,12,0:0:0:0:
256,96,115407,1,12,0:0:0:0:
256,192,115907,1,12,0:0:0:0:
256,96,116407,1,8,0:0:0:0:
256,192,116907,1,12,0:0:0:0:
256,192,117240,1,0,0:0:0:0:
256,192,117407,1,8,0:0:0:0:
256,192,117573,1,4,0:0:0:0:
242,184,120240,1,0,0:0:0:0:
242,184,122907,1,0,0:0:0:0:
238,187,125574,1,0,0:0:0:0:
237,188,126074,1,0,0:0:0:0:
237,188,126574,1,8,0:0:0:0:
227,158,127574,1,8,0:0:0:0:
227,158,127740,1,8,0:0:0:0:
192,170,127907,1,0,0:0:0:0:
183,167,128074,1,0,0:0:0:0:
159,148,128240,1,8,0:0:0:0:
218,180,128574,1,4,0:0:0:0:
235,178,129240,1,8,0:0:0:0:
235,178,129407,1,0,0:0:0:0:
231,182,129907,1,8,0:0:0:0:
155,68,130240,1,0,0:0:0:0:
226,182,130574,1,8,0:0:0:0:
214,180,130907,1,0,0:0:0:0:
172,138,131240,1,8,0:0:0:0:
231,154,131407,1,0,0:0:0:0:
166,143,131740,1,0,0:0:0:0:
222,150,131907,1,8,0:0:0:0:
226,152,132574,1,8,0:0:0:0:
199,155,132907,1,0,0:0:0:0:
199,155,133240,1,8,0:0:0:0:
201,148,133407,1,8,0:0:0:0:
177,159,133574,1,0,0:0:0:0:
177,159,134074,1,8,0:0:0:0:
177,159,134574,1,8,0:0:0:0:
177,159,135240,1,8,0:0:0:0:
168,165,135574,1,0,0:0:0:0:
168,165,135740,1,0,0:0:0:0:
168,165,135907,1,8,0:0:0:0:
160,159,136240,1,4,0:0:0:0:
208,179,136740,1,8,0:0:0:0:
208,179,137240,1,12,0:0:0:0:
227,165,137740,1,0,0:0:0:0:
227,165,137907,1,8,0:0:0:0:
225,165,138240,1,0,0:0:0:0:
176,169,138407,1,0,0:0:0:0:
176,169,138574,1,8,0:0:0:0:
172,163,138740,1,8,0:0:0:0:
256,96,138907,5,4,0:0:0:0:
256,192,139574,1,0,0:0:0:0:
256,192,139907,1,8,0:0:0:0:
256,192,140240,1,0,0:0:0:0:
256,192,140407,1,0,0:0:0:0:
256,192,140574,1,8,0:0:0:0:
256,192,140907,1,0,0:0:0:0:
256,192,141240,1,8,0:0:0:0:
256,192,141407,1,8,0:0:0:0:
256,192,141574,1,0,0:0:0:0:
256,192,141740,1,0,0:0:0:0:
256,192,141907,1,8,0:0:0:0:
256,192,142240,1,8,0:0:0:0:
256,192,142407,1,0,0:0:0:0:
256,192,142574,1,8,0:0:0:0:
256,192,143240,1,8,0:0:0:0:
256,192,143574,1,0,0:0:0:0:
256,192,143740,1,0,0:0:0:0:
256,192,143907,1,8,0:0:0:0:
256,192,144074,1,8,0:0:0:0:
256,192,144240,1,0,0:0:0:0:
256,192,144574,1,8,0:0:0:0:
256,192,144907,1,0,0:0:0:0:
256,192,145240,1,8,0:0:0:0:
256,192,145407,1,8,0:0:0:0:
256,192,145740,1,0,0:0:0:0:
256,192,145907,1,8,0:0:0:0:
256,192,146240,1,0,0:0:0:0:
256,192,146574,1,8,0:0:0:0:
256,192,146740,1,8,0:0:0:0:
256,192,146907,1,0,0:0:0:0:
256,192,147074,1,0,0:0:0:0:
256,192,147240,1,8,0:0:0:0:
256,96,147574,1,12,0:0:0:0:
256,192,147907,1,0,0:0:0:0:
256,192,148074,1,8,0:0:0:0:
256,192,148407,1,0,0:0:0:0:
256,192,148574,1,8,0:0:0:0:
256,192,148907,1,0,0:0:0:0:
256,192,149074,1,0,0:0:0:0:
256,192,149240,1,8,0:0:0:0:
256,192,149407,1,8,0:0:0:0:
256,96,149574,1,4,0:0:0:0:
256,192,150240,1,0,0:0:0:0:
256,192,150407,1,0,0:0:0:0:
256,192,150740,1,8,0:0:0:0:
256,192,151074,1,0,0:0:0:0:
256,192,151240,1,8,0:0:0:0:
256,192,151574,1,0,0:0:0:0:
256,192,151740,1,0,0:0:0:0:
256,192,151907,1,8,0:0:0:0:
256,192,152240,1,0,0:0:0:0:
256,192,152574,1,8,0:0:0:0:
256,192,152907,1,8,0:0:0:0:
256,192,153074,1,0,0:0:0:0:
256,192,153240,1,8,0:0:0:0:
256,192,153574,1,8,0:0:0:0:
256,192,153740,1,8,0:0:0:0:
256,192,153907,1,0,0:0:0:0:
256,192,154074,1,8,0:0:0:0:
256,192,154407,1,0,0:0:0:0:
256,192,154574,1,8,0:0:0:0:
256,192,154907,1,0,0:0:0:0:
256,192,155574,1,0,0:0:0:0:
256,192,155740,1,0,0:0:0:0:
256,192,156074,1,8,0:0:0:0:
256,192,156240,1,0,0:0:0:0:
256,192,156574,1,8,0:0:0:0:
256,192,156907,1,0,0:0:0:0:
256,192,157240,1,8,0:0:0:0:
256,192,157407,1,8,0:0:0:0:
264,188,160240,5,4,0:0:0:0:
264,189,160574,1,8,0:0:0:0:
264,189,160740,1,0,0:0:0:0:
260,193,161074,1,0,0:0:0:0:
260,193,161240,1,8,0:0:0:0:
225,190,161574,1,0,0:0:0:0:
225,190,161907,1,8,0:0:0:0:
225,190,162074,1,0,0:0:0:0:
225,190,162240,1,0,0:0:0:0:
209,111,162407,1,8,0:0:0:0:
209,111,162574,1,0,0:0:0:0:
180,137,162907,1,8,0:0:0:0:
180,193,163240,1,8,0:0:0:0:
204,206,163407,1,0,0:0:0:0:
203,209,163740,1,0,0:0:0:0:
203,209,163907,1,8,0:0:0:0:
203,209,164240,1,0,0:0:0:0:
203,209,164574,1,8,0:0:0:0:
199,207,164907,1,0,0:0:0:0:
199,207,165240,1,0,0:0:0:0:
199,207,165574,1,12,0:0:0:0:
199,207,166074,1,0,0:0:0:0:
199,207,166574,1,0,0:0:0:0:
197,206,166907,1,8,0:0:0:0:
197,206,167240,1,8,0:0:0:0:
189,208,167574,1,0,0:0:0:0:
189,208,167740,1,0,0:0:0:0:
125,0,167907,1,8,0:0:0:0:
232,192,168240,1,4,0:0:0:0:
220,204,169240,1,8,0:0:0:0:
220,204,169407,1,4,0:0:0:0:
154,197,169907,1,8,0:0:0:0:
235,176,170240,1,0,0:0:0:0:
235,176,170407,1,0,0:0:0:0:
235,176,170574,1,8,0:0:0:0:
235,176,170740,1,0,0:0:0:0:
228,180,170907,1,12,0:0:0:0:
227,174,171407,1,0,0:0:0:0:
227,175,171740,1,0,0:0:0:0:
227,175,171907,1,8,0:0:0:0:
187,174,172240,1,0,0:0:0:0:
187,174,172574,1,8,0:0:0:0:
187,174,172907,1,8,0:0:0:0:
187,174,173240,1,8,0:0:0:0:
187,174,173574,1,0,0:0:0:0:
178,179,173907,1,8,0:0:0:0:
178,179,174074,1,0,0:0:0:0:
178,179,174407,1,0,0:0:0:0:
178,179,174574,1,8,0:0:0:0:
178,179,174740,1,8,0:0:0:0:
178,179,174907,1,0,0:0:0:0:
219,168,175240,1,8,0:0:0:0:
177,171,175574,1,0,0:0:0:0:
177,171,175740,1,0,0:0:0:0:
177,171,175907,1,8,0:0:0:0:
173,174,176240,1,4,0:0:0:0:
178,169,177574,1,0,0:0:0:0:
178,169,177907,1,8,0:0:0:0:
178,169,178074,1,0,0:0:0:0:
178,169,178240,1,8,0:0:0:0:
177,170,178574,1,8,0:0:0:0:
177,170,178907,1,4,0:0:0:0:
177,170,179407,1,4,0:0:0:0:
177,170,179907,1,4,0:0:0:0:
177,170,180407,1,4,0:0:0:0:
177,170,180907,1,12,0:0:0:0:
177,170,181240,1,0,0:0:0:0:
177,170,181407,1,0,0:0:0:0:
256,96,181574,5,4,0:0:0:0:
256,192,181907,1,12,0:0:0:0:
256,192,182574,1,8,0:0:0:0:
256,192,182907,1,8,0:0:0:0:
256,192,183074,1,0,0:0:0:0:
256,192,183240,1,8,0:0:0:0:
256,192,183574,1,0,0:0:0:0:
256,192,183740,5,8,0:0:0:0:
256,192,183907,1,8,0:0:0:0:
256,192,184074,1,8,0:0:0:0:
256,96,184240,1,4,0:0:0:0:
256,192,184574,1,8,0:0:0:0:
256,192,184907,1,0,0:0:0:0:
256,192,185074,1,0,0:0:0:0:
256,192,185240,1,8,0:0:0:0:
256,192,185407,1,0,0:0:0:0:
256,192,185574,1,8,0:0:0:0:
256,192,185907,1,0,0:0:0:0:
256,192,186074,1,8,0:0:0:0:
256,192,186574,1,0,0:0:0:0:
256,192,186740,1,0,0:0:0:0:
256,192,186907,1,8,0:0:0:0:
256,192,187074,1,8,0:0:0:0:
256,192,187240,1,0,0:0:0:0:
256,192,187574,1,8,0:0:0:0:
256,192,187907,1,8,0:0:0:0:
256,192,188240,1,0,0:0:0:0:
256,192,188407,1,0,0:0:0:0:
256,192,188574,1,0,0:0:0:0:
256,192,188740,1,8,0:0:0:0:
256,192,189407,1,0,0:0:0:0:
256,192,189574,1,8,0:0:0:0:
256,192,189907,1,8,0:0:0:0:
256,192,190074,1,8,0:0:0:0:
256,192,190407,1,0,0:0:0:0:
256,192,190740,1,0,0:0:0:0:
256,192,190907,1,8,0:0:0:0:
256,192,191240,1,0,0:0:0:0:
256,192,191407,1,8,0:0:0:0:
256,192,191574,1,8,0:0:0:0:
256,192,191907,1,8,0:0:0:0:
256,192,192240,1,0,0:0:0:0:
256,96,192574,1,12,0:0:0:0:
256,192,192907,1,0,0:0:0:0:
256,192,193074,1,8,0:0:0:0:
256,96,193407,1,4,0:0:0:0:
256,192,194240,1,0,0:0:0:0:
256,192,194407,1,0,0:0:0:0:
256,192,194574,1,8,0:0:0:0:
256,192,194740,1,8,0:0:0:0:
256,96,194907,1,4,0:0:0:0:
256,192,195240,1,8,0:0:0:0:
256,192,195573,1,0,0:0:0:0:
256,192,195740,1,8,0:0:0:0:
256,192,195906,1,8,0:0:0:0:
256,192,196073,1,0,0:0:0:0:
256,192,196240,1,8,0:0:0:0:
256,192,196573,1,8,0:0:0:0:
256,192,196740,1,8,0:0:0:0:
256,192,197074,1,0,0:0:0:0:
256,192,197240,1,0,0:0:0:0:
256,192,197406,1,8,0:0:0:0:
256,192,197573,1,0,0:0:0:0:
256,192,197740,1,8,0:0:0:0:
256,192,198073,1,0,0:0:0:0:
256,192,198240,1,8,0:0:0:0:
256,192,198574,1,0,0:0:0:0:
256,192,198906,1,8,0:0:0:0:
256,192,199073,1,8,0:0:0:0:
256,192,199240,1,0,0:0:0:0:
256,192,199406,1,8,0:0:0:0:
256,192,200073,1,0,0:0:0:0:
256,192,200240,1,8,0:0:0:0:
256,192,200574,1,8,0:0:0:0:
256,192,200740,1,0,0:0:0:0:
256,192,200907,1,8,0:0:0:0:
256,192,201240,1,0,0:0:0:0:
256,192,201574,1,0,0:0:0:0:
256,96,201907,1,12,0:0:0:0:
256,192,202240,1,0,0:0:0:0:
256,192,202407,1,0,0:0:0:0:
256,192,202574,1,8,0:0:0:0:
256,96,202907,1,4,0:0:0:0:
256,192,206907,1,8,0:0:0:0:
256,192,207407,1,8,0:0:0:0:
256,192,207574,1,8,0:0:0:0:
256,192,207907,1,8,0:0:0:0:
256,192,208240,1,0,0:0:0:0:
256,192,217907,5,8,0:0:0:0:
256,192,218240,1,8,0:0:0:0:
256,192,218407,1,0,0:0:0:0:
256,192,218574,1,0,0:0:0:0:
256,192,218907,1,8,0:0:0:0:
178,163,219574,1,8,0:0:0:0:
178,163,220240,1,8,0:0:0:0:
178,163,220907,1,8,0:0:0:0:
177,165,221574,1,8,0:0:0:0:
177,165,221740,1,0,0:0:0:0:
177,165,222074,1,0,0:0:0:0:
177,165,222240,1,8,0:0:0:0:
177,165,222907,1,8,0:0:0:0:
176,166,223574,1,8,0:0:0:0:
176,166,223907,1,0,0:0:0:0:
176,166,224074,1,0,0:0:0:0:
176,166,224240,1,0,0:0:0:0:
171,169,224907,1,8,0:0:0:0:
171,169,225574,1,8,0:0:0:0:
171,169,225740,1,0,0:0:0:0:
171,169,226074,1,0,0:0:0:0:
171,169,226240,1,8,0:0:0:0:
171,169,226574,1,8,0:0:0:0:
171,169,226907,1,0,0:0:0:0:
256,96,229574,5,4,0:0:0:0:
256,192,229907,1,8,0:0:0:0:
256,192,230074,1,0,0:0:0:0:
256,192,230407,1,0,0:0:0:0:
256,192,230574,1,8,0:0:0:0:
256,192,230907,1,0,0:0:0:0:
256,192,231240,1,8,0:0:0:0:
256,192,231574,1,8,0:0:0:0:
256,192,231740,1,0,0:0:0:0:
256,192,231907,1,8,0:0:0:0:
256,192,232240,1,0,0:0:0:0:
256,192,232574,1,8,0:0:0:0:
256,192,232740,1,0,0:0:0:0:
256,192,233074,1,0,0:0:0:0:
256,192,233240,1,8,0:0:0:0:
256,192,233407,1,0,0:0:0:0:
256,192,233574,1,8,0:0:0:0:
256,192,233907,1,8,0:0:0:0:
256,192,234240,1,0,0:0:0:0:
256,192,234407,1,0,0:0:0:0:
256,192,234574,1,8,0:0:0:0:
256,192,234907,1,4,0:0:0:0:
256,192,235574,1,0,0:0:0:0:
256,192,235907,1,8,0:0:0:0:
256,192,236074,1,0,0:0:0:0:
256,192,236240,1,8,0:0:0:0:
256,192,236574,1,8,0:0:0:0:
256,192,236740,1,8,0:0:0:0:
256,192,236907,1,0,0:0:0:0:
256,192,237074,1,0,0:0:0:0:
256,192,237240,1,8,0:0:0:0:
256,96,237574,1,4,0:0:0:0:
256,192,238074,1,8,0:0:0:0:
256,192,238240,1,8,0:0:0:0:
256,96,238740,1,4,0:0:0:0:
256,192,239240,1,8,0:0:0:0:
256,192,239574,1,8,0:0:0:0:
256,192,239740,1,8,0:0:0:0:
256,192,239907,1,0,0:0:0:0:
256,192,240074,1,0,0:0:0:0:
256,96,240240,1,12,0:0:0:0:
256,192,240907,1,0,0:0:0:0:
256,192,241241,1,8,0:0:0:0:
256,192,241407,1,8,0:0:0:0:
256,192,241574,1,0,0:0:0:0:
256,192,241907,1,8,0:0:0:0:
256,192,242241,1,0,0:0:0:0:
256,192,242407,1,0,0:0:0:0:
256,192,242574,1,8,0:0:0:0:
256,192,242907,1,0,0:0:0:0:
256,192,243241,1,8,0:0:0:0:
256,192,243407,1,0,0:0:0:0:
256,192,243741,1,0,0:0:0:0:
256,192,243907,1,8,0:0:0:0:
256,192,244074,1,0,0:0:0:0:
256,192,244241,1,8,0:0:0:0:
256,192,244574,1,8,0:0:0:0:
256,192,244907,1,0,0:0:0:0:
256,192,245074,1,0,0:0:0:0:
256,192,245241,1,8,0:0:0:0:
256,192,245574,1,4,0:0:0:0:
256,192,246074,1,8,0:0:0:0:
256,192,246407,1,0,0:0:0:0:
256,192,246574,1,8,0:0:0:0:
256,192,246907,1,8,0:0:0:0:
256,192,247241,1,0,0:0:0:0:
256,192,247407,1,8,0:0:0:0:
256,192,247574,1,0,0:0:0:0:
256,192,247741,1,0,0:0:0:0:
256,192,247907,1,8,0:0:0:0:
256,96,248240,1,12,0:0:0:0:
256,96,248740,1,12,0:0:0:0:
256,96,249240,1,12,0:0:0:0:
256,192,249740,1,8,0:0:0:0:
256,96,250240,1,12,0:0:0:0:
256,192,250574,1,0,0:0:0:0:
256,192,250740,1,0,0:0:0:0:
256,192,250907,1,12,0:0:0:0:
184,175,252240,1,8,0:0:0:0:
184,175,252574,1,8,0:0:0:0:
184,175,252740,1,0,0:0:0:0:
184,175,253074,1,0,0:0:0:0:
184,175,253240,1,8,0:0:0:0:
184,175,253574,1,0,0:0:0:0:
184,175,254074,1,8,0:0:0:0:
184,175,254574,1,8,0:0:0:0:
184,175,254907,1,0,0:0:0:0:
184,175,255240,1,8,0:0:0:0:
184,175,255407,1,0,0:0:0:0:
184,175,255740,1,0,0:0:0:0:
184,175,255907,1,8,0:0:0:0:
184,175,256074,1,8,0:0:0:0:
184,175,256240,1,0,0:0:0:0:
180,172,256740,1,0,0:0:0:0:
180,172,257240,1,8,0:0:0:0:
180,172,257407,1,8,0:0:0:0:
180,172,257574,1,0,0:0:0:0:
180,172,257907,1,8,0:0:0:0:
180,172,258074,1,0,0:0:0:0:
180,172,258407,1,0,0:0:0:0:
180,172,258574,1,8,0:0:0:0:
178,166,258907,1,0,0:0:0:0:
178,161,259407,1,8,0:0:0:0:
178,161,259907,1,0,0:0:0:0:
178,161,260407,1,8,0:0:0:0:
178,161,260907,1,0,0:0:0:0:
178,161,261074,1,8,0:0:0:0:
178,161,261240,1,0,0:0:0:0:
178,161,261407,1,0,0:0:0:0:
178,161,261574,1,12,0:0:0:0:
263,188,262074,1,0,0:0:0:0:
245,178,262574,1,8,0:0:0:0:
245,178,262907,1,8,0:0:0:0:
242,177,263407,1,0,0:0:0:0:
237,174,263907,1,8,0:0:0:0:
237,174,264240,1,0,0:0:0:0:
230,170,264574,1,8,0:0:0:0:
230,170,264740,1,0,0:0:0:0:
220,169,265074,1,0,0:0:0:0:
227,169,265240,1,8,0:0:0:0:
220,169,265574,1,0,0:0:0:0:
216,169,266074,1,0,0:0:0:0:
216,169,266574,1,8,0:0:0:0:
216,169,266907,1,0,0:0:0:0:
181,178,267407,1,0,0:0:0:0:
173,182,267907,1,8,0:0:0:0:
212,166,268240,1,0,0:0:0:0:
212,166,268574,1,8,0:0:0:0:
249,172,268740,1,0,0:0:0:0:
241,171,268907,1,8,0:0:0:0:
240,169,269240,1,8,0:0:0:0:
238,169,269574,1,4,0:0:0:0:
238,169,270074,1,12,0:0:0:0:
238,169,270574,1,4,0:0:0:0:
238,169,271074,1,12,0:0:0:0:
238,169,271574,1,8,0:0:0:0:
238,169,271740,1,8,0:0:0:0:
238,169,271907,1,0,0:0:0:0:
238,169,272074,1,8,0:0:0:0:
238,169,272240,1,4,0:0:0:0:
230,192,273574,1,8,0:0:0:0:
214,198,273907,1,8,0:0:0:0:
214,198,274074,1,0,0:0:0:0:
213,199,274407,1,0,0:0:0:0:
213,199,274574,1,8,0:0:0:0:
213,199,274907,1,4,0:0:0:0:
212,200,276240,1,8,0:0:0:0:
212,200,276574,1,0,0:0:0:0:
212,200,276907,1,8,0:0:0:0:
212,200,277074,1,8,0:0:0:0:
212,200,277240,1,8,0:0:0:0:
212,200,277407,1,8,0:0:0:0:
212,200,277574,1,4,0:0:0:0:
195,203,278907,1,8,0:0:0:0:
195,203,279407,1,0,0:0:0:0:
195,203,279907,1,8,0:0:0:0:
195,203,280240,1,0,0:0:0:0:
193,204,281407,1,8,0:0:0:0:
193,204,282240,1,0,0:0:0:0:
193,204,282574,1,0,0:0:0:0:
193,205,282907,1,4,0:0:0:0:
