osu file format v14

[General]
AudioFilename: audio.mp3
AudioLeadIn: 0
PreviewTime: 59955
Countdown: 0
SampleSet: Soft
StackLeniency: 0.4
Mode: 0
LetterboxInBreaks: 0
WidescreenStoryboard: 1

[Editor]
DistanceSpacing: 1.2
BeatDivisor: 4
GridSize: 4
TimelineZoom: 2.2

[Metadata]
Title:Thoughtcrime
TitleUnicode:思想犯
Artist:Yorushika
ArtistUnicode:ヨルシカ
Creator:Ryuusei Aika
Version:kanor's Insane
Source:
Tags:cut ver version Amamiya Kanade Sandrew kanor Ipas NewIpas SMM ShirohaMyMommy Delis shisouhan shisou han ナブナ nbuna n-buna スイ suis plagiarism 盗作 japanese rock jrock j-rock female vocal
BeatmapID:2506877
BeatmapSetID:1202606

[Difficulty]
HPDrainRate:6
CircleSize:4
OverallDifficulty:8
ApproachRate:9.2
SliderMultiplier:1.6
SliderTickRate:1

[Events]
//Background and Video events
0,0,"EUqwFx6U4AI4cpS.jpg",0,0
//Break Periods
//Storyboard Layer 0 (Background)
//Storyboard Layer 1 (Fail)
//Storyboard Layer 2 (Pass)
//Storyboard Layer 3 (Foreground)
//Storyboard Layer 4 (Overlay)
//Storyboard Sound Samples

[TimingPoints]
926,300,4,2,0,20,1,0
926,-133.333333333333,4,2,0,20,0,0
10526,-100,4,2,0,50,0,0
29726,-133.333333333333,4,2,0,30,0,0
48926,-111.111111111111,4,2,0,40,0,0
58526,-111.111111111111,4,2,0,45,0,0
60026,-200,4,2,0,50,0,0
60626,-200,4,2,0,40,0,0
60926,-100,4,2,0,60,0,0
80726,-100,4,2,0,50,0,0
81401,-100,4,2,0,30,0,0
82526,-100,4,2,0,50,0,0
92051,-100,4,2,0,5,0,0

[Colours]
Combo1 : 255,169,128
Combo2 : 255,128,255
Combo3 : 255,128,128
Combo4 : 255,128,192

[HitObjects]
8,100,926,6,0,L|89:93,1,60.0000022888184,4|4,0:3|0:3,0:0:0:0:
152,32,1226,1,0,1:0:0:0:
152,32,1376,2,0,P|144:92|141:175,1,120.000004577637
148,232,1826,1,0,1:0:0:0:
148,232,2126,6,0,L|67:225,1,60.0000022888184,4|4,0:3|0:3,0:0:0:0:
8,308,2426,2,0,L|89:301,1,60.0000022888184,0|0,1:0|0:0,0:0:0:0:
168,364,2726,5,0,0:0:0:0:
216,304,2876,1,0,0:0:0:0:
296,304,3026,1,0,1:0:0:0:
344,364,3176,1,0,0:0:0:0:
504,308,3326,6,0,L|423:301,1,60.0000022888184,4|4,0:3|0:3,0:0:0:0:
384,224,3626,1,0,1:0:0:0:
384,224,3776,2,0,P|444:216|527:213,1,120.000004577637
480,132,4226,1,0,1:0:0:0:
480,132,4526,6,0,L|487:51,1,60.0000022888184,4|4,0:3|0:3,0:0:0:0:
392,24,4826,2,0,L|399:105,1,60.0000022888184,0|0,1:0|3:0,0:0:0:0:
260,148,5126,5,0,3:0:0:0:
336,140,5276,1,4,0:3:0:0:
260,124,5426,1,0,1:0:0:0:
184,104,5576,1,0,1:0:0:0:
28,132,5726,6,0,L|22:72,1,60.0000022888184,4|4,0:3|0:3,0:0:0:0:
116,36,6026,1,0,1:0:0:0:
116,36,6176,2,0,P|108:96|105:179,1,120.000004577637,0|4,0:0|0:3,0:0:0:0:
48,208,6626,1,0,1:0:0:0:
48,208,6926,6,0,L|42:267,1,60.0000022888184,4|4,0:3|0:3,0:0:0:0:
148,364,7226,2,0,L|142:305,1,60.0000022888184,0|0,1:0|0:0,0:0:0:0:
188,196,7526,5,0,0:0:0:0:
236,256,7676,1,4,0:3:0:0:
324,200,7826,1,0,1:0:0:0:
372,140,7976,1,0,1:0:0:0:
464,208,8126,6,0,L|470:267,1,60.0000022888184,4|4,0:3|0:3,0:0:0:0:
364,364,8426,2,0,L|370:305,1,60.0000022888184,0|0,1:0|3:0,0:0:0:0:
360,288,8651,1,0,3:0:0:0:
352,272,8726,2,0,L|358:213,1,60.0000022888184,0|4,3:0|0:3,0:0:0:0:
248,88,9026,2,0,L|254:147,1,60.0000022888184,0|0,1:0|3:0,0:0:0:0:
456,120,9326,1,2,0:0:0:0:
456,120,10526,6,0,L|464:28,1,80,4|0,3:2|0:0,0:0:0:0:
388,8,10826,1,0,1:0:0:0:
348,136,10976,1,0,0:0:0:0:
348,136,11051,1,0,0:0:0:0:
348,136,11126,2,0,L|356:228,1,80,4|4,0:3|0:3,0:0:0:0:
404,292,11426,2,0,P|369:239|280:260,1,160,0|4,1:0|0:3,0:0:0:0:
283,254,12176,5,0,0:0:0:0:
300,332,12326,1,4,0:3:0:0:
316,328,12401,1,0,0:0:0:0:
332,324,12476,1,4,0:3:0:0:
483,298,12626,2,0,L|387:290,1,80,0|0,1:0|0:0,0:0:0:0:
184,292,12926,6,0,P|209:328|208:372,2,80,4|0|0,0:3|0:0|1:0,0:0:0:0:
136,352,13376,1,0,0:0:0:0:
120,240,13526,2,0,P|156:214|200:216,1,80,4|4,0:3|0:3,0:0:0:0:
43,248,13826,2,0,P|50:204|82:174,1,80,0|0,1:0|0:0,0:0:0:0:
24,20,14126,6,0,L|20:76,2,40,4|0|0,0:3|0:0|0:0,0:0:0:0:
88,104,14426,1,0,1:0:0:0:
156,64,14576,1,0,0:0:0:0:
232,136,14726,1,4,0:3:0:0:
312,24,14876,2,0,L|304:128,1,80,4|0,0:3|1:0,0:0:0:0:
472,188,15176,5,0,1:0:0:0:
476,196,15251,1,0,1:0:0:0:
480,204,15326,2,0,P|492:164|488:124,1,80,4|0,1:2|0:0,0:0:0:0:
476,48,15626,1,0,1:0:0:0:
384,136,15776,1,0,0:0:0:0:
384,136,15851,1,0,0:0:0:0:
384,136,15926,2,0,L|376:240,1,80,4|4,0:3|0:3,0:0:0:0:
512,296,16226,2,0,B|424:276|464:348|352:316,1,160,0|4,1:0|0:3,0:0:0:0:
360,318,16976,5,0,0:0:0:0:
348,310,17051,1,0,0:0:0:0:
336,302,17126,2,0,L|344:216,1,80,4|4,0:3|0:3,0:0:0:0:
240,356,17426,2,0,L|248:270,1,80,0|0,1:0|0:0,0:0:0:0:
108,248,17726,5,4,0:3:0:0:
184,220,17876,1,0,0:0:0:0:
168,296,18026,1,0,1:0:0:0:
108,248,18176,5,0,0:0:0:0:
32,220,18326,1,4,0:3:0:0:
48,296,18476,1,4,0:3:0:0:
108,168,18626,5,0,1:0:0:0:
108,248,18776,1,0,0:0:0:0:
104,92,18926,6,0,L|4:104,2,80,2|8|8,0:0|0:3|0:3,0:0:0:0:
220,16,19376,1,0,1:0:0:0:
220,32,19451,1,0,1:0:0:0:
220,52,19526,1,0,1:0:0:0:
296,96,19676,1,0,1:0:0:0:
188,140,19826,1,0,1:0:0:0:
308,204,19976,1,0,1:0:0:0:
144,232,20126,6,0,L|52:224,1,80,4|0,3:2|0:0,0:0:0:0:
32,152,20426,1,0,1:0:0:0:
84,308,20576,1,0,0:0:0:0:
84,308,20651,1,0,0:0:0:0:
84,308,20726,2,0,L|-8:300,1,80,4|4,0:3|0:3,0:0:0:0:
144,232,21026,2,0,P|179:285|268:264,1,160,0|4,1:0|0:3,0:0:0:0:
264,268,21776,5,0,0:0:0:0:
320,328,21926,1,4,0:3:0:0:
324,344,22001,1,0,0:0:0:0:
328,360,22076,1,4,0:3:0:0:
496,368,22226,2,0,L|504:272,1,80,0|0,1:0|0:0,0:0:0:0:
400,256,22526,6,0,L|408:344,2,80,4|0|0,0:3|0:0|1:0,0:0:0:0:
492,128,22976,1,0,0:0:0:0:
432,176,23126,2,0,P|468:202|512:200,1,80,4|4,0:3|0:3,0:0:0:0:
380,92,23426,2,0,P|387:136|419:166,1,80,0|0,1:0|0:0,0:0:0:0:
384,24,23726,6,0,L|380:80,2,40,4|0|0,0:3|0:0|0:0,0:0:0:0:
304,80,24026,1,0,1:0:0:0:
236,32,24176,1,0,0:0:0:0:
132,84,24326,1,4,0:3:0:0:
28,8,24476,2,0,L|20:112,1,80,4|0,0:3|1:0,0:0:0:0:
0,196,24776,5,0,1:0:0:0:
8,184,24851,1,0,1:0:0:0:
16,172,24926,2,0,P|56:160|96:164,1,80,4|0,3:2|0:0,0:0:0:0:
160,208,25226,1,0,1:0:0:0:
312,296,25376,1,0,0:0:0:0:
304,284,25451,1,0,0:0:0:0:
296,272,25526,2,0,P|256:260|216:264,1,80,4|4,0:3|0:3,0:0:0:0:
84,336,25826,2,0,B|172:316|132:388|244:356,1,160,0|4,1:0|0:3,0:0:0:0:
84,336,26576,5,0,0:0:0:0:
72,328,26651,1,0,0:0:0:0:
60,320,26726,2,0,L|68:234,1,80,4|4,0:3|0:3,0:0:0:0:
210,183,27026,2,0,L|218:269,1,80,0|0,1:0|0:0,0:0:0:0:
150,131,27326,5,4,0:3:0:0:
226,107,27476,1,0,1:0:0:0:
210,183,27626,1,8,0:3:0:0:
164,48,27776,5,0,1:0:0:0:
180,40,27851,1,0,1:0:0:0:
196,32,27926,1,0,1:0:0:0:
272,40,28076,1,0,1:0:0:0:
436,84,28226,1,0,1:0:0:0:
512,76,28376,1,8,0:3:0:0:
360,16,28526,6,0,L|348:116,2,80,4|0|8,0:3|1:0|0:3,0:0:0:0:
336,168,28976,1,0,0:0:0:0:
420,212,29126,5,0,1:0:0:0:
428,208,29201,1,0,1:0:0:0:
436,204,29276,1,0,1:0:0:0:
444,200,29351,1,0,1:0:0:0:
456,196,29426,2,0,L|456:252,1,40,0|0,1:0|0:0,0:0:0:0:
504,304,29576,2,0,L|504:360,1,40,0|0,1:0|1:0,0:0:0:0:
408,344,29726,6,0,P|360:286|320:296,1,120.000004577637,2|0,3:2|1:0,0:0:0:0:
323,293,30326,1,4,0:3:0:0:
247,313,30476,1,4,0:3:0:0:
171,333,30626,1,0,1:0:0:0:
171,333,30926,6,0,P|160:283|171:205,1,120.000004577637,4|0,0:3|1:0,0:0:0:0:
240,200,31376,1,0,0:0:0:0:
96,184,31526,1,4,0:3:0:0:
96,184,31676,1,4,0:3:0:0:
20,208,31826,2,0,P|16:168|24:128,1,60.0000022888184,0|0,1:0|0:0,0:0:0:0:
200,76,32126,6,0,P|204:116|196:156,1,60.0000022888184,4|0,0:3|0:0,0:0:0:0:
104,84,32426,2,0,P|100:44|108:4,1,60.0000022888184,0|0,1:0|0:0,0:0:0:0:
256,20,32726,1,4,0:3:0:0:
256,20,32876,1,4,0:3:0:0:
326,113,33026,2,0,P|330:73|322:33,1,60.0000022888184,0|0,1:0|0:0,0:0:0:0:
400,168,33326,6,0,B|468:176|436:120|532:144,2,120.000004577637,4|0|4,0:3|1:0|0:3,0:0:0:0:
324,192,34076,1,4,0:3:0:0:
296,268,34226,1,0,1:0:0:0:
328,344,34376,5,0,0:0:0:0:
340,336,34451,1,0,0:0:0:0:
352,328,34526,2,0,B|420:320|388:376|484:352,1,120.000004577637,4|0,0:3|1:0,0:0:0:0:
248,332,35126,1,4,0:3:0:0:
188,280,35276,1,4,0:3:0:0:
108,304,35426,2,0,L|112:372,1,60.0000022888184,0|0,1:0|0:0,0:0:0:0:
40,248,35726,6,0,P|51:198|40:120,1,120.000004577637,4|0,0:3|1:0,0:0:0:0:
0,64,36176,1,0,0:0:0:0:
120,96,36326,1,4,0:3:0:0:
120,96,36476,1,4,0:3:0:0:
200,8,36626,2,0,L|196:67,1,60.0000022888184,0|0,1:0|0:0,0:0:0:0:
360,184,36926,6,0,P|366:155|360:120,1,60.0000022888184,4|0,0:3|0:0,0:0:0:0:
188,144,37226,2,0,P|181:172|188:208,1,60.0000022888184,0|0,1:0|0:0,0:0:0:0:
272,104,37526,1,4,0:3:0:0:
272,104,37676,1,4,0:3:0:0:
268,184,37826,2,0,L|264:268,1,60.0000022888184,0|0,1:0|0:0,0:0:0:0:
200,356,38126,5,4,0:3:0:0:
280,316,38276,1,0,1:0:0:0:
356,372,38426,1,0,1:0:0:0:
440,304,38576,1,0,0:0:0:0:
452,300,38651,1,0,0:0:0:0:
464,296,38726,2,0,L|472:216,1,60.0000022888184,4|4,0:3|0:3,0:0:0:0:
392,184,39026,1,0,1:0:0:0:
488,120,39176,1,0,1:0:0:0:
440,8,39326,6,0,L|432:88,1,60.0000022888184,4|0,0:3|0:0,0:0:0:0:
348,96,39626,2,0,L|356:16,1,60.0000022888184,0|0,1:0|0:0,0:0:0:0:
280,12,39926,1,4,0:3:0:0:
280,12,40076,1,4,0:3:0:0:
200,104,40226,2,0,L|208:24,1,60.0000022888184,0|0,1:0|0:0,0:0:0:0:
44,104,40526,6,0,L|52:184,1,60.0000022888184,4|0,0:3|0:0,0:0:0:0:
136,192,40826,2,0,L|128:112,1,60.0000022888184,0|0,1:0|0:0,0:0:0:0:
204,108,41126,1,4,0:3:0:0:
204,108,41276,1,4,0:3:0:0:
284,200,41426,2,0,L|276:120,1,60.0000022888184,0|0,1:0|0:0,0:0:0:0:
444,196,41726,6,0,L|436:276,1,60.0000022888184,4|0,0:3|0:0,0:0:0:0:
352,284,42026,2,0,L|360:204,1,60.0000022888184,0|0,1:0|0:0,0:0:0:0:
284,200,42326,1,4,0:3:0:0:
284,200,42476,1,4,0:3:0:0:
204,292,42626,2,0,L|212:212,1,60.0000022888184,0|0,1:0|0:0,0:0:0:0:
44,288,42926,6,0,L|52:368,1,60.0000022888184,4|0,0:3|0:0,0:0:0:0:
136,376,43226,2,0,L|128:296,1,60.0000022888184,0|0,1:0|0:0,0:0:0:0:
204,292,43526,1,4,0:3:0:0:
204,292,43676,1,4,0:3:0:0:
284,384,43826,2,0,L|276:304,1,60.0000022888184,0|0,1:0|0:0,0:0:0:0:
284,312,44051,5,0,0:0:0:0:
292,296,44126,2,0,P|324:288|364:316,1,60.0000022888184,4|0,0:3|0:0,0:0:0:0:
400,248,44426,2,0,P|422:271|418:320,1,60.0000022888184,0|0,1:0|0:0,0:0:0:0:
392,368,44726,1,4,0:3:0:0:
392,368,44876,1,4,0:3:0:0:
500,308,45026,2,0,P|490:339|446:360,1,60.0000022888184,0|0,1:0|0:0,0:0:0:0:
220,296,45326,6,0,P|188:288|148:315,1,60.0000022888184,4|0,0:3|0:0,0:0:0:0:
112,247,45626,2,0,P|89:270|93:319,1,60.0000022888184,0|0,1:0|0:0,0:0:0:0:
120,367,45926,1,4,0:3:0:0:
120,367,46076,1,4,0:3:0:0:
12,307,46226,2,0,P|21:338|65:359,1,60.0000022888184,0|0,1:0|0:0,0:0:0:0:
256,336,46526,6,0,L|256:260,1,60.0000022888184,4|2,0:3|0:0,0:0:0:0:
204,224,46826,5,0,1:0:0:0:
304,192,46976,1,4,0:3:0:0:
324,192,47126,5,0,1:0:0:0:
188,148,47276,1,2,0:0:0:0:
168,144,47426,5,0,1:0:0:0:
304,100,47576,1,8,0:3:0:0:
324,100,47726,5,0,3:0:0:0:
368,268,47876,1,4,0:3:0:0:
292,280,48026,5,4,1:2:0:0:
396,124,48176,1,0,0:0:0:0:
408,120,48251,1,0,0:0:0:0:
420,116,48326,2,0,L|424:228,1,90.0000034332277,0|0,1:0|1:0,0:0:0:0:
464,232,48626,5,0,1:0:0:0:
464,258,48701,1,0,1:0:0:0:
465,285,48776,1,0,1:0:0:0:
466,312,48851,1,0,1:0:0:0:
464,340,48926,6,0,P|396:372|332:332,1,143.999995605469,6|0,3:1|1:0,0:0:0:0:
167,277,49376,2,0,P|235:309|299:269,1,143.999995605469,2|4,0:1|0:3,0:0:0:0:
324,200,49826,1,0,1:0:0:0:
288,88,49976,5,8,0:3:0:0:
276,80,50051,1,8,0:3:0:0:
264,72,50126,2,0,L|260:172,1,71.9999978027344,2|2,3:1|3:1,0:0:0:0:
120,156,50426,1,0,1:0:0:0:
188,32,50576,2,0,L|185:103,1,71.9999978027344,2|4,0:1|0:3,0:0:0:0:
120,156,50876,1,4,0:3:0:0:
40,96,51026,2,0,L|36:196,1,71.9999978027344,0|8,1:0|0:3,0:0:0:0:
36,184,51251,5,8,0:3:0:0:
36,200,51326,2,0,B|116:208|68:272|160:268,1,143.999995605469,2|0,3:1|1:0,0:0:0:0:
276,280,51776,2,0,B|196:288|244:352|152:348,1,143.999995605469,2|4,0:1|0:3,0:0:0:0:
152,268,52226,1,0,1:0:0:0:
252,192,52376,5,8,0:3:0:0:
264,188,52451,1,8,0:3:0:0:
276,184,52526,1,2,3:1:0:0:
348,232,52676,1,2,3:1:0:0:
420,196,52826,2,0,L|496:196,1,71.9999978027344,0|0,1:0|0:0,0:0:0:0:
348,152,53126,5,2,3:1:0:0:
348,232,53276,1,2,3:1:0:0:
304,88,53426,2,0,P|340:71|384:84,1,71.9999978027344,0|8,1:0|0:3,0:0:0:0:
392,84,53651,5,8,0:3:0:0:
412,92,53726,2,0,P|432:148|432:244,1,143.999995605469,6|4,3:1|1:2,0:0:0:0:
284,368,54176,2,0,P|264:312|264:216,1,143.999995605469,2|4,0:1|0:3,0:0:0:0:
196,180,54626,1,0,1:0:0:0:
112,200,54776,5,8,0:3:0:0:
104,216,54851,1,8,0:3:0:0:
100,232,54926,2,0,P|88:264|96:312,1,71.9999978027344,2|2,3:1|3:1,0:0:0:0:
176,288,55226,2,0,L|172:388,1,71.9999978027344,0|2,1:0|0:1,0:0:0:0:
32,352,55526,5,4,0:3:0:0:
32,352,55676,1,4,0:3:0:0:
0,280,55826,2,0,L|4:224,1,35.9999989013672,8|8,0:3|0:3,0:0:0:0:
32,176,55976,2,0,L|28:120,1,35.9999989013672,8|8,0:3|0:3,0:0:0:0:
8,64,56126,5,4,3:2:0:0:
8,64,56276,1,4,0:3:0:0:
84,20,56426,2,0,L|88:112,1,71.9999978027344,4|0,1:2|0:0,0:0:0:0:
104,236,56726,5,4,0:3:0:0:
104,236,56876,1,4,0:3:0:0:
180,280,57026,2,0,L|184:188,1,71.9999978027344,0|0,1:0|0:0,0:0:0:0:
408,236,57326,5,4,0:3:0:0:
408,236,57476,1,0,0:0:0:0:
332,280,57626,2,0,L|328:188,1,71.9999978027344,0|0,1:0|0:0,0:0:0:0:
504,64,57926,5,4,0:3:0:0:
504,64,58076,1,4,0:3:0:0:
428,20,58226,2,0,L|424:112,1,71.9999978027344,0|4,1:0|0:3,0:0:0:0:
212,20,58526,5,0,1:0:0:0:
208,44,58676,1,0,0:0:0:0:
324,84,58826,5,8,0:3:0:0:
336,156,58976,1,0,0:0:0:0:
184,168,59126,5,0,0:0:0:0:
172,240,59276,1,8,0:3:0:0:
344,236,59426,5,0,0:0:0:0:
356,308,59576,1,0,0:0:0:0:
256,364,59726,5,4,1:2:0:0:
256,364,60026,2,0,L|256:276,2,80,4|0|4,1:2|0:0|0:3,0:0:0:0:
16,320,60926,6,0,B|116:304|52:368|124:376|188:360,1,160,4|4,3:2|1:2,0:0:0:0:
184,100,61526,2,0,L|168:204,1,80,4|4,0:3|0:3,0:0:0:0:
88,212,61826,2,0,L|108:72,1,120,0|0,1:0|0:0,0:0:0:0:
108,72,62126,5,4,0:3:0:0:
48,24,62276,1,0,0:0:0:0:
196,20,62426,2,0,L|180:124,1,80,0|0,1:0|0:0,0:0:0:0:
328,120,62726,5,4,0:3:0:0:
268,72,62876,1,4,0:3:0:0:
448,116,63026,5,0,1:0:0:0:
388,68,63176,1,0,0:0:0:0:
512,188,63326,6,0,B|412:172|476:236|404:244|340:228,1,160,4|0,0:3|1:0,0:0:0:0:
104,288,63926,2,0,B|120:312|120:312|120:388,1,80,4|4,0:3|0:3,0:0:0:0:
40,380,64226,2,0,B|20:352|20:352|20:260,1,120,0|0,1:0|0:0,0:0:0:0:
20,248,64526,5,4,0:3:0:0:
20,248,64826,2,0,P|32:197|16:164,1,80,0|0,1:0|0:0,0:0:0:0:
16,68,65126,1,4,0:3:0:0:
76,20,65276,1,4,0:3:0:0:
152,48,65426,1,0,1:0:0:0:
208,108,65576,5,4,0:3:0:0:
224,112,65651,1,4,0:3:0:0:
240,116,65726,2,0,P|304:136|336:56,1,160,4|4,3:2|1:2,0:0:0:0:
339,64,66326,5,4,0:3:0:0:
420,16,66476,1,4,0:3:0:0:
496,76,66626,2,0,L|488:168,1,80,0|0,1:0|0:0,0:0:0:0:
408,252,66926,6,0,L|400:160,1,80,4|0,0:3|0:0,0:0:0:0:
484,360,67226,2,0,L|492:268,1,80,0|0,1:0|0:0,0:0:0:0:
336,304,67526,5,4,0:3:0:0:
324,232,67676,1,4,0:3:0:0:
240,360,67826,5,0,1:0:0:0:
252,288,67976,1,0,0:0:0:0:
160,200,68126,6,0,L|168:292,1,80,4|0,0:3|0:0,0:0:0:0:
72,272,68426,2,0,L|64:364,1,80,0|0,1:0|0:0,0:0:0:0:
184,120,68726,6,0,L|192:212,1,80,4|4,0:3|0:3,0:0:0:0:
48,168,69026,2,0,L|40:260,1,80,0|0,1:0|0:0,0:0:0:0:
104,72,69326,5,2,3:2:0:0:
24,88,69476,1,0,1:0:0:0:
24,76,69551,1,0,1:0:0:0:
23,64,69626,1,2,3:2:0:0:
183,51,69776,2,0,L|185:98,2,40,0|0|2,1:0|1:0|3:2,0:0:0:0:
312,56,70076,5,0,1:0:0:0:
312,44,70151,1,0,0:0:0:0:
312,32,70226,2,0,L|372:36,1,40,0|0,1:0|1:0,0:0:0:0:
380,104,70376,2,0,L|440:100,1,40,0|0,1:0|1:0,0:0:0:0:
460,12,70526,6,0,L|440:172,1,160,4|4,3:2|1:2,0:0:0:0:
428,364,71126,2,0,P|464:376|528:356,1,80,4|4,0:3|0:3,0:0:0:0:
480,296,71426,2,0,P|414:281|348:308,1,120,0|0,1:0|0:0,0:0:0:0:
352,308,71726,5,4,0:3:0:0:
328,380,71876,1,0,0:0:0:0:
248,380,72026,2,0,P|224:348|232:300,1,80,0|0,1:0|0:0,0:0:0:0:
252,176,72326,5,4,0:3:0:0:
276,248,72476,1,4,0:3:0:0:
360,112,72626,5,0,1:0:0:0:
336,184,72776,1,0,0:0:0:0:
176,132,72926,6,0,P|128:44|96:84,1,160,4|0,0:3|1:0,0:0:0:0:
0,256,73526,1,4,0:3:0:0:
48,200,73676,1,4,0:3:0:0:
116,236,73826,2,0,B|140:272|140:272|136:308|136:308|160:352,1,120,0|0,1:0|0:0,0:0:0:0:
176,352,74126,6,0,L|255:358,1,80,4|0,0:3|0:0,0:0:0:0:
408,304,74426,2,0,L|328:310,1,80,0|0,1:0|0:0,0:0:0:0:
216,252,74726,5,4,0:3:0:0:
288,240,74876,1,4,0:3:0:0:
400,184,75026,5,0,1:0:0:0:
328,172,75176,1,4,0:3:0:0:
204,116,75326,6,0,B|304:132|240:68|312:60|376:76,1,160,4|4,3:2|1:2,0:0:0:0:
420,104,75776,1,0,0:0:0:0:
488,64,75926,2,0,P|500:96|484:152,1,80,4|4,0:3|0:3,0:0:0:0:
388,264,76226,2,0,L|400:172,1,80,0|0,1:0|0:0,0:0:0:0:
312,220,76526,6,0,P|300:252|316:308,1,80,4|0,0:3|0:0,0:0:0:0:
484,356,76826,2,0,L|472:264,1,80,0|0,1:0|0:0,0:0:0:0:
308,296,77126,5,4,0:3:0:0:
372,344,77276,1,4,0:3:0:0:
192,304,77426,5,0,1:0:0:0:
256,352,77576,1,0,0:0:0:0:
100,316,77726,5,4,0:3:0:0:
100,316,77876,1,0,0:0:0:0:
28,276,78026,2,0,P|17:322|32:364,1,80,0|0,1:0|0:0,0:0:0:0:
52,204,78326,5,4,0:3:0:0:
52,204,78476,1,4,0:3:0:0:
122,161,78626,2,0,P|86:128|43:120,1,80,0|0,1:0|0:0,0:0:0:0:
172,232,78926,5,4,0:3:0:0:
172,232,79076,1,4,0:3:0:0:
174,314,79226,2,0,P|219:299|248:266,1,80,0|0,1:0|0:0,0:0:0:0:
304,136,79526,5,4,0:3:0:0:
287,214,79676,1,8,0:3:0:0:
208,112,79826,5,4,0:3:0:0:
225,34,79976,1,8,0:3:0:0:
380,92,80126,6,0,P|468:76|452:20,1,160,4|0,3:2|1:0,0:0:0:0:
459,27,80726,5,8,0:3:0:0:
448,104,80876,1,8,0:3:0:0:
504,176,81026,1,8,0:3:0:0:
444,240,81176,1,8,0:3:0:0:
492,344,81326,1,0,1:0:0:0:
256,192,81401,12,0,82226,0:0:0:0:
56,264,82526,6,0,L|48:356,1,80,4|0,3:2|0:0,0:0:0:0:
124,376,82826,1,0,1:0:0:0:
164,248,82976,1,0,0:0:0:0:
164,248,83051,1,0,0:0:0:0:
164,248,83126,2,0,L|156:156,1,80,4|4,0:3|0:3,0:0:0:0:
108,92,83426,2,0,P|143:145|232:124,1,160,0|4,1:0|0:3,0:0:0:0:
229,130,84176,5,0,0:0:0:0:
212,52,84326,1,4,0:3:0:0:
196,56,84401,1,0,0:0:0:0:
180,60,84476,1,4,0:3:0:0:
29,86,84626,2,0,L|125:94,1,80,0|0,1:0|0:0,0:0:0:0:
328,92,84926,6,0,P|303:56|304:12,2,80,4|0|0,0:3|0:0|1:0,0:0:0:0:
376,32,85376,1,0,0:0:0:0:
392,144,85526,2,0,P|356:170|312:168,1,80,4|4,0:3|0:3,0:0:0:0:
469,136,85826,2,0,P|462:180|430:210,1,80,0|0,1:0|0:0,0:0:0:0:
488,364,86126,6,0,L|492:308,2,40,4|0|0,0:3|0:0|0:0,0:0:0:0:
424,280,86426,1,0,1:0:0:0:
356,320,86576,1,0,0:0:0:0:
280,248,86726,1,4,0:3:0:0:
200,360,86876,2,0,L|208:256,1,80,4|0,0:3|1:0,0:0:0:0:
40,196,87176,5,0,0:0:0:0:
36,188,87251,1,0,0:0:0:0:
32,180,87326,2,0,P|20:220|24:260,1,80,4|0,3:2|0:0,0:0:0:0:
36,336,87626,1,0,1:0:0:0:
128,248,87776,1,0,0:0:0:0:
128,248,87851,1,0,0:0:0:0:
128,248,87926,2,0,L|136:144,1,80,4|4,0:3|0:3,0:0:0:0:
0,88,88226,2,0,B|88:108|48:36|160:68,1,160,0|4,1:0|0:3,0:0:0:0:
152,66,88976,5,0,0:0:0:0:
164,74,89051,1,0,0:0:0:0:
176,82,89126,2,0,L|168:168,1,80,4|4,0:3|0:3,0:0:0:0:
272,28,89426,2,0,L|264:114,1,80,0|0,1:0|0:0,0:0:0:0:
356,192,89726,5,4,0:3:0:0:
432,172,89876,1,8,0:3:0:0:
508,156,90026,1,0,1:0:0:0:
452,248,90176,5,4,0:3:0:0:
432,172,90326,1,8,0:3:0:0:
416,96,90476,1,0,1:0:0:0:
227,117,90626,5,4,0:3:0:0:
264,107,90776,1,8,0:3:0:0:
302,99,90926,1,0,1:0:0:0:
274,145,91076,5,4,0:3:0:0:
264,107,91226,1,8,0:3:0:0:
256,69,91376,1,0,1:0:0:0:
88,56,91526,5,8,0:3:0:0:
66,151,91676,1,0,1:0:0:0:
44,246,91826,1,0,1:0:0:0:
22,341,91976,1,2,1:2:0:0:
