osu file format v14

[General]
AudioFilename: audio.mp3
AudioLeadIn: 0
PreviewTime: 59955
Countdown: 0
SampleSet: Soft
StackLeniency: 0.4
Mode: 0
LetterboxInBreaks: 0
WidescreenStoryboard: 0

[Editor]
DistanceSpacing: 1.2
BeatDivisor: 4
GridSize: 4
TimelineZoom: 1.5

[Metadata]
Title:Thoughtcrime
TitleUnicode:思想犯
Artist:Yorushika
ArtistUnicode:ヨルシカ
Creator:Ryuusei Aika
Version:Sandrew's Hard
Source:
Tags:cut ver version Amamiya Kanade Sandrew kanor Ipas NewIpas SMM ShirohaMyMommy Delis shisouhan shisou han ナブナ nbuna n-buna スイ suis plagiarism 盗作 japanese rock jrock j-rock female vocal
BeatmapID:2506753
BeatmapSetID:1202606

[Difficulty]
HPDrainRate:5
CircleSize:3.7
OverallDifficulty:7
ApproachRate:8
SliderMultiplier:1.4
SliderTickRate:1

[Events]
//Background and Video events
0,0,"EUqwFx6U4AI4cpS.jpg"
//Break Periods
//Storyboard Layer 0 (Background)
//Storyboard Layer 1 (Fail)
//Storyboard Layer 2 (Pass)
//Storyboard Layer 3 (Foreground)
//Storyboard Layer 4 (Overlay)
//Storyboard Sound Samples

[TimingPoints]
926,300,4,2,0,20,1,0
926,-133.333333333333,4,2,0,20,0,0
10526,-100,4,2,0,50,0,0
29726,-133.333333333333,4,2,0,30,0,0
48926,-100,4,2,0,40,0,0
58526,-100,4,2,0,45,0,0
60026,-133.333333333333,4,2,0,50,0,0
60626,-133.333333333333,4,2,0,40,0,0
60926,-83.3333333333333,4,2,0,60,0,0
80726,-83.3333333333333,4,2,0,50,0,0
81401,-83.3333333333333,4,2,0,30,0,0
81926,-133.333333333333,4,2,0,30,0,0
82526,-100,4,2,0,50,0,0
92051,-100,4,2,0,5,0,0

[Colours]
Combo1 : 255,169,128
Combo2 : 255,128,255
Combo3 : 255,128,128
Combo4 : 255,128,192

[HitObjects]
62,54,926,6,0,L|122:50,1,52.5000020027161,4|4,0:3|0:3,0:0:0:0:
193,47,1226,1,0,1:0:0:0:
193,47,1376,2,0,B|158:84|158:84|153:157,1,105.000004005432
152,217,1826,1,0,1:0:0:0:
193,47,2126,6,0,L|253:43,1,52.5000020027161,4|4,0:3|0:3,0:0:0:0:
328,44,2426,1,0,1:0:0:0:
328,44,2576,1,0,0:0:0:0:
245,43,2726,2,0,P|242:82|244:117,1,52.5000020027161
297,151,3026,2,0,P|326:152|358:162,1,52.5000020027161,0|0,1:0|0:0,0:0:0:0:
462,218,3326,6,0,L|466:278,1,52.5000020027161,4|4,0:3|0:3,0:0:0:0:
469,349,3626,1,0,1:0:0:0:
469,349,3776,2,0,B|432:314|432:314|359:309,1,105.000004005432
299,308,4226,1,0,1:0:0:0:
458,165,4526,6,0,L|462:225,1,52.5000020027161,4|4,0:3|0:3,0:0:0:0:
468,298,4826,1,0,1:0:0:0:
468,298,4976,1,0,3:0:0:0:
461,217,5126,2,0,P|429:221|394:213,1,52.5000020027161,0|4,3:0|0:3,0:0:0:0:
362,154,5426,2,0,P|348:126|345:87,1,52.5000020027161,0|0,1:0|1:0,0:0:0:0:
306,212,5726,6,0,L|246:208,1,52.5000020027161,4|4,0:3|0:3,0:0:0:0:
175,205,6026,1,0,1:0:0:0:
175,205,6176,2,0,B|210:242|210:242|215:315,1,105.000004005432,0|4,0:0|0:3,0:0:0:0:
216,375,6626,1,0,1:0:0:0:
175,205,6926,6,0,L|115:201,1,52.5000020027161,4|4,0:3|0:3,0:0:0:0:
40,202,7226,1,0,1:0:0:0:
40,202,7376,1,0,0:0:0:0:
122,201,7526,2,0,P|128:231|120:268,1,52.5000020027161,0|4,0:0|0:3,0:0:0:0:
63,301,7826,2,0,P|33:315|11:340,1,52.5000020027161,0|0,1:0|1:0,0:0:0:0:
140,332,8126,6,0,P|170:346|192:371,1,52.5000020027161,4|4,0:3|0:3,0:0:0:0:
258,335,8426,1,0,1:0:0:0:
258,335,8576,2,0,P|247:276|260:220,1,105.000004005432,0|4,3:0|0:3,0:0:0:0:
263,154,9026,1,0,1:0:0:0:
472,100,9326,5,2,0:0:0:0:
472,100,9926,6,0,L|475:41,1,52.5000020027161,2|2,0:0|0:1,0:0:0:0:
474,47,10376,5,0,0:0:0:0:
479,184,10526,6,0,P|444:182|414:167,1,70,4|0,3:2|0:0,0:0:0:0:
333,189,10826,2,0,P|302:173|267:171,1,70,0|0,1:0|0:0,0:0:0:0:
392,254,11126,1,4,0:3:0:0:
392,254,11276,1,4,0:3:0:0:
333,189,11426,2,0,P|298:187|267:171,1,70,0|0,1:0|0:0,0:0:0:0:
200,120,11726,6,0,P|235:165|165:162,1,140,4|0,0:3|1:0,0:0:0:0:
120,125,12176,1,0,0:0:0:0:
120,125,12326,2,0,L|118:72,2,35,4|0|4,0:3|0:0|0:3,0:0:0:0:
67,190,12626,2,0,L|60:287,1,70,0|0,1:0|0:0,0:0:0:0:
24,335,12926,6,0,P|66:311|160:323,1,140,4|0,0:3|1:0,0:0:0:0:
233,346,13376,1,0,0:0:0:0:
233,346,13526,2,0,L|234:268,1,70,4|4,0:3|0:3,0:0:0:0:
262,197,13826,2,0,L|261:119,1,70,0|0,1:0|0:0,0:0:0:0:
248,43,14126,6,0,B|268:74|268:74|393:56,1,140,4|0,0:3|1:0,0:0:0:0:
453,45,14576,1,0,0:0:0:0:
467,127,14726,2,0,L|461:207,1,70,4|4,0:3|0:3,0:0:0:0:
461,196,15026,1,0,1:0:0:0:
473,279,15176,1,0,1:0:0:0:
475,297,15251,1,0,1:0:0:0:
478,314,15326,6,0,P|434:315|395:340,1,70,4|0,1:2|0:0,0:0:0:0:
329,306,15626,2,0,P|296:319|262:317,1,70,0|0,1:0|0:0,0:0:0:0:
383,242,15926,1,4,0:3:0:0:
383,242,16076,1,4,0:3:0:0:
329,306,16226,2,0,P|294:304|262:317,1,70,0|0,1:0|0:0,0:0:0:0:
194,368,16526,6,0,P|229:323|159:326,1,140,4|0,0:3|1:0,0:0:0:0:
95,346,16976,1,0,0:0:0:0:
95,346,17126,2,0,L|2:341,1,70,4|4,0:3|0:3,0:0:0:0:
26,258,17426,2,0,L|95:261,1,70,0|0,1:0|0:0,0:0:0:0:
152,198,17726,6,0,P|197:185|253:190,1,70,4|0,0:3|0:0,0:0:0:0:
300,208,18026,2,0,P|334:205|367:194,1,70,0|0,1:0|0:0,0:0:0:0:
396,115,18326,2,0,L|399:30,1,70,4|4,0:3|0:3,0:0:0:0:
482,50,18626,2,0,L|479:119,1,70,0|0,1:0|0:0,0:0:0:0:
331,56,18926,6,0,P|364:43|399:45,1,70,2|8,0:0|0:3,0:0:0:0:
275,115,19226,2,0,P|242:102|207:104,1,70,8|0,0:3|1:0,0:0:0:0:
121,127,19526,1,0,1:0:0:0:
121,127,19676,1,0,1:0:0:0:
144,43,19826,1,0,1:0:0:0:
144,43,19976,1,0,1:0:0:0:
40,157,20126,6,0,P|34:114|49:79,1,70,4|0,3:2|0:0,0:0:0:0:
121,127,20426,2,0,P|149:126|208:155,1,70,0|0,1:0|0:0,0:0:0:0:
107,214,20726,1,4,0:3:0:0:
107,214,20876,1,4,0:3:0:0:
121,127,21026,2,0,P|153:139|188:139,1,70,0|0,1:0|0:0,0:0:0:0:
258,92,21326,6,0,P|219:132|287:135,1,140,4|0,0:3|1:0,0:0:0:0:
364,140,21776,1,0,0:0:0:0:
364,140,21926,2,0,L|366:87,2,35,4|0|4,0:3|0:0|0:3,0:0:0:0:
417,205,22226,2,0,L|424:302,1,70,0|0,1:0|0:0,0:0:0:0:
471,343,22526,6,0,B|439:317|439:317|321:309,1,140,4|0,0:3|1:0,0:0:0:0:
263,338,22976,1,0,0:0:0:0:
263,338,23126,2,0,L|262:260,1,70,4|4,0:3|0:3,0:0:0:0:
234,189,23426,2,0,L|235:111,1,70,0|0,1:0|0:0,0:0:0:0:
276,49,23726,6,0,P|240:77|132:43,1,140,4|0,0:3|1:0,0:0:0:0:
69,44,24176,1,0,0:0:0:0:
29,118,24326,2,0,P|65:130|109:117,1,70,4|4,0:3|0:3,0:0:0:0:
95,124,24626,1,0,1:0:0:0:
130,200,24776,1,0,1:0:0:0:
148,197,24851,1,0,1:0:0:0:
165,193,24926,6,0,P|159:236|174:271,1,70,4|0,3:2|0:0,0:0:0:0:
246,223,25226,2,0,P|274:224|333:195,1,70,0|0,1:0|0:0,0:0:0:0:
232,136,25526,1,4,0:3:0:0:
232,136,25676,1,4,0:3:0:0:
246,223,25826,2,0,P|278:211|313:211,1,70,0|0,1:0|0:0,0:0:0:0:
383,258,26126,6,0,P|344:218|412:215,1,140,4|0,0:3|1:0,0:0:0:0:
470,256,26576,1,0,0:0:0:0:
470,256,26726,2,0,L|477:354,1,70,4|4,0:3|0:3,0:0:0:0:
387,327,27026,2,0,L|382:257,1,70,0|0,1:0|0:0,0:0:0:0:
245,222,27326,6,0,P|280:222|313:211,1,70,4|0,0:3|1:0,0:0:0:0:
216,299,27626,2,0,P|181:301|149:289,1,70,8|0,0:3|1:0,0:0:0:0:
69,266,27926,1,0,1:0:0:0:
69,266,28076,1,0,1:0:0:0:
78,346,28226,1,0,1:0:0:0:
69,266,28376,2,0,L|60:186,1,70,8|4,0:3|0:3,0:0:0:0:
34,46,28676,2,0,B|57:72|57:72|113:63,1,70,0|8,1:0|0:3,0:0:0:0:
91,66,29126,6,0,L|88:126,3,35,0|0|0|0,1:0|1:0|1:0|1:0,0:0:0:0:
136,63,29426,1,0,1:0:0:0:
136,63,29726,6,0,P|182:67|245:26,1,105.000004005432,2|0,3:2|1:0,0:0:0:0:
289,95,30176,1,0,0:0:0:0:
289,95,30326,2,0,P|280:130|280:160,1,52.5000020027161,4|4,0:3|0:3,0:0:0:0:
267,224,30626,1,0,1:0:0:0:
380,105,30926,6,0,P|427:79|493:90,1,105.000004005432,4|0,0:3|1:0,0:0:0:0:
447,160,31376,1,0,0:0:0:0:
447,160,31526,2,0,P|442:186|450:211,1,52.5000020027161,4|4,0:3|0:3,0:0:0:0:
491,284,31826,2,0,P|497:324|479:352,1,52.5000020027161,0|0,1:0|0:0,0:0:0:0:
417,311,32126,6,0,L|358:309,1,52.5000020027161,4|0,0:3|0:0,0:0:0:0:
290,337,32426,2,0,L|231:335,1,52.5000020027161,0|0,1:0|0:0,0:0:0:0:
175,285,32726,2,0,L|169:212,1,52.5000020027161,4|4,0:3|0:3,0:0:0:0:
223,173,33026,2,0,L|217:100,1,52.5000020027161,0|0,1:0|0:0,0:0:0:0:
212,41,33326,5,4,0:3:0:0:
170,232,33626,1,0,1:0:0:0:
212,41,33926,2,0,P|177:42|151:32,1,52.5000020027161,4|4,0:3|0:3,0:0:0:0:
83,19,34226,2,0,P|48:20|22:10,1,52.5000020027161,0|0,1:0|0:0,0:0:0:0:
9,90,34526,6,0,P|45:120|46:182,1,105.000004005432,4|0,0:3|1:0,0:0:0:0:
129,196,34976,1,0,0:0:0:0:
129,196,35126,2,0,P|143:160|158:145,1,52.5000020027161,4|4,0:3|0:3,0:0:0:0:
49,175,35426,2,0,P|51:222|63:243,1,52.5000020027161,0|0,1:0|0:0,0:0:0:0:
31,302,35726,6,0,B|48:281|48:281|143:285,1,105.000004005432,4|0,0:3|1:0,0:0:0:0:
185,337,36176,1,0,0:0:0:0:
185,337,36326,2,0,L|261:339,1,52.5000020027161,4|4,0:3|0:3,0:0:0:0:
316,341,36626,1,0,1:0:0:0:
209,215,36926,6,0,P|196:160|229:102,1,105.000004005432,4|0,0:3|1:0,0:0:0:0:
278,173,37376,1,0,0:0:0:0:
278,173,37526,2,0,P|312:162|347:172,1,52.5000020027161,4|4,0:3|0:3,0:0:0:0:
391,211,37826,2,0,P|417:211|441:201,1,52.5000020027161,0|0,1:0|0:0,0:0:0:0:
488,139,38126,5,4,0:3:0:0:
441,201,38276,1,0,1:0:0:0:
488,265,38426,1,0,1:0:0:0:
457,21,38726,2,0,B|486:24|486:24|511:3,1,52.5000020027161,4|4,0:3|0:3,0:0:0:0:
421,94,39026,2,0,B|392:97|392:97|367:76,1,52.5000020027161,0|0,1:0|1:0,0:0:0:0:
488,139,39326,6,0,L|485:256,1,105.000004005432,4|0,0:3|1:0,0:0:0:0:
390,369,39926,2,0,L|384:316,1,52.5000020027161,4|4,0:3|0:3,0:0:0:0:
371,243,40226,1,0,1:0:0:0:
464,162,40526,6,0,P|425:123|371:116,1,105.000004005432,4|0,0:3|1:0,0:0:0:0:
394,197,40976,1,0,0:0:0:0:
394,197,41126,2,0,P|388:222|372:243,1,52.5000020027161,4|4,0:3|0:3,0:0:0:0:
385,317,41426,2,0,P|356:319|322:300,1,52.5000020027161,0|0,1:0|0:0,0:0:0:0:
262,343,41726,6,0,L|256:269,1,52.5000020027161,4|0,0:3|0:0,0:0:0:0:
284,216,42026,2,0,L|278:142,1,52.5000020027161,0|0,1:0|0:0,0:0:0:0:
303,88,42326,2,0,L|234:81,1,52.5000020027161,4|4,0:3|0:3,0:0:0:0:
182,43,42626,2,0,L|113:36,1,52.5000020027161,0|0,1:0|0:0,0:0:0:0:
51,27,42926,6,0,B|71:45|71:45|62:134,1,105.000004005432,4|0,0:3|1:0,0:0:0:0:
240,155,43526,2,0,L|188:158,1,52.5000020027161,4|4,0:3|0:3,0:0:0:0:
119,197,43826,2,0,L|67:200,1,52.5000020027161,0|0,1:0|0:0,0:0:0:0:
188,158,44126,6,0,P|165:213|173:276,1,105.000004005432,4|0,0:3|1:0,0:0:0:0:
133,330,44576,1,0,0:0:0:0:
133,330,44726,2,0,P|96:339|59:330,1,52.5000020027161,4|4,0:3|0:3,0:0:0:0:
212,326,45026,2,0,P|249:335|286:326,1,52.5000020027161,0|0,1:0|0:0,0:0:0:0:
342,329,45326,6,0,B|307:307|307:307|298:230,1,105.000004005432,4|0,0:3|1:0,0:0:0:0:
297,68,45926,2,0,L|226:63,1,52.5000020027161,4|4,0:3|0:3,0:0:0:0:
317,148,46226,2,0,L|388:143,1,52.5000020027161,0|0,1:0|0:0,0:0:0:0:
424,87,46526,6,0,L|428:18,1,52.5000020027161,4|2,0:3|0:0,0:0:0:0:
369,144,46826,2,0,L|373:213,1,52.5000020027161,0|4,1:0|0:3,0:0:0:0:
350,65,47126,2,0,L|281:69,1,52.5000020027161,0|2,1:0|0:0,0:0:0:0:
447,162,47426,2,0,L|516:166,1,52.5000020027161,0|8,1:0|0:3,0:0:0:0:
424,87,47726,5,0,3:0:0:0:
369,144,47876,1,4,0:3:0:0:
444,214,48026,2,0,L|447:142,1,52.5000020027161,4|0,1:2|0:0,0:0:0:0:
499,268,48326,2,0,P|469:267|500:308,1,105.000004005432,0|0,1:0|1:0,0:0:0:0:
391,338,48776,1,0,1:0:0:0:
377,337,48851,1,0,1:0:0:0:
362,335,48926,6,0,P|366:301|341:194,1,140,6|0,3:1|1:0,0:0:0:0:
317,118,49376,1,2,0:1:0:0:
137,53,49676,2,0,L|135:140,2,70,4|0|8,0:3|1:0|0:3,0:0:0:0:
53,39,50126,6,0,B|44:152|44:152|75:192,1,140,2|0,3:1|1:0,0:0:0:0:
138,202,50576,1,2,0:1:0:0:
138,202,50726,2,0,L|211:195,1,70,4|4,0:3|0:3,0:0:0:0:
280,237,51026,1,0,1:0:0:0:
267,320,51176,1,8,0:3:0:0:
265,337,51251,1,8,0:3:0:0:
263,354,51326,6,0,P|327:332|412:360,1,140,2|0,3:1|1:0,0:0:0:0:
478,360,51776,1,2,0:1:0:0:
455,179,52076,1,4,0:3:0:0:
455,179,52226,2,0,L|455:92,1,70,0|8,1:0|0:3,0:0:0:0:
488,32,52526,6,0,P|456:57|360:38,1,140,2|0,3:1|1:0,0:0:0:0:
281,27,52976,1,0,0:0:0:0:
281,27,53126,2,0,L|277:102,1,70,2|2,3:1|3:1,0:0:0:0:
334,158,53426,1,0,1:0:0:0:
252,178,53576,1,8,0:3:0:0:
234,174,53651,1,8,0:3:0:0:
217,170,53726,6,0,L|225:253,1,70,6|2,3:1|0:1,0:0:0:0:
111,131,54026,2,0,L|116:61,1,70,4|2,1:2|0:1,0:0:0:0:
52,182,54326,2,0,L|59:252,1,70,4|4,0:3|0:3,0:0:0:0:
110,325,54626,2,0,P|78:341|37:339,1,70,0|8,1:0|0:3,0:0:0:0:
143,244,54926,6,0,P|135:303|221:315,1,140,2|0,3:1|1:0,0:0:0:0:
282,347,55376,1,2,0:1:0:0:
185,150,55676,1,4,0:3:0:0:
185,150,55826,2,0,L|180:68,1,70,8|8,0:3|0:3,0:0:0:0:
262,59,56126,6,0,P|301:58|340:38,1,70,4|0,3:2|0:0,0:0:0:0:
479,27,56426,2,0,P|440:28|401:48,1,70,4|0,1:2|0:0,0:0:0:0:
377,116,56726,1,4,0:3:0:0:
377,116,56876,1,4,0:3:0:0:
262,59,57026,2,0,P|294:46|329:46,1,70,0|0,1:0|0:0,0:0:0:0:
457,114,57326,6,0,L|452:190,1,70,4|0,0:3|0:0,0:0:0:0:
489,259,57626,2,0,L|484:335,1,70,0|0,1:0|0:0,0:0:0:0:
404,355,57926,2,0,L|408:285,1,70,4|4,0:3|0:3,0:0:0:0:
372,209,58226,1,0,1:0:0:0:
452,183,58376,1,4,0:3:0:0:
311,147,58526,6,0,L|317:310,1,140,0|8,1:0|0:3,0:0:0:0:
254,344,58976,1,0,0:0:0:0:
232,267,59126,2,0,L|221:173,1,70,0|8,0:0|0:3,0:0:0:0:
316,286,59426,2,0,L|401:277,1,70
254,344,59726,5,4,1:2:0:0:
254,344,60026,6,0,B|182:341|182:341|132:364|132:364|46:359,1,210.000008010865,4|4,1:2|0:3,0:0:0:0:
468,351,60926,6,0,L|476:173,1,167.999994873047,4|4,3:2|1:2,0:0:0:0:
476,90,61376,1,0,0:0:0:0:
476,90,61526,2,0,P|437:100|395:86,1,83.9999974365235,4|4,0:3|0:3,0:0:0:0:
308,57,61826,2,0,P|268:43|228:53,1,83.9999974365235,0|0,1:0|0:0,0:0:0:0:
396,86,62126,6,0,L|404:264,1,167.999994873047,4|0,0:3|1:0,0:0:0:0:
405,349,62576,1,0,0:0:0:0:
405,349,62726,2,0,P|366:339|324:353,1,83.9999974365235,4|4,0:3|0:3,0:0:0:0:
232,336,63026,2,0,P|192:349|152:339,1,83.9999974365235,0|0,1:0|0:0,0:0:0:0:
143,191,63326,6,0,P|173:218|185:258,1,83.9999974365235,4|0,0:3|0:0,0:0:0:0:
60,342,63626,2,0,P|68:301|97:271,1,83.9999974365235,0|0,1:0|0:0,0:0:0:0:
152,339,63926,1,4,0:3:0:0:
152,339,64076,1,4,0:3:0:0:
41,210,64226,2,0,L|42:119,1,83.9999974365235,0|0,1:0|0:0,0:0:0:0:
37,33,64526,6,0,P|79:52|142:33,1,83.9999974365235,4|0,0:3|0:0,0:0:0:0:
283,58,64826,2,0,P|237:43|177:62,1,83.9999974365235,0|0,1:0|0:0,0:0:0:0:
115,48,65126,2,0,P|125:95|172:137,1,83.9999974365235,4|4,0:3|0:3,0:0:0:0:
238,133,65426,1,0,1:0:0:0:
192,214,65576,1,4,0:3:0:0:
190,234,65651,1,4,0:3:0:0:
189,256,65726,6,0,L|21:247,1,167.999994873047,4|4,3:2|1:2,0:0:0:0:
56,332,66176,1,0,0:0:0:0:
56,332,66326,2,0,L|160:342,1,83.9999974365235,4|4,0:3|0:3,0:0:0:0:
231,341,66626,2,0,L|335:351,1,83.9999974365235,0|0,1:0|0:0,0:0:0:0:
189,256,66926,6,0,L|356:264,1,167.999994873047,4|0,0:3|1:0,0:0:0:0:
330,181,67376,1,0,0:0:0:0:
330,181,67526,2,0,L|228:170,1,83.9999974365235,4|4,0:3|0:3,0:0:0:0:
153,175,67826,2,0,L|51:164,1,83.9999974365235,0|0,1:0|0:0,0:0:0:0:
228,91,68126,6,0,P|245:138|244:184,1,83.9999974365235,4|0,0:3|0:0,0:0:0:0:
170,255,68426,2,0,P|153:208|154:162,1,83.9999974365235,0|0,1:0|0:0,0:0:0:0:
144,86,68726,1,4,0:3:0:0:
144,86,68876,1,4,0:3:0:0:
262,259,69026,2,0,L|249:354,1,83.9999974365235,0|0,1:0|0:0,0:0:0:0:
341,358,69326,5,2,3:2:0:0:
440,339,69476,2,0,L|487:352,2,41.9999987182618,0|0|2,1:0|1:0|3:2,0:0:0:0:
378,259,69776,2,0,L|367:210,2,41.9999987182618,0|0|2,1:0|1:0|3:2,0:0:0:0:
467,212,70076,2,0,L|475:111,1,83.9999974365235,0|0,1:0|1:0,0:0:0:0:
393,43,70376,1,0,1:0:0:0:
395,63,70451,1,0,1:0:0:0:
397,84,70526,6,0,P|319:60|217:66,1,167.999994873047,4|4,3:2|1:2,0:0:0:0:
150,96,70976,1,0,0:0:0:0:
150,96,71126,2,0,L|144:190,1,83.9999974365235,4|4,0:3|0:3,0:0:0:0:
92,256,71426,2,0,L|86:350,1,83.9999974365235,0|0,1:0|0:0,0:0:0:0:
144,179,71726,6,0,P|222:155|324:161,1,167.999994873047,4|0,0:3|1:0,0:0:0:0:
389,110,72176,1,0,0:0:0:0:
389,110,72326,2,0,L|395:204,1,83.9999974365235,4|4,0:3|0:3,0:0:0:0:
447,270,72626,2,0,L|453:364,1,83.9999974365235,0|0,1:0|0:0,0:0:0:0:
351,275,72926,6,0,L|266:233,1,83.9999974365235,4|0,0:3|0:0,0:0:0:0:
394,193,73226,2,0,L|472:140,1,83.9999974365235,0|0,1:0|0:0,0:0:0:0:
447,270,73526,1,4,0:3:0:0:
447,270,73676,1,4,0:3:0:0:
275,237,73826,2,0,P|283:168|266:134,1,83.9999974365235,0|0,1:0|0:0,0:0:0:0:
264,64,74126,6,0,P|258:102|223:43,1,167.999994873047,4|0,0:3|1:0,0:0:0:0:
127,36,74576,1,0,0:0:0:0:
127,36,74726,2,0,P|119:88|130:134,1,83.9999974365235,4|4,0:3|0:3,0:0:0:0:
181,191,75026,1,0,1:0:0:0:
89,206,75176,2,0,L|92:254,1,41.9999987182618,4|4,0:3|0:3,0:0:0:0:
96,293,75326,5,4,3:2:0:0:
39,84,75626,1,4,1:2:0:0:
64,347,75926,2,0,P|104:329|170:350,1,83.9999974365235,4|4,0:3|0:3,0:0:0:0:
233,354,76226,2,0,P|274:357|311:340,1,83.9999974365235,0|0,1:0|0:0,0:0:0:0:
474,320,76526,6,0,L|390:317,1,83.9999974365235,4|0,0:3|0:0,0:0:0:0:
477,236,76826,2,0,L|393:233,1,83.9999974365235,0|0,1:0|0:0,0:0:0:0:
304,247,77126,1,4,0:3:0:0:
304,247,77276,1,4,0:3:0:0:
393,233,77426,2,0,P|402:181|393:136,1,83.9999974365235,0|0,1:0|0:0,0:0:0:0:
445,71,77726,6,0,L|352:67,1,83.9999974365235,4|0,0:3|0:0,0:0:0:0:
271,46,78026,2,0,L|178:42,1,83.9999974365235,0|0,1:0|0:0,0:0:0:0:
96,58,78326,2,0,P|112:94|108:145,1,83.9999974365235,4|4,0:3|0:3,0:0:0:0:
54,211,78626,2,0,P|38:247|42:298,1,83.9999974365235,0|0,1:0|0:0,0:0:0:0:
118,340,78926,6,0,B|139:290|123:258|123:258|165:269|198:321,1,167.999994873047,4|0,0:3|1:0,0:0:0:0:
273,343,79376,1,0,0:0:0:0:
273,343,79526,2,0,P|274:287|250:246,1,83.9999974365235,4|8,0:3|0:3,0:0:0:0:
242,171,79826,2,0,P|227:131|231:90,1,83.9999974365235,4|8,0:3|0:3,0:0:0:0:
311,42,80126,6,0,L|406:37,1,83.9999974365235,4|0,3:2|0:0,0:0:0:0:
231,90,80426,2,0,L|147:94,1,83.9999974365235,0|0,1:0|0:0,0:0:0:0:
58,67,80726,2,0,P|64:101|55:183,1,83.9999974365235,8|8,0:3|0:3,0:0:0:0:
137,281,81026,2,0,P|135:239|142:198,1,83.9999974365235,8|8,0:3|0:3,0:0:0:0:
59,332,81326,5,0,1:0:0:0:
472,284,81926,6,0,L|475:343,1,52.5000020027161,2|2,0:0|1:0,0:0:0:0:
474,337,82376,5,0,0:0:0:0:
479,200,82526,6,0,P|444:202|414:217,1,70,4|0,3:2|0:0,0:0:0:0:
333,195,82826,2,0,P|302:211|267:213,1,70,0|0,1:0|0:0,0:0:0:0:
392,130,83126,1,4,0:3:0:0:
392,130,83276,1,4,0:3:0:0:
333,195,83426,2,0,P|298:197|267:213,1,70,0|0,1:0|0:0,0:0:0:0:
200,264,83726,6,0,P|235:219|165:222,1,140,4|0,0:3|1:0,0:0:0:0:
120,259,84176,1,0,0:0:0:0:
120,259,84326,2,0,L|118:312,2,35,4|0|4,0:3|0:0|0:3,0:0:0:0:
67,194,84626,2,0,L|60:97,1,70,0|0,1:0|0:0,0:0:0:0:
24,49,84926,6,0,P|66:73|160:61,1,140,4|0,0:3|1:0,0:0:0:0:
233,38,85376,1,0,0:0:0:0:
233,38,85526,2,0,L|234:116,1,70,4|4,0:3|0:3,0:0:0:0:
262,187,85826,2,0,L|261:265,1,70,0|0,1:0|0:0,0:0:0:0:
248,341,86126,6,0,B|268:310|268:310|393:328,1,140,4|0,0:3|1:0,0:0:0:0:
453,339,86576,1,0,0:0:0:0:
467,257,86726,2,0,L|461:177,1,70,4|4,0:3|0:3,0:0:0:0:
461,188,87026,1,0,1:0:0:0:
473,105,87176,1,0,0:0:0:0:
475,87,87251,1,0,0:0:0:0:
478,70,87326,6,0,P|434:69|395:44,1,70,4|0,3:2|0:0,0:0:0:0:
329,78,87626,2,0,P|296:65|262:67,1,70,0|0,1:0|0:0,0:0:0:0:
383,142,87926,1,4,0:3:0:0:
383,142,88076,1,4,0:3:0:0:
329,78,88226,2,0,P|294:80|262:67,1,70,0|0,1:0|0:0,0:0:0:0:
194,16,88526,6,0,P|229:61|159:58,1,140,4|0,0:3|1:0,0:0:0:0:
92,68,88976,1,0,0:0:0:0:
92,68,89126,2,0,L|96:144,1,70,4|4,0:3|0:3,0:0:0:0:
42,203,89426,2,0,L|41:295,1,70,0|0,1:0|0:0,0:0:0:0:
97,335,89726,5,4,0:3:0:0:
97,335,89876,2,0,P|68:354|33:357,2,70,8|0|4,0:3|1:0|0:3,0:0:0:0:
180,338,90326,2,0,P|208:318|243:315,1,70,8|0,0:3|1:0,0:0:0:0:
322,344,90626,2,0,P|350:324|385:321,1,70,4|8,0:3|0:3,0:0:0:0:
462,353,90926,6,0,L|469:262,1,70,0|4,1:0|0:3,0:0:0:0:
439,204,91226,2,0,L|446:113,1,70,8|0,0:3|1:0,0:0:0:0:
401,61,91526,2,0,P|448:51|496:69,2,70,8|0|0,0:3|1:0|1:0,0:0:0:0:
346,161,91976,1,2,1:2:0:0:
