osu file format v14

[General]
AudioFilename: audio.mp3
AudioLeadIn: 0
PreviewTime: 59955
Countdown: 0
SampleSet: Soft
StackLeniency: 1
Mode: 0
LetterboxInBreaks: 0
WidescreenStoryboard: 1

[Editor]
DistanceSpacing: 1
BeatDivisor: 4
GridSize: 8
TimelineZoom: 1.5

[Metadata]
Title:Thoughtcrime
TitleUnicode:思想犯
Artist:Yorushika
ArtistUnicode:ヨルシカ
Creator:Ryuusei Aika
Version:Plagiarized Pattern, Crow's Song and You
Source:
Tags:cut ver version Amamiya Kanade Sandrew kanor Ipas NewIpas SMM ShirohaMyMommy Delis shisouhan shisou han ナブナ nbuna n-buna スイ suis plagiarism 盗作 japanese rock jrock j-rock female vocal
BeatmapID:2504697
BeatmapSetID:1202606

[Difficulty]
HPDrainRate:6
CircleSize:3.7
OverallDifficulty:8.7
ApproachRate:9
SliderMultiplier:2
SliderTickRate:1

[Events]
//Background and Video events
0,0,"EUqwFx6U4AI4cpS.jpg",0,0
//Break Periods
//Storyboard Layer 0 (Background)
//Storyboard Layer 1 (Fail)
//Storyboard Layer 2 (Pass)
//Storyboard Layer 3 (Foreground)
//Storyboard Layer 4 (Overlay)
//Storyboard Sound Samples

[TimingPoints]
926,300,4,2,0,20,1,0
926,-133.333333333333,4,2,0,20,0,0
10526,-100,4,2,0,50,0,0
29726,-133.333333333333,4,2,0,30,0,0
48926,-100,4,2,0,40,0,0
58526,-100,4,2,0,45,0,0
60026,-133.333333333333,4,2,0,50,0,0
60626,-100,4,2,0,40,0,0
60926,-90.9090909090909,4,2,0,60,0,1
80726,-90.9090909090909,4,2,0,50,0,1
81326,-133.333333333333,4,2,0,50,0,0
81401,-133.333333333333,4,2,0,30,0,0
82526,-100,4,2,0,50,0,0
92051,-100,4,2,0,5,0,0

[Colours]
Combo1 : 255,169,128
Combo2 : 255,128,255
Combo3 : 255,128,128
Combo4 : 255,128,192

[HitObjects]
191,238,926,5,4,0:3:0:0:
209,127,1076,1,4,0:3:0:0:
302,256,1226,1,0,1:0:0:0:
320,145,1376,1,0,0:0:0:0:
320,145,2126,5,4,0:3:0:0:
302,256,2276,1,4,0:3:0:0:
209,127,2426,1,0,1:0:0:0:
191,238,2576,1,0,0:0:0:0:
273,80,2726,5,0,0:0:0:0:
273,80,2876,1,0,0:0:0:0:
144,173,3026,1,0,1:0:0:0:
144,173,3176,1,0,0:0:0:0:
302,256,3326,5,4,0:3:0:0:
209,127,3476,1,4,0:3:0:0:
191,238,3626,1,0,1:0:0:0:
320,145,3776,2,0,P|391:149|428:211,1,150.000005722046
428,211,4226,1,0,1:0:0:0:
209,127,4526,5,4,0:3:0:0:
302,256,4676,1,4,0:3:0:0:
320,145,4826,1,0,1:0:0:0:
191,238,4976,2,0,L|148:268,2,37.5000014305115,0|0|0,3:0|3:0|3:0,0:0:0:0:
195,242,5276,2,0,P|213:274|204:339,1,75.0000028610231,4|0,0:3|1:0,0:0:0:0:
158,372,5576,1,0,1:0:0:0:
302,256,5726,5,4,0:3:0:0:
209,127,5876,1,4,0:3:0:0:
320,145,6026,1,0,1:0:0:0:
195,242,6176,2,0,P|162:260|98:251,1,75.0000028610231
65,205,6476,1,4,0:3:0:0:
172,55,6626,2,0,P|208:45|245:54,1,75.0000028610231,0|0,1:0|0:0,0:0:0:0:
320,145,6926,5,4,0:3:0:0:
195,242,7076,1,4,0:3:0:0:
209,127,7226,1,0,1:0:0:0:
302,256,7376,1,0,0:0:0:0:
144,173,7526,5,0,0:0:0:0:
256,192,7676,1,4,0:3:0:0:
237,304,7826,1,0,1:0:0:0:
256,192,7976,1,0,1:0:0:0:
195,242,8126,5,4,0:3:0:0:
320,145,8276,1,4,0:3:0:0:
209,127,8426,1,0,1:0:0:0:
302,256,8576,2,0,L|338:306,2,37.5000014305115,0|0|0,3:0|3:0|3:0,0:0:0:0:
256,192,8876,1,4,0:3:0:0:
132,98,9026,6,0,P|148:71|167:58,1,37.5000014305115,0|0,1:0|3:0,0:0:0:0:
212,10,9176,2,0,P|243:10|264:20,1,37.5000014305115,0|0,3:0|3:0,0:0:0:0:
318,54,9326,1,2,0:0:0:0:
82,24,9926,5,2,0:0:0:0:
236,94,10076,2,0,B|290:96|318:54|318:54|359:60|349:110,1,150.000005722046,2|0,0:1|0:0,0:0:0:0:
199,334,10526,5,4,3:2:0:0:
419,298,10676,1,0,0:0:0:0:
184,345,10826,2,0,P|158:343|128:328,2,50,0|0|0,1:0|0:0|0:0,0:0:0:0:
267,375,11126,1,4,0:3:0:0:
180,256,11276,1,4,0:3:0:0:
331,330,11426,2,0,P|376:329|433:268,1,100,0|0,1:0|0:0,0:0:0:0:
258,141,11726,2,0,B|238:120|225:127|193:200|299:200|248:301,1,200,4|0,0:3|1:0,0:0:0:0:
248,300,12176,5,0,0:0:0:0:
180,256,12326,1,4,0:3:0:0:
157,242,12401,1,0,0:0:0:0:
136,229,12476,1,4,0:3:0:0:
326,185,12626,1,0,1:0:0:0:
115,216,12776,1,0,0:0:0:0:
313,112,12926,5,4,0:3:0:0:
347,266,13076,1,0,0:0:0:0:
313,112,13226,1,0,1:0:0:0:
347,266,13376,1,0,0:0:0:0:
407,172,13526,1,4,0:3:0:0:
253,206,13676,1,4,0:3:0:0:
407,172,13826,1,0,1:0:0:0:
253,206,13976,1,0,0:0:0:0:
424,248,14126,5,4,0:3:0:0:
448,255,14201,1,0,0:0:0:0:
472,261,14276,1,0,0:0:0:0:
236,130,14426,2,0,P|190:161|181:226,1,100,0|0,1:0|0:0,0:0:0:0:
347,266,14726,1,4,0:3:0:0:
390,96,14876,1,4,0:3:0:0:
270,284,15026,1,0,1:0:0:0:
313,112,15176,1,0,1:0:0:0:
316,81,15251,1,0,1:0:0:0:
303,53,15326,5,4,1:2:0:0:
347,266,15476,1,0,0:0:0:0:
167,85,15626,2,0,P|143:76|105:77,2,50,0|0|0,1:0|0:0|0:0,0:0:0:0:
330,189,15926,1,4,0:3:0:0:
247,4,16076,1,4,0:3:0:0:
138,157,16226,1,0,1:0:0:0:
149,206,16301,1,0,0:0:0:0:
185,239,16376,1,0,0:0:0:0:
385,120,16526,2,0,B|436:179|399:241|399:241|337:316,1,200,4|0,0:3|1:0,0:0:0:0:
355,293,16976,5,0,0:0:0:0:
330,189,17126,2,0,P|288:165|225:178,1,100,4|4,0:3|0:3,0:0:0:0:
425,224,17426,2,0,L|361:301,1,100,0|0,1:0|0:0,0:0:0:0:
315,365,17651,1,0,0:0:0:0:
315,365,17726,5,4,0:3:0:0:
241,325,17876,1,0,0:0:0:0:
435,340,18026,1,0,1:0:0:0:
241,325,18176,1,0,0:0:0:0:
435,340,18326,1,4,0:3:0:0:
319,369,18476,1,4,0:3:0:0:
493,279,18626,2,0,P|512:227|493:168,1,100,0|0,1:0|0:0,0:0:0:0:
487,164,18851,1,0,0:0:0:0:
464,153,18926,5,2,0:0:0:0:
511,358,19076,1,8,0:3:0:0:
387,171,19226,2,0,P|392:120|436:78,1,100,8|0,0:3|1:0,0:0:0:0:
447,76,19451,1,0,1:0:0:0:
486,78,19526,5,0,1:0:0:0:
405,248,19676,1,0,1:0:0:0:
281,83,19826,1,0,1:0:0:0:
409,252,19976,1,0,1:0:0:0:
353,39,20126,6,0,P|316:6|267:0,1,100,4|0,3:2|0:0,0:0:0:0:
20,108,20426,2,0,B|69:118|111:77|111:77|151:35|203:53,1,200,0|4,1:0|0:3,0:0:0:0:
20,108,20876,1,4,0:3:0:0:
170,127,21026,2,0,P|219:144|252:192,1,100,0|0,1:0|0:0,0:0:0:0:
213,340,21326,2,0,B|182:354|182:354|145:330|122:283|129:228|190:201,1,200,4|0,0:3|1:0,0:0:0:0:
247,180,21776,5,0,0:0:0:0:
76,213,21926,1,4,0:3:0:0:
66,234,22001,1,0,0:0:0:0:
63,257,22076,1,4,0:3:0:0:
263,203,22226,1,0,1:0:0:0:
71,334,22376,1,0,0:0:0:0:
231,157,22526,5,4,0:3:0:0:
328,295,22676,1,0,0:0:0:0:
357,129,22826,1,0,1:0:0:0:
328,295,22976,1,0,0:0:0:0:
153,198,23126,1,4,0:3:0:0:
250,60,23276,1,4,0:3:0:0:
279,226,23426,1,0,1:0:0:0:
250,60,23576,1,0,0:0:0:0:
440,195,23726,5,4,0:3:0:0:
472,232,23801,1,0,0:0:0:0:
480,281,23876,1,0,0:0:0:0:
512,159,24026,2,0,P|440:92|323:123,1,200,0|4,1:0|0:3,0:0:0:0:
499,31,24476,1,4,0:3:0:0:
338,129,24626,2,0,P|281:142|217:96,1,100,0|0,1:0|1:0,0:0:0:0:
215,98,24851,1,0,1:0:0:0:
175,104,24926,6,0,P|207:140|255:152,1,100,4|0,3:2|0:0,0:0:0:0:
108,60,25226,1,0,1:0:0:0:
83,64,25301,1,0,0:0:0:0:
58,68,25376,1,0,0:0:0:0:
164,4,25526,1,4,0:3:0:0:
2,124,25676,1,4,0:3:0:0:
160,251,25826,1,0,1:0:0:0:
156,226,25901,1,0,0:0:0:0:
152,202,25976,2,0,L|137:113,1,50
63,184,26126,2,0,L|97:391,1,200,4|0,0:3|1:0,0:0:0:0:
6,363,26576,5,0,0:0:0:0:
172,334,26726,2,0,P|221:336|267:380,1,100,4|4,0:3|0:3,0:0:0:0:
496,258,27026,2,0,L|396:264,1,100,0|0,1:0|0:0,0:0:0:0:
396,264,27251,1,0,0:0:0:0:
396,264,27326,5,4,0:3:0:0:
486,340,27476,1,0,1:0:0:0:
364,188,27626,1,8,0:3:0:0:
344,335,27776,1,0,1:0:0:0:
341,359,27851,1,0,1:0:0:0:
338,384,27926,1,0,1:0:0:0:
464,182,28076,1,0,1:0:0:0:
269,305,28226,1,0,1:0:0:0:
427,373,28376,1,8,0:3:0:0:
427,373,28451,1,0,0:0:0:0:
427,373,28526,5,4,0:3:0:0:
282,219,28676,1,0,1:0:0:0:
188,336,28826,2,0,P|137:324|99:268,1,100,8|0,0:3|0:0,0:0:0:0:
164,134,29126,1,0,1:0:0:0:
191,108,29201,1,0,1:0:0:0:
226,94,29276,1,0,1:0:0:0:
263,92,29351,1,0,1:0:0:0:
299,102,29426,1,0,1:0:0:0:
203,206,29576,5,0,1:0:0:0:
178,210,29651,1,0,1:0:0:0:
153,214,29726,2,0,L|78:204,1,75.0000028610231,2|0,3:2|0:0,0:0:0:0:
11,116,30026,2,0,L|86:126,1,75.0000028610231,0|0,1:0|0:0,0:0:0:0:
57,43,30326,2,0,P|100:37|130:7,2,75.0000028610231,4|4|0,0:3|0:3|1:0,0:0:0:0:
61,47,30926,2,0,P|129:16|220:39,1,150.000005722046,4|0,0:3|1:0,0:0:0:0:
339,52,31376,2,0,P|305:70|247:54,1,75.0000028610231,0|4,0:0|0:3,0:0:0:0:
269,67,31676,5,4,0:3:0:0:
512,173,31976,1,0,0:0:0:0:
404,95,32126,2,0,L|492:105,2,75.0000028610231,4|0|0,0:3|0:0|1:0,0:0:0:0:
344,154,32576,1,0,0:0:0:0:
359,236,32726,2,0,P|396:220|418:192,1,75.0000028610231,4|4,0:3|0:3,0:0:0:0:
280,207,33026,2,0,P|275:247|288:280,1,75.0000028610231,0|0,1:0|0:0,0:0:0:0:
436,291,33326,2,0,L|287:278,1,150.000005722046,4|0,0:3|1:0,0:0:0:0:
48,372,33926,5,4,0:3:0:0:
48,372,34076,2,0,B|66:344|53:280|53:280|72:305|90:305|119:314,1,150.000005722046,4|0,0:3|0:0,0:0:0:0:
119,313,34451,1,0,0:0:0:0:
140,311,34526,2,0,P|181:294|208:255,1,75.0000028610231,4|0,0:3|0:0,0:0:0:0:
83,155,34826,2,0,P|95:189|122:215,1,75.0000028610231,0|0,1:0|0:0,0:0:0:0:
239,98,35126,2,0,P|205:110|179:137,2,75.0000028610231,4|4|0,0:3|0:3|1:0,0:0:0:0:
256,193,35576,1,0,0:0:0:0:
294,39,35726,2,0,B|254:8|207:25|207:25|144:13,1,150.000005722046,4|0,0:3|1:0,0:0:0:0:
61,12,36176,5,0,0:0:0:0:
61,12,36326,2,0,B|134:26,1,75.0000028610231,4|4,0:3|0:3,0:0:0:0:
239,98,36626,2,0,B|279:129|326:112|326:112|389:124,1,150.000005722046,0|4,1:0|0:3,0:0:0:0:
382,122,37076,1,0,0:0:0:0:
382,122,37226,1,0,1:0:0:0:
363,36,37376,2,0,P|332:13|318:-23,1,75.0000028610231,0|4,0:0|0:3,0:0:0:0:
469,123,37676,2,0,P|465:160|443:189,1,75.0000028610231,4|0,0:3|1:0,0:0:0:0:
290,264,37976,1,0,0:0:0:0:
368,228,38126,5,4,0:3:0:0:
277,338,38276,2,0,L|291:264,1,75.0000028610231,0|0,1:0|1:0,0:0:0:0:
453,272,38576,1,0,0:0:0:0:
453,272,38651,1,0,0:0:0:0:
453,272,38726,2,0,L|467:346,1,75.0000028610231,4|4,0:3|0:3,0:0:0:0:
392,366,39026,2,0,L|332:371,1,37.5000014305115,0|0,1:0|0:0,0:0:0:0:
271,372,39176,1,0,1:0:0:0:
248,207,39326,5,4,0:3:0:0:
148,354,39476,1,0,0:0:0:0:
97,190,39626,2,0,P|130:173|167:175,1,75.0000028610231,0|0,1:0|0:0,0:0:0:0:
148,261,39926,2,0,P|76:215|0:217,1,150.000005722046,4|0,0:3|1:0,0:0:0:0:
302,137,40526,2,0,P|305:51|266:-13,1,150.000005722046,4|0,0:3|1:0,0:0:0:0:
165,52,40976,2,0,P|147:87|149:137,1,75.0000028610231,0|4,0:0|0:3,0:0:0:0:
226,106,41276,5,4,0:3:0:0:
95,71,41426,2,0,P|128:54|165:53,1,75.0000028610231,0|0,1:0|0:0,0:0:0:0:
267,16,41726,2,0,L|341:7,1,75.0000028610231,4|0,0:3|0:0,0:0:0:0:
430,145,42026,2,0,L|385:84,2,75.0000028610231,0|0|4,1:0|0:0|0:3,0:0:0:0:
386,85,42476,1,4,0:3:0:0:
386,85,42626,2,0,L|430:24,1,75.0000028610231,0|0,1:0|0:0,0:0:0:0:
393,220,43076,1,0,0:0:0:0:
330,168,43226,6,0,P|314:200|323:264,1,75.0000028610231,0|0,1:0|0:0,0:0:0:0:
444,341,43526,1,4,0:3:0:0:
465,262,43676,1,4,0:3:0:0:
444,341,43826,2,0,B|384:331|384:331|359:353|312:337,1,112.500004291535,0|0,1:0|0:0,0:0:0:0:
322,336,44126,6,0,B|232:321,1,75.0000028610231,4|0,0:3|0:0,0:0:0:0:
118,345,44426,1,0,1:0:0:0:
118,345,44576,1,0,0:0:0:0:
188,384,44726,2,0,B|206:338|182:300|182:300|192:233,2,150.000005722046,4|0|4,0:3|1:0|0:3,0:0:0:0:
40,361,45626,2,0,P|33:301|86:206,1,150.000005722046,0|4,1:0|0:3,0:0:0:0:
140,159,46076,1,4,0:3:0:0:
140,159,46226,2,0,P|103:151|76:126,1,75.0000028610231,0|0,1:0|0:0,0:0:0:0:
61,49,46526,5,4,0:3:0:0:
217,191,46676,1,2,0:0:0:0:
2,170,46826,1,0,1:0:0:0:
2,170,46976,1,4,0:3:0:0:
198,89,47126,1,0,1:0:0:0:
198,89,47276,1,2,0:0:0:0:
155,240,47426,1,0,1:0:0:0:
208,70,47576,2,0,P|243:54|282:52,1,75.0000028610231,8|0,0:3|3:0,0:0:0:0:
387,170,47876,5,4,0:3:0:0:
362,42,48026,2,0,B|359:91|337:109|337:109|310:130|307:177,1,150.000005722046,4|0,1:2|1:0,0:0:0:0:
311,198,48401,1,0,1:0:0:0:
321,217,48476,2,0,P|334:232|369:251,1,37.5000014305115,0|0,1:0|1:0,0:0:0:0:
422,277,48626,1,0,1:0:0:0:
442,306,48701,1,0,1:0:0:0:
434,341,48776,1,0,1:0:0:0:
401,357,48851,1,0,1:0:0:0:
368,341,48926,5,6,3:1:0:0:
482,221,49076,2,0,P|505:185|503:107,1,100,2|0,0:1|1:0,0:0:0:0:
370,345,49376,2,0,B|320:364|286:329|286:329|246:286|186:309,1,200,2|4,0:1|0:3,0:0:0:0:
127,378,49826,2,0,P|100:338|106:269,1,100,0|8,1:0|0:3,0:0:0:0:
115,265,50051,1,8,0:3:0:0:
115,265,50126,2,0,P|113:215|86:174,1,100,2|2,3:1|3:1,0:0:0:0:
24,130,50426,1,0,1:0:0:0:
255,138,50576,2,0,P|180:198|87:175,1,200,2|4,0:1|0:3,0:0:0:0:
126,13,51026,6,0,L|153:126,1,100,0|8,1:0|0:3,0:0:0:0:
156,135,51251,1,8,0:3:0:0:
163,160,51326,1,2,3:1:0:0:
316,19,51476,1,2,3:1:0:0:
317,19,51626,2,0,L|219:42,1,100,0|2,1:0|0:1,0:0:0:0:
338,99,51926,2,0,P|377:76|399:13,1,100,4|4,0:3|0:3,0:0:0:0:
279,157,52226,2,0,P|318:179|383:166,1,100,0|8,1:0|0:3,0:0:0:0:
399,161,52451,1,8,0:3:0:0:
398,161,52526,6,0,P|356:186|339:232,1,100,2|2,3:1|3:1,0:0:0:0:
416,384,52826,1,0,1:0:0:0:
416,384,53126,2,0,P|458:358|475:312,1,100,2|2,3:1|3:1,0:0:0:0:
267,269,53426,2,0,P|303:306|384:303,1,100,0|8,1:0|0:3,0:0:0:0:
334,330,53651,1,8,0:3:0:0:
320,350,53726,6,0,P|289:288|142:266,1,200,6|4,3:1|1:2,0:0:0:0:
29,353,54176,2,0,P|81:344|121:298,1,100,2|4,0:1|0:3,0:0:0:0:
169,173,54476,1,4,0:3:0:0:
44,272,54626,1,0,1:0:0:0:
193,331,54776,1,8,0:3:0:0:
226,342,54851,1,8,0:3:0:0:
259,353,54926,6,0,P|289:309|285:249,1,100,2|2,3:1|3:1,0:0:0:0:
226,117,55226,1,0,1:0:0:0:
159,164,55376,2,0,P|202:194|262:190,1,100,2|4,0:1|0:3,0:0:0:0:
386,48,55676,1,4,0:3:0:0:
422,197,55826,1,8,0:3:0:0:
405,163,55901,1,8,0:3:0:0:
376,140,55976,1,8,0:3:0:0:
340,130,56051,1,8,0:3:0:0:
304,136,56126,6,0,B|362:148|362:148|460:128|458:85|477:28,1,200,4|4,3:2|1:2,0:0:0:0:
465,65,56576,1,0,0:0:0:0:
307,31,56726,2,0,B|209:10,1,100,4|4,0:3|0:3,0:0:0:0:
38,29,57026,2,0,B|135:50|135:50|166:100|207:97|237:91,1,200,0|4,1:0|0:3,0:0:0:0:
474,355,57626,2,0,B|377:334|377:334|346:284|305:287|275:293,1,200,0|4,1:0|0:3,0:0:0:0:
227,336,58076,1,4,0:3:0:0:
373,292,58226,2,0,P|401:253|389:191,1,100,0|4,1:0|0:3,0:0:0:0:
244,165,58526,6,0,B|286:137|333:154|333:154|372:108|428:127,1,200,0|8,1:0|0:3,0:0:0:0:
299,230,58976,1,0,0:0:0:0:
499,81,59126,2,0,P|462:48|413:42,1,100,0|8,0:0|0:3,0:0:0:0:
248,169,59426,1,0,0:0:0:0:
447,269,59576,2,0,L|323:296,1,100,0|4,0:0|1:2,0:0:0:0:
336,300,60026,6,0,P|260:308|333:286,1,225.000008583069,4|0,1:2|0:0,0:0:0:0:
191,382,60626,2,0,P|168:342|176:261,1,100,4|0,0:3|0:0,0:0:0:0:
229,131,60926,6,0,B|333:142|308:31|410:70|410:70|383:91,1,220.000006713867,4|4,3:2|1:2,0:0:0:0:
398,78,61376,1,0,0:0:0:0:
246,50,61526,2,0,B|142:39|167:150|65:111|65:111|92:90,1,220.000006713867,4|0,0:3|1:0,0:0:0:0:
76,102,61976,1,0,0:0:0:0:
116,350,62126,6,0,B|164:317|161:257|161:257|119:204|154:133,1,220.000006713867,4|0,0:3|1:0,0:0:0:0:
145,151,62576,1,0,0:0:0:0:
78,275,62726,1,4,0:3:0:0:
220,198,62876,1,4,0:3:0:0:
3,228,63026,1,0,1:0:0:0:
355,371,63326,6,0,P|405:344|425:272,1,110.000003356934,4|0,0:3|0:0,0:0:0:0:
326,134,63626,2,0,B|393:124|398:218|398:218|350:248|345:288,1,220.000006713867,0|4,1:0|0:3,0:0:0:0:
344,288,64076,1,4,0:3:0:0:
250,103,64226,2,0,P|285:63|361:59,1,110.000003356934,0|0,1:0|0:0,0:0:0:0:
65,158,64526,2,0,B|114:118|176:138|176:138|207:189|261:184,1,220.000006713867,4|0,0:3|1:0,0:0:0:0:
186,49,64976,5,0,0:0:0:0:
324,238,65126,1,4,0:3:0:0:
338,52,65276,1,4,0:3:0:0:
166,234,65426,2,0,P|119:259|29:237,1,110.000003356934,0|4,1:0|0:3,0:0:0:0:
34,235,65651,1,4,0:3:0:0:
34,235,65726,6,0,P|113:241|212:151,1,220.000006713867,4|4,3:2|1:2,0:0:0:0:
181,80,66176,1,0,0:0:0:0:
263,223,66326,2,0,P|314:283|448:289,1,220.000006713867,4|0,0:3|1:0,0:0:0:0:
476,217,66776,1,0,0:0:0:0:
412,65,66926,6,0,B|455:48|491:90|483:142|483:142|436:136|403:188,1,220.000006713867,4|0,0:3|1:0,0:0:0:0:
486,39,67376,1,0,0:0:0:0:
338,91,67526,1,4,0:3:0:0:
490,15,67676,1,4,0:3:0:0:
334,115,67826,2,0,P|277:107|230:43,1,110.000003356934,0|0,1:0|0:0,0:0:0:0:
36,199,68126,6,0,L|184:177,1,110.000003356934,4|0,0:3|0:0,0:0:0:0:
214,0,68426,2,0,L|105:16,1,110.000003356934,0|0,1:0|0:0,0:0:0:0:
147,269,68726,2,0,P|205:245|230:196,1,110.000003356934,4|4,0:3|0:3,0:0:0:0:
31,61,69026,2,0,P|80:99|135:96,1,110.000003356934,0|0,1:0|0:0,0:0:0:0:
355,0,69326,5,2,3:2:0:0:
390,181,69476,1,0,1:0:0:0:
396,211,69551,1,0,1:0:0:0:
402,241,69626,1,2,3:2:0:0:
187,37,69776,5,0,1:0:0:0:
210,51,69851,1,0,1:0:0:0:
236,59,69926,2,0,P|279:50|297:37,1,55.0000016784668,2|0,3:2|0:0,0:0:0:0:
355,0,70076,2,0,P|398:2|418:12,1,55.0000016784668,0|0,1:0|0:0,0:0:0:0:
473,144,70226,5,0,1:0:0:0:
448,111,70301,1,0,1:0:0:0:
412,92,70376,1,0,1:0:0:0:
371,91,70451,1,0,1:0:0:0:
334,108,70526,6,0,P|272:166|291:303,1,220.000006713867,4|4,3:2|1:2,0:0:0:0:
338,350,70976,1,0,0:0:0:0:
178,278,71126,2,0,P|237:271|301:313,1,110.000003356934,4|4,0:3|0:3,0:0:0:0:
12,350,71426,2,0,B|82:317|128:351|128:351|173:380|221:355,1,220.000006713867,0|4,1:0|0:3,0:0:0:0:
93,252,71876,2,0,P|57:204|61:127,1,110.000003356934,0|0,0:0|1:0,0:0:0:0:
153,33,72176,5,0,0:0:0:0:
232,176,72326,1,4,0:3:0:0:
86,80,72476,1,4,0:3:0:0:
299,129,72626,2,0,L|432:160,1,110.000003356934,0|0,1:0|0:0,0:0:0:0:
290,47,72926,2,0,L|556:109,1,220.000006713867,4|0,0:3|1:0,0:0:0:0:
225,0,73526,2,0,P|209:50|243:112,1,110.000003356934,4|4,0:3|0:3,0:0:0:0:
208,332,73826,6,0,B|267:322|277:263|277:263|299:118,1,220.000006713867,0|4,1:0|0:3,0:0:0:0:
230,101,74276,1,0,0:0:0:0:
54,282,74426,2,0,B|94:312|137:292|137:292|160:255|199:250,1,165.000005035401,0|0,1:0|0:0,0:0:0:0:
198,250,74726,1,4,0:3:0:0:
53,199,74876,1,4,0:3:0:0:
208,332,75026,1,0,1:0:0:0:
248,338,75101,1,0,1:0:0:0:
289,344,75176,1,4,0:3:0:0:
330,351,75251,1,4,0:3:0:0:
371,357,75326,6,0,P|427:307|405:172,1,220.000006713867,4|4,3:2|1:2,0:0:0:0:
126,34,75926,2,0,L|241:22,1,110.000003356934,4|4,0:3|0:3,0:0:0:0:
347,129,76226,2,0,L|237:140,1,110.000003356934,0|0,1:0|0:0,0:0:0:0:
55,6,76526,2,0,P|88:101|187:79,2,220.000006713867,4|0|4,0:3|1:0|0:3,0:0:0:0:
171,186,77276,1,4,0:3:0:0:
323,37,77426,2,0,P|378:39|430:85,1,110.000003356934,0|0,1:0|0:0,0:0:0:0:
468,227,77726,6,0,L|484:105,1,110.000003356934,4|0,0:3|0:0,0:0:0:0:
493,40,78026,1,0,1:0:0:0:
493,40,78176,1,0,0:0:0:0:
396,187,78326,1,4,0:3:0:0:
421,0,78476,1,4,0:3:0:0:
385,264,78626,6,0,B|341:256|320:208|320:208|258:187|181:254,1,220.000006713867,0|4,1:0|0:3,0:0:0:0:
370,345,79076,1,4,0:3:0:0:
202,243,79226,2,0,P|199:181|236:130,1,110.000003356934,0|0,1:0|0:0,0:0:0:0:
370,345,79526,2,0,P|315:346|271:378,1,110.000003356934,4|8,0:3|0:3,0:0:0:0:
111,269,79826,2,0,P|139:315|188:337,1,110.000003356934,4|8,0:3|0:3,0:0:0:0:
258,64,80126,6,0,B|193:47|156:90|156:90|115:136|58:117,1,220.000006713867,4|0,3:2|1:0,0:0:0:0:
90,41,80576,1,0,0:0:0:0:
320,145,80726,1,8,0:3:0:0:
191,238,80876,1,8,0:3:0:0:
302,256,81026,1,8,0:3:0:0:
209,127,81176,1,8,0:3:0:0:
253,329,81326,1,0,1:0:0:0:
257,333,81926,5,2,0:0:0:0:
54,347,82076,2,0,B|94:334|125:364|125:364|173:355|174:304,1,150.000005722046,2|0,1:0|0:0,0:0:0:0:
255,51,82526,5,4,3:2:0:0:
450,81,82676,1,0,0:0:0:0:
226,124,82826,1,0,1:0:0:0:
194,100,82901,1,0,0:0:0:0:
178,63,82976,1,0,0:0:0:0:
274,185,83126,1,4,0:3:0:0:
332,40,83276,1,4,0:3:0:0:
429,163,83426,1,0,1:0:0:0:
429,163,83501,1,0,0:0:0:0:
429,163,83576,1,0,0:0:0:0:
372,303,83726,2,0,B|365:275|365:275|408:221|398:148|345:129,1,200,4|0,0:3|1:0,0:0:0:0:
326,376,84176,5,0,0:0:0:0:
459,310,84326,1,4,0:3:0:0:
481,298,84401,1,0,0:0:0:0:
504,287,84476,1,4,0:3:0:0:
285,296,84626,1,0,1:0:0:0:
413,380,84776,1,0,0:0:0:0:
289,206,84926,5,4,0:3:0:0:
240,375,85076,1,0,0:0:0:0:
274,184,85226,1,0,1:0:0:0:
165,326,85376,1,0,0:0:0:0:
259,162,85526,1,4,0:3:0:0:
240,375,85676,1,4,0:3:0:0:
244,140,85826,1,0,1:0:0:0:
165,326,85976,1,0,0:0:0:0:
123,190,86126,5,4,0:3:0:0:
150,185,86201,1,0,0:0:0:0:
177,182,86276,1,0,0:0:0:0:
341,142,86426,2,0,P|282:50|187:61,1,200,0|4,1:0|0:3,0:0:0:0:
42,181,86876,2,0,P|53:230|89:264,1,100,4|0,0:3|1:0,0:0:0:0:
247,287,87176,1,0,0:0:0:0:
136,94,87326,5,4,3:2:0:0:
71,338,87476,1,0,0:0:0:0:
263,212,87626,1,0,1:0:0:0:
263,212,87701,1,0,0:0:0:0:
263,212,87776,1,0,0:0:0:0:
120,169,87926,1,4,0:3:0:0:
231,362,88076,1,4,0:3:0:0:
279,137,88226,1,0,1:0:0:0:
325,115,88301,1,0,0:0:0:0:
375,120,88376,1,0,0:0:0:0:
221,75,88526,2,0,P|306:22|418:45,1,200,4|0,0:3|1:0,0:0:0:0:
495,226,88976,5,0,0:0:0:0:
483,18,89126,1,4,0:3:0:0:
339,197,89276,1,4,0:3:0:0:
466,145,89426,2,0,P|425:119|368:121,1,100,0|0,1:0|0:0,0:0:0:0:
256,192,89726,1,4,0:3:0:0:
243,111,89876,5,8,0:3:0:0:
192,242,90026,1,0,1:0:0:0:
331,220,90176,1,4,0:3:0:0:
265,102,90326,5,8,0:3:0:0:
173,227,90476,1,0,1:0:0:0:
328,242,90626,1,4,0:3:0:0:
290,99,90776,5,8,0:3:0:0:
158,205,90926,1,0,1:0:0:0:
317,266,91076,1,4,0:3:0:0:
319,103,91226,5,8,0:3:0:0:
147,179,91376,1,0,1:0:0:0:
300,289,91526,1,8,0:3:0:0:
189,46,91676,5,0,1:0:0:0:
160,325,91826,1,0,1:0:0:0:
418,210,91976,2,0,L|463:189,1,50,2|0,1:2|0:0,0:0:0:0:
