osu file format v14

[General]
AudioFilename: audio.mp3
AudioLeadIn: 0
PreviewTime: 59955
Countdown: 0
SampleSet: Soft
StackLeniency: 0.2
Mode: 0
LetterboxInBreaks: 0
WidescreenStoryboard: 1

[Editor]
DistanceSpacing: 1
BeatDivisor: 4
GridSize: 8
TimelineZoom: 2.1

[Metadata]
Title:Thoughtcrime
TitleUnicode:思想犯
Artist:Yorushika
ArtistUnicode:ヨルシカ
Creator:Ryuusei Aika
Version:Ipas' Insane
Source:
Tags:cut ver version Amamiya Kanade Sandrew kanor Ipas NewIpas SMM ShirohaMyMommy Delis shisouhan shisou han ナブナ nbuna n-buna スイ suis plagiarism 盗作 japanese rock jrock j-rock female vocal
BeatmapID:2506752
BeatmapSetID:1202606

[Difficulty]
HPDrainRate:5.5
CircleSize:4.3
OverallDifficulty:8.3
ApproachRate:8.7
SliderMultiplier:1.6
SliderTickRate:1

[Events]
//Background and Video events
0,0,"EUqwFx6U4AI4cpS.jpg"
//Break Periods
//Storyboard Layer 0 (Background)
//Storyboard Layer 1 (Fail)
//Storyboard Layer 2 (Pass)
//Storyboard Layer 3 (Foreground)
//Storyboard Layer 4 (Overlay)
//Storyboard Sound Samples

[TimingPoints]
926,300,4,2,0,20,1,0
926,-166.666666666667,4,2,0,20,0,0
9926,-200,4,2,0,20,0,0
10526,-100,4,2,0,50,0,0
29726,-166.666666666667,4,2,0,30,0,0
46526,-142.857142857143,4,2,0,30,0,0
48326,-111.111111111111,4,2,0,30,0,0
48926,-111.111111111111,4,2,0,40,0,0
56126,-100,4,2,0,40,0,0
58526,-83.3333333333333,4,2,0,45,0,0
59726,-250,4,2,0,45,0,0
60026,-125,4,2,0,50,0,0
60626,-333.333333333333,4,2,0,40,0,0
60701,-500,4,2,0,5,0,0
60926,-100,4,2,0,60,0,1
80726,-100,4,2,0,50,0,1
81401,-100,4,2,0,30,0,0
82526,-100,4,2,0,50,0,0
92051,-100,4,2,0,5,0,0

[Colours]
Combo1 : 255,169,128
Combo2 : 255,128,255
Combo3 : 255,128,128
Combo4 : 255,128,192

[HitObjects]
236,109,926,5,4,0:3:0:0:
303,155,1076,2,0,L|356:145,1,47.9999985351563,4|0,0:3|1:0,0:0:0:0:
463,35,1376,2,0,P|442:70|371:82,1,95.9999970703126
328,42,1826,1,0,1:0:0:0:
208,222,2126,5,4,0:3:0:0:
267,275,2276,2,0,P|270:300|255:325,1,47.9999985351563,4|0,0:3|1:0,0:0:0:0:
319,361,2576,1,0,0:0:0:0:
208,222,2726,2,0,P|210:197|219:169,1,47.9999985351563
295,179,3026,2,0,P|322:171|346:167,1,47.9999985351563,0|0,1:0|0:0,0:0:0:0:
470,232,3326,5,4,0:3:0:0:
402,264,3476,2,0,P|393:238|395:216,1,47.9999985351563,4|0,0:3|1:0,0:0:0:0:
492,317,3776,2,0,B|446:313|453:340|399:341,1,95.9999970703126
328,310,4226,1,0,1:0:0:0:
135,338,4526,5,4,0:3:0:0:
69,287,4676,2,0,P|41:291|18:302,1,47.9999985351563,4|0,0:3|1:0,0:0:0:0:
64,368,4976,1,0,3:0:0:0:
152,255,5126,2,0,L|161:208,1,47.9999985351563,0|4,3:0|0:3,0:0:0:0:
102,131,5426,2,0,L|92:177,1,47.9999985351563,0|0,1:0|1:0,0:0:0:0:
28,21,5726,5,4,0:3:0:0:
106,49,5876,2,0,B|126:43|126:43|135:44|135:44|161:38,1,47.9999985351563,4|0,0:3|1:0,0:0:0:0:
18,112,6176,2,0,P|10:65|28:21,1,95.9999970703126,0|4,0:0|0:3,0:0:0:0:
102,131,6626,1,0,1:0:0:0:
33,308,6926,5,4,0:3:0:0:
92,253,7076,2,0,L|78:205,1,47.9999985351563,4|0,0:3|1:0,0:0:0:0:
33,308,7376,1,0,0:0:0:0:
192,212,7526,2,0,L|173:256,1,47.9999985351563,0|4,0:0|0:3,0:0:0:0:
224,312,7826,2,0,L|267:287,1,47.9999985351563,0|0,1:0|1:0,0:0:0:0:
433,251,8126,5,4,0:3:0:0:
452,259,8276,1,4,0:3:0:0:
381,312,8426,1,0,1:0:0:0:
337,234,8576,1,0,3:0:0:0:
438,171,8726,2,0,L|450:122,1,47.9999985351563,0|4,3:0|0:3,0:0:0:0:
315,240,9026,2,0,L|240:250,1,71.9999978027344,0|0,1:0|3:0,0:0:0:0:
180,211,9326,5,2,0:0:0:0:
145,128,10526,6,0,P|161:102|151:51,1,80,4|0,3:2|0:0,0:0:0:0:
66,169,10826,2,0,L|82:291,1,120,0|0,1:0|0:0,0:0:0:0:
75,304,11126,2,0,L|37:317,1,40,4|0,0:3|0:0,0:0:0:0:
152,355,11276,1,4,0:3:0:0:
318,307,11426,2,0,B|268:310|244:281|244:281|232:297|205:301,1,120,0|0,1:0|0:0,0:0:0:0:
158,246,11726,6,0,B|193:213|247:229|247:229|262:258|305:260,1,160,4|0,0:3|1:0,0:0:0:0:
436,184,12176,1,0,0:0:0:0:
324,116,12326,2,0,L|332:161,2,40,4|0|4,0:3|0:0|0:3,0:0:0:0:
373,44,12626,1,0,1:0:0:0:
248,159,12776,1,0,0:0:0:0:
436,184,12926,6,0,B|446:148|446:148|428:110,1,80,4|0,0:3|0:0,0:0:0:0:
248,51,13226,2,0,L|123:70,1,120,0|0,1:0|0:0,0:0:0:0:
114,53,13526,1,4,0:3:0:0:
159,161,13676,1,4,0:3:0:0:
30,125,13826,2,0,P|19:91|30:49,1,80,0|0,1:0|0:0,0:0:0:0:
75,218,14126,5,4,0:3:0:0:
185,88,14276,1,0,0:0:0:0:
192,81,14426,2,0,B|281:62|254:127|350:105,1,160,0|4,1:0|0:3,0:0:0:0:
490,76,14876,2,0,P|462:42|418:32,1,80,4|0,0:3|1:0,0:0:0:0:
408,220,15176,5,0,1:0:0:0:
414,211,15251,1,0,1:0:0:0:
410,202,15326,2,0,B|401:191|401:191|310:211,1,80,4|0,1:2|0:0,0:0:0:0:
462,367,15626,2,0,L|481:247,1,120,0|0,1:0|0:0,0:0:0:0:
492,234,15926,2,0,L|503:275,1,40,4|0,0:3|0:0,0:0:0:0:
425,136,16076,1,4,0:3:0:0:
495,10,16226,2,0,P|463:52|388:56,1,120,0|0,1:0|0:0,0:0:0:0:
294,106,16526,6,0,B|232:48|276:-15|333:7|334:56,1,160,4|0,0:3|1:0,0:0:0:0:
257,191,16976,1,0,0:0:0:0:
169,224,17126,2,0,L|79:208,1,80,4|4,0:3|0:3,0:0:0:0:
200,34,17426,2,0,B|177:20|177:20|196:116,1,120,0|0,1:0|0:0,0:0:0:0:
184,126,17726,6,0,L|139:118,1,40,4|0,0:3|0:0,0:0:0:0:
257,191,17876,2,0,B|304:179|304:179|323:182|323:182|376:172,1,120
380,153,18176,2,0,L|335:145,1,40
460,244,18326,2,0,P|417:248|366:260,1,80,4|4,0:3|0:3,0:0:0:0:
455,84,18626,2,0,P|412:80|361:67,1,80,0|0,1:0|0:0,0:0:0:0:
188,138,18926,5,2,0:0:0:0:
260,84,19076,1,8,0:3:0:0:
110,38,19226,1,8,0:3:0:0:
42,102,19376,5,0,1:0:0:0:
39,118,19451,1,0,1:0:0:0:
48,129,19526,1,0,1:0:0:0:
245,149,19676,5,0,1:0:0:0:
254,246,19826,1,0,1:0:0:0:
173,284,19976,1,0,1:0:0:0:
88,305,20126,6,0,P|87:266|105:230,1,80,4|0,3:2|0:0,0:0:0:0:
273,323,20426,2,0,P|231:282|158:293,1,120,0|0,1:0|0:0,0:0:0:0:
166,303,20726,2,0,P|179:317|201:321,1,40,4|0,0:3|0:0,0:0:0:0:
376,293,20876,1,4,0:3:0:0:
308,223,21026,2,0,P|318:175|345:106,1,120,0|0,1:0|0:0,0:0:0:0:
423,115,21326,6,0,B|373:117|349:77|349:77|311:60|279:75,1,160,4|0,0:3|1:0,0:0:0:0:
122,131,21776,1,0,0:0:0:0:
210,178,21926,2,0,L|254:169,2,40,4|0|4,0:3|0:0|0:3,0:0:0:0:
132,225,22226,1,0,1:0:0:0:
198,98,22376,1,0,0:0:0:0:
33,25,22526,6,0,L|47:104,1,80,4|0,0:3|0:0,0:0:0:0:
27,244,22826,2,0,P|7:211|13:170,1,80,0|0,1:0|0:0,0:0:0:0:
186,247,23126,1,4,0:3:0:0:
106,351,23276,1,4,0:3:0:0:
8,322,23426,2,0,L|28:244,1,80,0|0,1:0|0:0,0:0:0:0:
195,160,23726,5,4,0:3:0:0:
206,239,23876,1,0,0:0:0:0:
218,318,24026,2,0,B|170:326|170:326|156:340|156:340|99:352,1,120,0|0,1:0|0:0,0:0:0:0:
91,363,24326,2,0,L|135:371,1,40,4|0,0:3|0:0,0:0:0:0:
306,326,24476,2,0,P|293:282|287:246,1,80,4|0,0:3|1:0,0:0:0:0:
136,91,24776,5,0,1:0:0:0:
147,96,24851,1,0,1:0:0:0:
150,107,24926,2,0,P|142:146|131:184,1,80,4|0,3:2|0:0,0:0:0:0:
19,323,25226,2,0,B|-4:286|17:242|17:242|41:244|55:260,1,120,0|0,1:0|0:0,0:0:0:0:
62,243,25526,2,0,P|81:255|85:281,1,40,4|0,0:3|0:0,0:0:0:0:
19,153,25676,1,4,0:3:0:0:
112,61,25826,2,0,P|156:113|136:178,1,120,0|0,1:0|0:0,0:0:0:0:
19,153,26126,6,0,B|46:106|105:123|105:123|117:157|182:169,1,160,4|0,0:3|1:0,0:0:0:0:
268,81,26576,1,0,0:0:0:0:
326,179,26726,2,0,L|315:228,2,40,4|0|4,0:3|0:0|0:3,0:0:0:0:
268,81,27026,2,0,P|258:47|277:4,1,80,0|0,1:0|0:0,0:0:0:0:
393,110,27326,5,4,0:3:0:0:
238,156,27476,1,0,1:0:0:0:
299,232,27626,1,8,0:3:0:0:
213,289,27776,5,0,1:0:0:0:
204,273,27851,1,0,1:0:0:0:
209,254,27926,1,0,1:0:0:0:
390,183,28076,5,0,1:0:0:0:
299,232,28226,2,0,L|305:326,1,80,0|8,1:0|0:3,0:0:0:0:
485,267,28526,5,4,0:3:0:0:
469,198,28676,1,0,1:0:0:0:
453,130,28826,2,0,B|410:138|410:138|390:153|390:153|340:161,1,120,8|0,0:3|0:0,0:0:0:0:
300,104,29126,2,0,L|309:58,3,40,0|0|0|0,1:0|1:0|1:0|1:0,0:0:0:0:
216,39,29426,2,0,L|231:117,1,80,0|0,1:0|1:0,0:0:0:0:
161,237,29726,6,0,P|139:205|152:174,1,71.9999978027344,2|0,3:2|0:0,0:0:0:0:
167,165,30026,2,0,L|279:186,1,95.9999970703126,0|4,1:0|0:3,0:0:0:0:
357,292,30476,1,4,0:3:0:0:
286,326,30626,1,0,1:0:0:0:
467,354,30926,6,0,P|487:320|469:262,1,95.9999970703126,4|0,0:3|1:0,0:0:0:0:
399,217,31376,2,0,L|414:118,1,95.9999970703126,0|4,0:0|0:3,0:0:0:0:
488,77,31826,2,0,L|498:143,1,47.9999985351563,0|0,1:0|0:0,0:0:0:0:
373,47,32126,6,0,P|355:70|334:84,1,47.9999985351563,4|0,0:3|0:0,0:0:0:0:
297,146,32426,2,0,P|261:116|217:111,1,71.9999978027344,0|0,1:0|0:0,0:0:0:0:
219,118,32726,2,0,P|190:133|166:133,1,47.9999985351563,4|4,0:3|0:3,0:0:0:0:
109,97,33026,2,0,L|99:39,1,47.9999985351563,0|0,1:0|0:0,0:0:0:0:
63,160,33326,5,4,0:3:0:0:
223,250,33626,2,0,L|123:277,1,95.9999970703126,0|4,1:0|0:3,0:0:0:0:
23,362,34076,1,4,0:3:0:0:
40,284,34226,1,0,1:0:0:0:
250,364,34526,5,4,0:3:0:0:
250,364,34826,2,0,P|269:348|279:314,1,47.9999985351563,0|0,1:0|0:0,0:0:0:0:
344,296,35126,2,0,P|362:313|371:338,1,47.9999985351563,4|4,0:3|0:3,0:0:0:0:
233,253,35426,1,0,1:0:0:0:
326,186,35576,6,0,L|434:203,1,95.9999970703126
487,164,36026,2,0,P|501:131|494:108,1,47.9999985351563,0|0,1:0|0:0,0:0:0:0:
418,67,36326,2,0,L|429:131,1,47.9999985351563,4|4,0:3|0:3,0:0:0:0:
472,8,36626,1,0,1:0:0:0:
306,106,36926,5,4,0:3:0:0:
297,112,37076,2,0,B|282:119|282:119|202:105,1,95.9999970703126
140,191,37526,2,0,L|190:181,1,47.9999985351563,4|4,0:3|0:3,0:0:0:0:
97,261,37826,1,0,1:0:0:0:
30,208,37976,2,0,P|17:169|31:130,1,71.9999978027344
37,126,38276,5,0,1:0:0:0:
127,75,38426,1,0,1:0:0:0:
55,28,38576,2,0,L|46:0,2,23.9999992675781,0|0|4,0:0|0:0|0:3,0:0:0:0:
130,93,38876,1,4,0:3:0:0:
225,57,39026,2,0,L|277:38,2,47.9999985351563,0|0|4,1:0|1:0|0:3,0:0:0:0:
445,122,39626,6,0,L|431:231,1,95.9999970703126,0|4,1:0|0:3,0:0:0:0:
486,349,40076,1,4,0:3:0:0:
417,307,40226,1,0,1:0:0:0:
206,344,40526,6,0,P|226:305|281:303,1,95.9999970703126,4|0,0:3|1:0,0:0:0:0:
376,204,40976,2,0,L|270:223,1,95.9999970703126,0|4,0:0|0:3,0:0:0:0:
223,167,41426,2,0,P|218:141|223:111,1,47.9999985351563,0|0,1:0|0:0,0:0:0:0:
288,34,41726,6,0,P|297:60|284:71,1,47.9999985351563,4|0,0:3|0:0,0:0:0:0:
154,75,42026,2,0,P|123:66|115:101,1,71.9999978027344,0|0,1:0|0:0,0:0:0:0:
96,105,42326,2,0,P|74:122|38:124,1,47.9999985351563,4|4,0:3|0:3,0:0:0:0:
36,234,42626,5,0,1:0:0:0:
36,225,42776,2,0,P|72:199|126:201,1,95.9999970703126
170,260,43226,1,0,1:0:0:0:
316,143,43526,1,4,0:3:0:0:
302,213,43676,1,4,0:3:0:0:
288,284,43826,1,0,1:0:0:0:
424,222,44126,5,4,0:3:0:0:
424,222,44426,2,0,P|447:234|483:233,1,47.9999985351563,0|0,1:0|0:0,0:0:0:0:
409,146,44726,2,0,L|358:162,1,47.9999985351563,4|4,0:3|0:3,0:0:0:0:
293,251,45026,2,0,P|260:241|207:237,1,71.9999978027344,0|0,1:0|0:0,0:0:0:0:
213,225,45326,6,0,P|166:235|106:240,1,95.9999970703126,4|0,0:3|1:0,0:0:0:0:
34,71,45926,1,4,0:3:0:0:
105,82,46076,1,4,0:3:0:0:
176,94,46226,1,0,1:0:0:0:
372,44,46526,5,4,0:3:0:0:
363,50,46676,2,0,B|356:60|356:60|373:158,1,111.999996582031,2|4,0:0|0:3,0:0:0:0:
461,209,47126,2,0,P|463:184|449:155,1,55.9999982910157,0|2,1:0|0:0,0:0:0:0:
329,222,47426,2,0,L|274:237,1,55.9999982910157,0|8,1:0|0:3,0:0:0:0:
112,191,47726,5,0,3:0:0:0:
159,266,47876,1,4,0:3:0:0:
35,226,48026,2,0,P|22:197|27:171,1,55.9999982910157,4|0,1:2|0:0,0:0:0:0:
35,161,48251,1,0,0:0:0:0:
43,142,48326,2,0,P|48:124|51:97,3,35.9999989013672,0|0|0|0,1:0|1:0|1:0|1:0,0:0:0:0:
134,78,48626,2,0,P|143:108|122:147,1,71.9999978027344,0|0,1:0|1:0,0:0:0:0:
49,28,48926,5,6,3:1:0:0:
127,144,49076,2,0,L|112:219,1,71.9999978027344,2|0,0:1|1:0,0:0:0:0:
198,283,49376,2,0,P|214:256|209:214,1,71.9999978027344,2|4,0:1|0:3,0:0:0:0:
90,310,49676,1,4,0:3:0:0:
258,354,49826,2,0,P|289:337|330:332,1,71.9999978027344,0|8,1:0|0:3,0:0:0:0:
393,357,50051,5,8,0:3:0:0:
400,367,50126,2,0,L|412:297,1,71.9999978027344,2|2,3:1|3:1,0:0:0:0:
358,210,50426,1,0,1:0:0:0:
494,100,50576,2,0,P|472:138|407:151,1,107.999996704102,2|0,0:1|0:0,0:0:0:0:
397,140,50876,1,4,0:3:0:0:
263,218,51026,2,0,L|192:207,1,71.9999978027344,0|8,1:0|0:3,0:0:0:0:
119,207,51251,5,8,0:3:0:0:
107,215,51326,2,0,P|96:248|101:292,1,71.9999978027344,2|2,3:1|3:1,0:0:0:0:
220,121,51626,1,0,1:0:0:0:
28,62,51776,2,0,P|50:118|104:133,1,107.999996704102,2|0,0:1|0:0,0:0:0:0:
111,125,52076,1,4,0:3:0:0:
299,13,52226,2,0,L|286:88,1,71.9999978027344,0|8,1:0|0:3,0:0:0:0:
220,121,52451,5,8,0:3:0:0:
209,109,52526,2,0,L|222:184,1,71.9999978027344,2|2,3:1|3:1,0:0:0:0:
300,159,52826,1,0,1:0:0:0:
170,247,52976,2,0,P|114:247|93:294,1,107.999996704102
103,309,53276,1,2,3:1:0:0:
236,355,53426,6,0,L|278:347,1,35.9999989013672,0|0,1:0|0:0,0:0:0:0:
343,361,53576,2,0,L|385:353,1,35.9999989013672,8|8,0:3|0:3,0:0:0:0:
440,318,53726,6,0,P|454:286|452:241,1,71.9999978027344,6|2,3:1|0:1,0:0:0:0:
366,188,54026,1,4,1:2:0:0:
470,58,54176,2,0,P|452:90|381:108,1,107.999996704102,2|0,0:1|0:0,0:0:0:0:
377,95,54476,1,4,0:3:0:0:
277,161,54626,2,0,L|288:239,1,71.9999978027344,0|8,1:0|0:3,0:0:0:0:
235,286,54851,5,8,0:3:0:0:
219,278,54926,2,0,P|200:248|208:210,1,71.9999978027344,2|2,3:1|3:1,0:0:0:0:
330,299,55226,1,0,1:0:0:0:
176,358,55376,2,0,L|107:341,1,71.9999978027344,2|4,0:1|0:3,0:0:0:0:
26,372,55676,1,4,0:3:0:0:
120,234,55826,5,8,0:3:0:0:
122,225,55901,1,8,0:3:0:0:
116,220,55976,1,8,0:3:0:0:
108,222,56051,1,8,0:3:0:0:
108,230,56126,2,0,L|266:202,1,160,4|4,3:2|1:2,0:0:0:0:
397,291,56576,2,0,L|318:276,1,80,0|4,0:0|0:3,0:0:0:0:
248,330,56876,1,4,0:3:0:0:
359,197,57026,2,0,L|339:117,1,80,0|0,1:0|0:0,0:0:0:0:
465,29,57326,6,0,P|451:69|420:91,1,80,4|0,0:3|0:0,0:0:0:0:
252,94,57626,2,0,B|213:76|180:87|180:87|170:107|142:118,1,120,0|0,1:0|0:0,0:0:0:0:
66,144,57926,2,0,L|80:64,1,80,4|4,0:3|0:3,0:0:0:0:
13,22,58226,1,0,1:0:0:0:
135,200,58376,1,4,0:3:0:0:
228,163,58526,6,0,L|211:259,1,95.9999970703126,0|0,1:0|0:0,0:0:0:0:
357,368,58826,2,0,P|370:313|341:273,1,95.9999970703126,8|0,0:3|0:0,0:0:0:0:
445,334,59126,1,0,0:0:0:0:
293,235,59276,1,8,0:3:0:0:
424,103,59426,2,0,L|441:199,1,95.9999970703126
277,64,59726,6,0,B|269:31|269:31|285:43,1,48,4|0,1:2|0:0,0:0:0:0:
334,107,60026,6,0,B|276:81|241:111|241:111|246:155|189:193|189:193|195:155,1,224,4|0,1:2|0:0,0:0:0:0:
128,127,60626,6,0,L|133:149,1,11.9999996337891,4|0,0:3|0:0,0:0:0:0:
43,289,60926,6,0,L|28:170,1,120,4|0,3:2|0:0,0:0:0:0:
123,270,61226,2,0,L|112:349,1,80,4|0,1:2|0:0,0:0:0:0:
35,374,61526,1,4,0:3:0:0:
198,326,61676,1,4,0:3:0:0:
48,216,61826,2,0,P|31:252|43:290,1,80,0|0,1:0|0:0,0:0:0:0:
209,235,62126,6,0,P|228:182|232:115,1,120,4|0,0:3|0:0,0:0:0:0:
305,83,62426,2,0,P|307:130|323:174,1,80,0|0,1:0|0:0,0:0:0:0:
225,35,62726,1,4,0:3:0:0:
407,97,62876,1,4,0:3:0:0:
297,310,63026,2,0,L|286:229,1,80,0|0,1:0|0:0,0:0:0:0:
407,97,63326,6,0,B|430:46|407:11|407:11|389:25|382:48,1,120,4|0,0:3|0:0,0:0:0:0:
458,154,63626,2,0,B|408:112|363:132|363:132|347:157|308:162,2,160,0|4|0,1:0|0:3|1:0,0:0:0:0:
284,306,64376,1,0,0:0:0:0:
362,372,64526,2,0,P|381:338|380:295,1,80,4|0,0:3|0:0,0:0:0:0:
188,177,64826,2,0,L|176:256,1,80,0|0,1:0|0:0,0:0:0:0:
235,93,65126,2,0,B|199:71|162:77|162:77|151:95|126:103,1,120,4|0,0:3|0:0,0:0:0:0:
46,73,65426,2,0,L|59:160,1,80,0|4,1:0|0:3,0:0:0:0:
26,228,65651,5,4,0:3:0:0:
15,213,65726,2,0,B|50:175|106:191|106:191|125:222|175:218,1,160,4|4,3:2|1:2,0:0:0:0:
255,167,66176,1,0,0:0:0:0:
310,289,66326,2,0,L|234:265,1,80,4|4,0:3|0:3,0:0:0:0:
421,227,66626,2,0,L|405:103,1,120,0|0,1:0|0:0,0:0:0:0:
337,77,66926,6,0,B|322:114|322:114|339:156,1,80,4|0,0:3|0:0,0:0:0:0:
485,103,67226,2,0,L|499:20,1,80,0|0,1:0|0:0,0:0:0:0:
276,28,67526,1,4,0:3:0:0:
406,107,67676,1,4,0:3:0:0:
268,196,67826,2,0,B|223:184|223:184|194:188|194:188|148:179,1,120,0|0,1:0|0:0,0:0:0:0:
85,207,68126,6,0,P|60:240|74:275,1,80,4|0,0:3|0:0,0:0:0:0:
337,305,68426,2,0,P|291:276|222:302,1,120,0|0,1:0|0:0,0:0:0:0:
179,345,68726,2,0,P|158:312|158:273,1,80,4|4,0:3|0:3,0:0:0:0:
370,218,69026,2,0,L|385:133,1,80,0|0,1:0|0:0,0:0:0:0:
434,277,69326,5,2,3:2:0:0:
297,151,69476,1,0,1:0:0:0:
286,160,69551,1,0,1:0:0:0:
275,169,69626,1,2,3:2:0:0:
296,268,69776,1,0,1:0:0:0:
312,44,69926,6,0,P|336:48|364:43,3,40,2|0|0|0,3:2|0:0|1:0|0:0,0:0:0:0:
243,86,70226,2,0,P|221:67|202:63,1,40,0|0,1:0|1:0,0:0:0:0:
155,117,70376,2,0,P|136:124|116:125,1,40,0|0,1:0|1:0,0:0:0:0:
66,20,70526,6,0,L|83:154,1,120,4|0,3:2|0:0,0:0:0:0:
20,196,70826,2,0,B|-1:162|-1:162|8:121,1,80,4|0,1:2|0:0,0:0:0:0:
115,258,71126,1,4,0:3:0:0:
252,207,71276,1,4,0:3:0:0:
317,293,71426,2,0,L|409:278,1,80,0|0,1:0|0:0,0:0:0:0:
457,120,71726,6,0,P|431:170|363:186,1,120,4|0,0:3|0:0,0:0:0:0:
354,178,72026,1,0,1:0:0:0:
258,50,72176,1,0,0:0:0:0:
153,149,72326,2,0,L|73:159,1,80,4|4,0:3|0:3,0:0:0:0:
102,73,72626,1,0,1:0:0:0:
244,197,72776,1,0,0:0:0:0:
162,304,72926,6,0,P|142:264|158:221,1,80,4|0,0:3|0:0,0:0:0:0:
359,120,73226,2,0,L|375:249,1,120,0|0,1:0|0:0,0:0:0:0:
363,257,73526,1,4,0:3:0:0:
445,147,73676,1,4,0:3:0:0:
262,37,73826,2,0,B|252:75|252:75|269:114,1,80,0|0,1:0|0:0,0:0:0:0:
198,198,74126,2,0,L|32:176,2,160,4|0|4,0:3|1:0|0:3,0:0:0:0:
267,275,74876,1,4,0:3:0:0:
213,372,75026,1,0,1:0:0:0:
420,232,75176,5,4,0:3:0:0:
424,221,75251,1,4,0:3:0:0:
415,216,75326,2,0,L|433:361,1,120,4|0,3:2|0:0,0:0:0:0:
362,382,75626,2,0,B|340:346|340:346|349:304,1,80,4|0,1:2|0:0,0:0:0:0:
246,176,75926,2,0,L|260:263,1,80,4|4,0:3|0:3,0:0:0:0:
146,150,76226,2,0,P|133:115|148:73,1,80,0|0,1:0|0:0,0:0:0:0:
346,153,76526,6,0,B|429:142|407:199|498:187,2,160,4|0|4,0:3|1:0|0:3,0:0:0:0:
212,43,77276,1,4,0:3:0:0:
239,174,77426,2,0,L|253:261,1,80,0|0,1:0|0:0,0:0:0:0:
17,329,77726,6,0,P|36:287|114:279,1,120,4|0,0:3|0:0,0:0:0:0:
114,260,78026,1,0,1:0:0:0:
201,357,78176,1,0,0:0:0:0:
327,290,78326,2,0,P|337:251|327:211,1,80,4|4,0:3|0:3,0:0:0:0:
163,79,78626,2,0,B|148:115|148:115|160:162,1,80,0|0,1:0|0:0,0:0:0:0:
369,142,78926,6,0,B|321:120|287:136|287:136|278:155|251:169,1,120,4|0,0:3|0:0,0:0:0:0:
246,158,79226,1,0,1:0:0:0:
182,296,79376,1,0,0:0:0:0:
108,200,79526,1,4,0:3:0:0:
65,280,79676,1,8,0:3:0:0:
167,315,79826,1,4,0:3:0:0:
275,268,79976,1,8,0:3:0:0:
358,312,80126,6,0,L|439:302,1,80,4|0,3:2|0:0,0:0:0:0:
497,135,80426,2,0,P|477:189|401:205,1,120,0|0,1:0|0:0,0:0:0:0:
405,208,80726,1,8,0:3:0:0:
319,40,80876,1,8,0:3:0:0:
250,147,81026,1,8,0:3:0:0:
332,24,81176,1,8,0:3:0:0:
239,163,81326,1,0,1:0:0:0:
43,176,82526,6,0,B|76:153|76:153|121:158,1,80,4|0,3:2|0:0,0:0:0:0:
247,264,82826,2,0,B|199:270|199:270|179:290|179:290|115:303,1,120,0|0,1:0|0:0,0:0:0:0:
123,315,83126,2,0,L|78:309,1,40,4|0,0:3|0:0,0:0:0:0:
221,178,83276,1,4,0:3:0:0:
399,187,83426,2,0,B|358:201|332:175|332:175|322:194|295:204,1,120,0|0,1:0|0:0,0:0:0:0:
221,178,83726,6,0,B|248:127|309:135|309:135|334:161|373:149,1,160,4|0,0:3|1:0,0:0:0:0:
431,93,84176,1,0,0:0:0:0:
308,37,84326,2,0,L|264:47,2,40,4|0|4,0:3|0:0|0:3,0:0:0:0:
431,93,84626,2,0,P|437:52|419:15,1,80,0|0,1:0|0:0,0:0:0:0:
358,152,84926,5,4,0:3:0:0:
421,17,85076,1,0,0:0:0:0:
294,83,85226,2,0,L|272:206,1,120,0|0,1:0|0:0,0:0:0:0:
283,217,85526,1,4,0:3:0:0:
199,117,85676,1,4,0:3:0:0:
383,48,85826,2,0,P|397:91|384:124,1,80,0|0,1:0|0:0,0:0:0:0:
454,184,86126,5,4,0:3:0:0:
294,83,86276,1,0,0:0:0:0:
285,77,86426,2,0,L|110:110,1,160,0|4,1:0|0:3,0:0:0:0:
113,269,86876,2,0,P|124:221|115:186,1,80,4|0,0:3|1:0,0:0:0:0:
22,306,87176,1,0,0:0:0:0:
216,355,87326,6,0,L|200:274,1,80,4|0,3:2|0:0,0:0:0:0:
316,88,87626,2,0,L|288:227,1,120,0|0,1:0|0:0,0:0:0:0:
297,223,87926,2,0,P|319:244|337:246,1,40,4|0,0:3|0:0,0:0:0:0:
410,212,88076,1,4,0:3:0:0:
216,355,88226,2,0,P|266:319|340:335,1,120,0|0,1:0|0:0,0:0:0:0:
410,312,88526,6,0,B|322:320|348:254|262:261,1,160,4|0,0:3|1:0,0:0:0:0:
184,197,88976,1,0,0:0:0:0:
107,299,89126,2,0,L|114:341,2,40,4|0|4,0:3|0:0|0:3,0:0:0:0:
184,197,89426,2,0,P|195:154|181:111,1,80,0|0,1:0|0:0,0:0:0:0:
243,70,89726,5,4,0:3:0:0:
119,160,89876,1,8,0:3:0:0:
231,257,90026,2,0,L|316:242,1,80,0|4,1:0|0:3,0:0:0:0:
436,315,90326,1,8,0:3:0:0:
468,185,90476,2,0,L|478:144,2,40,0|0|4,1:0|0:0|0:3,0:0:0:0:
510,263,90776,1,8,0:3:0:0:
350,150,90926,6,0,L|246:169,1,80,0|4,1:0|0:3,0:0:0:0:
132,122,91226,1,8,0:3:0:0:
364,160,91376,6,0,L|260:179,1,80,0|8,1:0|0:3,0:0:0:0:
125,105,91676,1,0,1:0:0:0:
272,28,91826,5,0,1:0:0:0:
216,234,91976,5,2,1:2:0:0:
