osu file format v14

[General]
AudioFilename: audio.mp3
AudioLeadIn: 0
PreviewTime: 59955
Countdown: 0
SampleSet: Soft
StackLeniency: 0.7
Mode: 0
LetterboxInBreaks: 0
WidescreenStoryboard: 1

[Editor]
Bookmarks: 64324
DistanceSpacing: 1.1
BeatDivisor: 2
GridSize: 8
TimelineZoom: 1.4

[Metadata]
Title:Thoughtcrime
TitleUnicode:思想犯
Artist:Yorushika
ArtistUnicode:ヨルシカ
Creator:Ryuusei Aika
Version:Collab Normal
Source:
Tags:cut ver version Amamiya Kanade Sandrew kanor Ipas NewIpas SMM ShirohaMyMommy Delis shisouhan shisou han ナブナ nbuna n-buna スイ suis plagiarism 盗作 japanese rock jrock j-rock female vocal
BeatmapID:2504495
BeatmapSetID:1202606

[Difficulty]
HPDrainRate:4
CircleSize:3
OverallDifficulty:5
ApproachRate:6
SliderMultiplier:0.899999999999999
SliderTickRate:1

[Events]
//Background and Video events
0,0,"EUqwFx6U4AI4cpS.jpg",0,0
//Break Periods
//Storyboard Layer 0 (Background)
//Storyboard Layer 1 (Fail)
//Storyboard Layer 2 (Pass)
//Storyboard Layer 3 (Foreground)
//Storyboard Layer 4 (Overlay)
//Storyboard Sound Samples

[TimingPoints]
926,300,4,2,0,20,1,0
10526,-100,4,2,0,50,0,0
29726,-100,4,2,0,30,0,0
48926,-100,4,2,0,40,0,0
58526,-100,4,2,0,45,0,0
60026,-100,4,2,0,50,0,0
60626,-100,4,2,0,40,0,0
60926,-100,4,2,0,60,0,0
80726,-100,4,2,0,50,0,0
81401,-100,4,2,0,30,0,0
82526,-100,4,2,0,50,0,0
92051,-100,4,2,0,5,0,0

[Colours]
Combo1 : 255,169,128
Combo2 : 255,128,255
Combo3 : 255,128,128
Combo4 : 255,128,192

[HitObjects]
17,290,926,6,0,L|125:303,1,89.9999999999999,4|0,0:3|1:0,0:0:0:0:
196,341,1526,2,0,P|203:320|206:297,1,45
187,247,1826,1,0,1:0:0:0:
138,160,2126,2,0,P|149:100|192:44,1,89.9999999999999,4|0,0:3|1:0,0:0:0:0:
259,52,2726,2,0,P|295:45|329:18,1,45
354,27,3026,1,0,1:0:0:0:
451,42,3326,6,0,P|443:21|440:-1,2,45,4|4|0,0:3|0:3|1:0,0:0:0:0:
407,132,3926,2,0,P|422:173|427:218,1,89.9999999999999,0|0,0:0|1:0,0:0:0:0:
429,317,4526,2,0,L|318:329,1,89.9999999999999,4|0,0:3|1:0,0:0:0:0:
250,284,5126,2,0,L|171:275,1,45,0|4,3:0|0:3,0:0:0:0:
162,305,5426,1,0,1:0:0:0:
63,304,5726,6,0,B|73:252|57:174,1,89.9999999999999,4|0,0:3|1:0,0:0:0:0:
40,117,6326,2,0,L|84:113,1,45,0|4,0:0|0:3,0:0:0:0:
121,146,6626,1,0,1:0:0:0:
209,190,6926,2,0,B|261:200|339:184,1,89.9999999999999,4|0,0:3|1:0,0:0:0:0:
393,160,7526,2,0,L|403:229,1,45,0|4,0:0|0:3,0:0:0:0:
380,254,7826,1,0,1:0:0:0:
314,325,8126,6,0,B|276:334|224:324,1,89.9999999999999,4|0,0:3|1:0,0:0:0:0:
199,287,8576,1,0,3:0:0:0:
199,287,8726,2,0,B|161:277|109:287,1,89.9999999999999,0|0,3:0|1:0,0:0:0:0:
144,383,9326,1,2,0:0:0:0:
296,256,9926,2,0,L|362:266,1,45,2|2,0:0|0:1,0:0:0:0:
467,340,10526,6,0,L|460:208,1,89.9999999999999,4|0,3:2|1:0,0:0:0:0:
417,161,11126,2,0,L|410:29,1,89.9999999999999,4|0,0:3|1:0,0:0:0:0:
321,30,11726,2,0,B|305:21|305:21|267:42|205:19,1,89.9999999999999,4|0,0:3|1:0,0:0:0:0:
192,16,12176,1,0,0:0:0:0:
192,16,12326,1,4,0:3:0:0:
109,70,12626,1,0,1:0:0:0:
88,166,12926,6,0,B|104:157|104:157|142:178|204:155,1,89.9999999999999,4|0,0:3|1:0,0:0:0:0:
227,164,13376,1,0,0:0:0:0:
227,164,13526,2,0,L|231:265,1,89.9999999999999,4|0,0:3|1:0,0:0:0:0:
318,299,14126,2,0,B|332:273|306:224|329:206,2,89.9999999999999,4|0|4,0:3|1:0|0:3,0:0:0:0:
237,356,15026,1,0,1:0:0:0:
141,329,15326,6,0,P|146:285|144:240,1,89.9999999999999,4|0,1:2|1:0,0:0:0:0:
128,141,15926,2,0,L|17:149,1,89.9999999999999,4|0,0:3|1:0,0:0:0:0:
32,243,16526,2,0,B|35:277|35:277|28:299|28:299|32:341,1,89.9999999999999,4|0,0:3|1:0,0:0:0:0:
60,378,16976,1,0,0:0:0:0:
60,378,17126,1,4,0:3:0:0:
147,331,17426,1,0,1:0:0:0:
243,351,17726,6,0,P|253:308|246:264,1,89.9999999999999,4|0,0:3|1:0,0:0:0:0:
229,223,18176,1,0,0:0:0:0:
229,223,18326,2,0,P|221:178|228:142,2,45,4|4|0,0:3|0:3|1:0,0:0:0:0:
166,300,18926,2,0,L|60:312,1,89.9999999999999,2|8,0:0|0:3,0:0:0:0:
48,351,19376,1,0,1:0:0:0:
48,351,19526,2,0,P|65:318|38:275,1,89.9999999999999,0|0,1:0|1:0,0:0:0:0:
13,180,20126,6,0,L|119:172,1,89.9999999999999,4|0,3:2|1:0,0:0:0:0:
183,231,20726,2,0,L|288:222,1,89.9999999999999,4|0,0:3|1:0,0:0:0:0:
352,281,21326,2,0,B|343:265|343:265|364:227|341:165,1,89.9999999999999,4|0,0:3|1:0,0:0:0:0:
338,152,21776,1,0,0:0:0:0:
338,152,21926,1,4,0:3:0:0:
286,67,22226,1,0,1:0:0:0:
187,55,22526,6,0,B|196:71|196:71|175:109|198:171,1,89.9999999999999,4|0,0:3|1:0,0:0:0:0:
188,194,22976,1,0,0:0:0:0:
188,194,23126,2,0,L|87:198,1,89.9999999999999,4|0,0:3|1:0,0:0:0:0:
59,288,23726,2,0,B|85:302|134:276|152:299,1,89.9999999999999,4|0,0:3|1:0,0:0:0:0:
194,322,24176,1,0,0:0:0:0:
194,322,24326,2,0,B|220:336|269:310|287:333,1,89.9999999999999,4|0,0:3|1:0,0:0:0:0:
380,344,24926,6,0,L|373:230,1,89.9999999999999,4|0,3:2|1:0,0:0:0:0:
310,178,25526,2,0,L|303:64,1,89.9999999999999,4|0,0:3|1:0,0:0:0:0:
235,17,26126,2,0,B|223:27|223:27|176:5|115:27,1,89.9999999999999,4|0,0:3|1:0,0:0:0:0:
105,27,26576,1,0,0:0:0:0:
105,27,26726,1,4,0:3:0:0:
84,123,27026,1,0,1:0:0:0:
84,221,27326,6,0,P|35:233|-5:220,2,89.9999999999999,4|8|0,0:3|0:3|1:0,0:0:0:0:
175,190,28226,1,0,1:0:0:0:
222,103,28526,2,0,L|232:14,2,89.9999999999999,4|8|0,0:3|0:3|1:0,0:0:0:0:
175,190,29426,1,0,1:0:0:0:
123,274,29726,5,2,3:2:0:0:
143,370,30026,2,0,L|197:375,1,45,0|0,1:0|0:0,0:0:0:0:
236,380,30326,1,4,0:3:0:0:
433,354,30926,2,0,L|439:265,1,89.9999999999999,4|0,0:3|1:0,0:0:0:0:
427,216,31376,1,0,0:0:0:0:
494,141,31676,2,0,P|509:99|504:55,1,89.9999999999999,4|0,0:3|0:0,0:0:0:0:
458,30,32126,6,0,P|426:30|405:16,1,45,4|0,0:3|0:0,0:0:0:0:
368,6,32426,1,0,1:0:0:0:
341,101,32726,2,0,L|335:233,1,89.9999999999999,4|0,0:3|1:0,0:0:0:0:
334,289,33326,1,4,0:3:0:0:
151,211,33926,2,0,P|83:224|29:202,1,89.9999999999999,4|0,0:3|1:0,0:0:0:0:
26,187,34376,1,0,0:0:0:0:
26,187,34526,6,0,B|37:145|37:145|24:62,1,89.9999999999999,4|0,0:3|1:0,0:0:0:0:
49,2,35126,2,0,L|174:17,1,89.9999999999999,4|0,0:3|1:0,0:0:0:0:
172,48,35576,1,0,0:0:0:0:
172,48,35726,1,4,0:3:0:0:
154,199,36176,1,0,0:0:0:0:
154,199,36326,2,0,P|161:235|186:269,2,45,4|4|0,0:3|0:3|1:0,0:0:0:0:
253,195,36926,6,0,L|351:192,1,89.9999999999999,4|0,0:3|1:0,0:0:0:0:
364,147,37376,1,0,0:0:0:0:
408,58,37676,1,4,0:3:0:0:
479,134,37976,1,0,0:0:0:0:
479,134,38126,2,0,L|471:194,1,45,4|0,0:3|1:0,0:0:0:0:
490,224,38426,2,0,P|454:256|399:264,1,89.9999999999999,0|4,1:0|0:3,0:0:0:0:
315,255,39026,1,0,1:0:0:0:
267,341,39326,6,0,B|251:351|251:351|150:333,1,89.9999999999999,4|0,0:3|1:0,0:0:0:0:
83,320,39926,1,4,0:3:0:0:
33,128,40526,2,0,B|49:118|49:118|119:130,1,89.9999999999999,4|0,0:3|1:0,0:0:0:0:
167,142,40976,1,0,0:0:0:0:
174,240,41276,2,0,L|178:306,1,45,4|0,0:3|1:0,0:0:0:0:
183,334,41576,1,0,0:0:0:0:
183,334,41726,6,0,P|259:348|296:366,1,89.9999999999999,4|0,0:3|1:0,0:0:0:0:
365,324,42326,2,0,L|383:215,1,89.9999999999999,4|0,0:3|1:0,0:0:0:0:
387,185,42776,1,0,0:0:0:0:
371,87,43076,2,0,L|327:84,1,45,0|0,0:0|1:0,0:0:0:0:
82,72,43976,1,0,0:0:0:0:
82,72,44126,6,0,P|98:53|136:49,2,45,4|0|0,0:3|0:0|1:0,0:0:0:0:
38,160,44726,2,0,L|27:279,1,89.9999999999999,4|0,0:3|1:0,0:0:0:0:
75,337,45326,1,4,0:3:0:0:
150,273,45626,1,0,1:0:0:0:
226,209,45926,2,0,L|293:217,2,45,4|4|0,0:3|0:3|1:0,0:0:0:0:
230,110,46526,6,0,L|297:118,1,45,4|2,0:3|0:0,0:0:0:0:
316,142,46826,1,0,1:0:0:0:
395,83,47126,1,0,1:0:0:0:
430,117,47276,2,0,P|436:193|428:225,1,89.9999999999999,2|8,0:0|0:3,0:0:0:0:
427,255,47726,5,0,3:0:0:0:
415,353,48026,2,0,L|363:350,1,45,4|0,1:2|0:0,0:0:0:0:
320,354,48326,2,0,P|340:312|285:283,1,89.9999999999999,0|0,1:0|1:0,0:0:0:0:
282,252,48776,1,0,1:0:0:0:
282,252,48926,6,0,L|152:255,1,89.9999999999999,6|0,3:1|1:0,0:0:0:0:
142,254,49376,1,2,0:1:0:0:
43,250,49676,2,0,P|46:310|51:321,2,45,4|0|8,0:3|1:0|0:3,0:0:0:0:
65,200,50126,2,0,P|68:146|46:100,1,89.9999999999999,2|0,3:1|1:0,0:0:0:0:
41,65,50576,1,2,0:1:0:0:
181,18,51026,1,0,1:0:0:0:
269,65,51326,6,0,P|254:107|259:151,1,89.9999999999999,2|0,3:1|1:0,0:0:0:0:
278,197,51776,2,0,L|397:195,1,89.9999999999999,2|4,0:1|0:3,0:0:0:0:
403,229,52226,1,0,1:0:0:0:
399,331,52526,2,0,L|309:332,1,89.9999999999999,2|0,3:1|1:0,0:0:0:0:
260,339,52976,1,0,0:0:0:0:
203,234,53426,1,0,1:0:0:0:
257,150,53726,6,0,P|252:106|267:64,1,89.9999999999999,6|4,3:1|1:2,0:0:0:0:
294,22,54176,2,0,P|230:34|171:15,1,89.9999999999999,2|4,0:1|0:3,0:0:0:0:
169,23,54626,1,0,1:0:0:0:
162,121,54926,2,0,L|158:241,1,89.9999999999999,2|0,3:1|1:0,0:0:0:0:
153,260,55376,2,0,P|131:251|62:263,1,89.9999999999999,2|4,0:1|0:3,0:0:0:0:
38,300,55826,1,8,0:3:0:0:
0,207,56126,6,0,L|14:110,1,89.9999999999999,4|4,3:2|1:2,0:0:0:0:
58,30,56726,1,4,0:3:0:0:
107,115,57026,2,0,P|149:126|192:114,1,89.9999999999999,0|4,1:0|0:3,0:0:0:0:
275,59,57626,1,0,1:0:0:0:
355,1,57926,1,4,0:3:0:0:
373,98,58226,1,0,1:0:0:0:
380,197,58526,6,0,L|374:319,1,89.9999999999999,0|8,1:0|0:3,0:0:0:0:
278,301,59126,2,0,L|282:383,2,45,0|8|0,0:0|0:3|0:0,0:0:0:0:
283,202,59726,1,4,1:2:0:0:
231,117,60026,6,0,P|172:89|258:53,1,180,4|4,1:2|0:3,0:0:0:0:
319,78,60926,6,0,L|429:71,1,89.9999999999999,4|4,3:2|1:2,0:0:0:0:
487,150,61526,1,4,0:3:0:0:
487,150,61676,1,0,0:0:0:0:
487,150,61826,2,0,P|475:211|496:264,1,89.9999999999999,0|4,1:0|0:3,0:0:0:0:
506,333,62426,1,0,1:0:0:0:
407,333,62726,2,0,L|341:345,1,45,4|4,0:3|0:3,0:0:0:0:
314,351,63026,1,0,1:0:0:0:
222,297,63326,6,0,P|209:340|212:389,2,89.9999999999999,4|0|4,0:3|1:0|0:3,0:0:0:0:
259,264,64076,1,4,0:3:0:0:
259,264,64226,1,0,1:0:0:0:
356,244,64526,2,0,P|399:233|434:205,1,89.9999999999999,4|0,0:3|1:0,0:0:0:0:
414,108,65126,2,0,L|407:61,2,45,4|4|0,0:3|0:3|1:0,0:0:0:0:
316,88,65726,6,0,L|193:100,1,89.9999999999999,4|4,3:2|1:2,0:0:0:0:
133,63,66326,1,4,0:3:0:0:
133,63,66476,1,0,0:0:0:0:
133,63,66626,2,0,P|145:117|129:156,1,89.9999999999999,0|4,1:0|0:3,0:0:0:0:
61,216,67226,1,0,1:0:0:0:
10,301,67526,2,0,P|11:344|42:384,1,89.9999999999999,4|0,0:3|1:0,0:0:0:0:
134,359,68126,6,0,P|177:347|207:315,1,89.9999999999999,4|0,0:3|1:0,0:0:0:0:
221,216,68726,2,0,L|227:166,1,45,4|4,0:3|0:3,0:0:0:0:
234,122,69026,2,0,P|278:120|329:156,1,89.9999999999999,0|2,1:0|3:2,0:0:0:0:
329,238,69626,2,0,P|359:270|402:282,2,89.9999999999999,2|2|0,3:2|3:2|1:0,0:0:0:0:
411,183,70526,6,0,L|512:181,1,89.9999999999999,4|4,3:2|1:2,0:0:0:0:
465,88,71126,1,4,0:3:0:0:
465,88,71276,1,4,0:3:0:0:
465,88,71426,1,0,1:0:0:0:
373,49,71726,2,0,P|332:29|288:32,1,89.9999999999999,4|0,0:3|1:0,0:0:0:0:
210,92,72326,2,0,L|143:101,2,45,4|4|0,0:3|0:3|1:0,0:0:0:0:
298,137,72926,6,0,L|282:225,2,89.9999999999999,4|0|4,0:3|1:0|0:3,0:0:0:0:
290,88,73676,1,4,0:3:0:0:
282,39,73826,2,0,B|351:10|402:69|458:42,1,180,0|0,1:0|1:0,0:0:0:0:
506,130,74726,2,0,L|494:200,1,45,4|4,0:3|0:3,0:0:0:0:
490,223,75026,1,0,1:0:0:0:
397,258,75326,6,0,P|325:247|275:266,1,89.9999999999999,4|4,3:2|1:2,0:0:0:0:
216,283,75926,2,0,L|215:223,1,45,4|4,0:3|0:3,0:0:0:0:
214,188,76226,1,0,1:0:0:0:
229,90,76526,2,0,L|113:100,2,89.9999999999999,4|0|4,0:3|1:0|0:3,0:0:0:0:
266,57,77276,1,4,0:3:0:0:
308,30,77426,1,0,1:0:0:0:
381,98,77726,2,0,L|440:88,2,45,4|0|0,0:3|0:0|1:0,0:0:0:0:
361,195,78326,1,4,0:3:0:0:
339,291,78626,6,0,B|283:317|232:259|162:287,1,180,0|0,1:0|1:0,0:0:0:0:
70,323,79526,2,0,L|58:217,1,89.9999999999999,4|4,0:3|0:3,0:0:0:0:
133,167,80126,1,4,3:2:0:0:
80,83,80426,1,0,1:0:0:0:
147,10,80726,2,0,P|191:14|249:48,1,89.9999999999999,8|8,0:3|0:3,0:0:0:0:
255,77,81176,1,8,0:3:0:0:
283,117,81326,1,0,1:0:0:0:
423,256,81926,2,0,L|416:181,1,45,2|2,0:0|1:0,0:0:0:0:
484,78,82526,6,0,L|352:85,1,89.9999999999999,4|0,3:2|1:0,0:0:0:0:
309,31,83126,2,0,L|177:38,1,89.9999999999999,4|0,0:3|1:0,0:0:0:0:
138,93,83726,2,0,B|129:109|129:109|150:147|127:209,1,89.9999999999999,4|0,0:3|1:0,0:0:0:0:
114,225,84176,1,0,0:0:0:0:
114,225,84326,1,4,0:3:0:0:
131,322,84626,1,0,1:0:0:0:
227,345,84926,6,0,B|218:329|218:329|239:291|216:229,1,89.9999999999999,4|0,0:3|1:0,0:0:0:0:
222,215,85376,1,0,0:0:0:0:
222,215,85526,2,0,L|323:211,1,89.9999999999999,4|0,0:3|1:0,0:0:0:0:
366,128,86126,2,0,B|340:114|291:140|273:117,2,89.9999999999999,4|0|4,0:3|1:0|0:3,0:0:0:0:
420,211,87026,1,0,1:0:0:0:
396,307,87326,6,0,P|352:302|307:304,1,89.9999999999999,4|0,3:2|1:0,0:0:0:0:
212,334,87926,2,0,L|205:244,1,89.9999999999999,4|0,0:3|1:0,0:0:0:0:
192,146,88526,2,0,B|226:143|226:143|248:150|248:150|290:146,1,89.9999999999999,4|0,0:3|1:0,0:0:0:0:
335,170,88976,1,0,0:0:0:0:
335,170,89126,1,4,0:3:0:0:
417,115,89426,1,0,1:0:0:0:
458,24,89726,6,0,P|409:12|369:25,1,89.9999999999999,4|0,0:3|1:0,0:0:0:0:
338,59,90176,1,4,0:3:0:0:
338,59,90326,1,8,0:3:0:0:
254,6,90626,2,0,L|209:10,1,45,4|8,0:3|0:3,0:0:0:0:
159,14,90926,1,0,1:0:0:0:
167,112,91226,2,0,L|175:184,1,45,8|0,0:3|1:0,0:0:0:0:
180,205,91526,6,0,L|252:197,1,45,8|0,0:3|1:0,0:0:0:0:
272,227,91826,1,0,1:0:0:0:
272,227,91976,1,2,1:2:0:0:
