osu file format v14

[General]
AudioFilename: audio.mp3
AudioLeadIn: 0
PreviewTime: 173007
Countdown: 0
SampleSet: Soft
StackLeniency: 1
Mode: 0
LetterboxInBreaks: 0
WidescreenStoryboard: 1

[Editor]
Bookmarks: 29082,60282,80682,101082,185082
DistanceSpacing: 1.5
BeatDivisor: 4
GridSize: 32
TimelineZoom: 3.699998

[Metadata]
Title:Thoughtcrime
TitleUnicode:思想犯
Artist:Yorushika
ArtistUnicode:ヨルシカ
Creator:Deca
Version:Hard
Source:
Tags:shishouhan shisouhan plagiarism akitoshi coloured glazee amateurre rtyzen galaxyskys seros flake setu n-buna suis rabbit MACHINE no.10 konatsuruka yurisa ueda(SWEAT) suiko japanese rock jrock j-rock
BeatmapID:3873362
BeatmapSetID:1676482

[Difficulty]
HPDrainRate:5
CircleSize:4
OverallDifficulty:7
ApproachRate:8
SliderMultiplier:1.4
SliderTickRate:1

[Events]
//Background and Video events
0,0,"copium.jpg",0,0
//Break Periods
2,80882,100332
2,152882,172332
2,204482,208332
//Storyboard Layer 0 (Background)
//Storyboard Layer 1 (Fail)
//Storyboard Layer 2 (Pass)
//Storyboard Layer 3 (Foreground)
//Storyboard Layer 4 (Overlay)
//Storyboard Sound Samples

[TimingPoints]
282,300,4,2,1,40,1,0
282,-133.333333333333,4,2,1,40,0,0
8607,-133.333333333333,4,2,1,40,0,0
8682,-133.333333333333,4,2,1,40,0,0
9282,-133.333333333333,4,2,1,75,0,0
9432,-133.333333333333,4,2,1,75,0,0
9661,-133.333333333333,4,2,1,75,0,0
9732,-133.333333333333,4,2,1,75,0,0
9882,-100,4,2,1,75,0,0
11007,-100,4,2,1,75,0,0
11082,-100,4,2,1,75,0,0
20611,-100,4,2,1,75,0,0
20682,-100,4,2,1,75,0,0
24811,-100,4,2,1,75,0,0
24882,-100,4,2,1,75,0,0
29082,-133.333333333333,4,2,1,40,0,0
47682,-133.333333333333,4,2,1,40,0,0
48282,-105.263157894737,4,2,1,40,0,0
52932,-105.263157894737,4,2,1,45,0,0
55482,-105.263157894737,4,2,1,45,0,0
55782,-105.263157894737,4,2,1,55,0,0
59082,-105.263157894737,4,2,1,55,0,0
59311,-105.263157894737,4,2,1,55,0,0
59382,-105.263157894737,4,2,1,55,0,0
59611,-105.263157894737,4,2,1,55,0,0
59682,-105.263157894737,4,2,1,55,0,0
60282,-100,4,2,1,75,0,0
60511,-100,4,2,1,75,0,0
60582,-100,4,2,1,75,0,0
61411,-100,4,2,1,75,0,0
61482,-100,4,2,1,75,0,0
62911,-100,4,2,1,75,0,0
62982,-100,4,2,1,75,0,0
65311,-100,4,2,1,75,0,0
65382,-100,4,2,1,75,0,0
65611,-100,4,2,1,75,0,0
65682,-100,4,2,1,75,0,0
68011,-100,4,2,1,75,0,0
68082,-100,4,2,1,75,0,0
68611,-100,4,2,1,75,0,0
68682,-100,4,2,1,75,0,0
71011,-100,4,2,1,75,0,0
71082,-100,4,2,1,75,0,0
72511,-100,4,2,1,75,0,0
72582,-100,4,2,1,75,0,0
74911,-100,4,2,1,75,0,0
74982,-100,4,2,1,75,0,0
79711,-100,4,2,1,75,0,0
79782,-100,4,2,1,75,0,0
80011,-100,4,2,1,75,0,0
80082,-100,4,2,1,75,0,0
80682,-100,4,2,1,75,0,0
81661,-100,4,2,1,75,0,0
81732,-100,4,2,1,75,0,0
83011,-100,4,2,1,75,0,0
83082,-100,4,2,1,75,0,0
92611,-100,4,2,1,75,0,0
92682,-100,4,2,1,75,0,0
101082,-133.333333333333,4,2,1,40,0,0
119611,-133.333333333333,4,2,1,40,0,0
119682,-133.333333333333,4,2,1,40,0,0
120282,-105.263157894737,4,2,1,40,0,0
125082,-105.263157894737,4,2,1,45,0,0
127482,-105.263157894737,4,2,1,45,0,0
127782,-105.263157894737,4,2,1,55,0,0
130782,-105.263157894737,4,2,1,55,0,0
131161,-105.263157894737,4,2,1,55,0,0
131232,-105.263157894737,4,2,1,55,0,0
132282,-105.263157894737,4,2,1,75,0,0
132511,-105.263157894737,4,2,1,75,0,0
132582,-105.263157894737,4,2,1,75,0,0
133711,-105.263157894737,4,2,1,75,0,0
133782,-105.263157894737,4,2,1,75,0,0
134911,-105.263157894737,4,2,1,75,0,0
134982,-105.263157894737,4,2,1,75,0,0
137311,-105.263157894737,4,2,1,75,0,0
137382,-105.263157894737,4,2,1,75,0,0
139711,-105.263157894737,4,2,1,75,0,0
139782,-105.263157894737,4,2,1,75,0,0
140611,-105.263157894737,4,2,1,75,0,0
140682,-105.263157894737,4,2,1,75,0,0
143311,-105.263157894737,4,2,1,75,0,0
143382,-105.263157894737,4,2,1,75,0,0
144511,-105.263157894737,4,2,1,75,0,0
144582,-105.263157894737,4,2,1,75,0,0
146911,-105.263157894737,4,2,1,75,0,0
146982,-105.263157894737,4,2,1,75,0,0
147811,-105.263157894737,4,2,1,75,0,0
147882,-105.263157894737,4,2,1,75,0,0
151711,-105.263157894737,4,2,1,75,0,0
151782,-105.263157894737,4,2,1,75,0,0
152011,-105.263157894737,4,2,1,75,0,0
152082,-105.263157894737,4,2,1,75,0,0
153886,-105.263157894737,4,2,1,75,0,0
162432,-105.263157894737,4,2,1,30,0,0
165361,-105.263157894737,4,2,1,30,0,0
165431,-105.263157894737,4,2,1,30,0,0
173082,-166.666666666667,4,2,1,35,0,0
178711,-166.666666666667,4,2,1,35,0,0
178782,-166.666666666667,4,2,1,35,0,0
182911,-166.666666666667,4,2,1,35,0,0
182981,-166.666666666667,4,2,1,35,0,0
185082,-500,4,2,1,35,0,0
189882,-200,4,2,1,35,0,0
208186,-200,4,2,1,35,0,0
208411,-200,4,2,1,35,0,0
208486,-200,4,2,1,35,0,0
208711,-200,4,2,1,35,0,0
208786,-200,4,2,1,35,0,0
209082,-100,4,2,1,75,0,0
209311,-100,4,2,1,75,0,0
209382,-100,4,2,1,75,0,0
210511,-100,4,2,1,75,0,0
210582,-100,4,2,1,75,0,0
211411,-100,4,2,1,75,0,0
211482,-100,4,2,1,75,0,0
214111,-100,4,2,1,75,0,0
214182,-100,4,2,1,75,0,0
219807,-100,4,2,1,75,0,0
219882,-100,4,2,1,75,0,0
221311,-100,4,2,1,75,0,0
221382,-100,4,2,1,75,0,0
223711,-100,4,2,1,75,0,0
223782,-100,4,2,1,75,0,0
224011,-100,4,2,1,75,0,0
224082,-100,4,2,1,75,0,0
229482,-100,4,2,1,75,0,0
230232,-100,4,2,1,75,0,0
230682,-100,4,2,1,75,0,0
236011,-100,4,2,1,75,0,0
236082,-100,4,2,1,75,0,0

[Colours]
Combo1 : 17,254,176
Combo2 : 173,255,95
Combo3 : 255,88,100
Combo4 : 255,94,55

[HitObjects]
51,191,282,6,0,P|78:187|112:185,1,52.5000020027161,0|0,1:0|1:0,0:0:0:0:
155,132,582,2,0,P|194:146|219:151,1,52.5000020027161,8|0,0:0|0:0,0:0:0:0:
275,190,882,1,0,0:0:0:0:
275,190,1032,2,0,P|283:153|293:124,1,52.5000020027161,0|8,0:0|0:0,0:0:0:0:
482,165,1482,6,0,P|463:188|436:198,1,52.5000020027161,0|0,1:0|1:0,0:0:0:0:
399,260,1782,2,0,P|370:254|344:226,1,52.5000020027161,8|0,0:0|0:0,0:0:0:0:
273,230,2082,1,2,0:0:0:0:
273,230,2232,1,2,0:0:0:0:
273,230,2382,2,0,P|229:238|199:245,1,52.5000020027161,10|2,0:0|0:0,0:0:0:0:
146,250,2682,6,0,P|134:222|134:192,1,52.5000020027161,0|0,1:0|1:0,0:0:0:0:
51,199,2982,2,0,P|49:167|57:138,1,52.5000020027161,8|0,0:0|0:0,0:0:0:0:
163,131,3282,2,0,P|205:139|231:143,2,52.5000020027161,0|0|8,0:0|0:0|0:0,0:0:0:0:
372,224,3882,5,0,1:0:0:0:
372,224,4032,1,0,1:0:0:0:
372,224,4182,2,0,P|360:190|357:169,1,52.5000020027161,8|0,0:0|0:0,0:0:0:0:
428,138,4482,2,0,P|465:148|497:153,1,52.5000020027161,2|0,0:0|1:0,0:0:0:0:
506,227,4782,1,10,0:0:0:0:
355,247,5082,6,0,P|309:239|283:238,1,52.5000020027161,0|0,1:0|1:0,0:0:0:0:
262,172,5382,2,0,P|226:182|191:201,1,52.5000020027161,8|0,0:0|0:0,0:0:0:0:
131,174,5682,2,0,P|134:218|145:241,2,52.5000020027161,0|0|8,0:0|0:0|0:0,0:0:0:0:
14,244,6282,6,0,P|10:218|12:184,1,52.5000020027161,0|0,1:0|1:0,0:0:0:0:
49,128,6582,1,8,0:0:0:0:
49,128,6732,2,0,P|93:135|164:149,1,105.000004005432,0|2,0:0|1:0,0:0:0:0:
208,205,7182,2,0,P|243:193|268:189,1,52.5000020027161,10|2,0:0|0:0,0:0:0:0:
326,241,7482,5,0,1:0:0:0:
326,241,7632,1,0,1:0:0:0:
326,241,7782,2,0,P|348:206|342:176,1,52.5000020027161,8|0,0:0|0:0,0:0:0:0:
401,135,8082,2,0,P|434:150|467:154,1,52.5000020027161,0|0,0:0|1:0,0:0:0:0:
459,225,8382,1,8,0:0:0:0:
283,126,8682,1,0,1:0:0:0:
283,126,9282,2,0,P|281:90|283:64,1,52.5000020027161
218,235,9882,6,0,P|262:242|339:160,1,140,4|12,1:3|0:0,0:0:0:0:
367,109,10332,1,0,0:0:0:0:
367,109,10482,2,0,P|421:120|448:122,1,70,0|0,1:0|1:0,0:0:0:0:
426,205,10782,2,0,P|476:209|515:216,1,70,8|0,0:0|0:0,0:0:0:0:
495,212,11007,1,0,0:0:0:0:
495,212,11082,2,0,P|522:272|470:353,1,140,0|8,1:0|0:0,0:0:0:0:
404,354,11532,1,0,0:0:0:0:
404,354,11682,2,0,P|373:343|348:336,3,35,0|0|0|0,1:0|0:0|1:0|0:0,0:0:0:0:
301,374,11982,2,0,P|320:316|321:276,1,70,8|0,0:0|0:0,0:0:0:0:
269,246,12282,5,0,1:0:0:0:
269,246,12432,1,0,0:0:0:0:
207,279,12582,2,0,P|166:287|120:291,1,70,8|0,0:0|0:0,0:0:0:0:
129,204,12882,1,0,1:0:0:0:
129,204,13032,1,0,1:0:0:0:
204,180,13182,2,0,P|250:169|283:160,1,70,8|0,0:0|0:0,0:0:0:0:
333,85,13482,6,0,P|351:127|361:161,1,70,0|0,1:0|0:0,0:0:0:0:
432,149,13782,2,0,P|434:200|427:240,1,70,8|0,0:0|0:0,0:0:0:0:
505,264,14082,1,0,1:0:0:0:
511,263,14232,2,0,P|499:304|474:340,1,70,0|8,1:0|0:0,0:0:0:0:
401,369,14532,1,0,0:0:0:0:
401,369,14607,1,0,0:0:0:0:
401,369,14682,2,0,B|339:352|368:322|269:312,1,140,4|12,1:3|0:0,0:0:0:0:
292,228,15132,1,0,0:0:0:0:
292,228,15282,2,0,P|250:240|212:247,1,70,0|0,1:0|1:0,0:0:0:0:
154,298,15582,2,0,P|143:226|125:139,2,140,8|0|8,0:0|1:0|0:0,0:0:0:0:
73,290,16332,5,0,0:0:0:0:
73,290,16482,2,0,P|79:342|88:377,1,70,0|0,1:0|1:0,0:0:0:0:
166,373,16782,2,0,P|213:363|241:358,1,70,8|0,0:0|0:0,0:0:0:0:
319,368,17082,5,0,1:0:0:0:
316,374,17232,2,0,P|314:332|325:284,1,70,0|8,0:0|0:0,0:0:0:0:
406,296,17532,2,0,P|400:252|375:204,1,70,0|0,0:0|1:0,0:0:0:0:
392,146,17832,1,0,1:0:0:0:
392,146,17982,2,0,P|343:141|312:135,1,70,8|0,0:0|0:0,0:0:0:0:
271,60,18282,5,0,1:0:0:0:
271,60,18432,1,8,0:0:0:0:
194,12,18582,2,0,P|182:60|186:96,1,70,8|8,0:3|0:0,0:0:0:0:
109,120,18882,1,0,1:0:0:0:
109,120,19032,1,0,1:0:0:0:
31,64,19182,1,8,0:0:0:0:
31,64,19332,1,8,0:0:0:0:
30,163,19482,6,0,P|73:154|163:214,1,140,4|12,1:3|0:0,0:0:0:0:
237,143,19932,1,0,0:0:0:0:
240,148,20082,2,0,P|236:184|228:230,1,70,0|0,1:0|1:0,0:0:0:0:
315,231,20382,2,0,P|306:272|307:309,1,70,8|0,0:0|0:0,0:0:0:0:
376,348,20682,2,0,P|432:336|532:312,1,140,0|8,1:0|0:0,0:0:0:0:
472,242,21132,1,0,0:0:0:0:
472,242,21282,2,0,P|481:211|488:187,2,35,0|0|0,1:0|0:0|1:0,0:0:0:0:
391,195,21582,2,0,P|409:151|423:101,1,70,8|0,0:0|0:0,0:0:0:0:
374,47,21882,6,0,P|325:50|293:50,1,70,0|0,1:0|0:0,0:0:0:0:
235,7,22182,2,0,P|194:9|149:10,1,70,8|0,0:0|0:0,0:0:0:0:
100,55,22482,1,0,1:0:0:0:
100,55,22632,1,0,1:0:0:0:
38,112,22782,2,0,P|37:151|43:187,1,70,8|0,0:0|0:0,0:0:0:0:
119,193,23082,6,0,P|138:227|135:265,1,70,0|0,1:0|0:0,0:0:0:0:
208,319,23382,2,0,P|218:272|233:243,1,70,8|0,0:0|0:0,0:0:0:0:
278,190,23682,1,0,1:0:0:0:
278,190,23832,1,0,1:0:0:0:
334,254,23982,2,0,P|373:262|409:268,1,70,8|8,0:0|0:0,0:0:0:0:
402,268,24207,1,0,0:0:0:0:
402,268,24282,2,0,P|451:220|420:144,1,140,4|12,1:3|0:0,0:0:0:0:
443,67,24732,1,0,0:0:0:0:
443,67,24882,2,0,P|397:75|374:93,1,70,0|0,1:0|1:0,0:0:0:0:
311,39,25182,2,0,P|271:28|237:15,1,70,8|0,0:0|0:0,0:0:0:0:
244,19,25407,1,0,0:0:0:0:
244,19,25482,2,0,P|202:45|201:153,1,140,0|8,1:0|0:0,0:0:0:0:
121,181,25932,5,0,0:0:0:0:
121,190,26082,2,0,P|133:237|115:274,1,70,0|0,1:0|1:0,0:0:0:0:
172,336,26382,2,0,P|195:290|222:280,1,70,8|0,0:0|0:0,0:0:0:0:
282,271,26682,6,0,P|337:282|368:284,1,70,0|8,1:0|0:0,0:0:0:0:
431,311,26982,2,0,P|437:275|423:211,1,70,8|8,0:0|0:0,0:0:0:0:
433,241,27207,1,0,0:0:0:0:
433,241,27282,2,0,P|430:191|434:157,1,70,0|0,1:0|1:0,0:0:0:0:
354,134,27582,1,8,0:0:0:0:
354,134,27732,1,8,0:0:0:0:
309,57,27882,6,0,P|275:65|228:75,1,70,0|8,0:0|0:0,0:0:0:0:
156,40,28182,2,0,P|167:84|169:132,1,70,8|8,0:3|0:0,0:0:0:0:
90,104,28482,6,0,P|64:100|45:94,3,35,8|8|8|8,0:0|0:0|0:0|0:0,0:0:0:0:
26,125,28782,2,0,P|22:156|22:180,2,35,8|8|8,0:0|0:0|0:0,0:0:0:0:
20,241,29082,6,0,P|59:237|89:238,1,52.5000020027161,2|2,1:0|0:0,0:0:0:0:
114,176,29382,2,0,P|142:183|177:187,1,52.5000020027161,10|2,0:0|0:0,0:0:0:0:
226,230,29682,1,2,1:0:0:0:
226,230,29832,1,0,1:0:0:0:
293,190,29982,2,0,P|289:151|287:124,1,52.5000020027161,8|0,0:0|0:0,0:0:0:0:
371,130,30282,2,0,P|436:146|439:199,1,105.000004005432,2|10,1:0|0:0,0:0:0:0:
492,254,30732,2,0,P|422:252|365:245,1,105.000004005432,2|0,0:0|1:0,0:0:0:0:
311,237,31182,1,10,0:0:0:0:
178,255,31482,6,0,P|173:221|166:187,1,52.5000020027161,2|2,1:0|0:0,0:0:0:0:
92,226,31782,2,0,P|85:175|82:153,1,52.5000020027161,10|2,0:0|0:0,0:0:0:0:
150,125,32082,2,0,P|188:129|219:134,1,52.5000020027161,2|2,1:0|1:0,0:0:0:0:
257,193,32382,2,0,P|294:199|315:200,1,52.5000020027161,10|2,0:0|0:0,0:0:0:0:
377,253,32682,2,0,P|380:197|384:135,1,105.000004005432,2|8,1:0|0:0,0:0:0:0:
462,254,33282,6,0,P|464:209|467:190,2,52.5000020027161,2|2|10,1:0|1:0|0:0,0:0:0:0:
377,253,33732,1,2,0:0:0:0:
377,253,33882,2,0,P|322:243|260:236,1,105.000004005432,2|10,1:0|0:0,0:0:0:0:
196,252,34332,1,2,0:0:0:0:
196,252,34482,2,0,P|197:220|206:189,1,52.5000020027161,2|2,1:0|1:0,0:0:0:0:
134,129,34782,2,0,P|128:160|125:198,1,52.5000020027161,10|2,0:0|0:0,0:0:0:0:
98,252,35082,2,0,P|52:243|23:186,1,105.000004005432,0|8,1:0|0:0,0:0:0:0:
201,200,35682,6,0,P|236:208|266:212,1,52.5000020027161,2|2,1:0|1:0,0:0:0:0:
322,246,35982,2,0,P|328:205|334:183,1,52.5000020027161,8|0,0:0|0:0,0:0:0:0:
413,155,36282,1,2,1:0:0:0:
413,155,36432,2,0,P|407:189|406:215,1,52.5000020027161,2|10,0:0|0:0,0:0:0:0:
471,254,36732,2,0,P|501:247|536:247,1,52.5000020027161,2|2,0:0|1:0,0:0:0:0:
505,167,37032,1,2,1:0:0:0:
505,167,37182,1,10,0:0:0:0:
332,130,37482,6,0,P|289:141|269:144,1,52.5000020027161,0|8,1:0|0:0,0:0:0:0:
202,163,37782,1,0,1:0:0:0:
330,222,38082,1,0,1:0:0:0:
202,163,38382,2,0,P|156:175|140:178,1,52.5000020027161,4|8,0:0|0:0,0:0:0:0:
88,219,38682,6,0,P|148:226|209:235,1,105.000004005432,6|10,1:3|0:0,0:0:0:0:
274,254,39132,1,2,0:0:0:0:
274,254,39282,2,0,P|273:219|278:187,1,52.5000020027161,2|0,1:0|1:0,0:0:0:0:
353,130,39582,2,0,P|350:174|347:202,1,52.5000020027161,8|0,0:0|0:0,0:0:0:0:
419,254,39882,2,0,P|469:243|485:193,1,105.000004005432,2|10,1:0|0:0,0:0:0:0:
501,123,40332,2,0,P|448:128|426:137,1,52.5000020027161,2|0,0:0|1:0,0:0:0:0:
379,169,40632,1,2,1:0:0:0:
379,169,40782,1,10,0:0:0:0:
244,250,41082,6,0,P|208:254|176:251,1,52.5000020027161,2|2,1:0|0:0,0:0:0:0:
163,173,41382,2,0,P|142:181|106:179,1,52.5000020027161,10|2,0:0|0:0,0:0:0:0:
80,252,41682,1,2,1:0:0:0:
80,252,41832,1,2,1:0:0:0:
13,199,41982,2,0,P|1:162|-1:135,1,52.5000020027161,10|2,0:0|0:0,0:0:0:0:
74,130,42282,2,0,P|122:141|177:150,1,105.000004005432,0|8,1:0|0:0,0:0:0:0:
239,207,42732,1,0,0:0:0:0:
239,207,42882,2,0,P|248:165|250:151,2,52.5000020027161,0|0|8,1:0|1:0|0:0,0:0:0:0:
382,234,43482,6,0,P|419:221|435:217,1,52.5000020027161,2|2,1:0|0:0,0:0:0:0:
444,148,43782,2,0,P|487:154|506:160,1,52.5000020027161,10|2,0:0|0:0,0:0:0:0:
504,241,44082,1,2,1:0:0:0:
349,155,44382,2,0,P|310:166|289:172,1,52.5000020027161,8|2,0:0|0:0,0:0:0:0:
288,248,44682,2,0,P|241:250|190:215,1,105.000004005432,2|8,1:0|0:0,0:0:0:0:
108,256,45132,1,0,0:0:0:0:
108,256,45282,2,0,P|115:218|116:195,1,52.5000020027161,2|2,1:0|1:0,0:0:0:0:
42,182,45582,2,0,P|50:156|55:132,1,52.5000020027161,10|2,0:0|0:0,0:0:0:0:
135,127,45882,5,0,1:0:0:0:
135,127,46032,1,4,0:1:0:0:
206,171,46182,2,0,P|243:163|266:161,1,52.5000020027161,8|0,0:0|1:0,0:0:0:0:
326,204,46482,1,0,1:0:0:0:
480,126,46782,6,0,P|477:166|480:188,1,52.5000020027161,8|8,0:0|0:3,0:0:0:0:
407,201,47082,2,0,P|411:234|423:261,1,52.5000020027161,0|0,0:0|1:0,0:0:0:0:
500,260,47382,1,12,0:0:0:0:
340,142,47682,6,0,P|318:150|300:152,3,26.2500010013581,12|8|8|8,1:2|0:0|0:0|0:0,0:0:0:0:
275,196,47982,2,0,P|264:200|247:201,3,26.2500010013581,10|8|10|8,0:0|0:0|0:0|0:0,0:0:0:0:
203,258,48282,2,0,P|190:197|200:118,1,132.999996448517,6|12,1:3|0:0,0:0:0:0:
115,117,48732,2,0,P|113:166|108:193,1,66.4999982242585,2|0,0:0|0:0,0:0:0:0:
85,251,49032,1,2,1:0:0:0:
85,251,49182,2,0,P|41:242|7:239,1,66.4999982242585,10|2,0:0|0:0,0:0:0:0:
42,141,49482,2,0,P|114:158|178:167,1,132.999996448517,2|10,1:0|0:0,0:0:0:0:
216,229,49932,2,0,P|248:229|292:214,1,66.4999982242585,2|0,0:0|1:0,0:0:0:0:
365,247,50232,1,0,1:0:0:0:
365,247,50382,2,0,P|358:201|353:172,1,66.4999982242585,10|2,0:0|0:0,0:0:0:0:
413,135,50682,6,0,P|474:142|506:219,1,132.999996448517,2|8,1:0|0:0,0:0:0:0:
441,244,51132,2,0,P|396:254|360:259,1,66.4999982242585,2|0,0:0|0:0,0:0:0:0:
292,233,51432,1,2,1:0:0:0:
297,235,51582,2,0,P|239:243|201:255,1,66.4999982242585,10|2,0:0|0:0,0:0:0:0:
301,150,51882,6,0,P|221:164|160:169,1,132.999996448517,2|10,1:0|0:0,0:0:0:0:
117,233,52332,1,2,0:0:0:0:
117,233,52482,2,0,P|104:204|92:160,1,66.4999982242585,0|0,1:0|1:0,0:0:0:0:
27,121,52782,2,0,P|11:165|15:207,1,66.4999982242585,10|2,0:0|1:0,0:0:0:0:
36,256,53082,5,6,1:3:0:0:
185,189,53382,2,0,P|239:199|333:211,1,132.999996448517,14|2,0:0|1:0,0:0:0:0:
384,246,53832,1,2,1:0:0:0:
384,246,53982,2,0,P|394:215|384:176,1,66.4999982242585,10|0,0:0|0:0,0:0:0:0:
440,134,54282,2,0,P|508:151|519:222,1,132.999996448517,2|10,1:0|0:0,0:0:0:0:
468,261,54732,1,2,0:0:0:0:
297,186,55032,1,0,1:0:0:0:
297,186,55182,2,0,P|254:197|218:202,1,66.4999982242585,2|2,1:0|1:0,0:0:0:0:
186,258,55482,6,0,P|181:205|181:176,1,66.4999982242585,6|0,1:3|0:0,0:0:0:0:
104,254,55782,2,0,P|103:195|100:115,1,132.999996448517,14|0,0:0|1:0,0:0:0:0:
25,130,56232,1,0,1:0:0:0:
25,130,56382,2,0,P|26:171|24:209,1,66.4999982242585,8|0,0:0|0:0,0:0:0:0:
19,277,56682,1,0,1:0:0:0:
188,186,56982,2,0,P|229:194|272:200,1,66.4999982242585,8|0,0:0|0:0,0:0:0:0:
312,256,57282,2,0,P|363:242|401:237,1,66.4999982242585,0|0,1:0|1:0,0:0:0:0:
453,257,57582,1,10,0:0:0:0:
502,129,57882,6,0,P|456:135|421:147,1,66.4999982242585,2|0,1:0|0:0,0:0:0:0:
358,165,58182,1,10,0:0:0:0:
358,165,58332,1,2,0:0:0:0:
276,129,58482,1,2,1:0:0:0:
276,129,58632,1,10,0:0:0:0:
202,164,58782,2,0,P|161:160|127:146,1,66.4999982242585,2|2,0:0|1:0,0:0:0:0:
111,51,59082,5,12,1:2:0:0:
174,247,59382,2,0,P|168:297|171:393,1,132.999996448517,14|2,1:2|0:0,0:0:0:0:
170,380,59982,1,8,0:3:0:0:
298,319,60282,6,0,P|344:307|379:299,1,70,6|0,1:3|0:0,0:0:0:0:
436,345,60582,2,0,P|458:309|422:222,1,140,12|2,0:0|1:0,0:0:0:0:
342,209,61032,1,0,1:0:0:0:
342,209,61182,2,0,P|320:169|332:118,1,70,8|0,0:0|0:0,0:0:0:0:
370,84,61482,2,0,P|425:95|454:94,1,70,2|0,1:0|0:0,0:0:0:0:
431,9,61782,2,0,P|475:22|504:23,1,70,8|0,0:0|0:0,0:0:0:0:
498,151,62082,1,2,1:0:0:0:
498,151,62232,1,0,1:0:0:0:
477,231,62382,2,0,P|432:215|385:205,1,70,10|0,0:0|0:0,0:0:0:0:
341,152,62682,5,2,1:0:0:0:
265,0,62982,2,0,B|288:73|228:66|264:160,1,140,10|0,0:0|1:0,0:0:0:0:
229,218,63432,1,0,1:0:0:0:
229,218,63582,2,0,P|183:185|177:158,1,70,8|0,0:0|0:0,0:0:0:0:
58,279,63882,2,0,P|110:245|142:241,1,70,0|0,1:0|0:0,0:0:0:0:
194,303,64182,2,0,P|270:313|339:335,1,140,10|2,0:0|1:0,0:0:0:0:
363,257,64632,1,0,1:0:0:0:
363,257,64782,2,0,P|358:210|362:187,1,70,10|0,0:0|1:0,0:0:0:0:
411,86,65082,6,0,P|369:134|279:137,1,140,6|12,1:3|0:0,0:0:0:0:
230,183,65532,1,0,0:0:0:0:
235,183,65682,2,0,P|218:158|221:117,1,70,2|0,1:0|1:0,0:0:0:0:
141,79,65982,2,0,P|165:52|208:40,1,70,8|0,0:0|1:0,0:0:0:0:
311,10,66282,6,0,P|384:23|465:37,1,140,2|10,1:0|0:0,0:0:0:0:
359,104,66732,1,0,0:0:0:0:
359,104,66882,2,0,P|403:107|443:120,1,70,2|0,1:0|1:0,0:0:0:0:
503,97,67182,2,0,P|523:146|514:170,1,70,10|0,0:0|0:0,0:0:0:0:
442,201,67482,6,0,P|389:212|363:223,1,70,2|0,1:0|0:0,0:0:0:0:
307,166,67782,2,0,P|256:185|234:200,1,70,10|0,0:0|0:0,0:0:0:0:
213,267,68082,1,2,1:0:0:0:
213,267,68232,1,0,1:0:0:0:
170,184,68382,2,0,P|160:141|157:105,1,70,10|0,0:0|0:0,0:0:0:0:
116,47,68682,6,0,P|72:67|20:75,1,70,2|8,1:0|0:0,0:0:0:0:
17,214,68982,2,0,P|40:173|77:150,1,70,0|8,1:0|0:0,0:0:0:0:
57,159,69207,1,8,0:0:0:0:
57,159,69282,2,0,P|71:195|77:217,2,35,0|0|8,1:0|0:0|0:0,0:0:0:0:
70,281,69582,5,8,0:0:0:0:
70,281,69657,1,8,0:0:0:0:
70,281,69732,1,8,0:0:0:0:
70,281,69807,1,8,0:0:0:0:
70,281,69882,2,0,B|150:291|115:351|207:344,1,140,6|12,1:3|0:0,0:0:0:0:
272,373,70332,1,0,0:0:0:0:
277,370,70482,2,0,P|267:306|263:281,1,70,2|0,1:0|1:0,0:0:0:0:
351,282,70782,2,0,P|335:231|330:198,1,70,8|0,0:0|0:0,0:0:0:0:
370,99,71082,6,0,P|422:98|467:174,1,140,2|8,1:0|0:0,0:0:0:0:
392,195,71532,1,0,0:0:0:0:
392,195,71682,2,0,P|331:185|305:182,1,70,2|0,1:0|1:0,0:0:0:0:
286,117,71982,2,0,P|195:130|136:160,2,140,10|2|10,0:0|1:0|0:0,0:0:0:0:
360,80,72732,1,0,0:0:0:0:
360,80,72882,2,0,P|349:30|348:3,1,70,0|0,1:0|1:0,0:0:0:0:
444,55,73182,2,0,P|435:113|427:200,1,140,10|0,0:0|1:0,0:0:0:0:
291,318,73782,6,0,P|245:314|214:313,1,70,10|0,0:0|0:0,0:0:0:0:
145,360,74082,1,2,1:0:0:0:
145,360,74232,1,0,1:0:0:0:
86,295,74382,2,0,P|83:247|83:220,1,70,10|0,0:0|1:0,0:0:0:0:
82,225,74607,1,0,1:0:0:0:
82,225,74682,2,0,B|169:207|148:258|237:224,1,140,2|8,1:0|0:0,0:0:0:0:
310,246,75132,1,0,0:0:0:0:
315,246,75282,2,0,P|301:191|297:166,1,70,2|0,1:0|1:0,0:0:0:0:
232,137,75582,2,0,P|230:98|227:52,1,70,10|0,0:0|0:0,0:0:0:0:
164,16,75882,2,0,P|101:28|82:103,1,140,2|10,1:0|0:0,0:0:0:0:
13,190,76332,1,0,0:0:0:0:
13,190,76482,2,0,P|83:170|122:230,1,140,2|10,1:0|0:0,0:0:0:0:
118,303,76932,5,0,0:0:0:0:
118,303,77007,1,0,0:0:0:0:
118,303,77082,2,0,P|159:294|189:288,1,70,0|0,1:0|0:0,0:0:0:0:
225,201,77382,2,0,P|302:212|366:221,1,140,8|0,0:0|1:0,0:0:0:0:
400,288,77832,1,0,1:0:0:0:
400,288,77982,2,0,P|445:271|469:258,1,70,10|0,0:0|0:0,0:0:0:0:
486,163,78282,6,0,P|480:110|465:18,1,140,0|10,1:0|0:0,0:0:0:0:
386,60,78732,1,0,0:0:0:0:
386,60,78882,2,0,P|374:102|371:138,1,70,2|0,1:0|0:0,0:0:0:0:
317,185,79182,1,10,0:0:0:0:
235,124,79332,1,0,1:0:0:0:
235,124,79407,1,0,0:0:0:0:
235,124,79482,2,0,P|281:109|304:102,1,70,2|0,1:0|0:0,0:0:0:0:
219,34,79782,6,0,P|177:21|139:15,1,70,8|0,0:0|0:0,0:0:0:0:
64,28,80082,1,10,0:0:0:0:
64,28,80232,1,0,1:0:0:0:
126,102,80382,1,10,0:0:0:0:
126,102,80532,1,0,0:0:0:0:
57,165,80682,5,10,1:0:0:0:
492,143,101082,6,0,P|453:147|423:146,1,52.5000020027161,6|2,1:3|0:0,0:0:0:0:
481,225,101382,2,0,P|453:232|418:236,1,52.5000020027161,10|2,0:0|0:0,0:0:0:0:
359,170,101682,1,2,1:0:0:0:
359,170,101832,1,0,1:0:0:0:
284,192,101982,2,0,P|288:231|290:258,1,52.5000020027161,8|0,0:0|0:0,0:0:0:0:
211,248,102282,2,0,P|146:232|143:179,1,105.000004005432,2|10,1:0|0:0,0:0:0:0:
167,125,102732,2,0,P|97:127|40:134,1,105.000004005432,2|0,0:0|1:0,0:0:0:0:
31,210,103182,1,8,0:0:0:0:
211,248,103482,6,0,P|216:214|223:180,1,52.5000020027161,2|2,1:0|0:0,0:0:0:0:
248,123,103782,2,0,P|299:130|321:133,1,52.5000020027161,10|2,0:0|0:0,0:0:0:0:
363,244,104232,1,2,1:0:0:0:
363,244,104382,2,0,P|400:250|421:251,1,52.5000020027161,10|2,0:0|0:0,0:0:0:0:
492,253,104682,2,0,P|489:197|485:135,1,105.000004005432,2|8,1:0|0:0,0:0:0:0:
314,125,105282,6,0,P|312:170|309:189,2,52.5000020027161,2|2|10,1:0|1:0|0:0,0:0:0:0:
250,253,105732,1,0,0:0:0:0:
250,253,105807,1,2,0:0:0:0:
250,253,105882,2,0,P|240:198|233:136,1,105.000004005432,2|10,1:0|0:0,0:0:0:0:
152,148,106332,1,2,0:0:0:0:
152,148,106482,2,0,P|153:180|162:211,1,52.5000020027161,2|2,1:0|1:0,0:0:0:0:
83,233,106782,1,10,0:0:0:0:
83,233,106932,2,0,P|21:242|9:245,1,52.5000020027161,0|2,0:0|1:0,0:0:0:0:
244,256,107382,1,8,0:0:0:0:
244,256,107532,2,0,P|291:247|312:247,2,52.5000020027161,0|2|2,0:0|1:0|1:0,0:0:0:0:
293,170,107982,5,8,0:0:0:0:
503,248,108282,1,2,1:0:0:0:
503,248,108432,2,0,P|509:214|510:188,1,52.5000020027161,2|10,0:0|0:0,0:0:0:0:
445,149,108732,2,0,P|415:156|380:156,1,52.5000020027161,2|2,0:0|1:0,0:0:0:0:
411,236,109032,1,2,1:0:0:0:
411,236,109182,1,10,0:0:0:0:
187,255,109482,6,0,P|198:212|201:192,1,52.5000020027161,0|8,1:0|0:0,0:0:0:0:
222,134,109782,1,0,1:0:0:0:
139,147,109932,1,8,1:3:0:0:
139,147,110007,1,0,1:0:0:0:
139,147,110082,2,0,P|99:157|76:160,1,52.5000020027161,8|8,0:3|0:3,0:0:0:0:
15,192,110382,1,8,0:3:0:0:
301,203,110682,6,0,P|361:210|422:219,1,105.000004005432,6|14,1:3|0:0,0:0:0:0:
487,238,111132,1,2,0:0:0:0:
487,238,111282,2,0,P|486:203|491:171,1,52.5000020027161,2|0,1:0|1:0,0:0:0:0:
405,167,111582,2,0,P|406:194|408:220,1,52.5000020027161,8|0,0:0|0:0,0:0:0:0:
335,246,111882,1,2,1:0:0:0:
335,246,112032,2,0,P|292:253|266:258,1,52.5000020027161,2|8,0:0|0:0,0:0:0:0:
237,194,112332,2,0,P|184:189|162:180,1,52.5000020027161,2|0,0:0|1:0,0:0:0:0:
139,250,112632,1,2,1:0:0:0:
139,250,112782,1,10,0:0:0:0:
58,133,113082,6,0,P|94:137|126:134,1,52.5000020027161,2|2,1:0|0:0,0:0:0:0:
185,189,113382,2,0,P|193:168|191:132,1,52.5000020027161,10|2,0:0|0:0,0:0:0:0:
282,137,113682,1,2,1:0:0:0:
282,137,113832,1,2,1:0:0:0:
357,153,113982,2,0,P|394:165|421:167,1,52.5000020027161,10|2,0:0|0:0,0:0:0:0:
438,254,114282,2,0,P|390:243|335:234,1,105.000004005432,2|8,1:0|0:0,0:0:0:0:
273,177,114732,1,0,0:0:0:0:
273,177,114882,2,0,P|264:219|262:233,2,52.5000020027161,2|2|10,1:0|1:0|0:0,0:0:0:0:
129,190,115482,6,0,P|116:153|112:137,1,52.5000020027161,2|2,1:0|0:0,0:0:0:0:
61,216,115782,2,0,P|18:210|-1:204,1,52.5000020027161,10|0,0:0|0:0,0:0:0:0:
36,133,116082,1,2,1:0:0:0:
155,224,116382,2,0,P|194:213|215:207,1,52.5000020027161,8|2,0:0|0:0,0:0:0:0:
224,136,116682,2,0,P|271:134|322:169,1,105.000004005432,2|10,1:0|0:0,0:0:0:0:
404,128,117132,1,2,0:0:0:0:
404,128,117282,2,0,P|397:166|396:189,1,52.5000020027161,2|0,1:0|1:0,0:0:0:0:
481,259,117582,2,0,P|473:233|468:209,1,52.5000020027161,10|2,0:0|0:0,0:0:0:0:
377,257,117882,5,0,1:0:0:0:
266,188,118182,1,8,0:0:0:0:
266,188,118332,1,0,1:0:0:0:
203,238,118482,2,0,P|150:244|82:232,1,105.000004005432,8|8,0:0|0:0,0:0:0:0:
21,250,118932,1,8,0:3:0:0:
21,250,119082,2,0,P|28:212|29:188,1,52.5000020027161,0|0,0:0|1:0,0:0:0:0:
95,151,119382,2,0,P|133:158|161:164,1,52.5000020027161,12|0,0:0|0:0,0:0:0:0:
199,225,119682,6,0,P|221:217|239:215,3,26.2500010013581,0|0|0|0,1:0|0:0|1:0|0:0,0:0:0:0:
250,175,119982,2,0,P|261:171|278:170,3,26.2500010013581,8|8|8|8,0:0|0:0|0:0|0:0,0:0:0:0:
296,135,120282,2,0,P|309:196|299:275,1,132.999996448517,6|8,1:3|0:0,0:0:0:0:
397,267,120732,2,0,P|399:218|404:191,1,66.4999982242585,2|0,0:0|0:0,0:0:0:0:
427,133,121032,1,2,1:0:0:0:
427,133,121182,2,0,P|383:124|349:121,1,66.4999982242585,10|2,0:0|0:0,0:0:0:0:
296,155,121482,2,0,P|224:172|160:181,1,132.999996448517,2|10,1:0|0:0,0:0:0:0:
86,211,121932,2,0,P|86:179|71:135,1,66.4999982242585,2|0,0:0|1:0,0:0:0:0:
157,115,122232,1,0,1:0:0:0:
157,115,122382,2,0,P|159:159|169:190,1,66.4999982242585,10|2,0:0|0:0,0:0:0:0:
253,246,122682,6,0,B|326:266|305:229|386:249,1,132.999996448517,2|8,1:0|0:0,0:0:0:0:
358,163,123132,2,0,P|391:166|423:172,1,66.4999982242585,2|0,3:0|3:0,3:0:0:0:
487,238,123432,1,0,1:0:0:0:
487,238,123582,1,2,1:2:0:0:
245,153,123882,5,2,1:2:0:0:
245,153,124032,2,0,P|199:165|157:169,1,66.4999982242585,0|8,1:0|0:0,0:0:0:0:
88,240,124332,1,2,0:0:0:0:
88,240,124482,2,0,P|101:211|113:167,1,66.4999982242585,4|0,1:3|1:0,0:0:0:0:
37,117,124782,2,0,P|21:161|25:203,1,66.4999982242585,10|2,0:0|0:0,0:0:0:0:
172,251,125082,5,6,1:3:0:0:
327,195,125382,2,0,P|273:185|179:173,1,132.999996448517,12|0,0:0|1:0,0:0:0:0:
128,138,125832,1,2,1:0:0:0:
128,138,125982,2,0,P|118:169|128:208,1,66.4999982242585,8|2,0:0|0:0,0:0:0:0:
72,250,126282,2,0,P|4:233|-7:162,1,132.999996448517,2|10,1:0|0:0,0:0:0:0:
44,123,126732,1,2,0:0:0:0:
215,198,127032,1,2,1:0:0:0:
215,198,127182,2,0,P|258:187|294:182,1,66.4999982242585,0|2,1:0|1:0,0:0:0:0:
354,115,127482,6,0,P|359:168|359:197,1,66.4999982242585,6|0,1:3|0:0,0:0:0:0:
452,123,127782,2,0,P|453:182|456:262,1,132.999996448517,14|0,0:0|1:0,0:0:0:0:
374,263,128232,1,0,1:0:0:0:
374,263,128382,2,0,P|333:264|295:262,1,66.4999982242585,10|0,0:0|0:0,0:0:0:0:
223,255,128682,1,2,1:0:0:0:
31,236,128982,2,0,P|63:230|96:224,1,66.4999982242585,10|2,0:0|0:0,0:0:0:0:
200,128,129282,2,0,P|149:142|111:147,1,66.4999982242585,8|0,0:0|1:0,0:0:0:0:
59,127,129582,1,10,1:0:0:0:
59,127,129657,1,0,0:0:0:0:
59,127,129732,1,2,1:0:0:0:
110,55,129882,5,10,1:0:0:0:
110,55,130782,1,2,1:0:0:0:
196,6,130932,2,0,P|190:47|184:84,1,66.4999982242585,10|0,0:0|0:0,0:0:0:0:
262,113,131232,5,2,0:0:0:0:
262,113,131382,2,0,P|253:152|249:184,1,66.4999982242585,2|2,0:0|0:0,0:0:0:0:
315,211,131682,2,0,P|306:254|299:292,1,66.4999982242585,2|2,0:0|0:0,0:0:0:0:
376,306,131982,2,0,P|360:361|358:391,1,66.4999982242585,2|2,0:0|0:0,0:0:0:0:
223,318,132282,6,0,P|186:324|155:334,1,66.4999982242585,6|0,1:3|0:0,0:0:0:0:
64,342,132582,2,0,P|37:329|37:238,1,132.999996448517,12|2,0:0|1:0,0:0:0:0:
42,160,133032,1,0,1:0:0:0:
42,160,133182,2,0,P|93:171|109:189,1,66.4999982242585,8|0,0:0|0:0,0:0:0:0:
188,152,133482,2,0,P|254:167|329:169,1,132.999996448517,2|8,1:0|0:0,0:0:0:0:
373,237,133932,1,0,0:0:0:0:
373,237,134082,2,0,P|398:206|395:170,1,66.4999982242585,2|0,1:0|1:0,0:0:0:0:
382,95,134382,1,10,0:0:0:0:
481,204,134682,6,0,P|474:263|475:285,1,66.4999982242585,2|0,1:0|0:0,0:0:0:0:
511,355,134982,2,0,P|494:328|382:337,1,132.999996448517,10|0,0:0|1:0,0:0:0:0:
328,360,135432,1,0,1:0:0:0:
328,360,135582,2,0,P|275:377|249:369,1,66.4999982242585,8|0,0:0|0:0,0:0:0:0:
205,317,135882,6,0,P|196:266|194:221,1,66.4999982242585,0|0,1:0|0:0,0:0:0:0:
124,227,136182,2,0,P|125:194|134:158,1,66.4999982242585,10|0,0:0|0:0,0:0:0:0:
83,106,136482,1,2,1:0:0:0:
83,106,136632,1,0,1:0:0:0:
153,57,136782,2,0,P|191:67|222:71,1,66.4999982242585,10|0,0:0|0:0,0:0:0:0:
237,149,137082,6,0,P|299:142|334:65,1,132.999996448517,6|12,1:3|0:0,0:0:0:0:
388,24,137532,1,0,0:0:0:0:
388,24,137682,2,0,P|465:40|477:100,1,132.999996448517,2|8,1:0|0:0,0:0:0:0:
443,163,138132,1,0,0:0:0:0:
443,163,138207,1,0,0:0:0:0:
443,163,138282,2,0,P|446:200|453:235,1,66.4999982242585,2|0,1:0|0:0,0:0:0:0:
511,304,138582,1,10,0:0:0:0:
374,242,138882,2,0,P|325:252|294:260,1,66.4999982242585,2|0,1:0|1:0,0:0:0:0:
291,331,139182,2,0,P|231:325|212:325,1,66.4999982242585,10|0,0:0|0:0,0:0:0:0:
139,358,139482,6,0,P|122:325|160:235,1,132.999996448517,2|10,1:0|0:0,0:0:0:0:
219,193,139932,1,0,0:0:0:0:
225,193,140082,2,0,P|276:154|264:73,1,132.999996448517,2|10,1:0|0:0,0:0:0:0:
212,41,140532,1,0,0:0:0:0:
212,41,140682,2,0,P|169:52|137:55,1,66.4999982242585,2|8,1:0|0:0,0:0:0:0:
63,80,140982,2,0,P|72:106|74:131,3,33.2499991121292,2|0|8|8,1:0|0:0|0:0|0:0,0:0:0:0:
123,141,141282,2,0,P|121:169|111:197,3,33.2499991121292,2|0|8|8,1:0|0:0|0:0|0:0,0:0:0:0:
93,228,141582,5,2,0:0:0:0:
93,228,141657,1,8,0:0:0:0:
93,228,141732,1,8,0:0:0:0:
93,228,141807,1,8,0:0:0:0:
93,228,141882,2,0,P|165:236|185:240,1,66.4999982242585,6|0,1:3|0:0,0:0:0:0:
180,318,142182,2,0,P|245:292|322:279,1,132.999996448517,12|2,0:0|1:0,0:0:0:0:
382,332,142632,1,0,1:0:0:0:
382,332,142782,2,0,P|396:302|386:263,1,66.4999982242585,8|0,0:0|0:0,0:0:0:0:
338,182,143082,2,0,P|397:223|471:214,1,132.999996448517,2|8,1:0|0:0,0:0:0:0:
327,79,143682,6,0,P|282:81|238:92,1,66.4999982242585,2|0,1:0|1:0,0:0:0:0:
202,141,143982,2,0,P|188:99|186:55,1,66.4999982242585,10|0,0:0|0:0,0:0:0:0:
171,9,144282,1,2,1:0:0:0:
123,169,144582,2,0,P|125:239|151:310,1,132.999996448517,10|0,0:0|1:0,0:0:0:0:
162,370,145032,1,0,1:0:0:0:
162,370,145182,2,0,P|110:369|84:361,1,66.4999982242585,10|0,0:0|0:0,0:0:0:0:
47,298,145482,6,0,P|120:270|194:271,1,132.999996448517,0|10,1:0|0:0,0:0:0:0:
243,315,145932,1,0,0:0:0:0:
243,315,146082,2,0,P|282:324|311:320,1,66.4999982242585,2|0,1:0|1:0,0:0:0:0:
379,352,146382,2,0,P|405:309|401:285,1,66.4999982242585,10|0,0:0|0:0,0:0:0:0:
340,232,146682,6,0,P|314:190|356:104,1,132.999996448517,6|12,1:3|0:0,0:0:0:0:
303,38,147132,1,0,0:0:0:0:
303,38,147282,2,0,P|360:40|390:29,1,66.4999982242585,2|0,1:0|1:0,0:0:0:0:
438,10,147582,2,0,P|455:47|453:83,1,66.4999982242585,10|0,0:0|0:0,0:0:0:0:
504,135,147882,2,0,P|490:196|418:200,1,132.999996448517,2|10,1:0|0:0,0:0:0:0:
397,281,148332,1,0,0:0:0:0:
397,281,148482,2,0,P|352:272|306:273,1,66.4999982242585,2|0,1:0|1:0,0:0:0:0:
270,308,148782,2,0,P|260:273|259:242,1,66.4999982242585,10|0,0:0|0:0,0:0:0:0:
194,204,149082,6,0,P|209:143|216:69,2,132.999996448517,0|8|0,1:0|0:0|1:0,0:0:0:0:
173,280,149832,1,0,1:0:0:0:
173,280,149982,2,0,P|130:272|79:265,1,66.4999982242585,10|0,0:0|0:0,0:0:0:0:
22,214,150282,2,0,P|73:196|93:192,1,66.4999982242585,0|0,1:0|0:0,0:0:0:0:
120,121,150582,1,10,0:0:0:0:
274,176,150882,2,0,P|326:180|354:186,1,66.4999982242585,6|0,0:0|0:0,0:0:0:0:
413,234,151182,1,10,0:0:0:0:
413,234,151257,1,8,0:0:0:0:
413,234,151332,1,8,0:0:0:0:
413,234,151407,1,8,0:0:0:0:
413,234,151482,2,0,P|429:196|416:158,1,66.4999982242585,6|0,1:3|0:0,0:0:0:0:
476,108,151782,1,12,0:0:0:0:
476,108,151932,1,0,0:0:0:0:
406,51,152082,5,10,0:0:0:0:
406,51,152232,1,0,1:0:0:0:
335,113,152382,1,10,0:0:0:0:
335,113,152532,1,0,1:0:0:0:
250,59,152682,1,10,1:0:0:0:
21,219,173082,6,0,P|74:212|119:209,1,83.9999974365235,2|10,1:0|0:0,0:0:0:0:
257,246,173682,2,0,L|252:203,1,41.9999987182618,2|2,0:0|1:0,0:0:0:0:
328,191,173982,2,0,P|322:158|317:138,1,41.9999987182618,0|2,0:0|0:0,0:0:0:0:
395,131,174282,2,0,P|446:151|483:182,1,83.9999974365235,2|10,1:0|0:0,0:0:0:0:
460,246,174732,1,2,0:0:0:0:
345,202,175032,1,2,1:0:0:0:
345,202,175182,2,0,P|307:194|286:191,1,41.9999987182618,10|2,0:0|0:0,0:0:0:0:
248,137,175482,2,0,P|235:180|231:232,1,83.9999974365235,2|8,1:0|0:0,0:0:0:0:
152,243,175932,1,2,0:0:0:0:
152,243,176082,2,0,P|142:210|140:149,1,83.9999974365235,2|10,0:0|0:0,0:0:0:0:
11,222,176682,6,0,P|43:216|59:214,1,41.9999987182618,2|0,1:0|0:0,0:0:0:0:
48,143,176982,2,0,P|89:138|135:133,1,83.9999974365235,8|2,0:0|0:0,0:0:0:0:
211,148,177432,1,0,0:0:0:0:
211,148,177582,2,0,P|247:153|267:155,1,41.9999987182618,8|0,0:0|0:0,0:0:0:0:
335,182,177882,6,0,P|328:211|326:236,1,41.9999987182618,2|2,1:0|0:0,0:0:0:0:
402,236,178182,2,0,P|409:205|415:190,1,41.9999987182618,8|2,0:0|0:0,0:0:0:0:
489,216,178482,1,2,0:0:0:0:
432,120,178782,5,10,0:0:0:0:
432,120,178932,2,0,P|370:137|343:143,1,83.9999974365235,2|2,0:0|1:0,0:0:0:0:
282,175,179382,2,0,P|271:151|267:126,2,41.9999987182618,10|2|2,0:0|0:0|0:0,0:0:0:0:
226,241,179832,1,0,0:0:0:0:
226,241,179982,2,0,P|199:237|184:234,1,41.9999987182618,10|2,0:0|0:0,0:0:0:0:
107,253,180282,6,0,P|102:224|104:158,1,83.9999974365235,0|8,0:0|0:0,0:0:0:0:
30,135,180732,1,0,0:0:0:0:
30,135,180882,2,0,P|25:189|22:226,1,83.9999974365235,0|8,0:0|0:0,0:0:0:0:
191,196,181482,6,0,P|221:191|246:188,1,41.9999987182618,0|0,1:0|1:0,0:0:0:0:
296,238,181782,1,8,0:0:0:0:
296,238,181932,2,0,P|313:208|330:197,1,41.9999987182618
377,144,182232,1,0,1:0:0:0:
377,149,182382,2,0,P|381:201|389:245,1,83.9999974365235,8|2,0:0|1:0,0:0:0:0:
500,160,182982,6,0,P|458:158|454:158,1,41.9999987182618,10|2,0:0|0:0,0:0:0:0:
459,242,183282,2,0,P|431:240|403:236,1,41.9999987182618,2|2,0:0|1:0,0:0:0:0:
355,191,183582,1,10,0:0:0:0:
355,191,183732,2,0,P|304:200|265:210,1,83.9999974365235,2|2,0:0|1:0,0:0:0:0:
208,161,184182,2,0,P|176:169|155:175,1,41.9999987182618,10|2,0:0|0:0,0:0:0:0:
139,246,184482,2,0,P|111:253|91:255,1,41.9999987182618,10|0,0:0|1:0,0:0:0:0:
34,195,184782,1,10,0:0:0:0:
34,195,184932,1,10,0:3:0:0:
34,195,185082,2,0,P|183:211|371:230,1,336,0|0,1:2|0:0,0:0:0:0:
131,239,189882,6,0,P|127:209|125:163,1,70,2|0,0:0|0:0,0:0:0:0:
278,143,190482,1,2,1:0:0:0:
278,143,190782,2,0,P|277:169|281:204,1,46.6666666666667
286,221,191082,2,0,P|336:218|366:218,1,70,2|0,0:0|0:0,0:0:0:0:
475,134,191682,1,2,1:0:0:0:
475,134,191982,2,0,P|474:160|477:184,1,46.6666666666667,2|0,0:0|0:0,0:0:0:0:
498,219,192282,5,2,0:0:0:0:
360,215,192582,2,0,P|354:167|354:130,1,70,2|0,0:0|1:0,0:0:0:0:
221,140,193182,2,0,P|225:166|229:208,1,46.6666666666667
229,240,193482,1,0,0:0:0:0:
229,240,193782,2,0,P|199:247|186:251,1,35,2|0,0:0|0:0,0:0:0:0:
101,255,194082,1,2,1:0:0:0:
101,255,194382,2,0,P|89:234|82:204,1,46.6666666666667,2|0,0:0|0:0,0:0:0:0:
45,209,194682,2,0,P|54:168|59:129,1,70,2|0,0:0|0:0,0:0:0:0:
275,207,195282,1,2,1:0:0:0:
275,207,195582,2,0,P|302:200|329:198,1,46.6666666666667
360,221,195882,6,0,P|405:230|433:236,1,70,2|0,0:0|0:0,0:0:0:0:
503,132,196482,1,2,1:0:0:0:
503,132,196782,2,0,P|476:129|443:122,1,46.6666666666667,2|0,0:0|0:0,0:0:0:0:
411,110,197082,6,0,P|405:175|404:196,1,70,2|2,0:0|0:0,0:0:0:0:
268,230,197682,1,2,1:0:0:0:
268,230,197982,2,0,P|274:207|276:163,1,46.6666666666667,0|2,0:0|0:0,0:0:0:0:
276,144,198282,5,2,0:0:0:0:
276,144,198582,2,0,P|223:142|198:137,1,70,2|2,0:0|1:0,0:0:0:0:
50,226,199182,1,2,0:0:0:0:
50,226,199482,2,0,P|45:190|40:180,2,35,2|0|0,0:0|0:0|0:0,0:0:0:0:
168,254,200082,1,2,1:0:0:0:
168,254,200382,2,0,P|160:232|160:202,1,46.6666666666667
198,176,200682,2,0,P|237:192|280:197,1,70,2|0,0:0|0:0,0:0:0:0:
440,250,201282,1,2,1:0:0:0:
440,250,201582,2,0,P|459:247|490:234,1,46.6666666666667,2|0,0:0|0:0,0:0:0:0:
511,178,201882,2,0,P|489:139|458:138,1,70,2|2,0:0|0:0,0:0:0:0:
336,153,202482,1,0,1:0:0:0:
336,153,202782,2,0,P|317:173|308:194,1,46.6666666666667,2|0,0:0|0:0,0:0:0:0:
262,206,203082,6,0,P|247:178|238:135,1,70,0|2,0:0|0:0,0:0:0:0:
141,131,203682,2,0,P|120:175|110:206,1,70,2|2,1:0|0:0,0:0:0:0:
4,260,204282,1,2,0:0:0:0:
242,24,209082,6,0,P|248:67|253:100,1,70,6|0,1:3|0:0,0:0:0:0:
314,148,209382,2,0,P|356:144|395:55,1,140,12|2,0:0|1:0,0:0:0:0:
480,84,209832,1,0,1:0:0:0:
480,84,209982,2,0,P|498:125|495:161,1,70,8|0,0:0|0:0,0:0:0:0:
497,149,210207,1,0,0:0:0:0:
497,149,210282,2,0,P|488:211|488:306,1,140,2|8,1:0|0:0,0:0:0:0:
397,215,210732,1,0,0:0:0:0:
397,215,210882,2,0,P|397:265|392:302,1,70,2|0,1:0|1:0,0:0:0:0:
312,257,211182,2,0,P|303:300|302:344,1,70,10|0,0:0|0:0,0:0:0:0:
191,363,211482,6,0,P|183:332|171:291,1,70,2|0,1:0|0:0,0:0:0:0:
219,217,211782,2,0,P|172:257|82:249,1,140,10|0,0:0|1:0,0:0:0:0:
36,189,212232,1,0,1:0:0:0:
36,189,212382,2,0,P|87:180|127:174,1,70,8|0,0:0|0:0,0:0:0:0:
90,94,212682,2,0,P|148:109|227:122,1,140,0|10,1:0|0:0,0:0:0:0:
302,172,213132,1,0,0:0:0:0:
302,172,213282,2,0,P|314:136|316:102,1,70,2|0,1:0|1:0,0:0:0:0:
391,125,213582,2,0,P|396:85|409:47,1,70,10|0,0:0|0:0,0:0:0:0:
466,158,213882,6,0,P|473:209|481:314,1,140,6|12,1:3|0:0,0:0:0:0:
425,363,214332,1,0,0:0:0:0:
425,363,214482,2,0,P|396:306|363:227,1,140,2|8,1:0|0:0,0:0:0:0:
217,256,214932,1,0,0:0:0:0:
217,256,215082,2,0,P|261:278|301:298,1,70,2|0,1:0|0:0,0:0:0:0:
199,351,215382,2,0,P|146:358|100:370,1,70,10|0,0:0|0:0,0:0:0:0:
124,274,215682,2,0,P|120:233|115:200,1,70,2|0,1:0|1:0,0:0:0:0:
20,217,215982,2,0,P|37:173|45:141,1,70,10|0,0:0|0:0,0:0:0:0:
75,73,216282,5,10,0:0:0:0:
156,124,216432,1,8,0:0:0:0:
156,124,216507,1,8,0:0:0:0:
156,124,216582,2,0,P|180:116|202:112,3,35,2|0|8|8,1:0|0:0|0:0|0:0,0:0:0:0:
218,63,216882,2,0,P|244:69|269:76,3,35,2|0|8|8,1:0|0:0|0:0|0:0,0:0:0:0:
291,41,217182,2,0,P|304:56|320:85,2,35,2|8|8,1:0|0:0|0:0,0:0:0:0:
388,74,217482,2,0,P|377:125|370:164,1,70,10|0,1:0|1:0,0:0:0:0:
299,173,217782,1,10,0:0:0:0:
299,173,217857,1,0,0:0:0:0:
299,173,217932,1,0,1:0:0:0:
368,224,218082,2,0,P|394:220|416:218,2,35,10|0|8,0:0|0:0|0:0,0:0:0:0:
319,295,218382,5,10,0:0:0:0:
319,295,218457,1,8,0:0:0:0:
319,295,218532,1,8,0:0:0:0:
319,295,218607,1,8,0:0:0:0:
319,295,218682,2,0,P|269:297|249:303,1,70,6|0,1:3|0:0,0:0:0:0:
172,334,218982,2,0,B|153:266|211:264|166:191,1,140,12|2,0:0|1:0,0:0:0:0:
85,227,219432,1,0,1:0:0:0:
85,227,219582,2,0,P|81:188|94:141,1,70,8|0,0:0|1:0,0:0:0:0:
34,88,219882,2,0,P|66:50|165:67,1,140,2|8,1:0|0:0,0:0:0:0:
226,28,220332,1,0,0:0:0:0:
226,28,220482,2,0,P|248:91|325:99,1,140,2|10,1:0|0:0,0:0:0:0:
355,181,220932,5,0,0:0:0:0:
355,181,221007,1,0,0:0:0:0:
355,181,221082,2,0,P|397:170|429:166,1,70,2|0,1:0|0:0,0:0:0:0:
475,105,221382,2,0,P|498:160|478:266,1,140,10|0,0:0|1:0,0:0:0:0:
423,342,221832,1,0,1:0:0:0:
423,342,221982,2,0,P|414:294|420:272,1,70,10|0,0:0|0:0,0:0:0:0:
371,205,222282,1,0,1:0:0:0:
161,267,222582,6,0,P|121:274|85:283,1,70,10|0,0:0|0:0,0:0:0:0:
52,207,222882,1,2,1:0:0:0:
52,207,223032,1,0,1:0:0:0:
124,152,223182,2,0,P|180:167|210:172,1,70,10|0,0:0|1:0,0:0:0:0:
191,169,223407,1,0,1:0:0:0:
191,169,223482,2,0,P|181:89|183:15,2,140,6|12|0,1:3|0:0|1:0,0:0:0:0:
281,215,224232,1,0,1:0:0:0:
281,215,224382,2,0,P|295:174|302:144,1,70,10|0,0:0|0:0,0:0:0:0:
391,201,224682,2,0,P|381:154|373:113,1,70,2|0,1:0|0:0,0:0:0:0:
468,132,224982,2,0,P|475:78|479:44,1,70,10|0,0:0|0:0,0:0:0:0:
399,50,225282,2,0,P|356:43|330:37,1,70,2|0,1:0|1:0,0:0:0:0:
271,94,225582,2,0,P|229:85|185:82,1,70,10|0,0:0|0:0,0:0:0:0:
125,112,225882,6,0,P|108:158|189:215,1,140,0|8,1:0|0:0,0:0:0:0:
168,296,226332,1,0,0:0:0:0:
168,296,226482,2,0,P|230:285|253:279,1,70,0|0,1:0|1:0,0:0:0:0:
317,229,226782,2,0,P|336:298|348:382,1,140,10|0,0:0|1:0,0:0:0:0:
425,341,227232,1,0,0:0:0:0:
425,341,227382,2,0,P|434:300|443:267,1,70,10|0,0:0|0:0,0:0:0:0:
505,223,227682,1,2,1:0:0:0:
505,223,227832,1,0,1:0:0:0:
450,152,227982,2,0,P|411:145|368:138,1,70,10|0,0:0|0:0,0:0:0:0:
329,67,228282,5,2,1:0:0:0:
329,67,228432,1,0,1:0:0:0:
262,109,228582,1,8,0:0:0:0:
262,109,228732,1,0,1:0:0:0:
194,57,228882,5,10,0:0:0:0:
194,57,229032,1,0,1:0:0:0:
109,101,229182,1,10,0:0:0:0:
109,101,229332,1,0,1:0:0:0:
30,35,229482,5,10,0:0:0:0:
30,35,230082,2,0,P|24:86|22:118,1,70
29,193,230682,6,0,P|72:202|162:142,1,140,4|12,1:3|0:0,0:0:0:0:
236,213,231132,1,0,0:0:0:0:
239,208,231282,2,0,P|235:172|227:126,1,70,0|0,1:0|1:0,0:0:0:0:
314,125,231582,2,0,P|305:84|306:47,1,70,8|0,0:0|0:0,0:0:0:0:
375,8,231882,2,0,P|431:19|531:43,1,140,0|8,1:0|0:0,0:0:0:0:
471,114,232332,1,0,0:0:0:0:
471,114,232482,2,0,P|480:145|487:169,2,35,0|0|0,1:0|1:0|1:0,0:0:0:0:
390,161,232782,2,0,P|408:205|422:255,1,70,8|0,0:0|0:0,0:0:0:0:
373,309,233082,6,0,P|324:306|292:306,1,70,0|0,1:0|0:0,0:0:0:0:
234,349,233382,2,0,P|193:347|148:346,1,70,8|0,0:0|0:0,0:0:0:0:
99,301,233682,1,0,1:0:0:0:
99,301,233832,1,0,1:0:0:0:
37,244,233982,2,0,P|36:205|42:169,1,70,8|0,0:0|0:0,0:0:0:0:
118,163,234282,6,0,P|137:129|134:91,1,70,0|0,1:0|0:0,0:0:0:0:
207,37,234582,2,0,P|217:84|232:113,1,70,8|0,0:0|0:0,0:0:0:0:
277,166,234882,1,0,1:0:0:0:
277,166,235032,1,0,1:0:0:0:
333,102,235182,2,0,P|372:94|408:88,1,70,8|0,0:0|0:0,0:0:0:0:
401,88,235407,1,0,0:0:0:0:
401,88,235482,2,0,P|450:135|419:211,1,140,4|12,1:3|0:0,0:0:0:0:
442,289,235932,1,0,0:0:0:0:
442,289,236082,2,0,P|396:281|373:263,1,70,0|0,1:0|1:0,0:0:0:0:
310,317,236382,2,0,P|270:328|236:341,1,70,8|0,0:0|0:0,0:0:0:0:
243,337,236607,1,0,1:0:0:0:
243,337,236682,2,0,P|201:310|200:202,1,140,0|8,1:0|0:0,0:0:0:0:
120,175,237132,5,0,0:0:0:0:
120,166,237282,2,0,P|132:119|114:82,1,70,0|0,1:0|1:0,0:0:0:0:
171,20,237582,2,0,P|194:66|221:76,1,70,8|0,0:0|0:0,0:0:0:0:
270,136,237882,6,0,P|313:126|360:118,1,70,0|0,1:0|0:0,0:0:0:0:
330,39,238182,2,0,P|379:26|409:24,1,70,8|0,0:0|0:0,0:0:0:0:
439,94,238482,1,0,1:0:0:0:
439,94,238632,1,0,1:0:0:0:
477,158,238782,2,0,P|472:203|473:228,1,70,8|0,0:0|0:0,0:0:0:0:
492,321,239082,5,0,1:0:0:0:
492,321,239232,2,0,P|450:326|424:334,1,70,0|8,1:0|0:0,0:0:0:0:
350,372,239532,1,0,1:0:0:0:
350,372,239607,1,0,1:0:0:0:
350,372,239682,2,0,P|330:324|329:287,1,70,0|0,1:0|1:0,0:0:0:0:
342,228,239982,1,8,0:0:0:0:
342,228,240132,1,0,0:0:0:0:
315,148,240282,6,0,P|271:141|194:223,1,140,4|12,1:3|0:0,0:0:0:0:
166,274,240732,1,0,0:0:0:0:
166,274,240882,2,0,P|112:263|85:261,1,70,0|0,1:0|1:0,0:0:0:0:
107,178,241182,2,0,P|57:174|18:167,1,70,8|0,0:0|0:0,0:0:0:0:
37,170,241407,1,0,1:0:0:0:
37,170,241482,2,0,P|10:110|62:29,1,140,0|8,1:0|0:0,0:0:0:0:
129,29,241932,1,0,0:0:0:0:
129,29,242082,2,0,P|160:40|185:47,2,35,0|0|0,1:0|1:0|1:0,0:0:0:0:
232,9,242382,2,0,P|213:67|212:107,1,70,8|0,0:0|0:0,0:0:0:0:
264,137,242682,5,0,1:0:0:0:
264,137,242832,1,0,0:0:0:0:
326,104,242982,2,0,P|367:96|413:92,1,70,8|0,0:0|0:0,0:0:0:0:
404,179,243282,1,0,1:0:0:0:
404,179,243432,1,0,1:0:0:0:
329,203,243582,2,0,P|283:214|250:223,1,70,8|0,0:0|0:0,0:0:0:0:
200,298,243882,6,0,P|182:256|172:222,1,70,0|0,1:0|0:0,0:0:0:0:
101,234,244182,2,0,P|99:183|106:143,1,70,8|0,0:0|0:0,0:0:0:0:
28,119,244482,1,0,1:0:0:0:
22,120,244632,2,0,P|34:79|59:43,1,70,0|8,1:0|0:0,0:0:0:0:
132,14,244932,1,0,0:0:0:0:
132,14,245007,1,0,0:0:0:0:
132,14,245082,2,0,B|194:31|165:61|264:71,1,140,4|12,1:3|0:0,0:0:0:0:
241,155,245532,1,0,0:0:0:0:
241,155,245682,2,0,P|283:143|321:136,1,70,0|0,1:0|1:0,0:0:0:0:
379,85,245982,2,0,P|390:157|408:244,2,140,8|0|8,0:0|1:0|0:0,0:0:0:0:
460,93,246732,5,0,0:0:0:0:
460,93,246882,2,0,P|454:41|445:6,1,70,0|0,1:0|1:0,0:0:0:0:
367,10,247182,2,0,P|320:20|292:25,1,70,8|0,0:0|0:0,0:0:0:0:
227,77,247482,5,0,1:0:0:0:
227,77,247632,2,0,P|178:70|153:66,2,70,8|8|0,0:3|0:0|1:0,0:0:0:0:
286,147,248082,1,0,1:0:0:0:
286,147,248232,2,0,P|337:138|365:132,1,70,0|0,0:0|1:0,0:0:0:0:
230,215,248532,1,8,0:3:0:0:
224,212,248682,2,0,P|174:201|136:198,1,70,8|0,0:0|0:0,0:0:0:0:
288,278,248982,5,0,1:0:0:0:
288,278,249132,2,0,P|343:269|376:266,1,70,8|0,0:0|0:0,0:0:0:0:
258,355,249432,5,8,0:0:0:0:
258,355,249582,1,8,0:0:0:0:
258,355,249732,1,12,1:0:0:0:
