osu file format v14

[General]
AudioFilename: audio.mp3
AudioLeadIn: 0
PreviewTime: 79010
Countdown: 0
SampleSet: Normal
StackLeniency: 0.7
Mode: 0
LetterboxInBreaks: 0
WidescreenStoryboard: 1

[Editor]
DistanceSpacing: 1.2
BeatDivisor: 4
GridSize: 16
TimelineZoom: 1

[Metadata]
Title:The Clouds and the Ghost
TitleUnicode:雲と幽霊 The Clouds and the Ghost
Artist:Yorushika
ArtistUnicode:ヨルシカ Yorushika
Creator:Magician_J
Version:Clouds
Source:
Tags:Japanese
BeatmapID:1832173
BeatmapSetID:876686

[Difficulty]
HPDrainRate:5
CircleSize:4
OverallDifficulty:7
ApproachRate:9
SliderMultiplier:1.4
SliderTickRate:1

[Events]
//Background and Video events
0,0,"cloud and sky.jpg",0,0
//Break Periods
2,12449,33637
2,106864,127118
2,201630,223118
2,246806,254177
//Storyboard Layer 0 (Background)
//Storyboard Layer 1 (Fail)
//Storyboard Layer 2 (Pass)
//Storyboard Layer 3 (Foreground)
//Storyboard Sound Samples

[TimingPoints]
14371.3487980488,352.941176470588,4,1,0,100,1,0

[HitObjects]
50,111,955,5,0,0:0:0:0:
114,63,1308,2,0,B|179:28|279:38,1,140
311,179,2014,1,0,0:0:0:0:
434,58,2279,1,0,0:0:0:0:
434,58,2367,1,0,0:0:0:0:
447,133,2720,2,0,B|465:202|433:269,1,140
370,333,3426,5,0,0:0:0:0:
275,217,3779,1,0,0:0:0:0:
177,317,4132,2,0,L|20:302,1,140
116,187,4837,1,0,0:0:0:0:
119,38,5190,2,0,L|259:46,1,140
259,46,5896,1,0,0:0:0:0:
368,91,6249,1,0,0:0:0:0:
468,192,6602,5,0,0:0:0:0:
416,345,6779,1,0,0:0:0:0:
351,197,6955,1,0,0:0:0:0:
284,334,7132,1,0,0:0:0:0:
221,199,7308,1,0,0:0:0:0:
151,334,7484,1,0,0:0:0:0:
35,250,7661,1,0,0:0:0:0:
121,180,7837,5,0,0:0:0:0:
121,180,8014,1,0,0:0:0:0:
65,112,8367,2,0,P|114:45|171:26,1,140
231,60,9073,2,0,L|302:59,1,70
152,135,9426,2,0,L|237:135,1,70
303,127,9779,2,0,P|308:204|258:253,1,140
276,335,10484,1,0,0:0:0:0:
164,277,10837,5,0,0:0:0:0:
249,57,11190,1,0,0:0:0:0:
319,281,11543,1,0,0:0:0:0:
129,138,11896,1,0,0:0:0:0:
359,137,12249,1,0,0:0:0:0:
69,97,34841,6,0,P|148:61|206:52,1,140
277,54,35547,2,0,P|338:53|411:96,1,140
453,157,36077,1,0,0:0:0:0:
409,220,36253,2,0,L|351:265,1,70
197,330,36606,1,0,0:0:0:0:
279,157,36959,1,0,0:0:0:0:
193,201,37312,5,0,0:0:0:0:
130,166,37665,2,0,L|71:123,1,70
112,59,38018,2,0,L|186:38,1,70
257,42,38371,2,0,L|322:69,1,70
383,127,38724,2,0,L|389:201,1,70
343,273,39077,2,0,L|275:211,1,70
189,283,39430,2,0,L|244:345,1,70
88,255,39783,1,0,0:0:0:0:
73,168,40136,1,0,0:0:0:0:
80,87,40488,6,0,L|134:35,1,70
246,41,40841,2,0,L|200:99,1,70
316,102,41194,2,0,L|361:39,1,70
468,50,41547,2,0,L|425:110,1,70
371,175,41900,1,0,0:0:0:0:
319,235,42253,2,0,P|234:249|237:203,1,140
296,100,42959,1,0,0:0:0:0:
207,38,43312,2,0,L|121:91,1,70
41,153,43665,2,0,L|109:204,1,70
189,136,44018,5,0,0:0:0:0:
67,281,44194,1,0,0:0:0:0:
264,195,44371,1,0,0:0:0:0:
190,293,44547,1,0,0:0:0:0:
257,269,44724,2,0,P|349:340|446:233,1,280
356,24,45783,1,0,0:0:0:0:
265,38,46136,6,0,L|244:120,1,70
155,146,46488,2,0,L|147:53,1,70
49,56,46841,2,0,L|35:149,1,70
38,212,47194,2,0,L|105:285,1,70
215,194,47547,1,0,0:0:0:0:
125,350,47724,1,0,0:0:0:0:
279,252,47900,1,0,0:0:0:0:
255,346,48077,1,0,0:0:0:0:
357,316,48253,6,0,B|440:320|457:300|490:250,1,140
470,184,48959,1,0,0:0:0:0:
327,232,49136,1,0,0:0:0:0:
348,70,49312,1,0,0:0:0:0:
288,155,49488,1,0,0:0:0:0:
458,112,49665,1,0,0:0:0:0:
409,229,49841,1,0,0:0:0:0:
370,158,50018,2,0,P|365:60|330:24,1,140
271,45,50724,2,0,L|125:43,1,140
37,112,51430,1,0,0:0:0:0:
162,118,51783,6,0,L|121:178,1,70
35,181,52136,2,0,L|71:246,1,70
159,243,52488,2,0,L|116:301,1,70
180,342,52841,2,0,L|259:344,1,70
249,343,53106,1,0,0:0:0:0:
249,343,53194,1,0,0:0:0:0:
422,317,53547,1,0,0:0:0:0:
331,235,53900,1,0,0:0:0:0:
237,157,54253,1,0,0:0:0:0:
135,73,54606,2,0,P|233:44|297:51,1,140
353,75,55312,6,0,P|418:179|421:202,1,140
391,272,56018,2,0,P|289:322|251:326,1,140
194,307,56724,2,0,P|96:235|82:205,1,140
82,139,57430,2,0,P|158:51|184:46,1,140
266,40,58136,2,0,P|372:61|417:90,1,140
462,159,58841,2,0,L|320:145,1,140
220,145,59547,2,0,L|76:169,1,140
39,101,60253,2,0,P|125:25|154:27,1,140
241,37,60959,1,0,0:0:0:0:
377,36,61312,1,0,0:0:0:0:
448,89,61665,6,0,P|470:169|461:237,1,140
448,295,62371,2,0,P|352:350|306:354,1,140
248,355,63077,2,0,L|181:320,1,70
225,261,63430,2,0,L|291:231,1,70
234,172,63783,2,0,P|196:149|188:126,1,70
191,54,64136,2,0,P|226:25|253:25,1,70
322,39,64488,2,0,P|367:65|372:80,1,70
376,149,64841,2,0,P|357:185|332:211,1,70
293,263,65194,2,0,P|309:309|326:328,1,70
406,348,65547,2,0,P|454:328|463:310,1,70
466,242,65900,6,0,P|433:220|419:187,1,70
465,137,66253,2,0,P|479:98|476:66,1,70
409,31,66606,2,0,B|352:31|322:35|321:35,1,70
262,43,66959,2,0,L|191:34,1,70
122,32,67312,2,0,P|84:43|60:66,1,70
49,129,67665,2,0,L|113:273,1,140
140,328,68371,2,0,L|297:351,1,140
365,352,69077,2,0,P|451:229|451:228,1,140
446,149,69783,2,0,P|441:59|379:34,1,140
289,34,70488,2,0,L|141:35,1,140
49,75,71194,2,0,L|114:217,1,140
50,272,71900,6,0,L|116:319,1,70
166,350,72253,2,0,L|244:350,1,70
309,355,72606,2,0,L|365:307,1,70
425,275,72959,2,0,P|453:239|448:214,1,70
416,125,73312,1,0,0:0:0:0:
256,32,73665,1,0,0:0:0:0:
256,192,74018,2,0,L|256:266,1,70
257,345,74371,1,0,0:0:0:0:
31,191,74724,1,0,0:0:0:0:
255,32,75077,1,0,0:0:0:0:
478,192,75430,1,0,0:0:0:0:
255,358,75783,1,0,0:0:0:0:
31,191,76136,5,0,0:0:0:0:
255,29,76488,1,0,0:0:0:0:
481,191,76841,1,0,0:0:0:0:
254,354,77194,1,0,0:0:0:0:
29,192,77547,1,0,0:0:0:0:
256,32,77900,1,0,0:0:0:0:
479,192,78253,1,0,0:0:0:0:
254,353,78606,1,0,0:0:0:0:
255,190,79312,1,0,0:0:0:0:
187,259,79930,5,0,0:0:0:0:
182,266,80018,2,0,P|133:317|62:329,1,140
36,179,80547,1,0,0:0:0:0:
116,45,80724,1,0,0:0:0:0:
174,171,80900,1,0,0:0:0:0:
236,48,81077,1,0,0:0:0:0:
299,193,81253,1,0,0:0:0:0:
335,79,81430,2,0,P|396:53|422:62,1,70
468,120,81783,5,0,0:0:0:0:
476,296,81959,1,0,0:0:0:0:
358,174,82136,1,0,0:0:0:0:
396,346,82312,1,0,0:0:0:0:
252,225,82488,1,0,0:0:0:0:
268,347,82665,1,0,0:0:0:0:
169,321,82841,2,0,P|113:291|90:261,1,70
49,190,83194,5,0,0:0:0:0:
215,235,83371,1,0,0:0:0:0:
336,346,83547,2,0,P|224:346|179:335,1,140
207,259,84165,1,0,0:0:0:0:
205,260,84253,2,0,P|281:255|364:263,1,140
351,179,84871,1,0,0:0:0:0:
346,180,84959,2,0,P|266:171|182:184,1,140
202,92,85577,1,0,0:0:0:0:
202,92,85665,2,0,P|293:85|346:88,1,140
434,198,86371,6,0,P|419:255|392:305,1,105
399,296,86724,1,0,0:0:0:0:
322,320,87077,2,0,L|212:308,1,105
217,308,87430,1,0,0:0:0:0:
111,277,87783,2,0,P|166:230|222:191,1,140
288,255,88312,1,0,0:0:0:0:
356,143,88488,5,0,0:0:0:0:
165,29,88665,1,0,0:0:0:0:
344,35,88841,1,0,0:0:0:0:
155,143,89018,1,0,0:0:0:0:
254,103,89194,1,0,0:0:0:0:
190,242,89371,1,0,0:0:0:0:
326,236,89547,1,0,0:0:0:0:
65,68,90165,1,0,0:0:0:0:
65,68,90253,1,0,0:0:0:0:
209,41,90518,1,0,0:0:0:0:
209,41,90606,2,0,P|321:26|360:27,1,140
440,72,91224,1,0,0:0:0:0:
440,72,91312,2,0,P|458:183|455:211,1,140
435,301,91930,5,0,0:0:0:0:
435,301,92018,2,0,P|325:343|295:345,1,140
215,340,92636,1,0,0:0:0:0:
215,340,92724,2,0,P|111:300|91:269,1,140
165,206,93341,1,0,0:0:0:0:
165,206,93430,2,0,P|257:148|287:147,1,140
408,142,94047,1,0,0:0:0:0:
408,142,94136,2,0,B|344:59|307:49|307:48,1,140
211,58,94841,6,0,P|167:71|143:88,1,70
215,155,95194,2,0,P|247:175|249:207,1,70
59,130,95547,5,0,0:0:0:0:
165,283,95724,1,0,0:0:0:0:
52,235,95900,1,0,0:0:0:0:
181,177,96077,1,0,0:0:0:0:
281,138,96253,1,0,0:0:0:0:
430,261,96430,1,0,0:0:0:0:
410,139,96606,1,0,0:0:0:0:
293,251,96783,1,0,0:0:0:0:
254,355,96959,2,0,P|376:339|404:330,1,140
453,266,97577,1,0,0:0:0:0:
453,266,97665,2,0,P|442:159|429:117,1,140
366,46,98283,1,0,0:0:0:0:
366,46,98371,2,0,P|231:35|197:39,1,140
141,72,99077,5,0,0:0:0:0:
74,154,99253,1,0,0:0:0:0:
222,132,99430,1,0,0:0:0:0:
129,236,99606,1,0,0:0:0:0:
70,318,99783,2,0,P|120:343|136:339,1,70
189,298,100136,2,0,P|226:275|254:283,1,70
294,337,100488,2,0,P|332:346|366:334,1,70
423,304,100841,2,0,P|437:259|427:243,1,70
373,184,101194,2,0,P|356:144|371:122,1,70
437,86,101547,2,0,P|443:48|420:33,1,70
346,37,101900,2,0,P|291:38|258:57,1,70
207,68,102253,5,0,0:0:0:0:
124,125,102430,1,0,0:0:0:0:
47,193,102606,1,0,0:0:0:0:
256,351,103312,1,0,0:0:0:0:
432,192,104018,1,0,0:0:0:0:
311,52,104724,2,0,P|209:49|159:78,1,140
48,191,105430,1,0,0:0:0:0:
256,353,105783,1,0,0:0:0:0:
464,191,106136,1,0,0:0:0:0:
268,41,106488,6,0,L|191:94,1,70
208,79,128018,5,0,0:0:0:0:
304,80,128371,1,0,0:0:0:0:
256,144,128724,2,0,L|257:292,1,140
157,343,129253,1,0,0:0:0:0:
43,303,129430,1,0,0:0:0:0:
168,245,129606,1,0,0:0:0:0:
44,197,129783,1,0,0:0:0:0:
164,143,129959,1,0,0:0:0:0:
42,86,130136,1,0,0:0:0:0:
192,39,130488,5,0,0:0:0:0:
277,35,130665,1,0,0:0:0:0:
246,111,130841,2,0,P|265:171|291:177,1,70
340,175,131194,1,0,0:0:0:0:
361,103,131371,1,0,0:0:0:0:
412,40,131547,2,0,P|463:41|478:85,1,70
475,126,131900,1,0,0:0:0:0:
473,202,132077,1,0,0:0:0:0:
444,273,132253,2,0,P|383:302|363:304,1,70
347,194,132606,5,0,0:0:0:0:
264,132,132783,1,0,0:0:0:0:
169,212,132959,2,0,P|257:253|286:291,1,140
175,340,133665,2,0,P|113:304|90:239,1,140
49,152,134371,2,0,P|90:95|156:72,1,140
275,117,134900,1,0,0:0:0:0:
158,183,135077,1,0,0:0:0:0:
264,226,135253,5,0,0:0:0:0:
264,33,135430,1,0,0:0:0:0:
460,34,135606,1,0,0:0:0:0:
343,163,135783,1,0,0:0:0:0:
358,72,135959,5,0,0:0:0:0:
437,161,136136,1,0,0:0:0:0:
309,231,136312,1,0,0:0:0:0:
465,238,136488,2,0,P|405:334|378:344,1,140
164,297,137018,1,0,0:0:0:0:
319,299,137194,1,0,0:0:0:0:
161,154,137371,1,0,0:0:0:0:
319,154,137547,1,0,0:0:0:0:
160,301,137724,1,0,0:0:0:0:
79,290,137900,2,0,P|35:216|39:160,1,140
31,94,138606,6,0,P|114:87|195:109,1,140
225,34,139312,6,0,P|268:37|305:52,1,70
253,120,139665,2,0,P|222:169|231:200,1,70
253,248,140018,2,0,P|252:336|301:346,1,140
425,317,140636,1,0,0:0:0:0:
429,310,140724,2,0,B|461:208|459:173|458:173,1,140
441,99,141430,1,0,0:0:0:0:
256,31,141783,1,0,0:0:0:0:
109,57,142047,1,0,0:0:0:0:
105,61,142136,2,0,L|19:177,1,140
51,255,142753,5,0,0:0:0:0:
51,255,142841,2,0,P|69:326|127:355,1,140
215,347,143459,1,0,0:0:0:0:
215,347,143547,2,0,L|326:349,1,105
319,348,143900,1,0,0:0:0:0:
432,298,144253,1,0,0:0:0:0:
465,171,144606,1,0,0:0:0:0:
346,50,144959,5,0,0:0:0:0:
294,251,145136,1,0,0:0:0:0:
217,44,145312,1,0,0:0:0:0:
150,250,145488,1,0,0:0:0:0:
84,46,145665,1,0,0:0:0:0:
28,192,145841,1,0,0:0:0:0:
265,164,146018,1,0,0:0:0:0:
42,341,146194,1,0,0:0:0:0:
139,227,146371,1,0,0:0:0:0:
164,330,146724,6,0,P|249:336|303:313,1,140
375,330,147430,2,0,P|369:248|321:215,1,140
303,143,148136,2,0,P|370:132|449:166,1,140
216,109,148841,2,0,P|141:65|97:104,1,140
32,192,149547,5,0,0:0:0:0:
142,275,149900,1,0,0:0:0:0:
255,351,150253,1,0,0:0:0:0:
480,191,150606,1,0,0:0:0:0:
255,32,150959,1,0,0:0:0:0:
32,192,151312,1,0,0:0:0:0:
257,353,151665,1,0,0:0:0:0:
390,350,152018,2,0,P|458:304|423:254,1,140
384,213,152724,2,0,P|321:139|336:120,1,140
368,57,153430,6,0,P|296:44|210:56,1,140
161,76,154136,2,0,P|71:100|44:150,1,140
37,212,154841,2,0,P|72:298|120:331,1,140
177,345,155547,2,0,P|301:349|342:333,1,140
387,321,156253,2,0,P|456:251|456:208,1,140
452,131,156959,2,0,P|368:62|321:62,1,140
274,48,157665,2,0,L|192:40,1,70
134,45,158018,2,0,L|51:69,1,70
36,136,158371,2,0,L|56:213,1,70
140,187,158724,2,0,L|107:253,1,70
32,268,159077,6,0,L|71:339,1,70
155,346,159430,2,0,L|238:319,1,70
289,353,159783,2,0,L|370:339,1,70
328,258,160136,2,0,L|401:273,1,70
463,300,160488,2,0,L|473:220,1,70
410,195,160841,2,0,L|407:117,1,70
467,81,161194,2,0,L|391:50,1,70
349,108,161547,2,0,L|283:73,1,70
227,31,161900,2,0,L|144:32,1,70
184,103,162253,2,0,L|113:98,1,70
72,37,162606,6,0,L|33:111,1,70
106,155,162959,2,0,L|46:200,1,70
20,277,163312,2,0,P|57:324|97:349,1,105
94,347,163665,1,0,0:0:0:0:
176,352,164018,2,0,L|286:350,1,105
280,350,164371,1,0,0:0:0:0:
358,351,164724,2,0,P|445:323|452:289,1,105
446,319,165077,1,0,0:0:0:0:
465,239,165430,2,0,P|471:138|456:112,1,105
470,137,165783,1,0,0:0:0:0:
416,82,166136,6,0,P|338:41|281:37,1,140
196,41,166841,2,0,P|88:67|64:88,1,140
37,180,167547,2,0,P|46:284|66:313,1,140
141,356,168253,2,0,P|186:251|165:213,1,140
146,133,168959,2,0,P|220:59|273:58,1,140
381,47,169665,2,0,P|467:127|458:164,1,140
469,229,170371,1,0,0:0:0:0:
395,305,170724,1,0,0:0:0:0:
268,352,171077,2,0,P|148:316|122:303,1,140
73,245,171783,2,0,P|70:132|83:88,1,140
161,105,172488,6,0,P|151:177|172:245,1,140
480,192,173194,1,0,0:0:0:0:
355,346,173547,1,0,0:0:0:0:
159,282,173900,1,0,0:0:0:0:
293,136,174253,1,0,0:0:0:0:
79,62,174606,2,0,L|99:137,1,70
177,98,174959,2,0,L|148:169,1,70
75,165,175312,2,0,L|102:229,1,70
120,336,175665,5,0,0:0:0:0:
241,187,175841,1,0,0:0:0:0:
233,334,176018,1,0,0:0:0:0:
317,273,176194,1,0,0:0:0:0:
414,325,176371,2,0,L|465:278,1,70
428,230,176724,2,0,L|374:180,1,70
427,132,177077,2,0,L|477:80,1,70
294,37,177430,1,0,0:0:0:0:
110,179,177606,1,0,0:0:0:0:
79,38,177783,5,0,0:0:0:0:
256,134,177959,1,0,0:0:0:0:
366,148,178136,2,0,L|307:200,1,70
259,241,178488,2,0,L|331:313,1,70
184,335,178841,5,0,0:0:0:0:
34,163,179018,1,0,0:0:0:0:
15,348,179194,1,0,0:0:0:0:
163,195,179371,1,0,0:0:0:0:
133,278,179547,2,0,L|51:295,1,70
43,232,179900,2,0,L|98:183,1,70
73,118,180253,2,0,L|27:63,1,70
102,44,180606,2,0,L|175:36,1,70
182,192,180959,5,0,0:0:0:0:
247,41,181136,1,0,0:0:0:0:
307,171,181312,1,0,0:0:0:0:
361,53,181488,1,0,0:0:0:0:
436,97,181665,2,0,P|477:176|460:221,1,140
427,273,182283,1,0,0:0:0:0:
421,278,182371,2,0,P|320:330|283:333,1,140
213,342,182988,5,0,0:0:0:0:
213,342,183077,2,0,P|189:285|207:201,1,140
89,222,183694,1,0,0:0:0:0:
89,222,183783,2,0,P|121:125|159:85,1,140
201,49,184488,5,0,0:0:0:0:
230,236,184665,1,0,0:0:0:0:
314,96,184841,1,0,0:0:0:0:
365,244,185018,1,0,0:0:0:0:
208,114,185194,1,0,0:0:0:0:
142,307,185371,1,0,0:0:0:0:
80,123,185547,1,0,0:0:0:0:
256,42,186253,6,0,P|311:79|311:88,1,70
181,157,186606,2,0,P|205:213|226:217,1,70
305,140,186959,1,0,0:0:0:0:
57,295,187136,1,0,0:0:0:0:
244,317,187312,1,0,0:0:0:0:
136,193,187488,1,0,0:0:0:0:
43,122,187665,6,0,P|123:63|168:56,1,140
268,50,188371,2,0,P|371:49|424:66,1,140
459,140,189077,2,0,P|420:249|401:263,1,140
319,292,189783,2,0,P|267:226|285:168,1,140
171,199,190488,2,0,P|116:237|40:220,1,140
64,119,191194,2,0,P|188:78|210:72,1,140
285,40,191900,1,0,0:0:0:0:
419,52,192165,1,0,0:0:0:0:
421,61,192253,2,0,P|426:144|399:194,1,140
357,288,192871,5,0,0:0:0:0:
353,293,192959,2,0,P|249:345|219:349,1,140
128,341,193577,1,0,0:0:0:0:
121,336,193665,2,0,P|60:247|60:211,1,140
88,42,194371,1,0,0:0:0:0:
147,192,194547,1,0,0:0:0:0:
195,50,194724,1,0,0:0:0:0:
253,207,194900,1,0,0:0:0:0:
288,64,195077,1,0,0:0:0:0:
352,183,195253,2,0,P|362:116|387:102,2,70
432,81,195783,6,0,P|457:161|421:286,1,210
356,317,196488,2,0,P|210:327|147:308,1,210
89,256,197194,2,0,B|184:191|285:177|285:177,1,210
361,171,197900,2,0,B|441:145|446:79|388:45|332:46,1,210
256,49,198606,1,0,0:0:0:0:
76,195,198959,1,0,0:0:0:0:
459,192,199312,1,0,0:0:0:0:
300,344,199665,1,0,0:0:0:0:
256,189,200018,1,0,0:0:0:0:
395,53,200724,5,0,0:0:0:0:
96,59,201430,5,0,0:0:0:0:
141,71,224018,5,0,0:0:0:0:
333,70,224371,1,0,0:0:0:0:
235,182,224724,1,0,0:0:0:0:
410,182,225077,1,0,0:0:0:0:
315,302,225430,1,0,0:0:0:0:
146,303,225783,1,0,0:0:0:0:
241,199,226136,1,0,0:0:0:0:
76,191,226488,1,0,0:0:0:0:
169,94,226841,1,0,0:0:0:0:
345,30,227194,5,0,0:0:0:0:
452,140,227371,1,0,0:0:0:0:
293,151,227547,1,0,0:0:0:0:
439,264,227724,1,0,0:0:0:0:
254,254,227900,1,0,0:0:0:0:
382,354,228077,1,0,0:0:0:0:
294,142,228253,1,0,0:0:0:0:
439,264,228430,1,0,0:0:0:0:
412,56,228606,1,0,0:0:0:0:
379,147,228783,5,0,0:0:0:0:
329,76,228959,1,0,0:0:0:0:
251,56,229136,1,0,0:0:0:0:
199,122,229312,1,0,0:0:0:0:
48,36,229665,1,0,0:0:0:0:
47,176,230018,1,0,0:0:0:0:
196,196,230371,1,0,0:0:0:0:
45,298,230724,1,0,0:0:0:0:
215,343,231077,1,0,0:0:0:0:
329,306,231430,1,0,0:0:0:0:
381,202,231783,1,0,0:0:0:0:
382,103,232136,5,0,0:0:0:0:
256,32,232488,1,0,0:0:0:0:
184,44,232841,2,0,L|114:66,1,70
64,111,233194,1,0,0:0:0:0:
110,176,233547,1,0,0:0:0:0:
165,235,233900,2,0,L|94:279,1,70
41,323,234253,1,0,0:0:0:0:
128,331,234606,2,0,P|217:348|280:343,1,140
383,342,235312,6,0,P|462:275|464:228,1,140
468,136,236018,2,0,P|452:55|401:44,1,140
270,30,236724,2,0,P|169:32|127:44,1,140
63,87,237430,2,0,P|51:193|66:230,1,140
58,296,238136,2,0,L|122:336,1,70
179,353,238488,2,0,L|244:310,1,70
188,243,238841,2,0,L|283:255,1,70
335,287,239194,2,0,L|311:210,1,70
257,183,239547,2,0,L|200:125,1,70
183,70,239900,6,0,L|256:48,1,70
336,72,240253,2,0,L|361:147,1,70
358,211,240606,2,0,L|358:291,1,70
316,344,240959,2,0,P|172:342|171:342,1,140
100,342,241665,2,0,P|38:253|34:215,1,140
36,155,242371,2,0,P|74:82|126:54,1,140
218,43,243077,2,0,P|300:42|364:51,1,140
433,74,243783,2,0,P|476:169|467:203,1,140
432,283,244488,2,0,P|310:328|279:333,1,140
213,342,245194,6,0,L|115:338,1,70
62,315,245547,2,0,L|38:248,1,70
36,147,245900,2,0,P|60:79|126:43,1,140
257,190,246606,5,0,0:0:0:0:
256,31,255077,5,0,0:0:0:0:
41,55,255430,1,0,0:0:0:0:
162,131,255783,1,0,0:0:0:0:
52,238,256136,1,0,0:0:0:0:
156,331,256488,2,0,P|209:293|229:286,1,70
304,346,256841,2,0,P|306:293|325:252,1,70
425,256,257194,5,0,0:0:0:0:
374,27,257371,1,0,0:0:0:0:
324,160,257547,1,0,0:0:0:0:
463,126,257724,1,0,0:0:0:0:
251,50,257900,2,0,P|129:66|111:80,1,140
50,162,258518,1,0,0:0:0:0:
50,162,258606,2,0,P|34:272|51:295,1,140
110,336,259224,1,0,0:0:0:0:
110,336,259312,2,0,P|151:267|156:198,1,140
228,344,259930,1,0,0:0:0:0:
228,344,260018,2,0,P|276:273|274:195,1,140
391,155,260636,1,0,0:0:0:0:
391,155,260724,2,0,P|400:44|371:26,1,140
238,40,261341,5,0,0:0:0:0:
238,40,261430,2,0,P|107:49|77:67,1,140
78,145,261959,1,0,0:0:0:0:
234,151,262136,1,0,0:0:0:0:
124,247,262312,1,0,0:0:0:0:
286,334,262488,1,0,0:0:0:0:
313,193,262665,1,0,0:0:0:0:
179,303,262841,2,0,P|211:250|215:146,1,140
390,272,263459,1,0,0:0:0:0:
390,272,263547,2,0,P|406:162|395:137,1,140
311,36,264165,1,0,0:0:0:0:
305,35,264253,2,0,L|151:39,1,140
62,70,264871,5,0,0:0:0:0:
62,70,264959,2,0,B|36:176|40:218|39:218,1,140
47,312,265488,1,0,0:0:0:0:
182,209,265665,1,0,0:0:0:0:
191,348,265841,1,0,0:0:0:0:
300,207,266018,1,0,0:0:0:0:
346,345,266194,1,0,0:0:0:0:
433,305,266371,2,0,P|463:267|462:247,1,70
402,207,266724,2,0,P|368:157|370:142,1,70
415,91,267077,2,0,B|398:49|365:48|365:47,1,70
288,42,267430,2,0,P|243:44|218:47,1,70
142,59,267783,2,0,B|85:75|74:85|73:85,1,70
47,160,268136,6,0,P|49:227|54:245,2,70
88,327,268665,1,0,0:0:0:0:
150,156,268841,1,0,0:0:0:0:
225,330,269018,1,0,0:0:0:0:
279,157,269194,1,0,0:0:0:0:
364,345,269371,1,0,0:0:0:0:
477,273,269547,1,0,0:0:0:0:
383,171,269724,1,0,0:0:0:0:
419,97,269900,2,0,B|400:39|379:18|381:20,1,70
310,36,270253,5,0,0:0:0:0:
233,184,270430,1,0,0:0:0:0:
205,47,270606,2,0,L|113:42,1,70
42,45,270959,1,0,0:0:0:0:
122,177,271136,1,0,0:0:0:0:
46,217,271312,6,0,L|45:295,1,70
93,346,271665,1,0,0:0:0:0:
192,157,271841,1,0,0:0:0:0:
227,337,272018,2,0,B|302:210|412:367|471:251|475:211,1,280
303,170,273077,1,0,0:0:0:0:
411,30,273253,1,0,0:0:0:0:
434,153,273430,1,0,0:0:0:0:
311,67,273606,1,0,0:0:0:0:
210,49,273783,2,0,P|132:89|90:134,1,140
230,151,274312,5,0,0:0:0:0:
37,243,274488,1,0,0:0:0:0:
254,272,274665,1,0,0:0:0:0:
92,346,274841,1,0,0:0:0:0:
296,341,275547,2,0,P|410:334|432:323,1,140
454,229,276253,1,0,0:0:0:0:
459,68,276606,1,0,0:0:0:0:
259,35,276871,1,0,0:0:0:0:
255,31,276959,1,0,0:0:0:0:
156,56,277312,2,0,P|64:101|20:147,1,140
60,259,278018,5,0,0:0:0:0:
256,352,278371,1,0,0:0:0:0:
355,295,278724,2,0,P|391:254|409:173,1,140
311,42,279430,1,0,0:0:0:0:
98,38,279783,1,0,0:0:0:0:
300,155,280136,1,0,0:0:0:0:
79,198,280488,1,0,0:0:0:0:
218,332,280841,1,0,0:0:0:0:
243,178,281194,5,0,0:0:0:0:
446,214,281547,2,0,P|446:110|406:72,1,140
253,39,282253,1,0,0:0:0:0:
32,192,282606,1,0,0:0:0:0:
258,197,282959,1,0,0:0:0:0:
255,48,283312,1,0,0:0:0:0:
