osu file format v14

[General]
AudioFilename: audio.mp3
AudioLeadIn: 0
PreviewTime: 62090
Countdown: 0
SampleSet: Soft
StackLeniency: 0.4
Mode: 0
LetterboxInBreaks: 0
WidescreenStoryboard: 1

[Editor]
Bookmarks: 1130,16490,31850,47210,62570,91370,94010,99050,106730,116210,120170,124010,124250,137450,152810,168170,183530,189290,204650,220010,223370,239210,241130
DistanceSpacing: 1.2
BeatDivisor: 4
GridSize: 16
TimelineZoom: 1.2

[Metadata]
Title:That's Why I Gave Up on Music
TitleUnicode:だから僕は音楽を辞めた
Artist:Yorushika
ArtistUnicode:ヨルシカ
Creator:Em0nky
Version:Shii's Hard
Source:
Tags:emonky emonkey shii ShiiTsuin bongo thats japanese rock n-buna
BeatmapID:2485501
BeatmapSetID:1002228

[Difficulty]
HPDrainRate:4.5
CircleSize:3.5
OverallDifficulty:6
ApproachRate:8
SliderMultiplier:1.7
SliderTickRate:1

[Events]
//Background and Video events
0,0,"Screenshot (11).png",0,0
//Break Periods
2,176770,182540
//Storyboard Layer 0 (Background)
//Storyboard Layer 1 (Fail)
//Storyboard Layer 2 (Pass)
//Storyboard Layer 3 (Foreground)
//Storyboard Layer 4 (Overlay)
//Storyboard Sound Samples

[TimingPoints]
170,480,4,2,1,60,1,0
170,-142.857142857143,4,2,1,60,0,0
1130,480,4,2,1,60,1,0
31850,-117.647058823529,4,2,1,65,0,0
47210,-117.647058823529,4,2,1,60,0,0
54890,-100,4,2,1,70,0,0
60650,-100,4,2,1,75,0,0
62570,-80,4,2,1,80,0,1
74090,-83.3333333333333,4,2,1,80,0,0
75770,-125,4,2,1,80,0,0
76010,-100,4,2,1,70,0,0
91370,-117.647058823529,4,2,1,60,0,0
97250,-117.647058823529,4,2,1,50,0,0
99050,-117.647058823529,4,2,1,60,0,0
106730,-100,4,2,1,60,0,0
122090,-100,4,2,1,70,0,0
124010,-80,4,2,1,80,0,1
135530,-83.3333333333333,4,2,1,80,0,0
137450,-100,4,2,1,70,0,0
152810,-117.647058823529,4,2,1,60,0,0
168170,-117.647058823529,4,2,1,40,0,0
183530,-76.9230769230769,4,2,1,70,0,1
185450,-100,4,2,1,70,0,0
188210,-83.3333333333333,4,2,1,70,0,0
189410,-83.3333333333333,4,2,1,60,0,0
193130,-76.9230769230769,4,2,1,60,0,1
200810,-100,4,2,1,60,0,0
204650,-86.9565217391304,4,2,1,70,0,0
220010,-86.9565217391304,4,2,1,65,0,0
239210,-100,4,2,1,70,0,0
241130,-83.3333333333333,4,2,1,70,0,0
241490,-83.3333333333333,4,2,1,70,0,0

[Colours]
Combo1 : 255,176,138
Combo2 : 157,208,255

[HitObjects]
0,18,16250,5,0,1:0:0:0:
0,18,16370,1,0,1:0:0:0:
0,18,16490,1,6,1:2:0:0:
96,2,16730,1,2,0:3:0:0:
177,85,16970,2,0,P|240:91|275:90,1,85,10|2,0:2|0:3,0:0:0:0:
268,99,17330,1,2,0:2:0:0:
268,99,17450,2,0,P|262:162|263:197,1,85,0|2,1:0|0:3,0:0:0:0:
337,275,17930,2,0,P|400:281|435:280,1,85,10|2,0:2|0:3,0:0:0:0:
289,359,18410,5,2,1:2:0:0:
209,296,18650,1,2,0:3:0:0:
108,367,18890,2,0,P|62:371|12:352,1,85,10|2,0:2|0:3,0:0:0:0:
21,355,19250,1,2,0:2:0:0:
17,351,19370,2,0,L|7:232,1,85,0|2,1:0|0:3,0:0:0:0:
0,146,19850,1,10,0:2:0:0:
0,146,19970,1,2,0:2:0:0:
0,146,20090,1,2,0:3:0:0:
111,191,20330,5,0,1:0:0:0:
202,150,20570,1,2,0:3:0:0:
290,236,20810,2,0,L|297:340,1,85,10|2,0:2|0:3,0:0:0:0:
297,329,21170,1,2,0:2:0:0:
298,337,21290,2,0,P|349:323|406:327,1,85,0|2,1:0|0:3,0:0:0:0:
481,257,21770,2,0,P|438:255|398:242,1,85,10|2,0:2|0:3,0:0:0:0:
309,154,22250,6,0,L|294:20,2,127.5,2|2|2,1:2|0:2|0:3,0:0:0:0:
327,292,23210,1,2,1:2:0:0:
312,163,23450,1,2,0:3:0:0:
224,237,23690,1,10,0:2:0:0:
224,237,23810,1,10,0:2:0:0:
224,237,23930,1,6,0:3:0:0:
112,159,24170,5,6,1:2:0:0:
5,180,24410,1,2,0:3:0:0:
52,288,24650,2,0,L|148:277,1,85,8|2,0:2|0:3,0:0:0:0:
144,277,25010,1,2,0:2:0:0:
152,276,25130,2,0,L|163:372,1,85,0|2,1:0|0:3,0:0:0:0:
270,384,25610,2,0,L|279:299,1,85,10|2,0:2|0:3,0:0:0:0:
290,165,26090,5,2,1:2:0:0:
382,224,26330,1,2,0:3:0:0:
482,144,26570,2,0,P|508:105|493:39,1,85,10|2,0:2|0:3,0:0:0:0:
504,60,26930,1,2,0:2:0:0:
499,55,27050,2,0,P|460:29|394:44,1,85,0|2,1:0|0:3,0:0:0:0:
327,120,27530,2,0,L|322:183,1,42.5,10|2,0:2|0:2,0:0:0:0:
302,190,27770,2,0,L|307:253,1,42.5,2|2,0:3|0:2,0:0:0:0:
322,260,28010,5,2,1:2:0:0:
239,339,28250,1,2,0:3:0:0:
147,264,28490,2,0,P|81:252|45:268,1,85,10|2,0:2|0:3,0:0:0:0:
61,260,28850,1,2,0:2:0:0:
57,264,28970,2,0,P|69:198|53:162,1,85,0|2,1:0|0:3,0:0:0:0:
137,63,29450,2,0,P|130:104|144:144,1,85,10|2,0:2|0:2,0:0:0:0:
260,203,29930,6,0,B|343:189|343:189|400:198,2,127.5,2|2|2,1:2|0:2|1:2,0:0:0:0:
245,227,30770,1,8,0:2:0:0:
245,227,30890,2,0,L|233:344,1,85,2|0,1:2|1:0,0:0:0:0:
131,373,31370,2,0,P|98:379|76:370,1,42.5,10|8,0:2|0:3,0:0:0:0:
61,352,31610,2,0,P|55:319|64:297,1,42.5,4|0,0:3|3:0,0:0:0:0:
81,286,31850,5,4,1:2:0:0:
20,204,32090,2,0,P|10:162|22:115,1,72.2500013780594,2|2,0:2|1:2,0:0:0:0:
61,60,32570,1,2,0:2:0:0:
131,110,32810,2,0,P|157:106|184:111,1,36.1250006890297,2|2,1:2|0:2,0:0:0:0:
202,130,33050,2,0,P|228:134|255:129,1,36.1250006890297,2|2,0:2|0:2,0:0:0:0:
270,104,33290,2,0,P|332:95|353:96,1,72.2500013780594,10|2,0:2|0:2,0:0:0:0:
410,147,33770,5,0,1:0:0:0:
488,109,34010,2,0,L|496:195,1,72.2500013780594,2|2,0:2|1:2,0:0:0:0:
500,267,34490,1,2,0:2:0:0:
455,341,34730,2,0,L|403:336,1,36.1250006890297,2|2,1:2|0:2,0:0:0:0:
383,313,34970,2,0,L|331:318,1,36.1250006890297,2|2,0:2|0:2,0:0:0:0:
314,344,35210,2,0,B|302:303|302:303|262:267,1,72.2500013780594,10|2,0:2|0:2,0:0:0:0:
202,245,35690,5,0,1:0:0:0:
141,307,35930,2,0,L|130:356,1,36.1250006890297,2|2,0:2|0:2,0:0:0:0:
115,382,36170,2,0,L|107:277,1,72.2500013780594,2|2,1:2|0:2,0:0:0:0:
78,279,36530,1,2,0:2:0:0:
78,279,36650,2,0,L|85:217,1,36.1250006890297,2|2,1:2|0:2,0:0:0:0:
103,205,36890,2,0,L|95:100,1,72.2500013780594,2|8,0:2|0:2,0:0:0:0:
208,266,37610,6,0,L|213:220,1,36.1250006890297,2|0,1:2|0:0,0:0:0:0:
262,159,37970,2,0,L|249:99,1,36.1250006890297,2|0,0:2|1:0,0:0:0:0:
222,94,38210,1,2,0:2:0:0:
222,94,38330,2,0,L|225:40,1,36.1250006890297,2|2,0:2|0:2,0:0:0:0:
253,25,38570,2,0,L|307:28,2,36.1250006890297,2|2|2,1:2|0:2|0:2,0:0:0:0:
155,13,39050,2,0,P|105:0|93:3,1,36.1250006890297,8|8,0:2|0:3,0:0:0:0:
80,8,39290,1,4,0:3:0:0:
33,80,39530,5,4,1:2:0:0:
82,151,39770,2,0,B|101:189|101:189|101:224,1,72.2500013780594,2|2,0:2|1:2,0:0:0:0:
102,305,40250,2,0,L|101:361,1,36.1250006890297,2|2,0:2|0:2,0:0:0:0:
188,342,40610,2,0,L|188:305,1,36.1250006890297,2|2,0:2|0:2,0:0:0:0:
214,270,40850,1,2,0:2:0:0:
214,270,40970,2,0,L|314:267,1,72.2500013780594,10|2,0:2|0:2,0:0:0:0:
344,332,41450,5,0,1:0:0:0:
408,273,41690,1,2,0:2:0:0:
378,191,41930,2,0,P|374:159|381:135,1,36.1250006890297,2|2,1:2|0:2,0:0:0:0:
401,120,42170,1,2,0:2:0:0:
359,43,42410,2,0,L|295:29,1,36.1250006890297,2|2,1:2|0:2,0:0:0:0:
241,6,42770,1,2,0:2:0:0:
241,6,42890,2,0,L|141:21,1,72.2500013780594,10|2,0:2|0:2,0:0:0:0:
84,34,43370,5,0,1:0:0:0:
17,194,43850,1,0,1:0:0:0:
122,333,44330,1,0,1:0:0:0:
294,311,44810,1,8,0:2:0:0:
121,325,45290,6,0,P|109:305|108:279,1,36.1250006890297,2|2,1:2|0:2,0:0:0:0:
123,252,45530,2,0,P|143:240|169:239,1,36.1250006890297,2|2,0:2|0:2,0:0:0:0:
198,246,45770,2,0,P|218:258|244:259,1,36.1250006890297,2|2,1:2|0:2,0:0:0:0:
268,239,46010,2,0,L|283:139,1,72.2500013780594,2|8,0:3|0:2,0:0:0:0:
294,81,46490,1,8,0:2:0:0:
358,138,46730,2,0,L|366:197,1,36.1250006890297,8|8,0:3|0:3,0:0:0:0:
395,202,46970,2,0,L|387:261,1,36.1250006890297,4|4,0:3|0:3,0:0:0:0:
365,274,47210,6,0,L|373:355,1,72.2500013780594,6|0,1:2|0:0,0:0:0:0:
278,270,47690,2,0,L|270:351,1,72.2500013780594,0|0,1:0|0:0,0:0:0:0:
170,278,48170,2,0,L|178:359,1,72.2500013780594,0|2,1:0|0:3,0:0:0:0:
80,306,48650,1,2,1:2:0:0:
1,346,48890,1,2,0:2:0:0:
74,300,49130,6,0,P|64:257|48:217,1,72.2500013780594,0|0,1:0|0:0,0:0:0:0:
156,258,49610,2,0,P|166:215|182:175,1,72.2500013780594,0|0,1:0|0:0,0:0:0:0:
276,291,50090,2,0,P|266:248|250:208,1,72.2500013780594,0|2,1:0|0:3,0:0:0:0:
357,260,50570,1,10,0:2:0:0:
425,201,50810,1,2,0:2:0:0:
368,266,51050,6,0,L|384:347,1,72.2500013780594,0|0,1:0|0:0,0:0:0:0:
272,296,51530,2,0,L|256:377,1,72.2500013780594,0|0,1:0|0:0,0:0:0:0:
188,281,52010,1,0,1:0:0:0:
108,314,52250,1,2,0:3:0:0:
39,261,52490,1,10,0:2:0:0:
50,174,52730,1,2,0:2:0:0:
139,200,52970,6,0,B|177:203|202:174|202:174|221:193|254:196,2,108.375002067089,2|2|2,1:2|0:2|0:2,0:0:0:0:
55,169,53930,1,0,1:0:0:0:
60,81,54170,1,2,0:3:0:0:
154,60,54410,1,10,0:2:0:0:
154,60,54530,1,8,0:2:0:0:
154,60,54650,2,0,L|203:72,1,36.1250006890297,8|8,0:3|0:3,0:0:0:0:
225,104,54890,6,0,P|266:78|358:74,1,127.5,6|2,1:2|0:2,0:0:0:0:
368,93,55370,2,0,P|378:117|381:145,1,42.5,2|2,1:2|0:2,0:0:0:0:
408,167,55610,2,0,P|398:191|395:219,1,42.5,2|2,0:2|0:2,0:0:0:0:
420,253,55850,2,0,L|520:245,1,85,2|2,1:2|0:3,0:0:0:0:
477,335,56330,1,8,0:2:0:0:
477,335,56450,1,0,0:0:0:0:
477,335,56570,1,0,0:0:0:0:
364,384,56810,6,0,P|338:372|316:352,1,42.5,2|2,1:2|0:2,0:0:0:0:
309,324,57050,2,0,P|286:307|258:298,1,42.5,2|2,0:2|0:2,0:0:0:0:
226,309,57290,1,2,1:2:0:0:
129,260,57530,1,2,0:2:0:0:
129,260,57650,1,2,0:2:0:0:
129,260,57770,2,0,L|100:397,2,127.5,2|2|2,1:2|0:2|0:2,0:0:0:0:
0,200,58730,6,0,P|55:184|44:111,1,127.5,6|0,1:2|1:0,0:0:0:0:
30,131,59210,1,8,0:2:0:0:
144,183,59450,2,0,L|321:163,1,170,0|0,1:0|1:0,0:0:0:0:
451,151,60170,5,8,0:2:0:0:
466,176,60290,1,8,0:3:0:0:
446,210,60410,5,4,0:3:0:0:
455,225,60530,1,0,3:0:0:0:
447,305,60650,6,0,L|432:345,1,42.5,6|0,1:2|0:0,0:0:0:0:
305,230,61010,6,0,L|323:268,1,42.5,6|0,1:2|0:0,0:0:0:0:
151,277,61370,6,0,L|191:291,1,42.5,6|0,1:2|0:0,0:0:0:0:
83,378,61730,5,8,0:2:0:0:
83,378,61850,1,8,0:3:0:0:
146,269,62090,2,0,L|165:218,1,42.5,10|8,0:2|0:3,0:0:0:0:
225,184,62330,2,0,L|202:134,1,42.5,4|0,0:3|3:0,0:0:0:0:
138,93,62570,5,6,1:2:0:0:
236,201,62810,1,2,0:3:0:0:
236,201,62930,2,0,L|307:190,1,53.125,2|8,0:0|0:2,0:0:0:0:
340,129,63170,1,2,0:0:0:0:
340,129,63290,2,0,L|411:140,1,53.125,2|8,0:3|0:2,0:0:0:0:
472,157,63530,5,2,1:2:0:0:
508,301,63770,1,2,0:3:0:0:
508,301,63890,2,0,P|482:333|445:342,1,53.125,2|8,0:0|0:2,0:0:0:0:
391,345,64130,1,2,0:0:0:0:
391,345,64250,2,0,P|359:319|350:282,1,53.125,2|0,0:3|0:0,0:0:0:0:
363,226,64490,5,2,1:2:0:0:
363,226,64610,1,2,0:0:0:0:
363,226,64730,1,2,0:3:0:0:
253,304,64970,1,10,0:2:0:0:
134,225,65210,1,2,0:3:0:0:
30,274,65450,2,0,L|11:386,1,106.25,0|2,1:0|0:3,0:0:0:0:
127,235,65930,2,0,L|117:149,1,53.125,10|2,0:2|0:0,0:0:0:0:
109,96,66170,6,0,L|99:10,2,53.125,2|2|2,0:3|0:0|1:2,0:0:0:0:
206,189,66650,1,2,0:3:0:0:
206,189,66770,1,2,0:0:0:0:
206,189,66890,1,10,0:2:0:0:
280,79,67130,2,0,L|290:-7,2,53.125,2|10|2,0:3|0:2|1:2,0:0:0:0:
371,178,67610,1,2,0:3:0:0:
371,178,67730,1,2,0:0:0:0:
371,178,67850,1,10,0:2:0:0:
491,138,68090,1,2,0:3:0:0:
375,198,68330,6,0,P|370:254|387:318,1,106.25,6|4,1:2|1:2,0:0:0:0:
269,240,68810,2,0,P|243:243|214:260,1,53.125,10|8,0:2|0:2,0:0:0:0:
178,332,69050,1,10,0:2:0:0:
178,332,69170,1,6,1:2:0:0:
178,332,69290,1,2,0:0:0:0:
52,291,69530,1,6,1:2:0:0:
151,212,69770,2,0,P|163:177|159:144,1,53.125,10|8,0:2|0:3,0:0:0:0:
209,94,70010,2,0,P|184:66|154:53,1,53.125,4|0,0:3|3:0,0:0:0:0:
88,72,70250,5,6,1:2:0:0:
216,108,70490,1,2,0:3:0:0:
216,108,70610,2,0,L|289:95,1,53.125,2|8,0:0|0:2,0:0:0:0:
326,36,70850,1,2,0:0:0:0:
326,36,70970,1,2,0:3:0:0:
326,36,71090,1,10,0:2:0:0:
326,36,71210,5,2,1:2:0:0:
419,137,71450,1,2,0:3:0:0:
419,137,71570,2,0,L|492:124,1,53.125,2|8,0:0|0:2,0:0:0:0:
512,211,71810,1,2,0:0:0:0:
512,211,71930,6,0,P|484:225|459:228,1,53.125,2|0,0:3|0:0,0:0:0:0:
424,299,72170,2,0,P|401:287|381:261,1,53.125,2|0,1:2|0:0,0:0:0:0:
302,276,72410,2,0,P|300:252|312:221,1,53.125,2|0,0:3|0:0,0:0:0:0:
263,152,72650,2,0,P|283:139|314:135,1,53.125,10|0,0:2|0:0,0:0:0:0:
364,61,72890,2,0,P|337:57|314:44,1,53.125,2|8,0:3|0:2,0:0:0:0:
232,57,73130,2,0,P|216:35|209:10,2,53.125,0|8|2,1:0|0:2|0:3,0:0:0:0:
316,144,73610,6,0,P|285:149|263:166,1,53.125,10|8,0:2|0:2,0:0:0:0:
186,160,73850,2,0,P|167:185|164:213,1,53.125,10|2,0:2|0:0,0:0:0:0:
200,283,74090,5,6,1:2:0:0:
68,343,74330,1,6,1:2:0:0:
163,206,75050,5,6,1:2:0:0:
295,266,75290,1,6,1:2:0:0:
163,192,75770,2,0,L|166:158,1,34,2|2,0:0|0:0,0:0:0:0:
171,128,76010,5,6,1:2:0:0:
236,32,76250,1,2,0:3:0:0:
347,100,76490,2,0,P|390:110|432:94,1,85,10|2,0:2|0:3,0:0:0:0:
431,93,76850,1,2,0:2:0:0:
435,89,76970,2,0,P|425:132|441:174,1,85,0|2,1:0|0:3,0:0:0:0:
500,272,77450,2,0,P|510:315|494:357,1,85,10|2,0:2|0:3,0:0:0:0:
382,381,77930,5,2,1:2:0:0:
330,274,78170,1,2,0:3:0:0:
224,355,78410,2,0,L|120:351,1,85,10|2,0:2|0:3,0:0:0:0:
135,347,78770,1,2,0:2:0:0:
131,343,78890,2,0,L|135:239,1,85,0|2,1:0|0:3,0:0:0:0:
141,155,79370,1,10,0:2:0:0:
141,155,79490,1,2,0:2:0:0:
141,155,79610,1,2,0:3:0:0:
35,216,79850,5,0,1:0:0:0:
13,111,80090,1,2,0:3:0:0:
127,28,80330,2,0,L|229:20,1,85,10|2,0:2|0:3,0:0:0:0:
220,19,80690,1,2,0:2:0:0:
227,18,80810,2,0,P|241:68|271:93,1,85,0|2,1:0|0:3,0:0:0:0:
371,55,81290,1,10,0:2:0:0:
463,112,81530,1,2,0:3:0:0:
407,232,81770,6,0,B|449:250|489:234|489:234|505:203|543:179,2,127.5,2|2|2,1:2|0:2|0:3,0:0:0:0:
295,158,82730,1,2,1:2:0:0:
397,237,82970,1,2,0:3:0:0:
320,320,83210,1,10,0:2:0:0:
320,320,83330,1,10,0:2:0:0:
320,320,83450,1,6,0:3:0:0:
211,235,83690,5,6,1:2:0:0:
100,263,83930,1,2,0:3:0:0:
29,169,84170,2,0,P|20:126|27:82,1,85,8|2,0:2|0:3,0:0:0:0:
29,81,84530,1,2,0:2:0:0:
33,77,84650,2,0,L|135:70,1,85,0|2,1:0|0:3,0:0:0:0:
225,9,85130,2,0,L|327:16,1,85,10|2,0:2|0:3,0:0:0:0:
353,138,85610,5,2,1:2:0:0:
262,97,85850,1,2,0:3:0:0:
174,183,86090,2,0,L|167:287,1,85,10|2,0:2|0:3,0:0:0:0:
167,276,86450,1,2,0:2:0:0:
166,284,86570,2,0,P|115:270|58:274,1,85,0|2,1:0|0:3,0:0:0:0:
23,366,87050,2,0,P|49:371|76:369,1,42.5,10|2,0:2|0:2,0:0:0:0:
108,384,87290,2,0,P|134:379|161:381,1,42.5,2|2,0:3|0:2,0:0:0:0:
198,384,87530,5,2,1:2:0:0:
246,276,87770,1,2,0:3:0:0:
347,364,88010,2,0,P|410:358|445:359,1,85,10|2,0:2|0:3,0:0:0:0:
442,367,88370,1,2,0:2:0:0:
442,367,88490,2,0,P|436:304|437:269,1,85,0|2,1:0|0:3,0:0:0:0:
501,177,88970,1,10,0:2:0:0:
464,78,89210,1,2,0:2:0:0:
346,34,89450,6,0,B|256:62|256:62|219:37,2,127.5,2|2|2,1:2|0:2|1:2,0:0:0:0:
379,0,90290,1,8,0:2:0:0:
379,0,90410,2,0,L|374:105,1,85,2|0,1:2|1:0,0:0:0:0:
323,190,90890,2,0,L|332:234,1,42.5,10|8,0:2|0:3,0:0:0:0:
362,250,91130,2,0,L|353:294,1,42.5,4|0,0:3|3:0,0:0:0:0:
361,320,91370,5,4,1:2:0:0:
298,380,91610,2,0,P|259:353|227:350,1,72.2500013780594,2|2,0:2|1:2,0:0:0:0:
154,380,92090,1,2,0:2:0:0:
71,354,92330,2,0,P|58:331|55:304,1,36.1250006890297,2|2,1:2|0:2,0:0:0:0:
91,297,92570,2,0,P|104:274|107:247,1,36.1250006890297,2|2,0:2|0:2,0:0:0:0:
77,232,92810,2,0,P|45:196|35:151,1,72.2500013780594,10|2,0:2|0:2,0:0:0:0:
34,86,93290,5,0,1:0:0:0:
105,37,93530,1,2,0:2:0:0:
170,94,93770,2,0,P|197:98|212:105,1,36.1250006890297,2|2,1:2|0:0,0:0:0:0:
245,85,94010,2,0,P|272:81|287:74,1,36.1250006890297,2|2,0:2|0:0,0:0:0:0:
307,44,94250,2,0,L|365:49,1,36.1250006890297,2|2,1:2|0:2,0:0:0:0:
369,81,94490,2,0,L|364:139,1,36.1250006890297,2|2,0:2|0:2,0:0:0:0:
342,153,94730,2,0,L|352:257,1,72.2500013780594,10|2,0:2|0:2,0:0:0:0:
359,271,95090,1,0,1:0:0:0:
359,271,95210,5,0,1:0:0:0:
416,335,95450,1,2,0:2:0:0:
487,286,95690,2,0,L|502:237,1,36.1250006890297,2|2,1:2|0:0,0:0:0:0:
437,189,96050,2,0,L|422:140,1,36.1250006890297,2|2,0:2|1:2,0:0:0:0:
481,87,96410,2,0,P|487:31|475:3,1,72.2500013780594,2|8,0:2|0:2,0:0:0:0:
398,40,96890,2,0,P|356:47|340:45,1,36.1250006890297,2|2,0:2|0:2,0:0:0:0:
321,32,97130,5,6,1:2:0:0:
55,0,98810,5,4,0:3:0:0:
55,0,98930,1,0,3:0:0:0:
55,0,99050,5,4,1:2:0:0:
23,80,99290,2,0,P|65:109|79:132,1,72.2500013780594,2|2,0:2|1:2,0:0:0:0:
144,180,99770,2,0,P|124:193|116:206,1,36.1250006890297,2|2,0:2|0:2,0:0:0:0:
80,281,100130,2,0,P|100:294|108:307,1,36.1250006890297,2|2,0:2|0:2,0:0:0:0:
114,346,100370,1,2,0:2:0:0:
114,346,100490,2,0,L|214:333,1,72.2500013780594,10|2,0:2|0:2,0:0:0:0:
271,323,100970,5,0,1:0:0:0:
342,371,101210,2,0,P|364:380|388:379,1,36.1250006890297,2|2,0:2|0:2,0:0:0:0:
413,359,101450,2,0,P|422:337|421:313,1,36.1250006890297,2|2,1:2|0:2,0:0:0:0:
405,284,101690,1,2,0:2:0:0:
321,259,101930,2,0,L|310:206,1,36.1250006890297,2|2,1:2|0:2,0:0:0:0:
351,201,102170,2,0,L|362:148,1,36.1250006890297,2|2,0:2|0:2,0:0:0:0:
323,139,102410,2,0,L|312:86,1,36.1250006890297,8|2,0:2|0:2,0:0:0:0:
339,67,102650,1,2,0:2:0:0:
260,30,102890,6,0,B|187:4|189:39|109:11,1,144.500002756119,2|0,1:2|1:0,0:0:0:0:
40,169,103850,2,0,B|113:143|111:178|191:150,1,144.500002756119,2|8,1:2|0:2,0:0:0:0:
355,169,104810,6,0,P|321:189|302:227,1,72.2500013780594,2|2,1:2|0:0,0:0:0:0:
300,303,105290,2,0,P|312:326|324:335,1,36.1250006890297,2|2,1:2|0:2,0:0:0:0:
411,356,105650,1,2,0:2:0:0:
411,356,105770,1,8,0:2:0:0:
483,292,106010,1,8,0:2:0:0:
411,229,106250,2,0,P|399:195|401:176,1,36.1250006890297,8|8,0:3|0:3,0:0:0:0:
429,169,106490,2,0,P|441:135|439:116,1,36.1250006890297,4|4,0:3|0:3,0:0:0:0:
414,96,106730,6,0,L|310:80,1,85,6|0,1:2|0:0,0:0:0:0:
258,7,107210,2,0,L|154:23,1,85,0|0,1:0|0:0,0:0:0:0:
94,81,107690,2,0,L|46:74,2,42.5,0|0|2,1:0|0:0|0:3,0:0:0:0:
178,139,108170,1,2,1:2:0:0:
102,205,108410,2,0,P|93:229|91:255,1,42.5,2|0,0:2|0:0,0:0:0:0:
100,283,108650,6,0,P|146:272|198:279,1,85,0|0,1:0|0:0,0:0:0:0:
246,357,109130,2,0,P|292:368|344:361,1,85,0|2,1:0|0:2,0:0:0:0:
405,295,109610,2,0,P|416:249|409:197,1,85,0|2,1:0|0:3,0:0:0:0:
355,129,110090,1,10,0:2:0:0:
424,55,110330,2,0,P|448:56|466:62,1,42.5,2|0,0:2|0:0,0:0:0:0:
496,89,110570,6,0,L|489:181,1,85,0|2,1:0|0:2,0:0:0:0:
406,233,111050,2,0,L|314:226,1,85,0|2,1:0|0:2,0:0:0:0:
219,218,111530,1,0,1:0:0:0:
201,319,111770,1,2,0:3:0:0:
104,353,112010,1,10,0:2:0:0:
26,285,112250,1,2,0:2:0:0:
45,183,112490,6,0,P|57:142|53:25,1,127.5,2|2,1:2|0:2,0:0:0:0:
143,132,113090,1,0,0:0:0:0:
143,132,113210,1,2,0:2:0:0:
218,64,113450,1,0,1:0:0:0:
305,117,113690,1,2,0:3:0:0:
387,53,113930,2,0,P|441:49|479:61,1,85,10|8,0:2|0:3,0:0:0:0:
507,160,114410,5,6,1:2:0:0:
453,248,114650,2,0,L|408:244,1,42.5,2|2,0:2|0:2,0:0:0:0:
360,236,114890,1,2,1:2:0:0:
307,325,115130,2,0,L|241:328,1,42.5,2|2,0:2|0:2,0:0:0:0:
213,331,115370,2,0,P|189:287|145:264,1,85,2|2,1:2|0:3,0:0:0:0:
72,324,115850,2,0,L|68:369,2,42.5,8|0|0,0:2|0:0|0:0,0:0:0:0:
75,213,116330,6,0,P|81:173|97:150,1,42.5,2|2,1:2|0:2,0:0:0:0:
125,142,116570,2,0,P|165:148|188:164,1,42.5,2|2,0:2|0:2,0:0:0:0:
209,178,116810,2,0,P|249:172|272:156,1,42.5,2|0,1:2|0:0,0:0:0:0:
286,136,117050,1,2,0:2:0:0:
372,193,117290,2,0,L|385:103,1,85,2|2,1:2|0:3,0:0:0:0:
318,31,117770,2,0,L|228:18,1,85,8|2,0:2|0:2,0:0:0:0:
137,88,118250,6,0,P|66:113|30:207,1,170,6|8,1:2|0:2,0:0:0:0:
69,296,118970,1,2,0:0:0:0:
69,296,119210,2,0,L|170:284,1,85,0|0,1:0|0:0,0:0:0:0:
226,215,119690,2,0,L|327:227,1,85,8|0,0:2|0:0,0:0:0:0:
410,245,120170,5,6,1:2:0:0:
449,342,120410,1,2,0:2:0:0:
402,254,120650,1,8,0:2:0:0:
469,177,120890,1,2,1:2:0:0:
378,125,121130,1,2,0:2:0:0:
470,86,121370,1,8,0:3:0:0:
372,47,121610,2,0,L|322:54,1,42.5,10|8,0:2|0:3,0:0:0:0:
301,92,121850,2,0,L|251:85,1,42.5,4|0,0:3|3:0,0:0:0:0:
182,73,122090,5,6,1:2:0:0:
99,209,122450,5,2,0:2:0:0:
149,337,122810,5,2,0:2:0:0:
42,343,123050,6,0,L|-9:347,1,42.5,12|0,0:2|0:0,0:0:0:0:
191,209,123410,6,0,L|242:213,1,42.5,12|0,0:2|0:0,0:0:0:0:
80,72,123770,6,0,L|29:76,1,42.5,12|8,0:2|0:2,0:0:0:0:
0,148,124010,5,6,1:2:0:0:
162,65,124250,1,2,0:3:0:0:
162,65,124370,2,0,L|224:77,1,53.125,2|8,0:0|0:2,0:0:0:0:
272,141,124610,1,2,0:0:0:0:
272,141,124730,2,0,L|334:129,1,53.125,2|0,0:3|0:0,0:0:0:0:
402,115,124970,1,2,1:2:0:0:
512,201,125210,1,2,0:3:0:0:
512,201,125330,2,0,P|505:235|490:257,1,53.125,2|8,0:0|0:2,0:0:0:0:
431,299,125570,2,0,L|310:297,1,106.25,2|0,0:0|0:0,0:0:0:0:
246,297,125930,5,2,1:2:0:0:
246,297,126050,1,2,0:0:0:0:
246,297,126170,1,2,0:3:0:0:
372,217,126410,1,10,0:2:0:0:
391,376,126650,1,2,0:3:0:0:
507,267,126890,2,0,L|513:150,1,106.25,0|2,1:0|0:3,0:0:0:0:
464,32,127370,1,10,0:2:0:0:
329,63,127610,1,2,0:3:0:0:
208,0,127850,6,0,P|174:-1|146:8,1,53.125,2|2,1:2|0:0,0:0:0:0:
98,67,128090,2,0,P|97:101|106:129,1,53.125,2|2,0:3|0:0,0:0:0:0:
145,192,128330,1,10,0:2:0:0:
65,292,128570,2,0,L|7:288,2,53.125,2|2|2,0:3|0:0|1:2,0:0:0:0:
170,384,129050,1,2,0:3:0:0:
170,384,129170,1,2,0:0:0:0:
170,384,129290,1,10,0:2:0:0:
76,284,129530,1,2,0:3:0:0:
229,205,129770,6,0,P|278:211|331:230,1,106.25,6|4,1:2|1:2,0:0:0:0:
283,134,130250,1,10,0:2:0:0:
283,134,130370,1,10,0:2:0:0:
283,134,130490,2,0,P|274:101|275:73,1,53.125,10|6,0:2|1:2,0:0:0:0:
331,22,130730,2,0,P|364:13|392:14,1,53.125,2|0,0:0|0:0,0:0:0:0:
455,44,130970,1,6,1:2:0:0:
486,189,131210,2,0,P|456:199|415:197,1,53.125,10|8,0:2|0:3,0:0:0:0:
372,253,131450,2,0,P|348:232|329:195,1,53.125,4|0,0:3|3:0,0:0:0:0:
336,130,131690,5,6,1:2:0:0:
272,273,131930,1,2,0:3:0:0:
272,273,132050,2,0,L|210:286,1,53.125,2|8,0:0|0:2,0:0:0:0:
169,348,132290,1,2,0:0:0:0:
169,348,132410,2,0,L|107:335,1,53.125,2|0,0:3|0:0,0:0:0:0:
39,315,132650,1,2,1:2:0:0:
165,211,132890,1,2,0:3:0:0:
165,211,133010,2,0,L|227:198,1,53.125,2|8,0:0|0:2,0:0:0:0:
259,131,133250,1,2,0:0:0:0:
259,131,133370,2,0,P|295:138|314:147,1,53.125,2|0,0:3|0:0,0:0:0:0:
390,133,133610,6,0,P|401:167|403:188,1,53.125,2|0,1:2|0:0,0:0:0:0:
453,247,133850,2,0,P|428:274|411:286,1,53.125,2|0,0:3|0:0,0:0:0:0:
385,358,134090,2,0,P|349:350|330:342,1,53.125,10|0,0:2|0:0,0:0:0:0:
259,301,134330,2,0,P|223:308|204:317,1,53.125,2|8,0:3|0:2,0:0:0:0:
130,302,134570,2,0,P|118:336|116:357,2,53.125,0|8|2,1:0|0:2|0:3,0:0:0:0:
213,219,135050,2,0,P|209:192|199:168,1,53.125,10|8,0:2|0:2,0:0:0:0:
217,90,135290,2,0,P|192:80|166:76,1,53.125,10|2,0:2|0:0,0:0:0:0:
100,124,135530,5,6,1:2:0:0:
229,5,135770,1,6,1:2:0:0:
135,198,136490,5,6,1:2:0:0:
6,79,136730,1,6,1:2:0:0:
47,190,136970,5,8,0:3:0:0:
64,227,137090,1,4,0:3:0:0:
45,247,137210,5,0,3:0:0:0:
55,267,137330,1,0,3:0:0:0:
26,342,137450,6,0,P|51:334|85:333,1,42.5,6|2,1:2|0:0,0:0:0:0:
137,375,137690,2,0,P|162:383|196:384,1,42.5,2|2,0:3|0:0,0:0:0:0:
241,327,137930,2,0,P|266:319|300:318,1,42.5,10|2,0:0|0:0,0:0:0:0:
352,360,138170,2,0,P|377:368|411:369,1,42.5,2|2,0:3|1:2,0:0:0:0:
461,320,138410,1,4,0:3:0:0:
355,237,138650,2,0,L|308:242,2,42.5,2|2|10,0:3|0:0|0:0,0:0:0:0:
459,173,139130,2,0,L|505:180,1,42.5,2|2,0:3|0:0,0:0:0:0:
512,98,139370,6,0,P|496:71|482:59,1,42.5,2|2,1:2|0:0,0:0:0:0:
409,50,139610,2,0,P|382:66|370:80,1,42.5,2|2,0:3|0:0,0:0:0:0:
333,146,139850,2,0,P|317:160|298:169,1,42.5,10|2,0:0|0:0,0:0:0:0:
219,156,140090,2,0,P|204:140|195:121,1,42.5,2|2,0:3|1:2,0:0:0:0:
114,90,140330,2,0,P|113:141|107:160,1,42.5,4|0,0:3|3:0,0:0:0:0:
70,202,140570,2,0,P|71:253|77:272,1,42.5,2|2,0:3|0:0,0:0:0:0:
137,286,140810,2,0,L|185:283,2,42.5,10|2|2,0:0|0:0|0:3,0:0:0:0:
19,361,141290,5,0,1:0:0:0:
19,361,141410,1,2,0:0:0:0:
127,366,141650,1,2,0:0:0:0:
235,371,141890,1,2,0:0:0:0:
316,297,142130,5,2,1:2:0:0:
425,312,142370,1,0,3:0:0:0:
493,225,142610,1,2,0:0:0:0:
451,122,142850,1,2,0:0:0:0:
352,184,143090,5,2,0:0:0:0:
244,179,143330,1,2,0:0:0:0:
136,174,143570,1,2,0:0:0:0:
62,71,143810,1,2,0:0:0:0:
16,170,144050,5,10,0:0:0:0:
62,269,144290,1,10,0:0:0:0:
16,368,144530,1,4,0:3:0:0:
130,338,144770,1,8,0:3:0:0:
130,338,144890,1,4,0:3:0:0:
226,377,145130,6,0,P|234:353|232:327,1,42.5,6|2,1:2|0:2,0:0:0:0:
187,272,145370,2,0,P|179:248|181:222,1,42.5,2|2,0:3|0:0,0:0:0:0:
240,175,145610,2,0,P|248:151|246:125,1,42.5,8|2,0:0|0:0,0:0:0:0:
201,70,145850,2,0,P|193:46|195:20,1,42.5,2|2,0:3|1:2,0:0:0:0:
270,0,146090,2,0,L|317:7,1,42.5,4|0,0:3|3:0,0:0:0:0:
379,64,146330,2,0,L|426:57,1,42.5,2|2,0:3|0:0,0:0:0:0:
432,141,146570,2,0,L|385:148,1,42.5,8|0,0:0|0:0,0:0:0:0:
323,205,146810,2,0,L|276:198,1,42.5,2|0,0:3|0:0,0:0:0:0:
231,135,147050,5,2,1:2:0:0:
129,199,147290,1,2,0:3:0:0:
227,264,147530,1,10,0:0:0:0:
125,328,147770,1,2,0:3:0:0:
207,379,148010,2,0,L|253:373,1,42.5,4|0,0:3|3:0,0:0:0:0:
283,334,148250,2,0,L|329:340,1,42.5,2|2,0:3|0:0,0:0:0:0:
400,378,148490,2,0,L|431:372,3,28.3333333333333,10|2|2|2,0:0|0:0|0:0|0:3,0:0:0:0:
506,295,148970,5,2,1:2:0:0:
506,295,149090,1,2,0:0:0:0:
484,192,149330,1,2,0:0:0:0:
462,89,149570,1,2,0:0:0:0:
366,203,149930,5,4,0:3:0:0:
254,189,150170,1,2,0:3:0:0:
254,189,150290,1,2,0:0:0:0:
142,175,150530,1,2,0:0:0:0:
29,278,150890,5,2,1:2:0:0:
143,189,151250,1,2,0:0:0:0:
163,332,151610,1,2,0:0:0:0:
298,377,151850,2,0,L|348:385,2,42.5,2|8|2,1:2|0:0|0:3,0:0:0:0:
266,306,152210,1,2,0:0:0:0:
266,306,152330,2,0,P|284:276|306:265,1,42.5,8|8,0:0|0:3,0:0:0:0:
309,196,152570,2,0,P|343:196|364:210,1,42.5,4|4,0:3|0:3,0:0:0:0:
403,263,152810,5,4,1:2:0:0:
484,211,153050,2,0,L|490:128,1,72.2500013780594,2|10,0:0|0:0,0:0:0:0:
499,47,153530,1,2,0:0:0:0:
413,85,153770,2,0,P|392:88|373:85,1,36.1250006890297,2|2,1:2|0:0,0:0:0:0:
337,59,154010,2,0,P|316:56|297:59,1,36.1250006890297,2|2,0:0|0:0,0:0:0:0:
269,93,154250,2,0,L|256:180,1,72.2500013780594,10|2,0:0|0:0,0:0:0:0:
246,258,154730,5,0,1:0:0:0:
163,302,154970,2,0,P|143:315|122:317,1,36.1250006890297,2|2,0:0|0:0,0:0:0:0:
85,306,155210,2,0,P|72:286|70:265,1,36.1250006890297,8|2,0:0|0:0,0:0:0:0:
88,231,155450,2,0,P|93:196|88:164,1,36.1250006890297,2|2,0:0|0:0,0:0:0:0:
78,150,155690,2,0,P|73:115|78:83,1,36.1250006890297,2|2,1:2|0:0,0:0:0:0:
101,76,155930,2,0,P|136:71|168:76,1,36.1250006890297,2|2,0:0|0:0,0:0:0:0:
174,99,156170,2,0,L|271:87,1,72.2500013780594,10|2,0:0|0:0,0:0:0:0:
338,73,156650,5,0,1:0:0:0:
415,19,156890,2,0,P|440:78|464:97,1,72.2500013780594,2|10,0:0|0:0,0:0:0:0:
502,157,157370,2,0,P|479:165|456:179,1,36.1250006890297,2|2,0:0|0:0,0:0:0:0:
437,206,157610,1,2,1:2:0:0:
350,243,157850,2,0,P|327:235|304:221,1,36.1250006890297,2|2,0:0|0:0,0:0:0:0:
285,194,158090,2,0,P|282:252|278:292,1,72.2500013780594,10|2,0:0|0:0,0:0:0:0:
250,354,158570,5,0,1:0:0:0:
161,323,158810,1,2,0:0:0:0:
70,347,159050,2,0,P|30:340|17:330,1,36.1250006890297,10|2,0:0|0:0,0:0:0:0:
4,305,159290,2,0,P|11:265|21:252,1,36.1250006890297,2|2,0:0|0:0,0:0:0:0:
46,240,159530,1,2,1:2:0:0:
8,154,159770,2,0,P|-1:116|2:95,1,36.1250006890297,2|0,0:3|1:0,0:0:0:0:
11,74,160010,2,0,P|46:40|87:35,1,72.2500013780594,8|2,0:0|0:3,0:0:0:0:
144,88,160490,6,0,B|217:98|195:32|272:41,1,144.500002756119,4|8,1:2|0:0,0:0:0:0:
455,85,161450,2,0,P|412:70|379:63,1,72.2500013780594,2|2,1:2|0:0,0:0:0:0:
312,122,161930,1,10,0:0:0:0:
477,211,162410,2,0,P|477:259|389:321,1,144.500002756119,2|8,1:2|0:0,0:0:0:0:
236,244,163370,2,0,P|292:255|315:268,1,72.2500013780594,2|2,1:2|0:0,0:0:0:0:
324,354,163850,1,10,0:0:0:0:
234,383,164090,2,0,P|197:368|183:363,1,36.1250006890297,2|2,0:0|0:0,0:0:0:0:
153,372,164330,6,0,P|134:324|107:284,1,72.2500013780594,2|2,1:2|0:0,0:0:0:0:
47,251,164810,1,8,0:0:0:0:
231,288,165290,2,0,P|250:240|277:200,1,72.2500013780594,2|0,1:2|0:0,0:0:0:0:
337,167,165770,1,10,0:0:0:0:
480,45,166250,2,0,B|393:38|428:107|324:90,1,144.500002756119,2|8,1:2|0:0,0:0:0:0:
181,8,167210,2,0,L|171:56,1,36.1250006890297,2|2,1:2|0:0,0:0:0:0:
163,89,167450,1,2,1:2:0:0:
73,60,167690,2,0,L|83:145,1,72.2500013780594,8|4,0:0|0:3,0:0:0:0:
97,224,168170,5,4,1:2:0:0:
167,162,168410,1,2,0:0:0:0:
167,162,168530,2,0,P|203:166|219:177,1,36.1250006890297,2|0,0:0|1:0,0:0:0:0:
236,198,168770,1,2,0:0:0:0:
236,198,168890,2,0,P|272:194|288:183,1,36.1250006890297,2|0,0:0|0:0,0:0:0:0:
504,15,171770,6,0,L|498:61,1,36.1250006890297,2|2,0:0|0:0,0:0:0:0:
494,96,172010,1,2,1:2:0:0:
407,58,172250,1,2,0:0:0:0:
407,58,172370,1,2,0:0:0:0:
339,119,172610,1,2,0:0:0:0:
339,119,172730,1,2,0:0:0:0:
19,190,175610,6,0,L|25:236,1,36.1250006890297,2|2,0:0|0:0,0:0:0:0:
29,271,175850,1,2,1:2:0:0:
139,244,176090,2,0,L|121:286,1,36.1250006890297,2|2,0:0|0:0,0:0:0:0:
215,324,176450,2,0,L|178:352,1,36.1250006890297,2|2,0:0|0:0,0:0:0:0:
13,245,183290,5,2,0:3:0:0:
11,366,183530,6,0,L|27:223,1,110.499994941712,6|0,1:2|0:0,0:0:0:0:
111,219,183890,2,0,L|123:328,1,110.499994941712,6|0,1:2|0:0,0:0:0:0:
208,372,184250,2,0,L|224:229,1,110.499994941712,6|0,1:2|0:0,0:0:0:0:
308,225,184610,2,0,L|320:334,1,110.499994941712,6|0,1:2|0:0,0:0:0:0:
410,362,184970,2,0,P|446:362|478:342,1,55.2499974708558,2|0,1:3|0:0,0:0:0:0:
512,280,185210,2,0,P|512:244|492:212,1,55.2499974708558,2|0,1:3|0:0,0:0:0:0:
444,163,185450,6,0,L|306:134,1,127.5,6|0,1:2|1:0,0:0:0:0:
241,168,185930,1,8,0:0:0:0:
270,53,186170,2,0,L|135:96,1,127.5,0|8,1:0|0:0,0:0:0:0:
96,158,186650,1,0,1:0:0:0:
14,55,186890,5,8,0:0:0:0:
29,88,187010,1,8,0:3:0:0:
12,114,187130,5,4,0:3:0:0:
24,133,187250,1,8,0:3:0:0:
5,210,187370,5,10,1:2:0:0:
57,323,187610,1,10,1:2:0:0:
166,48,188210,6,0,P|226:24|325:34,1,152.999995330811,6|2,1:2|0:0,0:0:0:0:
386,148,188810,1,10,0:0:0:0:
365,173,188930,1,8,0:3:0:0:
378,198,189050,5,4,0:3:0:0:
368,215,189170,1,0,3:0:0:0:
376,227,189290,5,6,1:2:0:0:
491,17,190130,5,12,0:0:0:0:
458,194,190490,2,0,P|431:184|403:179,1,50.9999984436036,4|2,0:3|0:0,0:0:0:0:
348,128,190730,2,0,P|325:146|307:168,1,50.9999984436036,8|8,0:0|0:3,0:0:0:0:
235,190,190970,2,0,P|239:218|249:245,1,50.9999984436036,4|0,0:3|3:0,0:0:0:0:
313,297,191210,2,0,L|368:307,2,50.9999984436036,2|2|2,0:0|0:0|0:0,0:0:0:0:
214,378,191690,5,6,1:2:0:0:
309,173,192050,5,6,1:2:0:0:
249,17,192410,5,6,1:2:0:0:
294,166,192650,2,0,L|358:150,1,50.9999984436036,8|8,0:0|0:3,0:0:0:0:
389,84,192890,2,0,L|453:100,1,50.9999984436036,4|0,0:3|3:0,0:0:0:0:
512,132,193130,5,6,1:2:0:0:
405,234,193370,1,2,1:2:0:0:
496,354,193610,1,10,0:0:0:0:
349,317,193850,2,0,P|313:318|267:327,1,55.2499974708558,2|2,0:0|1:2,0:0:0:0:
231,377,194090,2,0,P|195:376|149:367,1,55.2499974708558,2|0,0:0|0:0,0:0:0:0:
138,299,194330,1,2,1:2:0:0:
138,299,194450,1,2,0:0:0:0:
138,299,194570,1,10,0:0:0:0:
7,384,194810,1,4,0:3:0:0:
66,234,195050,6,0,P|78:161|72:99,1,110.499994941712,6|0,1:2|1:0,0:0:0:0:
168,212,195530,2,0,P|187:223|231:231,1,55.2499974708558,10|8,0:0|0:0,0:0:0:0:
277,171,195770,1,10,0:0:0:0:
277,171,195890,1,6,1:2:0:0:
277,171,196010,1,2,0:0:0:0:
272,313,196250,1,6,1:2:0:0:
398,377,196490,2,0,P|428:359|443:321,1,55.2499974708558,10|8,0:0|0:3,0:0:0:0:
512,306,196730,2,0,P|511:271|486:239,1,55.2499974708558,4|0,0:3|3:0,0:0:0:0:
423,225,196970,5,6,1:2:0:0:
510,88,197210,1,2,0:3:0:0:
510,88,197330,2,0,L|442:67,1,55.2499974708558,2|8,0:0|0:2,0:0:0:0:
394,14,197570,1,2,0:0:0:0:
394,14,197690,2,0,L|326:35,1,55.2499974708558,2|10,0:3|0:2,0:0:0:0:
266,61,197930,1,2,1:2:0:0:
117,0,198170,1,2,0:3:0:0:
117,0,198290,2,0,L|55:17,1,55.2499974708558,2|8,0:0|0:2,0:0:0:0:
8,79,198530,1,2,0:0:0:0:
8,79,198650,2,0,P|40:90|60:111,1,55.2499974708558,2|0,0:3|0:0,0:0:0:0:
137,101,198890,6,0,P|143:134|135:162,1,55.2499974708558,2|0,1:2|0:0,0:0:0:0:
182,223,199130,2,0,P|156:245|128:252,1,55.2499974708558,2|0,0:3|0:0,0:0:0:0:
98,322,199370,2,0,P|65:310|45:289,1,55.2499974708558,10|0,0:2|0:0,0:0:0:0:
3,222,199610,2,0,P|7:194|1:168,1,55.2499974708558,2|8,0:3|0:2,0:0:0:0:
8,79,199850,2,0,P|7:48|14:17,2,55.2499974708558,0|8|2,1:0|0:2|0:3,0:0:0:0:
146,154,200330,2,0,P|176:170|214:167,1,55.2499974708558,10|8,0:2|0:2,0:0:0:0:
267,211,200570,2,0,P|295:193|312:158,1,55.2499974708558,10|10,0:2|0:0,0:0:0:0:
316,98,200810,5,6,1:2:0:0:
464,185,201050,1,6,1:2:0:0:
312,14,201770,5,6,1:2:0:0:
164,101,202010,1,6,1:2:0:0:
262,369,202490,6,0,P|274:308|445:280,1,255,6|8,1:2|0:3,0:0:0:0:
472,349,203330,1,8,0:0:0:0:
510,228,203570,1,8,0:0:0:0:
472,107,203810,1,8,0:0:0:0:
472,107,203930,1,8,0:0:0:0:
374,174,204170,2,0,P|338:172|317:157,1,42.5,8|8,0:0|0:3,0:0:0:0:
277,108,204410,2,0,P|241:110|220:125,1,42.5,4|0,0:3|3:0,0:0:0:0:
181,173,204650,5,6,1:2:0:0:
89,107,204890,1,2,0:3:0:0:
4,207,205130,2,0,P|-2:270|8:310,1,97.7500018644333,10|2,0:2|0:3,0:0:0:0:
13,311,205490,1,2,0:2:0:0:
13,311,205610,2,0,P|76:305|111:306,1,97.7500018644333,0|2,1:0|0:3,0:0:0:0:
218,376,206090,2,0,P|281:382|316:381,1,97.7500018644333,10|2,0:2|0:3,0:0:0:0:
371,284,206570,5,2,1:2:0:0:
333,185,206810,1,2,0:3:0:0:
232,265,207050,2,0,L|127:259,1,97.7500018644333,10|2,0:2|0:3,0:0:0:0:
129,256,207410,1,2,0:2:0:0:
125,251,207530,2,0,L|131:146,1,97.7500018644333,0|2,1:0|0:3,0:0:0:0:
142,38,208010,1,10,0:2:0:0:
142,38,208130,1,2,0:2:0:0:
142,38,208250,1,2,0:3:0:0:
22,68,208490,5,0,1:0:0:0:
70,157,208730,1,2,0:3:0:0:
4,281,208970,2,0,P|-6:339|18:376,1,97.7500018644333,10|2,0:2|0:3,0:0:0:0:
19,376,209330,1,2,0:2:0:0:
24,381,209450,2,0,L|125:369,1,97.7500018644333,0|2,1:0|0:3,0:0:0:0:
233,297,209930,2,0,L|132:285,1,97.7500018644333,10|2,0:2|0:3,0:0:0:0:
58,204,210410,6,0,L|75:34,2,146.62500279665,2|2|2,1:2|0:2|0:3,0:0:0:0:
130,276,211370,1,2,1:2:0:0:
222,220,211610,1,2,0:3:0:0:
318,295,211850,1,10,0:2:0:0:
318,295,211970,1,10,0:2:0:0:
318,295,212090,1,6,0:3:0:0:
341,176,212330,5,6,1:2:0:0:
430,117,212570,1,2,0:3:0:0:
512,211,212810,2,0,L|501:316,1,97.7500018644333,8|2,0:2|0:3,0:0:0:0:
506,314,213170,1,2,0:2:0:0:
510,320,213290,2,0,P|451:312|398:327,1,97.7500018644333,0|2,1:0|0:3,0:0:0:0:
323,377,213770,2,0,P|264:385|211:370,1,97.7500018644333,10|2,0:2|0:3,0:0:0:0:
184,276,214250,5,2,1:2:0:0:
263,201,214490,1,2,0:3:0:0:
136,149,214730,2,0,L|37:143,1,97.7500018644333,10|2,0:2|0:3,0:0:0:0:
34,138,215090,1,2,0:2:0:0:
30,133,215210,2,0,L|35:35,1,97.7500018644333,0|2,1:0|0:3,0:0:0:0:
164,0,215690,2,0,L|232:3,2,48.8750009322167,10|2|2,0:2|0:2|0:3,0:0:0:0:
217,138,216170,5,2,1:2:0:0:
298,76,216410,1,2,0:3:0:0:
406,152,216650,2,0,L|423:266,1,97.7500018644333,10|2,0:2|0:3,0:0:0:0:
422,255,217010,1,2,0:2:0:0:
425,260,217130,2,0,P|465:229|516:227,1,97.7500018644333,2|2,1:2|0:3,0:0:0:0:
446,342,217610,1,10,0:2:0:0:
446,342,217730,1,2,0:0:0:0:
446,342,217850,1,2,0:2:0:0:
343,291,218090,6,0,P|271:268|233:269,1,97.7500018644333,2|2,1:2|0:3,0:0:0:0:
139,331,218570,2,0,P|100:340|75:334,1,48.8750009322167,14|2,0:0|0:0,0:0:0:0:
27,295,218810,2,0,P|18:256|24:231,1,48.8750009322167,2|8,1:2|0:2,0:0:0:0:
53,178,219050,1,2,1:2:0:0:
53,178,219170,1,8,0:3:0:0:
53,178,219290,1,4,0:3:0:0:
180,221,219530,2,0,L|194:162,1,48.8750009322167,8|8,0:0|0:3,0:0:0:0:
266,147,219770,2,0,L|280:88,1,48.8750009322167,4|0,0:3|3:0,0:0:0:0:
346,59,220010,5,4,1:2:0:0:
504,90,220250,2,0,P|463:99|441:113,1,48.8750009322167,2|2,0:3|0:0,0:0:0:0:
415,171,220490,1,10,0:0:0:0:
500,282,220730,1,2,0:3:0:0:
500,282,220850,2,0,L|397:310,1,97.7500018644333,2|10,0:0|0:0,0:0:0:0:
280,384,221330,1,2,0:0:0:0:
280,384,221450,2,0,L|177:356,1,97.7500018644333,8|2,0:0|0:3,0:0:0:0:
70,327,221930,5,0,1:0:0:0:
120,212,222170,2,0,P|146:204|178:208,1,48.8750009322167,2|2,0:3|0:0,0:0:0:0:
232,256,222410,2,0,P|258:264|290:260,1,48.8750009322167,10|2,0:0|0:0,0:0:0:0:
336,200,222650,2,0,P|362:192|394:196,1,48.8750009322167,2|2,0:3|0:0,0:0:0:0:
461,224,222890,2,0,L|473:123,1,97.7500018644333,2|2,1:2|0:3,0:0:0:0:
382,23,223370,2,0,L|281:11,1,97.7500018644333,10|2,0:0|0:3,0:0:0:0:
157,0,223850,5,0,1:0:0:0:
72,100,224090,1,2,0:3:0:0:
113,221,224330,2,0,L|169:220,1,48.8750009322167,10|2,0:0|0:0,0:0:0:0:
158,300,224570,2,0,L|102:299,1,48.8750009322167,2|2,0:3|0:0,0:0:0:0:
109,382,224810,2,0,L|165:381,1,48.8750009322167,2|10,1:2|0:0,0:0:0:0:
231,337,225050,1,2,0:3:0:0:
254,212,225290,1,10,0:0:0:0:
325,315,225530,2,0,P|358:321|397:320,1,48.8750009322167,2|2,0:3|0:0,0:0:0:0:
451,295,225770,5,2,1:2:0:0:
495,166,226010,2,0,P|478:133|447:112,1,48.8750009322167,2|2,0:3|0:0,0:0:0:0:
403,83,226250,2,0,P|365:81|332:97,1,48.8750009322167,10|2,0:0|0:0,0:0:0:0:
292,133,226490,2,0,P|254:134|221:118,1,48.8750009322167,2|2,0:3|0:0,0:0:0:0:
189,74,226730,1,0,1:0:0:0:
96,162,226970,2,0,L|94:210,1,48.8750009322167,2|2,0:3|0:0,0:0:0:0:
95,300,227210,1,10,0:0:0:0:
95,300,227330,1,0,0:0:0:0:
95,300,227450,1,2,0:3:0:0:
1,229,227690,5,2,1:2:0:0:
3,117,227930,1,2,0:3:0:0:
113,192,228170,2,0,P|186:215|237:204,1,97.7500018644333,8|2,0:0|0:3,0:0:0:0:
213,207,228530,1,2,0:0:0:0:
220,200,228650,2,0,L|224:82,1,97.7500018644333,0|2,1:0|0:3,0:0:0:0:
306,196,229130,1,8,0:0:0:0:
421,152,229370,1,2,0:3:0:0:
465,267,229610,5,2,1:2:0:0:
350,311,229850,2,0,L|250:306,1,97.7500018644333,2|8,0:3|0:0,0:0:0:0:
150,383,230330,1,2,0:3:0:0:
40,340,230570,1,2,1:2:0:0:
33,214,230810,1,2,0:3:0:0:
145,143,231050,2,0,L|256:159,1,97.7500018644333,10|2,0:0|0:3,0:0:0:0:
357,173,231530,6,0,P|344:123|366:62,1,97.7500018644333,0|2,1:0|0:3,0:0:0:0:
490,81,232010,2,0,P|503:131|481:192,1,97.7500018644333,8|2,0:0|0:3,0:0:0:0:
486,181,232370,1,2,0:0:0:0:
482,188,232490,2,0,P|495:238|473:299,1,97.7500018644333,2|2,1:2|0:3,0:0:0:0:
386,380,232970,2,0,L|245:349,1,97.7500018644333,8|2,0:0|0:3,0:0:0:0:
207,273,233450,6,0,B|123:261|123:261|91:276,1,97.7500018644333,0|2,1:0|0:3,0:0:0:0:
121,138,233930,2,0,B|205:126|205:126|237:141,1,97.7500018644333,8|2,0:0|0:3,0:0:0:0:
273,195,234290,1,2,0:0:0:0:
273,195,234410,2,0,L|325:182,2,48.8750009322167,0|10|2,1:0|0:0|0:3,0:0:0:0:
240,349,234890,2,0,P|272:367|316:371,1,48.8750009322167,8|8,0:0|0:3,0:0:0:0:
366,356,235130,2,0,P|384:324|388:280,1,48.8750009322167,4|0,0:3|3:0,0:0:0:0:
394,233,235370,5,6,1:2:0:0:
394,233,235490,1,0,0:0:0:0:
394,233,235610,1,2,0:3:0:0:
499,274,235850,2,0,L|514:165,1,97.7500018644333,10|2,0:0|0:3,0:0:0:0:
506,168,236210,1,2,0:0:0:0:
500,161,236330,2,0,L|391:146,1,97.7500018644333,0|2,1:0|0:3,0:0:0:0:
326,63,236810,2,0,L|217:78,1,97.7500018644333,8|2,0:0|0:3,0:0:0:0:
148,179,237290,5,2,1:2:0:0:
29,156,237530,1,2,0:3:0:0:
66,283,237770,2,0,P|128:267|182:280,1,97.7500018644333,10|2,0:0|0:3,0:0:0:0:
230,333,238250,1,0,1:0:0:0:
230,333,238370,1,10,0:0:0:0:
230,333,238490,1,2,0:3:0:0:
351,215,238730,2,0,L|362:276,1,48.8750009322167,8|8,0:0|0:3,0:0:0:0:
440,295,238970,2,0,L|429:356,1,48.8750009322167,4|0,0:3|3:0,0:0:0:0:
362,384,239210,5,6,1:2:0:0:
435,200,239450,1,6,1:2:0:0:
232,337,240170,5,6,1:2:0:0:
176,148,240410,1,6,1:2:0:0:
20,344,241130,5,6,1:2:0:0:
