osu file format v14

[General]
AudioFilename: audio.mp3
AudioLeadIn: 0
PreviewTime: 55816
Countdown: 0
SampleSet: Soft
StackLeniency: 0.7
Mode: 2
LetterboxInBreaks: 0
WidescreenStoryboard: 1

[Editor]
Bookmarks: 14780,21637,28494,35351,42208,49066,55923,62780,73066,79923,86780,93637,100494,107351,114208,121066,127923,134780,141637,148494,151923,158780,165637,172494,182780,189637
DistanceSpacing: 0.8
BeatDivisor: 4
GridSize: 8
TimelineZoom: 1.8

[Metadata]
Title:Tada Kimi ni Hare
TitleUnicode:ただ君に晴れ
Artist:Yorushika
ArtistUnicode:ヨルシカ
Creator:mingmichael
Version:Salad
Source:
Tags:負け犬にアンコールはいらない n-buna suis Makeinu ni Encore wa Iranai
BeatmapID:2004432
BeatmapSetID:956891

[Difficulty]
HPDrainRate:4
CircleSize:3
OverallDifficulty:7
ApproachRate:7
SliderMultiplier:1.4
SliderTickRate:1

[Events]
//Background and Video events
0,0,"Tada Hare Wallpaper.jpg",0,0
//Break Periods
2,69837,71523
2,114194,116737
2,134980,139023
2,179551,181237
//Storyboard Layer 0 (Background)
//Storyboard Layer 1 (Fail)
//Storyboard Layer 2 (Pass)
//Storyboard Layer 3 (Foreground)
//Storyboard Sound Samples

[TimingPoints]
1066,428.571428571429,4,2,1,100,1,0
14244,-100,4,3,1,100,0,0
14566,-100,4,2,6,100,0,0
14887,-100,4,2,3,100,0,0
20458,-100,4,2,2,100,0,0
20673,-100,4,2,3,100,0,0
21530,-100,4,2,6,100,0,0
21744,-100,4,2,3,100,0,0
28441,-100,4,2,6,100,0,0
28708,-100,4,2,1,100,0,0
29244,-100,4,2,5,100,0,0
29566,-100,4,2,1,100,0,0
30101,-100,4,2,5,100,0,0
30316,-100,4,2,1,100,0,0
32673,-100,4,2,5,100,0,0
32994,-100,4,2,1,100,0,0
33530,-100,4,2,5,100,0,0
33744,-100,4,2,1,100,0,0
34387,-100,4,2,5,100,0,0
34601,-100,4,2,1,100,0,0
35030,-100,4,2,5,100,0,0
35244,-100,4,2,1,100,0,0
36101,-100,4,2,5,100,0,0
36423,-100,4,2,1,100,0,0
36958,-100,4,2,5,100,0,0
37173,-100,4,2,1,100,0,0
38458,-100,4,2,5,100,0,0
38887,-100,4,2,1,100,0,0
39316,-100,4,2,5,100,0,0
39530,-100,4,2,1,100,0,0
41244,-100,4,2,5,100,0,0
41673,-100,4,2,1,100,0,0
41887,-100,4,2,2,100,0,0
42101,-100,4,2,6,100,0,0
42316,-100,4,2,1,100,0,0
43816,-100,4,2,5,100,0,0
44137,-100,4,2,1,100,0,0
44673,-100,4,2,5,100,0,0
44887,-100,4,2,1,100,0,0
46387,-100,4,2,5,100,0,0
46708,-100,4,2,1,100,0,0
47244,-100,4,2,5,100,0,0
47458,-100,4,2,1,100,0,0
47887,-100,4,2,5,100,0,0
48101,-100,4,2,1,100,0,0
48744,-100,4,2,2,100,0,0
48958,-100,4,2,1,100,0,0
49601,-100,4,2,5,100,0,0
49816,-100,4,2,1,100,0,0
50673,-100,4,2,5,100,0,0
50994,-100,4,2,1,100,0,0
55923,-100,4,2,6,100,0,1
56030,-100,4,2,1,100,0,1
62030,-100,4,2,2,100,0,1
62458,-100,4,2,6,100,0,1
62887,-100,4,2,1,100,0,1
66101,-100,4,2,6,100,0,1
68673,-100,4,3,0,100,0,1
69101,-100,4,2,2,100,0,1
69637,-100,4,2,1,100,0,0
72530,-100,4,3,0,100,0,0
72851,-100,4,2,6,100,0,0
73173,-100,4,2,3,100,0,0
78744,-100,4,2,4,80,0,0
78958,-100,4,2,3,100,0,0
79816,-100,4,2,6,100,0,0
80030,-100,4,2,3,100,0,0
86726,-100,4,2,6,100,0,0
86994,-100,4,2,1,100,0,0
93101,-100,4,2,2,100,0,0
93316,-100,4,2,6,100,0,0
93851,-100,4,2,1,100,0,0
98780,-100,4,2,2,100,0,0
99208,-100,4,3,0,70,0,0
99744,-100,4,2,1,100,0,0
100441,-100,4,2,6,100,0,0
100601,-100,4,2,3,100,0,0
112173,-100,4,2,2,100,0,0
112923,-100,4,2,5,100,0,0
113458,-100,4,3,3,70,0,0
113941,-100,4,2,4,100,0,0
114208,-100,4,2,3,100,0,0
119030,-100,4,3,0,100,0,0
119351,-100,4,2,6,100,0,0
120316,-100,4,2,1,100,0,0
121066,-100,4,2,6,100,0,1
121173,-100,4,2,1,100,0,1
127173,-100,4,2,2,100,0,1
127601,-100,4,2,6,100,0,1
128030,-100,4,2,1,100,0,1
131244,-100,4,2,6,100,0,1
133816,-100,4,3,0,100,0,1
134244,-100,4,2,2,100,0,1
134566,-100,4,2,1,100,0,1
134780,-100,4,2,1,100,0,0
141101,-100,4,2,2,100,0,0
141423,-100,4,2,6,100,0,0
141691,-100,4,2,1,100,0,0
144958,-100,4,2,5,100,0,0
145601,-100,4,2,6,100,0,0
145762,-100,4,2,1,100,0,0
146458,-100,4,2,5,100,0,0
146780,-100,4,2,1,100,0,0
147583,-100,4,2,2,100,0,0
147744,-100,4,2,1,100,0,0
148441,-100,4,2,6,100,0,0
150530,-100,4,2,1,100,0,0
151869,-100,4,2,5,100,0,0
152137,-100,4,2,1,100,0,0
158030,-100,4,2,2,100,0,0
158458,-100,4,2,3,100,0,0
161994,-100,4,2,4,100,0,0
165637,-100,4,2,6,100,0,1
165744,-100,4,2,1,100,0,1
171744,-100,4,2,2,100,0,1
172173,-100,4,2,6,100,0,1
172601,-100,4,2,1,100,0,1
175816,-100,4,2,6,100,0,1
178387,-100,4,3,0,100,0,1
178816,-100,4,2,2,100,0,1
179351,-100,4,2,1,100,0,0
182244,-100,4,3,1,100,0,0
182566,-100,4,2,6,100,0,0
182887,-100,4,2,3,100,0,0
188458,-100,4,2,4,100,0,0
188673,-100,4,2,3,100,0,0
189530,-100,4,2,6,100,0,0
189744,-100,4,2,3,100,0,0
195369,-100,4,2,2,100,0,0
195530,-100,4,2,3,100,0,0
195958,-100,4,2,4,100,0,0

[Colours]
Combo1 : 151,151,255
Combo2 : 125,255,255
Combo3 : 255,181,106
Combo4 : 200,200,200

[HitObjects]
256,192,11351,12,2,14351,0:0:0:0:
448,64,14780,6,0,L|304:64,1,140,6|8,0:0|0:0,0:0:0:0:
64,64,15637,1,2,0:0:0:0:
64,64,15851,1,6,0:0:0:0:
160,64,16066,1,8,0:0:0:0:
256,64,16280,1,6,0:0:0:0:
448,64,16708,6,0,L|352:64,1,70,6|12,0:0|0:0,0:0:0:0:
264,192,17137,2,0,L|360:192,1,70,4|2,0:0|0:0,0:0:0:0:
448,192,17566,1,6,0:0:0:0:
448,192,17780,1,8,0:0:0:0:
64,64,18208,6,0,L|208:64,1,140,2|8,0:0|0:0,0:0:0:0:
448,64,19066,1,2,0:0:0:0:
448,64,19280,1,6,0:0:0:0:
352,64,19495,1,8,0:0:0:0:
256,64,19709,1,6,0:0:0:0:
96,192,20137,5,6,0:0:0:0:
416,192,20566,1,4,0:0:0:0:
160,64,20994,1,8,0:0:0:0:
160,64,21208,1,8,0:0:0:0:
256,64,21423,1,8,0:0:0:0:
352,64,21637,6,0,B|424:64|424:64|356:64,1,140,6|8,0:0|0:0,0:0:0:0:
72,192,22494,1,2,0:0:0:0:
72,192,22708,1,6,0:0:0:0:
184,192,22923,1,8,0:0:0:0:
72,192,23137,1,6,0:0:0:0:
352,192,23566,6,0,L|432:192,2,70,6|8|4,0:0|0:0|0:0,0:0:0:0:
160,64,24208,1,2,0:0:0:0:
160,64,24423,1,6,0:0:0:0:
256,64,24637,1,8,0:0:0:0:
352,64,24851,6,0,L|400:64,2,35,4|0|2,0:0|0:0|0:0,0:0:0:0:
256,64,25280,1,4,0:0:0:0:
160,64,25494,1,8,0:0:0:0:
160,64,25708,1,4,0:0:0:0:
352,192,25923,1,2,0:0:0:0:
352,192,26137,1,6,0:0:0:0:
160,192,26351,1,8,0:0:0:0:
256,192,26994,12,0,28066,0:0:0:0:
176,192,28494,5,4,0:0:0:0:
336,192,28923,2,0,L|416:192,2,70,8|0|2,0:0|0:0|0:0,0:0:0:0:
104,64,29780,1,8,0:0:0:0:
104,64,29994,1,2,0:0:0:0:
200,64,30208,5,8,0:0:0:0:
384,64,30637,1,8,0:0:0:0:
64,192,31066,1,2,0:0:0:0:
64,192,31280,1,2,0:0:0:0:
168,64,31494,2,0,L|256:64,2,70,8|0|2,0:0|0:0|0:0,0:0:0:0:
448,192,32351,5,8,0:0:0:0:
352,192,32566,1,0,0:0:0:0:
256,192,32780,1,10,0:0:0:0:
104,64,33208,1,8,0:0:0:0:
336,64,33637,6,0,L|416:64,2,70,8|2|8,0:0|0:0|0:0,0:0:0:0:
200,64,34280,1,0,0:0:0:0:
64,64,34494,1,10,0:0:0:0:
64,64,34708,1,2,0:0:0:0:
200,64,34923,2,0,L|272:64,2,70,8|8|2,0:0|0:0|0:0,0:0:0:0:
448,192,35780,5,8,0:0:0:0:
448,192,35994,1,0,0:0:0:0:
352,192,36208,1,10,0:0:0:0:
64,192,36637,1,8,0:0:0:0:
64,192,36851,1,2,0:0:0:0:
160,192,37066,5,8,0:0:0:0:
448,64,37494,2,0,L|368:64,1,70,8|0,0:0|0:0,0:0:0:0:
256,64,37923,1,2,0:0:0:0:
256,64,38137,1,2,0:0:0:0:
378,64,38351,1,8,0:0:0:0:
134,64,38780,6,0,L|54:64,2,70,2|0|8,0:0|0:0|0:0,0:0:0:0:
256,64,39423,1,8,0:0:0:0:
376,64,39637,1,2,0:0:0:0:
376,192,39851,1,2,0:0:0:0:
256,192,40066,1,8,0:0:0:0:
136,192,40280,1,2,0:0:0:0:
416,192,40708,5,2,0:0:0:0:
96,192,41137,2,0,L|96:272,1,70,2|8,0:0|0:0,0:0:0:0:
360,64,41780,1,8,0:0:0:0:
256,64,41994,1,4,0:0:0:0:
152,64,42208,5,6,0:0:0:0:
432,192,42637,1,8,0:0:0:0:
432,192,42851,2,0,L|336:192,1,70,0|2,0:0|0:0,0:0:0:0:
80,64,43494,1,8,0:0:0:0:
80,64,43708,2,0,L|176:64,1,70,2|8,0:0|0:0,0:0:0:0:
362,64,44351,5,8,0:0:0:0:
150,64,44780,1,10,0:0:0:0:
152,192,44994,1,2,0:0:0:0:
256,192,45208,1,8,0:0:0:0:
360,192,45423,1,0,0:0:0:0:
360,192,45637,5,2,0:0:0:0:
64,192,46066,1,8,0:0:0:0:
64,192,46280,2,0,L|144:192,1,70,0|10,0:0|0:0,0:0:0:0:
448,64,46923,1,8,0:0:0:0:
448,64,47137,1,2,0:0:0:0:
352,64,47351,6,0,L|272:64,2,70,8|2|8,0:0|0:0|0:0,0:0:0:0:
448,64,47994,1,8,0:0:0:0:
448,64,48208,1,2,0:0:0:0:
256,64,48423,1,2,0:0:0:0:
160,64,48637,2,0,L|80:64,2,70,8|4|2,0:0|0:0|0:0,0:0:0:0:
448,64,49494,5,8,0:0:0:0:
448,64,49708,1,8,0:0:0:0:
352,64,49923,1,2,0:0:0:0:
80,192,50351,2,0,L|176:192,1,70,8|2,0:0|0:0,0:0:0:0:
256,192,50780,5,8,0:0:0:0:
400,192,51208,1,8,0:0:0:0:
150,192,51637,1,2,0:0:0:0:
150,192,51851,1,2,0:0:0:0:
256,192,52066,1,8,0:0:0:0:
400,192,52494,5,2,0:0:0:0:
96,64,52923,1,8,0:0:0:0:
96,64,53351,1,2,0:0:0:0:
416,64,53780,1,8,0:0:0:0:
416,64,53994,1,8,0:0:0:0:
112,192,54423,37,8,0:0:0:0:
400,192,54851,21,8,0:0:0:0:
400,192,55066,1,8,0:0:0:0:
416,64,55923,5,6,0:0:0:0:
160,64,56351,1,12,0:0:0:0:
256,64,56566,1,0,0:0:0:0:
352,64,56780,1,6,0:0:0:0:
352,64,56994,1,2,0:0:0:0:
256,64,57208,1,12,0:0:0:0:
64,192,57637,6,0,L|224:192,1,140,6|12,0:0|0:0,0:0:0:0:
448,192,58494,1,6,0:0:0:0:
448,192,58708,1,2,0:0:0:0:
352,192,58923,1,12,0:0:0:0:
64,64,59351,6,0,L|136:64,1,70,6|0,0:0|0:0,0:0:0:0:
256,192,59780,2,0,L|176:192,1,70,12|0,0:0|0:0,0:0:0:0:
64,192,60208,1,6,0:0:0:0:
64,192,60423,1,2,0:0:0:0:
168,192,60637,1,12,0:0:0:0:
448,64,61066,6,0,L|376:64,1,70,6|0,0:0|0:0,0:0:0:0:
256,192,61495,2,0,L|336:192,1,70,12|0,0:0|0:0,0:0:0:0:
448,192,61923,1,6,0:0:0:0:
448,192,62138,1,8,0:0:0:0:
344,192,62352,1,8,0:0:0:0:
64,64,62780,5,6,0:0:0:0:
256,64,63208,1,12,0:0:0:0:
160,64,63423,1,0,0:0:0:0:
64,64,63637,1,6,0:0:0:0:
64,64,63851,1,2,0:0:0:0:
160,64,64066,1,12,0:0:0:0:
448,64,64494,5,6,0:0:0:0:
256,64,64923,1,12,0:0:0:0:
352,64,65137,1,0,0:0:0:0:
448,64,65351,1,6,0:0:0:0:
448,64,65566,1,2,0:0:0:0:
352,64,65780,1,12,0:0:0:0:
96,192,66208,5,6,0:0:0:0:
416,192,66851,5,6,0:0:0:0:
96,192,67708,5,6,0:0:0:0:
368,64,68137,5,2,0:0:0:0:
256,64,68351,1,4,0:0:0:0:
144,64,68566,1,2,0:0:0:0:
144,192,68780,1,8,0:0:0:0:
256,192,68994,1,4,0:0:0:0:
368,192,69208,1,4,0:0:0:0:
48,64,69637,1,0,0:0:0:0:
256,192,72423,22,0,L|256:272,1,70,2|2,0:0|0:0,0:0:0:0:
112,64,73066,6,0,L|256:64,1,140,6|8,0:0|0:0,0:0:0:0:
448,64,73923,1,2,0:0:0:0:
448,64,74137,1,6,0:0:0:0:
352,64,74351,1,8,0:0:0:0:
256,64,74566,1,6,0:0:0:0:
120,192,74994,6,0,L|206:192,1,70,6|8,0:0|0:0,0:0:0:0:
320,192,75423,2,0,L|392:192,2,70,4|2|6,0:0|0:0|0:0,0:0:0:0:
190,192,76066,1,8,0:0:0:0:
464,64,76494,6,0,L|320:64,1,140,2|8,0:0|0:0,0:0:0:0:
80,64,77351,1,2,0:0:0:0:
80,64,77566,1,6,0:0:0:0:
192,64,77780,1,8,0:0:0:0:
80,64,77994,5,6,0:0:0:0:
256,192,78423,1,6,0:0:0:0:
432,64,78851,1,4,0:0:0:0:
112,192,79280,1,12,0:0:0:0:
112,192,79494,1,8,0:0:0:0:
224,192,79708,1,8,0:0:0:0:
336,192,79923,6,0,L|192:192,1,140,6|8,0:0|0:0,0:0:0:0:
440,64,80780,1,2,0:0:0:0:
440,64,80994,1,6,0:0:0:0:
328,64,81208,1,8,0:0:0:0:
440,64,81423,1,6,0:0:0:0:
192,192,81851,6,0,L|104:192,2,70,6|8|4,0:0|0:0|0:0,0:0:0:0:
320,192,82494,2,0,L|408:192,2,70,2|6|8,0:0|0:0|0:0,0:0:0:0:
152,192,83137,6,0,L|152:240,2,35,4|0|2,0:0|0:0|0:0,0:0:0:0:
256,192,83566,1,4,0:0:0:0:
360,192,83780,1,8,0:0:0:0:
256,64,83994,1,4,0:0:0:0:
160,64,84208,1,2,0:0:0:0:
160,64,84423,1,6,0:0:0:0:
256,64,84637,1,8,0:0:0:0:
256,192,85280,12,0,86351,0:0:0:0:
256,192,86780,5,6,0:0:0:0:
384,192,87208,1,8,0:0:0:0:
128,192,88066,5,8,0:0:0:0:
128,192,88280,1,2,0:0:0:0:
128,192,88494,1,2,0:0:0:0:
256,192,88923,1,8,0:0:0:0:
384,192,89780,5,8,0:0:0:0:
384,192,89994,1,2,0:0:0:0:
384,192,90208,1,2,0:0:0:0:
256,192,90637,1,8,0:0:0:0:
136,64,91494,5,8,0:0:0:0:
136,64,91708,1,2,0:0:0:0:
256,64,91923,1,2,0:0:0:0:
376,64,92137,1,0,0:0:0:0:
376,64,92351,1,8,0:0:0:0:
256,64,92566,1,2,0:0:0:0:
136,64,92780,1,2,0:0:0:0:
464,192,93208,1,4,0:0:0:0:
464,192,93423,1,0,0:0:0:0:
336,192,93637,5,6,0:0:0:0:
176,192,94066,1,8,0:0:0:0:
432,64,94923,1,8,0:0:0:0:
256,64,95780,1,8,0:0:0:0:
80,64,96637,1,8,0:0:0:0:
80,64,96851,1,2,0:0:0:0:
80,64,97066,5,2,0:0:0:0:
168,64,97280,1,0,0:0:0:0:
256,64,97494,1,8,0:0:0:0:
256,64,97708,1,0,0:0:0:0:
168,64,97923,1,0,0:0:0:0:
344,64,98351,1,8,0:0:0:0:
344,64,98566,1,0,0:0:0:0:
112,192,98994,21,4,0:0:0:0:
400,192,99423,1,4,0:0:0:0:
400,192,99637,1,4,0:0:0:0:
112,192,100066,1,8,0:0:0:0:
112,192,100280,2,0,L|112:240,1,35,8|8,0:0|0:0,0:0:0:0:
112,192,100494,1,6,0:0:0:0:
352,192,100923,5,8,0:0:0:0:
256,192,101137,1,0,0:0:0:0:
160,64,101351,2,0,L|80:64,2,70,6|0|8,0:0|0:0|0:0,0:0:0:0:
256,64,101994,1,2,0:0:0:0:
352,64,102208,5,4,0:0:0:0:
64,192,102637,1,8,0:0:0:0:
352,64,103066,1,2,0:0:0:0:
256,64,103280,1,2,0:0:0:0:
160,64,103494,1,8,0:0:0:0:
160,64,103708,1,4,0:0:0:0:
256,64,103923,5,2,0:0:0:0:
416,192,104351,1,8,0:0:0:0:
320,192,104566,1,0,0:0:0:0:
416,192,104780,1,2,0:0:0:0:
96,192,105208,1,8,0:0:0:0:
304,64,105637,5,4,0:0:0:0:
200,64,105851,1,2,0:0:0:0:
96,192,106066,2,0,L|16:192,2,70,8|0|6,0:0|0:0|0:0,0:0:0:0:
368,192,106923,1,8,0:0:0:0:
256,192,107137,1,4,0:0:0:0:
144,192,107351,5,2,0:0:0:0:
368,64,107780,1,8,0:0:0:0:
368,64,107994,1,0,0:0:0:0:
256,64,108208,1,2,0:0:0:0:
74,64,108637,2,0,L|144:64,1,70,8|2,0:0|0:0,0:0:0:0:
256,64,109066,5,4,0:0:0:0:
256,192,109494,1,8,0:0:0:0:
440,192,109923,1,2,0:0:0:0:
256,192,110351,1,8,0:0:0:0:
72,192,110780,6,0,L|144:192,1,70,2|0,0:0|0:0,0:0:0:0:
256,64,111208,1,8,0:0:0:0:
256,64,111423,1,0,0:0:0:0:
80,64,111637,1,2,0:0:0:0:
80,64,111851,1,2,0:0:0:0:
168,64,112066,1,8,0:0:0:0:
256,64,112280,5,4,0:0:0:0:
432,64,112708,1,4,0:0:0:0:
80,192,113137,5,4,0:0:0:0:
80,192,113351,1,4,0:0:0:0:
432,192,113780,5,4,0:0:0:0:
432,192,113994,1,4,0:0:0:0:
80,192,117637,38,0,L|224:192,2,140,2|4|8,0:0|0:0|0:0,0:0:0:0:
304,64,118923,1,4,0:0:0:0:
360,64,119137,1,2,0:0:0:0:
96,64,119566,5,2,0:0:0:0:
304,64,119994,21,2,0:0:0:0:
416,64,120208,1,4,0:0:0:0:
416,64,120423,2,0,L|416:112,2,35,8|0|8,0:0|0:0|0:0,0:0:0:0:
416,64,120851,1,8,0:0:0:0:
256,64,121066,5,6,0:0:0:0:
64,64,121494,2,0,L|144:64,1,70,12|0,0:0|0:0,0:0:0:0:
256,64,121923,1,6,0:0:0:0:
256,64,122137,1,2,0:0:0:0:
136,192,122351,2,0,L|48:192,2,70,12|0|6,0:0|0:0|0:0,0:0:0:0:
376,192,123208,5,12,0:0:0:0:
134,64,123637,1,6,0:0:0:0:
134,64,123851,1,2,0:0:0:0:
256,64,124066,1,12,0:0:0:0:
448,192,124494,5,6,0:0:0:0:
256,192,124923,2,0,L|336:192,1,70,12|0,0:0|0:0,0:0:0:0:
448,192,125351,1,6,0:0:0:0:
448,192,125566,1,2,0:0:0:0:
328,64,125780,2,0,L|256:64,1,70,12|0,0:0|0:0,0:0:0:0:
184,64,126208,5,6,0:0:0:0:
408,192,126637,1,12,0:0:0:0:
104,192,127066,1,6,0:0:0:0:
104,192,127280,1,8,0:0:0:0:
104,192,127494,1,8,0:0:0:0:
408,64,127923,5,6,0:0:0:0:
160,64,128351,1,12,0:0:0:0:
256,64,128566,1,0,0:0:0:0:
352,64,128780,1,6,0:0:0:0:
352,64,128994,1,2,0:0:0:0:
256,192,129208,2,0,L|176:192,2,70,12|0|6,0:0|0:0|0:0,0:0:0:0:
432,192,130066,5,12,0:0:0:0:
128,192,130494,1,6,0:0:0:0:
128,192,130708,1,2,0:0:0:0:
256,192,130923,1,12,0:0:0:0:
432,192,131351,5,6,0:0:0:0:
80,192,131994,5,4,0:0:0:0:
432,192,132851,5,4,0:0:0:0:
144,64,133280,5,2,0:0:0:0:
144,64,133494,1,4,0:0:0:0:
256,64,133708,1,0,0:0:0:0:
368,64,133923,1,8,0:0:0:0:
368,64,134137,1,4,0:0:0:0:
144,192,134351,1,4,0:0:0:0:
368,192,134780,1,0,0:0:0:0:
416,64,139923,5,2,0:0:0:0:
416,64,140137,1,2,0:0:0:0:
96,64,140780,5,2,0:0:0:0:
96,64,140994,1,2,0:0:0:0:
256,64,141208,1,4,0:0:0:0:
416,192,141637,6,0,L|256:192,1,140,6|8,0:0|0:0,0:0:0:0:
96,64,142494,1,2,0:0:0:0:
96,64,142708,1,2,0:0:0:0:
192,64,142923,1,8,0:0:0:0:
416,64,143351,6,0,L|336:64,1,70,2|0,0:0|0:0,0:0:0:0:
192,64,143780,2,0,L|288:64,1,70,8|0,0:0|0:0,0:0:0:0:
416,192,144208,1,2,0:0:0:0:
304,192,144423,1,2,0:0:0:0:
192,192,144637,1,8,0:0:0:0:
416,192,145066,5,4,0:0:0:0:
96,192,145708,5,4,0:0:0:0:
336,64,146137,6,0,L|416:64,2,70,2|8|4,0:0|0:0|0:0,0:0:0:0:
96,64,146994,5,2,0:0:0:0:
176,64,147208,1,8,0:0:0:0:
256,64,147423,2,0,L|256:112,2,35,8|8|4,0:0|0:0|0:0,0:0:0:0:
96,192,147958,2,0,L|96:240,1,35,8|8,0:0|0:0,0:0:0:0:
256,192,148280,2,0,L|256:240,2,35,8|8|4,0:0|0:0|0:0,0:0:0:0:
256,64,148923,5,2,0:0:0:0:
448,64,149351,1,2,0:0:0:0:
352,64,149566,1,2,0:0:0:0:
256,192,149780,2,0,L|176:192,1,70,2|2,0:0|0:0,0:0:0:0:
352,192,150208,5,6,0:0:0:0:
352,192,150423,1,2,0:0:0:0:
256,192,150637,1,8,0:0:0:0:
160,64,150851,2,0,L|160:112,2,35,8|8|2,0:0|0:0|0:0,0:0:0:0:
256,64,151280,1,2,0:0:0:0:
352,64,151494,2,0,L|400:64,2,35,8|8|2,0:0|0:0|0:0,0:0:0:0:
160,64,151923,5,6,0:0:0:0:
352,64,152780,1,2,0:0:0:0:
256,64,153208,1,8,0:0:0:0:
160,64,153637,1,2,0:0:0:0:
448,64,154494,5,2,0:0:0:0:
448,64,154923,1,8,0:0:0:0:
256,192,155351,1,2,0:0:0:0:
64,64,156208,5,2,0:0:0:0:
160,64,156637,1,8,0:0:0:0:
256,64,157066,1,2,0:0:0:0:
448,64,157923,5,4,0:0:0:0:
326,64,158137,2,0,L|238:64,2,70,8|8|4,0:0|0:0|0:0,0:0:0:0:
448,64,158780,5,2,0:0:0:0:
160,64,159637,1,2,0:0:0:0:
256,64,160066,1,8,0:0:0:0:
352,64,160494,1,2,0:0:0:0:
64,64,161351,5,2,0:0:0:0:
64,64,161780,1,8,0:0:0:0:
256,192,162208,1,4,0:0:0:0:
256,192,163923,12,0,165208,0:0:0:0:
256,192,165637,5,6,0:0:0:0:
448,192,166066,1,12,0:0:0:0:
352,192,166280,1,0,0:0:0:0:
256,192,166494,1,6,0:0:0:0:
256,192,166708,1,2,0:0:0:0:
448,192,166923,1,12,0:0:0:0:
448,192,167137,1,0,0:0:0:0:
352,192,167351,5,6,0:0:0:0:
64,64,167780,1,12,0:0:0:0:
160,64,167994,1,0,0:0:0:0:
256,64,168208,1,6,0:0:0:0:
256,64,168422,1,2,0:0:0:0:
64,64,168637,1,12,0:0:0:0:
64,64,168851,1,0,0:0:0:0:
160,64,169065,5,6,0:0:0:0:
352,64,169494,1,12,0:0:0:0:
160,192,169923,1,6,0:0:0:0:
160,192,170137,1,2,0:0:0:0:
352,192,170351,1,12,0:0:0:0:
256,192,170566,1,0,0:0:0:0:
352,192,170780,5,6,0:0:0:0:
160,64,171208,1,12,0:0:0:0:
352,192,171637,1,6,0:0:0:0:
352,192,171851,1,8,0:0:0:0:
160,192,172065,1,8,0:0:0:0:
256,192,172280,1,2,0:0:0:0:
160,192,172494,5,6,0:0:0:0:
352,64,172923,1,12,0:0:0:0:
256,64,173137,1,0,0:0:0:0:
160,64,173351,1,6,0:0:0:0:
160,64,173566,1,2,0:0:0:0:
352,64,173780,1,12,0:0:0:0:
256,64,173994,1,0,0:0:0:0:
160,64,174208,5,6,0:0:0:0:
352,64,174637,1,12,0:0:0:0:
160,64,175066,1,6,0:0:0:0:
256,64,175280,1,2,0:0:0:0:
352,64,175494,1,12,0:0:0:0:
64,192,175923,5,6,0:0:0:0:
448,192,176566,5,6,0:0:0:0:
64,192,177423,5,6,0:0:0:0:
256,192,177851,5,2,0:0:0:0:
352,192,178066,1,4,0:0:0:0:
352,192,178280,1,2,0:0:0:0:
160,192,178494,1,8,0:0:0:0:
256,192,178708,1,4,0:0:0:0:
352,192,178923,1,4,0:0:0:0:
64,192,179351,1,0,0:0:0:0:
256,192,182137,21,2,0:0:0:0:
256,192,182351,1,2,0:0:0:0:
64,64,182780,6,0,L|208:64,1,140,6|8,0:0|0:0,0:0:0:0:
448,192,183637,1,2,0:0:0:0:
448,192,183851,1,6,0:0:0:0:
352,192,184066,1,8,0:0:0:0:
448,192,184280,1,6,0:0:0:0:
136,64,184708,6,0,L|56:64,2,70,6|8|0,0:0|0:0|0:0,0:0:0:0:
256,64,185351,1,2,0:0:0:0:
256,64,185566,1,6,0:0:0:0:
136,192,185780,1,8,0:0:0:0:
448,64,186208,6,0,L|304:64,1,140,2|8,0:0|0:0,0:0:0:0:
64,192,187066,1,2,0:0:0:0:
64,192,187280,1,6,0:0:0:0:
160,192,187495,1,8,0:0:0:0:
256,192,187709,5,6,0:0:0:0:
400,64,188137,5,12,0:0:0:0:
112,64,188566,5,4,0:0:0:0:
400,192,188994,5,8,0:0:0:0:
400,192,189208,1,8,0:0:0:0:
300,192,189423,1,8,0:0:0:0:
160,192,189637,6,0,L|304:192,1,140,4|8,0:0|0:0,0:0:0:0:
80,64,190494,1,2,0:0:0:0:
80,64,190708,1,6,0:0:0:0:
176,64,190923,1,8,0:0:0:0:
80,64,191137,1,6,0:0:0:0:
304,64,191566,2,0,L|224:64,2,70,6|8|4,0:0|0:0|0:0,0:0:0:0:
416,64,192208,1,2,0:0:0:0:
96,192,192637,1,12,0:0:0:0:
96,192,192851,6,0,L|96:240,2,35,4|0|2,0:0|0:0|0:0,0:0:0:0:
208,192,193280,1,4,0:0:0:0:
320,192,193494,1,8,0:0:0:0:
320,192,193708,1,4,0:0:0:0:
136,64,193923,1,2,0:0:0:0:
136,64,194137,1,6,0:0:0:0:
256,64,194351,1,8,0:0:0:0:
376,64,194566,5,6,0:0:0:0:
96,192,194994,5,6,0:0:0:0:
416,192,195423,5,4,0:0:0:0:
96,192,195851,5,4,0:0:0:0:
96,192,196066,1,4,0:0:0:0:
