osu file format v14

[General]
AudioFilename: audio.mp3
AudioLeadIn: 0
PreviewTime: 55816
Countdown: 0
SampleSet: Soft
StackLeniency: 0.7
Mode: 2
LetterboxInBreaks: 0
WidescreenStoryboard: 1

[Editor]
Bookmarks: 14780,21637,28494,35351,42208,49066,55923,62780,73066,79923,86780,93637,100494,107351,114208,121066,127923,134780,141637,148494,151923,158780,165637,172494,182780,189637
DistanceSpacing: 0.8
BeatDivisor: 4
GridSize: 8
TimelineZoom: 2

[Metadata]
Title:Tada Kimi ni Hare
TitleUnicode:ただ君に晴れ
Artist:Yorushika
ArtistUnicode:ヨルシカ
Creator:mingmichael
Version:Rain
Source:
Tags:負け犬にアンコールはいらない n-buna suis Makeinu ni Encore wa Iranai
BeatmapID:2003243
BeatmapSetID:956891

[Difficulty]
HPDrainRate:6
CircleSize:4
OverallDifficulty:8.8
ApproachRate:8.8
SliderMultiplier:1.8
SliderTickRate:1

[Events]
//Background and Video events
0,0,"Tada Hare Wallpaper.jpg",0,0
//Break Periods
2,69836,71794
2,114194,116579
2,134979,138865
2,162408,163508
2,179551,181508
//Storyboard Layer 0 (Background)
//Storyboard Layer 1 (Fail)
//Storyboard Layer 2 (Pass)
//Storyboard Layer 3 (Foreground)
//Storyboard Sound Samples

[TimingPoints]
1066,428.571428571429,4,2,1,100,1,0
14244,-100,4,3,1,100,0,0
14566,-100,4,2,6,100,0,0
14887,-100,4,2,3,100,0,0
20458,-100,4,2,2,100,0,0
20673,-100,4,2,3,100,0,0
21530,-100,4,2,6,100,0,0
21744,-100,4,2,3,100,0,0
27155,-100,4,2,5,100,0,0
27316,-100,4,2,3,100,0,0
27798,-100,4,3,3,80,0,0
28012,-100,4,2,3,80,0,0
28441,-100,4,2,6,100,0,0
28708,-100,4,2,1,100,0,0
29244,-100,4,2,5,100,0,0
29566,-100,4,2,1,100,0,0
30101,-100,4,2,5,100,0,0
30316,-100,4,2,1,100,0,0
32673,-100,4,2,5,100,0,0
32994,-100,4,2,1,100,0,0
33530,-100,4,2,5,100,0,0
33744,-100,4,2,1,100,0,0
34387,-100,4,2,5,100,0,0
34601,-100,4,2,1,100,0,0
35030,-100,4,2,5,100,0,0
35244,-100,4,2,1,100,0,0
36101,-100,4,2,5,100,0,0
36423,-100,4,2,1,100,0,0
36958,-100,4,2,5,100,0,0
37173,-100,4,2,1,100,0,0
38458,-100,4,2,5,100,0,0
38887,-100,4,2,1,100,0,0
39316,-100,4,2,5,100,0,0
39530,-100,4,2,1,100,0,0
41244,-100,4,2,5,100,0,0
41512,-100,4,3,0,100,0,0
41673,-100,4,2,1,100,0,0
41887,-100,4,2,2,100,0,0
42101,-100,4,2,6,100,0,0
42316,-100,4,2,5,100,0,0
42530,-100,4,2,1,100,0,0
43816,-100,4,2,5,100,0,0
44030,-100,4,2,1,100,0,0
44726,-100,4,2,5,100,0,0
44833,-100,4,2,1,100,0,0
46387,-100,4,2,5,100,0,0
46601,-100,4,2,1,100,0,0
47244,-100,4,2,5,100,0,0
47405,-100,4,2,1,100,0,0
47887,-100,4,2,5,100,0,0
48101,-100,4,2,1,100,0,0
48744,-100,4,2,2,100,0,0
48958,-100,4,2,1,100,0,0
49601,-100,4,2,5,100,0,0
49816,-100,4,2,1,100,0,0
50673,-100,4,2,5,100,0,0
50887,-100,4,2,1,100,0,0
51316,-100,4,2,5,100,0,0
51476,-100,4,2,1,100,0,0
52173,-100,4,2,5,100,0,0
52387,-100,4,2,1,100,0,0
53030,-100,4,2,5,100,0,0
53244,-100,4,2,1,100,0,0
55923,-100,4,2,6,100,0,1
56030,-100,4,2,1,100,0,1
62030,-100,4,2,2,100,0,1
62458,-100,4,2,6,100,0,1
62887,-100,4,2,1,100,0,1
66101,-100,4,2,6,100,0,1
66316,-100,4,2,1,100,0,1
66744,-100,4,2,6,100,0,1
67066,-100,4,2,1,100,0,1
67601,-100,4,2,6,100,0,1
68673,-100,4,3,0,100,0,1
69101,-100,4,2,2,100,0,1
69423,-100,4,2,1,100,0,1
69637,-100,4,2,1,100,0,0
72530,-100,4,3,0,100,0,0
72851,-100,4,2,6,100,0,0
73173,-100,4,2,3,100,0,0
78744,-100,4,2,4,80,0,0
78958,-100,4,2,3,100,0,0
79816,-100,4,2,6,100,0,0
80030,-100,4,2,3,100,0,0
85441,-100,4,2,5,100,0,0
85601,-100,4,2,3,100,0,0
86083,-100,4,2,3,80,0,0
86726,-100,4,2,6,100,0,0
86994,-100,4,2,1,100,0,0
93101,-100,4,2,2,100,0,0
93316,-100,4,2,6,100,0,0
93851,-100,4,2,1,100,0,0
98780,-100,4,2,2,100,0,0
99208,-100,4,3,0,70,0,0
99744,-100,4,2,1,100,0,0
100441,-100,4,2,6,100,0,0
100601,-100,4,2,3,100,0,0
112173,-100,4,2,2,100,0,0
112923,-100,4,2,5,100,0,0
113458,-100,4,3,3,70,0,0
113941,-100,4,2,4,100,0,0
114208,-100,4,2,3,100,0,0
119030,-100,4,3,0,100,0,0
119351,-100,4,2,6,100,0,0
120316,-100,4,2,1,100,0,0
121066,-100,4,2,6,100,0,1
121173,-100,4,2,1,100,0,1
127173,-100,4,2,2,100,0,1
127601,-100,4,2,6,100,0,1
128030,-100,4,2,1,100,0,1
131244,-100,4,2,6,100,0,1
131458,-100,4,2,1,100,0,1
131887,-100,4,2,6,100,0,1
132208,-100,4,2,1,100,0,1
132744,-100,4,2,6,100,0,1
133816,-100,4,3,0,100,0,1
134244,-100,4,2,2,100,0,1
134566,-100,4,2,1,100,0,1
134780,-100,4,2,1,100,0,0
141101,-100,4,2,2,100,0,0
141423,-100,4,2,6,100,0,0
141691,-100,4,2,1,100,0,0
144958,-100,4,2,5,100,0,0
145280,-100,4,2,1,100,0,0
145601,-100,4,2,6,100,0,0
145762,-100,4,2,1,100,0,0
146458,-100,4,2,5,100,0,0
146780,-100,4,2,1,100,0,0
147583,-100,4,2,2,100,0,0
147744,-100,4,2,1,100,0,0
148441,-100,4,2,6,100,0,0
150530,-100,4,2,1,100,0,0
151869,-100,4,2,5,100,0,0
152137,-100,4,2,1,100,0,0
158030,-100,4,2,2,100,0,0
158458,-100,4,2,3,100,0,0
161994,-100,4,2,4,100,0,0
162637,-100,4,2,1,100,0,0
164887,-100,4,2,2,100,0,0
165316,-100,4,2,1,100,0,0
165637,-100,4,2,6,100,0,1
165744,-100,4,2,1,100,0,1
171744,-100,4,2,2,100,0,1
172173,-100,4,2,6,100,0,1
172601,-100,4,2,1,100,0,1
175816,-100,4,2,6,100,0,1
176030,-100,4,2,1,100,0,1
176458,-100,4,2,6,100,0,1
177101,-100,4,2,1,100,0,1
177316,-100,4,2,6,100,0,1
178387,-100,4,3,0,100,0,1
178816,-100,4,2,2,100,0,1
179351,-100,4,2,1,100,0,0
182244,-100,4,3,1,100,0,0
182566,-100,4,2,6,100,0,0
182887,-100,4,2,3,100,0,0
188458,-100,4,2,4,100,0,0
188673,-100,4,2,3,100,0,0
189530,-100,4,2,6,100,0,0
189744,-100,4,2,3,100,0,0
195369,-100,4,2,2,100,0,0
195530,-100,4,2,3,100,0,0
195958,-100,4,2,4,100,0,0

[Colours]
Combo1 : 151,151,255
Combo2 : 125,255,255
Combo3 : 255,181,106
Combo4 : 200,200,200

[HitObjects]
256,192,11351,12,0,13923,0:0:0:0:
408,192,14137,38,0,L|399:303,1,90,2|2,0:0|0:0,0:0:0:0:
104,192,14780,5,6,0:0:0:0:
256,192,14994,2,0,L|256:232,2,30,4|0|0,0:0|0:0|0:0,0:0:0:0:
104,64,15208,2,0,L|112:160,1,90,8|4,0:0|0:0,0:0:0:0:
320,64,15637,1,2,0:0:0:0:
456,64,15851,2,0,L|456:104,3,30,6|0|0|8,0:0|0:0|0:0|0:0,0:0:0:0:
184,192,16280,1,6,0:0:0:0:
328,192,16494,5,0,0:0:0:0:
184,64,16708,2,0,L|184:104,3,30,6|0|0|8,0:0|0:0|0:0|0:0,0:0:0:0:
456,64,17137,2,0,L|448:168,1,90,4|2,0:0|0:0,0:0:0:0:
104,192,17566,1,6,0:0:0:0:
224,192,17780,1,8,0:0:0:0:
104,192,17994,1,4,0:0:0:0:
456,64,18208,5,2,0:0:0:0:
320,64,18423,2,0,L|320:104,2,30,4|0|0,0:0|0:0|0:0,0:0:0:0:
456,64,18637,2,0,L|448:168,1,90,8|4,0:0|0:0,0:0:0:0:
256,192,19066,1,2,0:0:0:0:
104,192,19280,2,0,L|104:240,3,30,6|0|0|8,0:0|0:0|0:0|0:0,0:0:0:0:
400,192,19708,6,0,L|392:288,1,90,6|0,0:0|0:0,0:0:0:0:
112,64,20137,2,0,L|120:160,1,90,6|8,0:0|0:0,0:0:0:0:
400,64,20566,1,4,0:0:0:0:
256,64,20780,1,2,0:0:0:0:
112,64,20994,1,8,0:0:0:0:
400,64,21208,1,8,0:0:0:0:
400,64,21423,1,8,0:0:0:0:
112,64,21637,5,6,0:0:0:0:
256,192,21851,2,0,L|256:232,2,30,4|0|0,0:0|0:0|0:0,0:0:0:0:
400,64,22066,2,0,L|392:160,1,90,8|4,0:0|0:0,0:0:0:0:
200,64,22494,1,2,0:0:0:0:
336,64,22708,2,0,L|336:112,3,30,6|0|0|8,0:0|0:0|0:0|0:0,0:0:0:0:
64,192,23137,1,6,0:0:0:0:
64,192,23351,5,0,0:0:0:0:
224,192,23566,1,6,0:0:0:0:
200,192,23637,1,0,0:0:0:0:
176,192,23708,1,0,0:0:0:0:
152,192,23780,1,8,0:0:0:0:
424,64,23994,1,4,0:0:0:0:
256,64,24208,2,0,L|264:176,1,90,2|6,0:0|0:0,0:0:0:0:
424,64,24637,1,8,0:0:0:0:
128,64,24851,1,4,0:0:0:0:
192,64,24958,1,0,0:0:0:0:
256,64,25066,1,2,0:0:0:0:
432,192,25280,6,0,L|432:256,2,45,4|0|8,0:0|0:0|0:0,0:0:0:0:
352,192,25601,1,0,0:0:0:0:
176,192,25708,1,4,0:0:0:0:
112,192,25816,2,0,L|112:144,1,45,0|2,0:0|0:0,0:0:0:0:
176,192,26030,1,0,0:0:0:0:
352,64,26137,2,0,L|448:64,1,90,6|8,0:0|0:0,0:0:0:0:
168,64,26566,38,0,L|168:120,2,45,6|0|0,0:0|0:0|0:0,0:0:0:0:
224,64,26887,1,0,0:0:0:0:
392,192,26994,2,0,L|392:240,1,45,6|0,0:0|0:0,0:0:0:0:
224,64,27208,1,4,0:0:0:0:
120,64,27423,22,0,L|120:120,2,45,8|8|2,0:0|0:0|0:0,0:0:0:0:
192,64,27744,1,0,0:0:0:0:
376,192,27851,2,0,L|376:136,1,45,8|8,0:0|0:0,0:0:0:0:
208,192,28066,1,8,0:0:0:0:
136,192,28173,2,0,L|136:256,2,45,0|8|8,0:0|0:0|0:0,0:0:0:0:
376,192,28494,5,6,0:0:0:0:
160,64,28923,1,8,0:0:0:0:
160,64,29137,1,0,0:0:0:0:
352,64,29351,1,10,0:0:0:0:
160,64,29780,1,8,0:0:0:0:
256,64,29994,1,2,0:0:0:0:
352,64,30208,5,8,0:0:0:0:
160,64,30423,2,0,L|256:64,1,90,2|8,0:0|0:0,0:0:0:0:
408,192,30851,1,0,0:0:0:0:
104,192,31066,1,2,0:0:0:0:
104,192,31280,1,2,0:0:0:0:
256,192,31494,1,8,0:0:0:0:
104,192,31708,1,0,0:0:0:0:
104,192,31923,5,2,0:0:0:0:
352,192,32351,1,8,0:0:0:0:
352,192,32566,1,0,0:0:0:0:
160,192,32780,1,10,0:0:0:0:
408,64,33208,1,8,0:0:0:0:
408,64,33423,1,2,0:0:0:0:
104,64,33637,5,8,0:0:0:0:
208,64,33851,1,2,0:0:0:0:
208,64,34066,1,8,0:0:0:0:
104,64,34280,1,0,0:0:0:0:
304,64,34494,1,10,0:0:0:0:
304,64,34708,1,2,0:0:0:0:
104,64,34923,1,8,0:0:0:0:
104,64,35137,1,8,0:0:0:0:
416,64,35351,5,2,0:0:0:0:
160,192,35780,1,8,0:0:0:0:
160,192,35994,1,0,0:0:0:0:
352,192,36208,1,10,0:0:0:0:
160,64,36637,1,8,0:0:0:0:
262,64,36851,1,2,0:0:0:0:
352,64,37066,5,8,0:0:0:0:
160,64,37280,2,0,L|256:64,1,90,2|8,0:0|0:0,0:0:0:0:
408,192,37708,1,0,0:0:0:0:
104,192,37923,1,2,0:0:0:0:
104,192,38137,1,2,0:0:0:0:
256,192,38351,1,8,0:0:0:0:
256,192,38566,1,8,0:0:0:0:
104,192,38780,5,2,0:0:0:0:
104,192,38994,1,0,0:0:0:0:
408,192,39208,1,8,0:0:0:0:
256,192,39423,1,8,0:0:0:0:
104,192,39637,1,2,0:0:0:0:
104,192,39851,1,2,0:0:0:0:
256,192,40066,1,8,0:0:0:0:
104,192,40280,5,2,0:0:0:0:
104,192,40708,1,2,0:0:0:0:
256,192,40923,1,8,0:0:0:0:
408,192,41137,1,0,0:0:0:0:
240,64,41351,2,0,L|240:128,1,45,8|0,0:0|0:0,0:0:0:0:
408,64,41566,1,8,0:0:0:0:
408,64,41780,1,8,0:0:0:0:
104,64,41994,1,4,0:0:0:0:
408,64,42208,6,0,L|400:160,1,90,6|8,0:0|0:0,0:0:0:0:
208,192,42637,2,0,L|216:96,1,90,8|0,0:0|0:0,0:0:0:0:
400,192,43066,1,2,0:0:0:0:
88,64,43494,2,0,L|96:160,1,90,8|2,0:0|0:0,0:0:0:0:
256,64,43923,5,8,0:0:0:0:
424,64,44137,2,0,L|424:112,1,45,2|0,0:0|0:0,0:0:0:0:
256,192,44351,1,8,0:0:0:0:
160,192,44566,2,0,L|160:240,1,45
328,192,44780,1,10,0:0:0:0:
400,192,44887,2,0,L|400:144,2,45,0|2|0,0:0|0:0|0:0,0:0:0:0:
144,64,45208,1,8,0:0:0:0:
144,64,45423,1,0,0:0:0:0:
368,64,45637,5,2,0:0:0:0:
144,64,46066,1,8,0:0:0:0:
256,64,46280,2,0,L|160:64,1,90,0|10,0:0|0:0,0:0:0:0:
344,192,46708,1,0,0:0:0:0:
240,192,46923,2,0,L|128:192,1,90,8|2,0:0|0:0,0:0:0:0:
424,64,47351,6,0,L|424:136,2,45,8|0|2,0:0|0:0|0:0,0:0:0:0:
256,64,47780,2,0,L|352:64,1,90,8|8,0:0|0:0,0:0:0:0:
166,64,48208,1,2,0:0:0:0:
166,64,48423,1,2,0:0:0:0:
346,64,48637,1,8,0:0:0:0:
72,64,48851,1,4,0:0:0:0:
72,64,49066,5,2,0:0:0:0:
336,192,49494,1,8,0:0:0:0:
336,192,49708,1,8,0:0:0:0:
176,192,49923,1,2,0:0:0:0:
336,64,50137,2,0,L|224:64,1,90,2|8,0:0|0:0,0:0:0:0:
144,64,50566,1,2,0:0:0:0:
368,64,50780,6,0,L|360:160,1,90,8|2,0:0|0:0,0:0:0:0:
144,64,51208,2,0,L|152:160,1,90,8|8,0:0|0:0,0:0:0:0:
368,64,51530,2,0,L|368:112,1,45,0|2,0:0|0:0,0:0:0:0:
368,64,51851,1,2,0:0:0:0:
256,64,52066,1,8,0:0:0:0:
144,64,52280,1,8,0:0:0:0:
416,192,52494,6,0,L|320:192,1,90,2|0,0:0|0:0,0:0:0:0:
96,192,52923,2,0,L|192:192,1,90,8|8,0:0|0:0,0:0:0:0:
416,64,53351,1,2,0:0:0:0:
416,64,53566,1,0,0:0:0:0:
96,64,53780,1,8,0:0:0:0:
96,64,53994,37,8,0:0:0:0:
416,64,54423,1,8,0:0:0:0:
96,64,54851,21,8,0:0:0:0:
96,64,55066,1,8,0:0:0:0:
392,64,55923,6,0,L|296:64,1,90,6|0,0:0|0:0,0:0:0:0:
120,64,56351,2,0,L|216:64,1,90,12|0,0:0|0:0,0:0:0:0:
392,192,56780,1,6,0:0:0:0:
392,192,56994,1,2,0:0:0:0:
120,192,57208,1,12,0:0:0:0:
256,192,57423,1,0,0:0:0:0:
392,192,57637,6,0,L|296:192,1,90,6|0,0:0|0:0,0:0:0:0:
88,64,58066,1,12,0:0:0:0:
88,64,58280,1,0,0:0:0:0:
360,64,58494,2,0,L|376:168,1,90,6|2,0:0|0:0,0:0:0:0:
152,64,58923,2,0,L|136:168,1,90,12|0,0:0|0:0,0:0:0:0:
432,192,59351,5,6,0:0:0:0:
320,192,59566,1,0,0:0:0:0:
320,192,59780,1,12,0:0:0:0:
432,192,59994,1,0,0:0:0:0:
160,64,60208,1,6,0:0:0:0:
160,64,60423,1,2,0:0:0:0:
288,192,60637,1,12,0:0:0:0:
160,64,60851,1,0,0:0:0:0:
378,192,61066,6,0,L|288:192,1,90,6|0,0:0|0:0,0:0:0:0:
160,64,61494,1,12,0:0:0:0:
352,64,61708,1,0,0:0:0:0:
352,64,61923,1,6,0:0:0:0:
80,64,62137,1,8,0:0:0:0:
432,64,62351,2,0,L|424:160,1,90,8|2,0:0|0:0,0:0:0:0:
128,192,62780,6,0,L|136:288,1,90,6|0,0:0|0:0,0:0:0:0:
320,192,63208,2,0,L|224:192,1,90,12|0,0:0|0:0,0:0:0:0:
392,64,63637,1,6,0:0:0:0:
392,64,63851,1,2,0:0:0:0:
120,64,64066,1,12,0:0:0:0:
256,64,64280,1,0,0:0:0:0:
392,64,64494,5,6,0:0:0:0:
256,64,64708,1,0,0:0:0:0:
256,64,64923,1,12,0:0:0:0:
392,64,65137,1,0,0:0:0:0:
176,192,65351,1,6,0:0:0:0:
176,192,65566,1,2,0:0:0:0:
448,192,65780,2,0,L|440:288,1,90,12|0,0:0|0:0,0:0:0:0:
168,64,66208,5,6,0:0:0:0:
168,64,66423,1,0,0:0:0:0:
344,64,66637,1,8,0:0:0:0:
72,64,66851,6,0,L|80:248,1,180,6|2,0:0|0:0,0:0:0:0:
88,64,67494,1,8,0:0:0:0:
424,64,67708,6,0,L|416:248,1,180,6|2,0:0|0:0,0:0:0:0:
144,64,68351,1,4,0:0:0:0:
256,64,68566,1,2,0:0:0:0:
368,64,68780,5,8,0:0:0:0:
368,64,68994,1,4,0:0:0:0:
96,64,69208,6,0,L|104:248,1,180,4|0,0:0|0:0,0:0:0:0:
416,64,72423,6,0,L|408:160,1,90,2|2,0:0|0:0,0:0:0:0:
96,64,73066,5,6,0:0:0:0:
256,64,73280,2,0,L|256:104,2,30,4|0|0,0:0|0:0|0:0,0:0:0:0:
112,192,73494,2,0,L|120:304,1,90,8|4,0:0|0:0,0:0:0:0:
304,192,73923,1,2,0:0:0:0:
432,192,74137,2,0,L|432:240,3,30,6|0|0|8,0:0|0:0|0:0|0:0,0:0:0:0:
160,64,74566,1,6,0:0:0:0:
304,64,74780,5,0,0:0:0:0:
160,64,74994,2,0,L|160:104,3,30,6|0|0|8,0:0|0:0|0:0|0:0,0:0:0:0:
432,64,75423,2,0,L|424:160,1,90,4|2,0:0|0:0,0:0:0:0:
136,192,75851,2,0,L|144:288,1,90,6|8,0:0|0:0,0:0:0:0:
416,192,76280,1,4,0:0:0:0:
416,192,76494,5,2,0:0:0:0:
256,192,76708,2,0,L|256:232,2,30,4|0|0,0:0|0:0|0:0,0:0:0:0:
400,64,76923,2,0,L|392:160,1,90,8|4,0:0|0:0,0:0:0:0:
160,64,77351,1,2,0:0:0:0:
64,64,77566,2,0,L|64:104,3,30,6|0|0|8,0:0|0:0|0:0|0:0,0:0:0:0:
336,64,77994,1,6,0:0:0:0:
176,64,78208,5,0,0:0:0:0:
400,192,78423,2,0,L|392:288,1,90,6|8,0:0|0:0,0:0:0:0:
112,192,78851,2,0,L|120:288,1,90,4|0,0:0|0:0,0:0:0:0:
392,64,79280,1,8,0:0:0:0:
120,64,79494,1,8,0:0:0:0:
120,64,79708,1,8,0:0:0:0:
392,64,79923,5,6,0:0:0:0:
256,192,80137,2,0,L|256:248,2,30,4|0|0,0:0|0:0|0:0,0:0:0:0:
120,64,80351,2,0,L|128:168,1,90,8|4,0:0|0:0,0:0:0:0:
256,64,80780,1,2,0:0:0:0:
72,192,80994,1,6,0:0:0:0:
90,192,81066,1,0,0:0:0:0:
106,192,81137,1,0,0:0:0:0:
122,192,81208,1,8,0:0:0:0:
400,192,81423,1,6,0:0:0:0:
256,192,81637,5,0,0:0:0:0:
400,192,81851,1,2,0:0:0:0:
384,192,81923,1,0,0:0:0:0:
368,192,81994,1,0,0:0:0:0:
352,192,82066,1,8,0:0:0:0:
80,64,82280,2,0,L|144:136,1,90,4|2,0:0|0:0,0:0:0:0:
432,64,82708,2,0,L|368:136,1,90,6|8,0:0|0:0,0:0:0:0:
80,64,83137,1,4,0:0:0:0:
148,64,83244,1,0,0:0:0:0:
216,64,83351,1,2,0:0:0:0:
384,192,83566,5,4,0:0:0:0:
432,192,83673,2,0,L|432:240,1,45,0|8,0:0|0:0,0:0:0:0:
384,192,83887,1,0,0:0:0:0:
216,64,83994,1,4,0:0:0:0:
152,64,84101,1,0,0:0:0:0:
152,64,84208,1,2,0:0:0:0:
152,64,84316,1,0,0:0:0:0:
336,64,84423,2,0,L|432:64,1,90,6|8,0:0|0:0,0:0:0:0:
152,192,84851,37,6,0:0:0:0:
204,192,84958,1,0,0:0:0:0:
256,192,85066,1,0,0:0:0:0:
88,64,85173,2,0,L|88:120,1,45,0|6,0:0|0:0,0:0:0:0:
152,64,85387,1,0,0:0:0:0:
336,192,85494,1,4,0:0:0:0:
200,64,85708,22,0,L|200:120,2,45,8|8|2,0:0|0:0|0:0,0:0:0:0:
256,64,86030,1,0,0:0:0:0:
456,192,86137,2,0,L|456:240,1,45,8|8,0:0|0:0,0:0:0:0:
256,192,86351,1,8,0:0:0:0:
176,192,86458,2,0,L|176:144,2,45,8|8|0,0:0|0:0|0:0,0:0:0:0:
360,192,86780,5,6,0:0:0:0:
360,192,87208,1,8,0:0:0:0:
176,64,88066,5,8,0:0:0:0:
336,64,88280,1,2,0:0:0:0:
336,64,88494,1,2,0:0:0:0:
80,64,88923,1,8,0:0:0:0:
336,192,89780,5,8,0:0:0:0:
176,192,89994,1,2,0:0:0:0:
176,192,90208,1,2,0:0:0:0:
432,64,90637,1,8,0:0:0:0:
176,64,91494,5,8,0:0:0:0:
336,64,91708,1,2,0:0:0:0:
336,64,91923,1,2,0:0:0:0:
176,64,92137,5,0,0:0:0:0:
256,64,92351,1,8,0:0:0:0:
336,64,92566,1,0,0:0:0:0:
120,192,92780,1,2,0:0:0:0:
120,192,92994,1,2,0:0:0:0:
392,192,93208,1,4,0:0:0:0:
392,192,93423,1,0,0:0:0:0:
120,192,93637,5,6,0:0:0:0:
120,192,94066,1,8,0:0:0:0:
256,192,94923,1,8,0:0:0:0:
392,192,95780,1,8,0:0:0:0:
176,192,96637,1,8,0:0:0:0:
336,192,96851,1,2,0:0:0:0:
336,192,97066,1,2,0:0:0:0:
176,64,97280,5,0,0:0:0:0:
256,64,97494,1,8,0:0:0:0:
336,64,97708,1,0,0:0:0:0:
176,64,97923,1,0,0:0:0:0:
336,64,98138,1,0,0:0:0:0:
336,64,98351,1,8,0:0:0:0:
176,64,98566,1,0,0:0:0:0:
432,192,98994,5,4,0:0:0:0:
80,192,99423,1,4,0:0:0:0:
80,192,99637,1,4,0:0:0:0:
80,192,99851,2,0,L|80:240,1,45,8|0,0:0|0:0,0:0:0:0:
272,192,100066,1,8,0:0:0:0:
200,192,100173,2,0,L|200:240,2,45,8|8|0,0:0|0:0|0:0,0:0:0:0:
400,192,100494,5,6,0:0:0:0:
256,64,100708,2,0,L|352:64,1,90,0|8,0:0|0:0,0:0:0:0:
200,192,101137,1,0,0:0:0:0:
472,64,101351,1,6,0:0:0:0:
472,64,101566,1,0,0:0:0:0:
200,64,101780,2,0,L|208:160,1,90,8|2,0:0|0:0,0:0:0:0:
400,192,102208,6,0,L|400:240,2,45,6|0|2,0:0|0:0|0:0,0:0:0:0:
256,192,102637,2,0,L|160:192,1,90,8|0,0:0|0:0,0:0:0:0:
346,64,102958,2,0,L|346:112,1,45,0|2,0:0|0:0,0:0:0:0:
346,64,103280,1,2,0:0:0:0:
166,64,103494,1,8,0:0:0:0:
166,64,103708,1,4,0:0:0:0:
440,64,103923,5,2,0:0:0:0:
152,192,104351,1,8,0:0:0:0:
360,192,104566,2,0,L|264:192,1,90,0|2,0:0|0:0,0:0:0:0:
128,64,105208,1,8,0:0:0:0:
128,64,105423,2,0,L|128:120,1,45,2|0,0:0|0:0,0:0:0:0:
312,64,105637,6,0,L|312:120,2,45,4|0|2,0:0|0:0|0:0,0:0:0:0:
128,64,105958,1,0,0:0:0:0:
64,64,106066,2,0,L|64:112,1,45,8|0,0:0|0:0,0:0:0:0:
256,192,106280,1,0,0:0:0:0:
304,192,106387,1,0,0:0:0:0:
128,192,106494,6,0,L|128:256,2,45,6|0|2,0:0|0:0|0:0,0:0:0:0:
400,192,106923,1,8,0:0:0:0:
400,192,107137,1,4,0:0:0:0:
112,192,107351,5,2,0:0:0:0:
400,192,107780,1,8,0:0:0:0:
256,64,107994,1,0,0:0:0:0:
400,64,108208,1,2,0:0:0:0:
400,64,108423,1,2,0:0:0:0:
256,192,108637,2,0,L|352:192,1,90,8|2,0:0|0:0,0:0:0:0:
144,64,109066,6,0,L|152:176,1,90,4|2,0:0|0:0,0:0:0:0:
368,64,109494,2,0,L|361:153,1,90,8|4,0:0|0:0,0:0:0:0:
144,64,109923,1,2,0:0:0:0:
144,64,110137,1,2,0:0:0:0:
256,64,110351,1,8,0:0:0:0:
144,64,110566,1,4,0:0:0:0:
440,64,110780,5,2,0:0:0:0:
440,64,110994,1,0,0:0:0:0:
288,192,111208,1,8,0:0:0:0:
440,192,111423,1,0,0:0:0:0:
288,192,111637,1,2,0:0:0:0:
288,192,111851,2,0,L|384:192,1,90,2|8,0:0|0:0,0:0:0:0:
104,64,112280,5,4,0:0:0:0:
408,64,112708,1,4,0:0:0:0:
104,64,113137,6,0,L|104:160,1,90,4|4,0:0|0:0,0:0:0:0:
256,64,113566,1,8,0:0:0:0:
320,64,113673,1,8,0:0:0:0:
104,192,113780,2,0,L|104:240,1,45,4|0,0:0|0:0,0:0:0:0:
320,192,113994,1,4,0:0:0:0:
416,64,117208,6,0,L|424:96,5,30
416,64,117637,6,0,P|344:64|424:156,1,270,2|2,0:0|0:0,0:0:0:0:
208,192,118494,1,8,0:0:0:0:
208,192,118923,5,4,0:0:0:0:
416,192,119137,1,2,0:0:0:0:
136,192,119566,5,2,0:0:0:0:
376,192,119994,6,0,L|368:288,1,90,2|4,0:0|0:0,0:0:0:0:
160,64,120423,5,8,0:0:0:0:
96,64,120530,2,0,L|96:120,3,45,0|8|8|10,0:0|0:0|0:0|0:0,0:0:0:0:
416,64,121066,6,0,L|320:64,1,90,6|0,0:0|0:0,0:0:0:0:
144,192,121494,2,0,L|240:192,1,90,12|0,0:0|0:0,0:0:0:0:
392,192,121923,1,6,0:0:0:0:
392,192,122137,1,2,0:0:0:0:
120,64,122352,1,12,0:0:0:0:
256,64,122566,1,0,0:0:0:0:
392,64,122780,5,6,0:0:0:0:
256,64,122994,1,0,0:0:0:0:
256,192,123208,1,12,0:0:0:0:
392,192,123423,1,0,0:0:0:0:
104,64,123637,2,0,L|120:160,1,90,6|2,0:0|0:0,0:0:0:0:
392,192,124066,2,0,L|376:96,1,90,12|0,0:0|0:0,0:0:0:0:
104,64,124494,5,6,0:0:0:0:
224,64,124708,1,0,0:0:0:0:
224,64,124923,1,12,0:0:0:0:
104,64,125137,1,0,0:0:0:0:
424,64,125351,1,6,0:0:0:0:
424,64,125566,1,2,0:0:0:0:
248,192,125780,2,0,L|344:192,1,90,12|0,0:0|0:0,0:0:0:0:
144,64,126208,5,6,0:0:0:0:
144,64,126423,1,0,0:0:0:0:
304,64,126637,1,12,0:0:0:0:
144,64,126851,1,0,0:0:0:0:
144,64,127066,1,6,0:0:0:0:
424,64,127280,1,8,0:0:0:0:
144,64,127494,2,0,L|152:168,1,90,8|2,0:0|0:0,0:0:0:0:
424,64,127923,6,0,L|416:168,1,90,6|0,0:0|0:0,0:0:0:0:
224,64,128351,2,0,L|320:64,1,90,12|0,0:0|0:0,0:0:0:0:
120,64,128780,1,6,0:0:0:0:
120,64,128994,1,2,0:0:0:0:
392,192,129208,1,12,0:0:0:0:
256,192,129423,1,0,0:0:0:0:
120,192,129637,5,6,0:0:0:0:
256,192,129851,1,0,0:0:0:0:
256,192,130066,1,12,0:0:0:0:
120,192,130280,1,0,0:0:0:0:
392,64,130494,1,6,0:0:0:0:
392,64,130708,1,2,0:0:0:0:
120,64,130923,2,0,L|128:160,1,90,12|0,0:0|0:0,0:0:0:0:
400,192,131351,5,6,0:0:0:0:
256,64,131566,1,0,0:0:0:0:
112,192,131780,1,8,0:0:0:0:
400,64,131994,6,0,L|384:280,1,180,6|2,0:0|0:0,0:0:0:0:
392,64,132637,1,8,0:0:0:0:
112,64,132851,6,0,L|128:280,1,180,6|2,0:0|0:0,0:0:0:0:
400,64,133494,1,4,0:0:0:0:
400,64,133708,1,2,0:0:0:0:
256,192,133923,5,8,0:0:0:0:
112,64,134137,1,4,0:0:0:0:
400,64,134351,2,0,L|384:280,1,180,4|0,0:0|0:0,0:0:0:0:
392,192,139494,54,0,L|396:224,7,22.5
392,192,139923,5,2,0:0:0:0:
392,192,140137,1,2,0:0:0:0:
120,192,140780,5,2,0:0:0:0:
120,192,140994,1,2,0:0:0:0:
392,192,141208,1,4,0:0:0:0:
120,192,141637,6,0,L|120:240,3,45,6|0|0|0,0:0|0:0|0:0|0:0,0:0:0:0:
296,64,142066,1,8,0:0:0:0:
360,64,142173,2,0,L|360:120,2,45
152,64,142494,2,0,L|152:128,1,45,2|0,0:0|0:0,0:0:0:0:
320,192,142708,1,2,0:0:0:0:
376,192,142816,1,0,0:0:0:0:
152,64,142923,1,8,0:0:0:0:
360,64,143351,6,0,L|352:160,1,90,2|0,0:0|0:0,0:0:0:0:
176,192,143780,2,0,L|272:192,1,90,8|0,0:0|0:0,0:0:0:0:
400,64,144208,1,2,0:0:0:0:
400,64,144423,1,2,0:0:0:0:
112,64,144637,2,0,L|120:160,1,90,8|0,0:0|0:0,0:0:0:0:
400,64,145066,6,0,L|392:264,1,180,6|8,0:0|0:0,0:0:0:0:
112,64,145708,6,0,L|112:136,2,45,6|0|0,0:0|0:0|0:0,0:0:0:0:
280,64,146030,1,0,0:0:0:0:
360,64,146137,2,0,L|352:160,1,90,2|8,0:0|0:0,0:0:0:0:
112,64,146566,6,0,L|120:264,1,180,6|2,0:0|0:0,0:0:0:0:
432,64,147208,5,8,0:0:0:0:
256,192,147423,2,0,L|256:240,2,45,8|8|4,0:0|0:0|0:0,0:0:0:0:
432,192,147851,2,0,L|432:144,1,45,8|8,0:0|0:0,0:0:0:0:
256,64,148066,1,8,0:0:0:0:
176,64,148173,2,0,L|176:112,2,45,0|8|8,0:0|0:0|0:0,0:0:0:0:
360,64,148494,5,6,0:0:0:0:
152,64,148923,1,2,0:0:0:0:
152,64,149137,1,2,0:0:0:0:
360,64,149351,1,2,0:0:0:0:
360,64,149566,1,2,0:0:0:0:
152,64,149780,1,2,0:0:0:0:
152,64,149994,1,2,0:0:0:0:
432,64,150208,5,6,0:0:0:0:
432,64,150423,1,2,0:0:0:0:
256,64,150637,1,8,0:0:0:0:
432,64,150851,2,0,L|432:112,1,45,8|8,0:0|0:0,0:0:0:0:
256,192,151066,1,2,0:0:0:0:
256,192,151280,5,2,0:0:0:0:
432,192,151494,2,0,L|432:240,1,45,8|0,0:0|0:0,0:0:0:0:
152,192,151708,1,8,0:0:0:0:
80,192,151816,2,0,L|80:144,1,45,8|4,0:0|0:0,0:0:0:0:
80,192,152351,5,8,0:0:0:0:
344,64,152780,1,2,0:0:0:0:
344,64,152994,1,2,0:0:0:0:
168,64,153208,1,8,0:0:0:0:
432,192,153637,5,2,0:0:0:0:
432,192,154066,1,8,0:0:0:0:
168,64,154494,1,2,0:0:0:0:
168,64,154708,1,2,0:0:0:0:
344,64,154923,1,8,0:0:0:0:
80,192,155351,5,2,0:0:0:0:
80,192,155780,1,8,0:0:0:0:
344,64,156208,1,2,0:0:0:0:
344,64,156423,1,2,0:0:0:0:
168,64,156637,1,8,0:0:0:0:
432,192,157066,5,2,0:0:0:0:
432,192,157494,1,8,0:0:0:0:
168,64,158137,1,8,0:0:0:0:
344,64,158351,1,8,0:0:0:0:
168,64,158566,1,4,0:0:0:0:
168,64,158780,5,2,0:0:0:0:
344,64,159208,1,8,0:0:0:0:
168,192,159637,1,2,0:0:0:0:
168,192,159851,1,2,0:0:0:0:
344,192,160066,1,8,0:0:0:0:
344,64,160494,5,2,0:0:0:0:
168,64,160923,1,8,0:0:0:0:
344,192,161351,1,2,0:0:0:0:
344,192,161566,1,2,0:0:0:0:
168,192,161780,1,8,0:0:0:0:
344,64,162208,1,4,0:0:0:0:
344,64,164137,5,8,0:0:0:0:
168,64,164351,1,8,0:0:0:0:
168,64,164566,1,8,0:0:0:0:
344,64,164780,1,8,0:0:0:0:
104,64,164994,5,8,0:0:0:0:
104,64,165208,1,8,0:0:0:0:
408,64,165423,2,0,L|408:112,1,45,8|8,0:0|0:0,0:0:0:0:
408,192,165637,6,0,L|312:192,1,90,6|0,0:0|0:0,0:0:0:0:
104,192,166066,2,0,L|200:192,1,90,12|0,0:0|0:0,0:0:0:0:
408,64,166494,1,6,0:0:0:0:
408,64,166708,1,2,0:0:0:0:
104,64,166923,1,12,0:0:0:0:
256,64,167137,1,0,0:0:0:0:
408,192,167351,5,6,0:0:0:0:
256,192,167566,1,0,0:0:0:0:
256,64,167780,1,12,0:0:0:0:
408,64,167994,1,0,0:0:0:0:
104,64,168208,2,0,L|112:160,1,90,6|2,0:0|0:0,0:0:0:0:
408,64,168637,2,0,L|400:160,1,90,12|0,0:0|0:0,0:0:0:0:
104,64,169066,5,6,0:0:0:0:
256,64,169280,1,0,0:0:0:0:
256,192,169494,1,12,0:0:0:0:
104,192,169708,1,0,0:0:0:0:
408,64,169923,1,6,0:0:0:0:
408,64,170137,1,2,0:0:0:0:
104,64,170351,1,12,0:0:0:0:
104,64,170566,1,0,0:0:0:0:
408,192,170780,5,6,0:0:0:0:
256,192,170994,1,0,0:0:0:0:
256,64,171208,1,12,0:0:0:0:
408,64,171423,1,0,0:0:0:0:
104,192,171637,1,6,0:0:0:0:
408,192,171851,1,8,0:0:0:0:
408,192,172066,1,8,0:0:0:0:
104,64,172280,1,2,0:0:0:0:
408,64,172494,5,6,0:0:0:0:
256,64,172708,1,0,0:0:0:0:
408,192,172923,1,12,0:0:0:0:
408,192,173137,1,0,0:0:0:0:
104,192,173351,1,6,0:0:0:0:
104,192,173566,1,2,0:0:0:0:
256,64,173780,1,12,0:0:0:0:
104,64,173994,1,0,0:0:0:0:
256,192,174208,5,6,0:0:0:0:
408,192,174423,1,0,0:0:0:0:
256,64,174637,1,12,0:0:0:0:
408,64,174851,1,0,0:0:0:0:
104,192,175066,1,6,0:0:0:0:
104,192,175280,1,2,0:0:0:0:
408,192,175494,1,12,0:0:0:0:
408,192,175708,1,0,0:0:0:0:
104,64,175923,5,6,0:0:0:0:
104,64,176137,1,0,0:0:0:0:
408,64,176351,1,8,0:0:0:0:
104,64,176566,6,0,L|112:248,1,180,6|2,0:0|0:0,0:0:0:0:
120,192,177208,1,8,0:0:0:0:
408,64,177423,6,0,L|400:248,1,180,6|2,0:0|0:0,0:0:0:0:
104,64,178066,1,4,0:0:0:0:
104,64,178280,1,2,0:0:0:0:
256,192,178494,5,8,0:0:0:0:
104,192,178708,1,4,0:0:0:0:
408,64,178923,22,0,L|400:248,1,180,4|0,0:0|0:0,0:0:0:0:
192,64,182137,37,2,0:0:0:0:
320,64,182351,1,2,0:0:0:0:
96,64,182780,5,6,0:0:0:0:
256,192,182994,2,0,L|256:240,2,30,4|0|0,0:0|0:0|0:0,0:0:0:0:
96,64,183208,2,0,L|104:176,1,90,8|4,0:0|0:0,0:0:0:0:
320,64,183638,1,2,0:0:0:0:
192,64,183853,2,0,L|192:104,3,30,6|0|0|8,0:0|0:0|0:0|0:0,0:0:0:0:
464,64,184280,6,0,L|456:176,1,90,6|0,0:0|0:0,0:0:0:0:
256,192,184708,1,6,0:0:0:0:
280,192,184780,1,0,0:0:0:0:
304,192,184851,1,0,0:0:0:0:
328,192,184923,1,8,0:0:0:0:
48,64,185137,2,0,L|56:176,1,90,4|2,0:0|0:0,0:0:0:0:
256,192,185566,2,0,L|248:304,1,90,6|8,0:0|0:0,0:0:0:0:
48,64,185994,1,4,0:0:0:0:
320,64,186208,5,2,0:0:0:0:
464,64,186423,2,0,L|464:112,2,30,4|0|0,0:0|0:0|0:0,0:0:0:0:
320,64,186637,2,0,L|224:64,1,90,8|4,0:0|0:0,0:0:0:0:
392,192,187066,1,2,0:0:0:0:
272,192,187280,1,6,0:0:0:0:
312,192,187351,1,0,0:0:0:0:
352,192,187423,1,0,0:0:0:0:
392,192,187494,1,8,0:0:0:0:
120,64,187708,1,6,0:0:0:0:
120,64,187923,5,0,0:0:0:0:
256,64,188137,1,6,0:0:0:0:
120,64,188351,1,8,0:0:0:0:
392,64,188566,1,4,0:0:0:0:
392,64,188780,1,0,0:0:0:0:
120,192,188994,1,8,0:0:0:0:
392,192,189208,1,8,0:0:0:0:
392,192,189423,1,8,0:0:0:0:
120,192,189637,5,6,0:0:0:0:
256,192,189851,1,4,0:0:0:0:
236,192,189923,1,0,0:0:0:0:
216,192,189994,1,0,0:0:0:0:
72,64,190066,2,0,L|80:160,1,90,8|4,0:0|0:0,0:0:0:0:
256,64,190494,1,2,0:0:0:0:
120,64,190708,2,0,L|120:112,3,30,6|0|0|8,0:0|0:0|0:0|0:0,0:0:0:0:
392,64,191137,1,6,0:0:0:0:
256,64,191351,5,0,0:0:0:0:
120,64,191566,1,6,0:0:0:0:
128,64,191637,1,0,0:0:0:0:
136,64,191708,1,0,0:0:0:0:
144,64,191780,1,8,0:0:0:0:
416,192,191994,1,4,0:0:0:0:
280,192,192208,2,0,L|288:304,1,90,2|4,0:0|0:0,0:0:0:0:
416,192,192637,1,8,0:0:0:0:
104,64,192851,1,4,0:0:0:0:
168,64,192958,1,0,0:0:0:0:
232,64,193066,1,2,0:0:0:0:
392,64,193280,5,4,0:0:0:0:
456,64,193387,2,0,L|456:112,1,45,0|8,0:0|0:0,0:0:0:0:
392,64,193601,1,0,0:0:0:0:
200,192,193708,1,4,0:0:0:0:
136,192,193816,2,0,L|136:240,2,45,0|2|0,0:0|0:0|0:0,0:0:0:0:
320,192,194137,2,0,L|416:192,1,90,6|8,0:0|0:0,0:0:0:0:
136,192,194566,6,0,L|136:248,2,45,6|0|0,0:0|0:0|0:0,0:0:0:0:
200,192,194887,1,0,0:0:0:0:
392,64,194994,2,0,L|392:120,2,45,6|0|8,0:0|0:0|0:0,0:0:0:0:
328,64,195316,1,0,0:0:0:0:
112,64,195424,1,4,0:0:0:0:
112,64,195637,5,0,0:0:0:0:
392,64,195851,1,6,0:0:0:0:
392,64,196066,1,4,0:0:0:0:
