osu file format v14

[General]
AudioFilename: audio.mp3
AudioLeadIn: 0
PreviewTime: 55926
Countdown: 1
SampleSet: Soft
StackLeniency: 0.4
Mode: 0
LetterboxInBreaks: 0
WidescreenStoryboard: 0

[Editor]
Bookmarks: 14785,28499,38778,86783,110778,151921
DistanceSpacing: 1.2
BeatDivisor: 4
GridSize: 8
TimelineZoom: 3.499999

[Metadata]
Title:Tada Kimi ni Hare
TitleUnicode:ただ君に晴れ
Artist:Yorushika
ArtistUnicode:ヨルシカ
Creator:KazuhikoRei
Version:Memories
Source:
Tags:Cloudless Makeinu ni Encore wa Iranai 負け犬にアンコールはいらない ナブナ n-buna n buna nabuna スイ suis Japanese
BeatmapID:1914829
BeatmapSetID:916842

[Difficulty]
HPDrainRate:7
CircleSize:3.8
OverallDifficulty:7
ApproachRate:8.3
SliderMultiplier:1.7
SliderTickRate:1

[Events]
//Background and Video events
0,0,"memories bg.jpg",0,0
//Break Periods
2,69835,71701
2,114406,116486
2,134978,138788
2,179549,181431
//Storyboard Layer 0 (Background)
//Storyboard Layer 1 (Fail)
//Storyboard Layer 2 (Pass)
//Storyboard Layer 3 (Foreground)
//Storyboard Sound Samples

[TimingPoints]
636,428.571428571429,4,2,0,30,1,0
636,-133.333333333333,4,2,0,30,0,0
1064,428.571428571429,4,2,0,30,1,0
1064,-133.333333333333,4,2,0,30,0,0
14779,-90.9090909090909,4,2,0,30,0,0
17778,-58.8235294117647,4,2,0,30,0,0
18206,-90.9090909090909,4,2,0,30,0,0
28492,-100,4,2,0,30,0,0
55921,-80,4,2,0,30,0,1
62135,-66.6666666666667,4,2,0,30,0,1
62349,-133.333333333333,4,2,0,30,0,1
62778,-80,4,2,0,30,0,1
69635,-100,4,2,0,30,0,0
72421,-133.333333333333,4,2,0,30,0,0
73064,-90.9090909090909,4,2,0,30,0,0
76064,-58.8235294117647,4,2,0,30,0,0
76492,-90.9090909090909,4,2,0,30,0,0
86778,-125,4,2,0,30,0,0
100492,-100,4,2,0,30,0,0
113778,-133.333333333333,4,2,0,30,0,0
117206,-100,4,2,0,30,0,0
117635,-133.333333333333,4,2,0,30,0,0
121064,-80,4,2,0,30,0,1
127278,-66.6666666666667,4,2,0,30,0,1
127492,-133.333333333333,4,2,0,30,0,1
127921,-79.9999999999999,4,2,0,30,0,1
134778,-133.333333333333,4,2,0,30,0,0
141206,-200,4,2,0,30,0,0
141635,-133.333333333333,4,2,0,30,0,0
144635,-166.666666666667,4,2,0,30,0,0
145064,-100,4,2,0,30,0,0
145706,-90.9090909090909,4,2,0,30,0,0
146564,-83.3333333333333,4,2,0,30,0,0
148492,-100,4,2,0,30,0,0
151921,-133.333333333333,4,2,0,30,0,0
162206,-250,4,2,0,30,0,0
163706,-133.333333333333,4,2,0,30,0,0
164992,-66.6666666666667,4,2,0,30,0,0
165206,-133.333333333333,4,2,0,30,0,0
165635,-80,4,2,0,30,0,1
171849,-66.6666666666667,4,2,0,30,0,1
172064,-133.333333333333,4,2,0,30,0,1
172492,-80,4,2,0,30,0,1
178921,-57.1428571428571,4,2,0,30,0,1
179349,-100,4,2,0,30,0,0
182135,-133.333333333333,4,2,0,30,0,0
182778,-90.9090909090909,4,2,0,30,0,0
185778,-58.8235294117647,4,2,0,30,0,0
186421,-90.9090909090909,4,2,0,30,0,0

[Colours]
Combo1 : 104,206,173
Combo2 : 124,190,216
Combo3 : 65,94,146
Combo4 : 129,171,134

[HitObjects]
149,74,636,6,0,P|183:97|212:95,1,63.7500024318696
336,36,1064,2,0,P|318:131|318:187,1,127.500004863739
369,236,1706,1,0,0:0:0:0:
266,283,1921,2,0,P|225:265|146:304,1,127.500004863739
216,352,2564,1,0,0:0:0:0:
132,223,2778,6,0,P|179:227|215:207,1,63.7500024318696
252,150,3206,1,0,0:0:0:0:
395,284,3635,2,0,P|299:277|245:260,1,127.500004863739
193,221,4278,1,0,0:0:0:0:
312,86,4492,6,0,P|261:58|184:100,1,127.500004863739
252,150,5135,1,0,0:0:0:0:
116,64,5349,2,0,P|124:110|126:151,1,63.7500024318696
17,244,5778,2,0,P|68:251|134:239,1,95.6250036478044
141,224,6206,5,0,0:0:0:0:
164,300,6421,1,0,0:0:0:0:
276,186,6635,5,0,0:0:0:0:
197,166,6849,1,0,0:0:0:0:
241,319,7064,5,0,0:0:0:0:
258,333,7492,2,0,P|255:278|263:254,1,63.7500024318696
453,191,7921,6,0,P|394:206|350:150,1,127.500004863739
375,78,8564,1,0,0:0:0:0:
260,148,8778,2,0,L|113:159,1,127.500004863739
191,232,9421,1,0,0:0:0:0:
137,94,9635,6,0,P|130:142|138:181,1,63.7500024318696
277,89,10064,2,0,P|237:58|200:46,1,63.7500024318696
213,217,10492,2,0,P|257:197|287:171,1,63.7500024318696
188,268,10921,2,0,P|251:260|296:271,1,95.6250036478044
309,293,11349,5,0,0:0:0:0:
359,186,11564,1,0,0:0:0:0:
415,266,11778,2,0,P|408:220|415:190,1,63.7500024318696
446,99,12206,1,0,0:0:0:0:
446,99,12421,2,0,P|389:106|358:99,2,63.7500024318696
270,37,13278,5,0,0:0:0:0:
270,37,13492,2,0,P|267:90|259:121,1,63.7500024318696
199,171,13921,1,0,0:0:0:0:
111,98,14135,5,0,0:0:0:0:
82,287,14349,1,0,0:0:0:0:
82,287,14778,5,0,0:0:0:0:
218,367,14992,2,0,P|235:361|263:357,2,31.1666676177979
211,293,15206,2,0,P|264:307|323:284,1,93.5000028533936
371,178,15635,1,0,0:0:0:0:
446,294,15849,2,0,L|449:338,2,31.1666676177979
489,226,16064,2,0,L|468:113,1,93.5000028533936
364,37,16492,5,0,0:0:0:0:
264,150,16706,2,0,P|242:152|228:146,2,31.1666676177979
256,78,16921,2,0,P|212:73|160:128,1,124.666670471192
252,253,17349,1,0,0:0:0:0:
92,199,17564,1,0,0:0:0:0:
283,319,17778,6,0,P|328:307|251:292,1,216.750004134178
265,336,18206,5,0,0:0:0:0:
176,229,18421,2,0,P|176:203|181:177,2,31.1666676177979
125,285,18635,2,0,P|140:221|142:177,1,93.5000028533936
82,56,19064,1,0,0:0:0:0:
21,222,19278,2,0,L|10:274,2,31.1666676177979
64,152,19492,2,0,P|123:152|181:139,1,93.5000028533936
283,108,19921,5,0,0:0:0:0:
218,276,20135,2,0,P|209:261|205:243,2,31.1666676177979
285,228,20349,2,0,P|341:216|406:214,1,93.5000028533936
493,228,20778,1,0,0:0:0:0:
309,310,20992,5,0,0:0:0:0:
433,141,21206,1,0,0:0:0:0:
510,337,21421,1,0,0:0:0:0:
377,213,21635,5,0,0:0:0:0:
309,310,21849,2,0,P|326:316|354:314,2,31.1666676177979
245,358,22064,2,0,P|228:313|233:243,1,93.5000028533936
130,374,22492,1,0,0:0:0:0:
70,239,22706,2,0,P|87:235|108:223,2,31.1666676177979
0,207,22921,2,0,P|28:260|31:304,1,93.5000028533936
92,133,23349,5,0,0:0:0:0:
248,197,23564,2,0,P|271:189|299:196,2,31.1666676177979
188,245,23778,2,0,P|210:212|216:136,1,93.5000028533936
68,24,24206,1,0,0:0:0:0:
207,138,24421,1,0,0:0:0:0:
61,210,24635,1,0,0:0:0:0:
182,49,24849,6,0,P|209:48|244:53,1,46.7500014266968
302,95,25064,1,0,0:0:0:0:
436,20,25278,5,0,0:0:0:0:
417,53,25385,1,0,0:0:0:0:
413,90,25492,1,0,0:0:0:0:
424,127,25599,1,0,0:0:0:0:
448,156,25706,5,0,0:0:0:0:
446,168,25814,1,0,0:0:0:0:
443,182,25921,2,0,P|404:182|378:185,1,46.7500014266968
292,209,26135,1,0,0:0:0:0:
364,356,26349,1,0,0:0:0:0:
292,209,26564,1,0,0:0:0:0:
113,272,26778,5,0,0:0:0:0:
149,267,26885,1,0,0:0:0:0:
184,280,26992,1,0,0:0:0:0:
210,307,27099,1,0,0:0:0:0:
222,343,27206,1,0,0:0:0:0:
298,185,27421,5,0,0:0:0:0:
295,197,27528,1,0,0:0:0:0:
292,209,27635,1,0,0:0:0:0:
196,83,27849,5,0,0:0:0:0:
196,83,27956,1,0,0:0:0:0:
196,83,28064,2,0,L|204:135,2,46.7500014266968
395,41,28492,6,0,P|317:32|355:109,1,170
500,58,29135,1,0,0:0:0:0:
500,58,29349,2,0,P|490:115|490:152,1,85
429,272,29778,1,0,0:0:0:0:
335,163,29992,1,0,0:0:0:0:
289,300,30206,6,0,L|193:286,1,85
64,144,30635,2,0,P|117:137|170:153,1,85
171,167,30956,1,0,0:0:0:0:
171,167,31064,1,0,0:0:0:0:
95,345,31278,1,0,0:0:0:0:
95,345,31492,2,0,P|90:287|78:258,1,85
207,281,31921,6,0,L|240:97,1,170
306,52,32564,1,0,0:0:0:0:
405,209,32778,2,0,P|404:157|387:114,1,85
334,296,33206,1,0,0:0:0:0:
481,247,33421,1,0,0:0:0:0:
434,357,33635,6,0,L|337:347,1,85
215,211,34064,2,0,P|259:208|319:201,1,85
328,221,34385,1,0,0:0:0:0:
328,221,34492,1,0,0:0:0:0:
198,341,34706,1,0,0:0:0:0:
138,153,34921,2,0,P|121:224|138:269,1,85
214,88,35349,6,0,P|137:53|63:88,1,170
220,214,35992,1,0,0:0:0:0:
220,214,36206,2,0,P|265:215|306:202,1,85
382,119,36635,1,0,0:0:0:0:
415,242,36849,1,0,0:0:0:0:
284,46,37064,6,0,L|272:142,1,85
152,0,37492,2,0,L|161:104,1,85
136,110,37814,1,0,0:0:0:0:
136,110,37921,1,0,0:0:0:0:
22,169,38135,1,0,0:0:0:0:
109,296,38349,2,0,P|172:259|243:282,1,127.5
248,290,38778,6,0,P|267:241|271:189,1,85
341,351,39206,1,0,0:0:0:0:
412,255,39421,2,0,P|453:261|494:250,1,85
417,76,39849,2,0,L|408:182,1,85
300,46,40278,6,0,P|312:139|318:220,1,170
203,142,40921,1,0,0:0:0:0:
114,286,41135,1,0,0:0:0:0:
147,284,41242,1,0,0:0:0:0:
175,301,41349,5,0,0:0:0:0:
206,288,41456,1,0,0:0:0:0:
240,284,41564,1,0,0:0:0:0:
87,366,41778,1,0,0:0:0:0:
124,172,41992,1,0,0:0:0:0:
263,361,42206,6,0,P|309:330|288:217,1,170
222,149,42849,1,0,0:0:0:0:
298,226,43064,2,0,P|349:211|408:219,1,85
467,272,43492,1,0,0:0:0:0:
448,144,43706,1,0,0:0:0:0:
298,226,43921,2,0,L|317:114,1,85
430,45,44349,6,0,P|379:53|326:56,1,85
316,37,44671,1,0,0:0:0:0:
316,37,44778,2,0,L|308:7,2,28.3333333333333
286,107,44992,1,0,0:0:0:0:
225,265,45206,2,0,P|214:224|227:184,1,85
120,270,45635,6,0,P|117:185|150:108,1,170
61,82,46278,1,0,0:0:0:0:
238,8,46492,2,0,L|153:12,1,85
291,124,46921,1,0,0:0:0:0:
365,19,47135,1,0,0:0:0:0:
306,207,47349,6,0,P|302:164|291:124,1,85
412,299,47778,2,0,P|408:255|415:213,1,85
441,191,48099,1,0,0:0:0:0:
441,191,48206,1,0,0:0:0:0:
289,286,48421,1,0,0:0:0:0:
185,224,48635,2,0,P|141:239|113:275,1,85
89,376,49064,6,0,P|99:327|6:226,1,170
0,330,49706,1,0,0:0:0:0:
0,140,49921,2,0,P|41:137|91:150,1,85
191,200,50349,1,0,0:0:0:0:
170,85,50564,1,0,0:0:0:0:
319,197,50778,6,0,P|291:152|289:98,1,85
444,48,51206,2,0,P|425:85|393:113,1,85
255,10,51635,2,0,P|296:6|336:19,1,85
319,197,52064,2,0,P|255:191|196:225,1,127.5
184,249,52492,6,0,P|188:200|170:142,1,85
88,13,52921,2,0,L|71:142,1,127.5
96,162,53349,2,0,P|138:157|179:165,1,85
38,247,53778,1,0,0:0:0:0:
214,319,53992,5,0,0:0:0:0:
232,330,54421,1,0,0:0:0:0:
249,342,54849,1,0,0:0:0:0:
223,149,55064,5,0,0:0:0:0:
223,149,55921,6,0,L|352:136,1,106.25
487,281,56349,2,0,L|382:271,1,106.25
223,149,56778,1,0,0:0:0:0:
328,138,56992,1,0,0:0:0:0:
178,343,57206,2,0,P|146:266|159:225,1,106.25
231,42,57635,6,0,L|222:148,1,106.25
108,74,58064,1,0,0:0:0:0:
108,74,58278,1,0,0:0:0:0:
0,249,58492,2,0,P|49:226|125:288,1,159.375
108,368,58921,2,0,P|131:317|230:325,1,159.375
286,379,59349,5,0,0:0:0:0:
323,219,59564,1,0,0:0:0:0:
440,328,59778,2,0,P|435:257|419:197,1,106.25
362,54,60206,1,0,0:0:0:0:
467,75,60421,1,0,0:0:0:0:
274,102,60635,2,0,P|257:49|276:0,1,106.25
142,235,61064,6,0,P|160:184|157:98,1,106.25
58,15,61492,1,0,0:0:0:0:
10,167,61706,1,0,0:0:0:0:
164,132,61921,1,0,0:0:0:0:
27,337,62135,6,0,P|63:335|104:309,1,63.7500024318696
187,234,62349,6,0,P|149:221|103:227,1,63.7500024318696,0|0,2:0|2:0,2:0:0:0:
298,268,62778,6,0,L|283:147,1,106.25
418,13,63206,2,0,L|404:118,1,106.25
298,268,63635,1,0,0:0:0:0:
284,162,63849,1,0,0:0:0:0:
479,312,64064,2,0,P|402:347|351:334,1,106.25
193,259,64492,6,0,P|253:256|316:276,1,106.25
176,136,64921,1,0,0:0:0:0:
176,136,65135,1,0,0:0:0:0:
285,167,65349,2,0,P|286:96|253:50,1,106.25
80,87,65778,2,0,P|64:135|139:234,1,159.375
150,263,66206,6,0,B|203:239|273:249,1,106.25
349,266,66635,1,0,0:0:0:0:
483,70,66849,6,0,P|417:103|469:214,1,212.5
336,56,67492,1,0,0:0:0:0:
188,181,67706,6,0,P|74:191|30:88,1,212.5
168,25,68349,2,0,P|154:80|119:116,1,106.25
61,27,68778,5,0,0:0:0:0:
86,231,68992,1,0,0:0:0:0:
250,138,69206,2,0,P|238:185|239:249,1,106.25
362,93,69635,5,0,0:0:0:0:
132,49,72421,5,0,0:0:0:0:
51,150,72635,2,0,P|104:138|122:141,1,63.7500024318696
247,222,73064,5,0,0:0:0:0:
328,107,73278,2,0,L|324:151,2,31.1666676177979
378,45,73492,2,0,P|374:96|393:157,1,93.5000028533936
493,210,73921,1,0,0:0:0:0:
376,287,74135,2,0,L|339:276,2,31.1666676177979
419,355,74349,2,0,P|364:365|307:336,1,93.5000028533936
261,211,74778,5,0,0:0:0:0:
168,328,74992,2,0,P|175:312|181:294,2,31.1666676177979
108,271,75206,2,0,P|118:211|114:158,1,93.5000028533936
66,14,75635,1,0,0:0:0:0:
129,160,75849,1,0,0:0:0:0:
299,27,76064,6,0,P|256:93|352:82,1,216.750004134178
313,8,76492,5,0,0:0:0:0:
279,200,76706,2,0,P|255:194|231:179,2,31.1666676177979
357,195,76921,2,0,P|406:200|472:226,1,93.5000028533936
283,308,77349,1,0,0:0:0:0:
177,220,77564,2,0,L|175:188,2,31.1666676177979
105,254,77778,2,0,L|99:143,1,93.5000028533936
46,331,78206,5,0,0:0:0:0:
258,295,78421,2,0,P|271:289|283:278,2,31.1666676177979
184,287,78635,2,0,P|228:257|246:195,1,93.5000028533936
180,81,79064,1,0,0:0:0:0:
98,193,79278,5,0,0:0:0:0:
270,130,79492,1,0,0:0:0:0:
79,38,79706,1,0,0:0:0:0:
246,213,79921,5,0,0:0:0:0:
278,50,80135,2,0,P|277:29|278:18,2,31.1666676177979
356,16,80349,2,0,P|356:65|387:114,1,93.5000028533936
510,46,80778,1,0,0:0:0:0:
434,184,80992,2,0,L|477:178,2,31.1666676177979
372,230,81206,2,0,L|493:246,1,93.5000028533936
276,309,81635,5,0,0:0:0:0:
146,194,81849,2,0,P|141:166|146:149,2,31.1666676177979
193,258,82064,2,0,P|134:274|92:250,1,93.5000028533936
259,163,82492,1,0,0:0:0:0:
308,315,82706,1,0,0:0:0:0:
409,190,82921,1,0,0:0:0:0:
507,323,83135,6,0,P|462:309|445:311,1,46.7500014266968
387,348,83349,1,0,0:0:0:0:
409,190,83564,5,0,0:0:0:0:
414,152,83671,1,0,0:0:0:0:
419,114,83778,1,0,0:0:0:0:
424,76,83885,1,0,0:0:0:0:
429,38,83992,5,0,0:0:0:0:
410,40,84099,1,0,0:0:0:0:
391,42,84206,2,0,P|354:42|324:32,1,46.7500014266968
239,0,84421,1,0,0:0:0:0:
290,168,84635,1,0,0:0:0:0:
239,0,84849,1,0,0:0:0:0:
160,198,85064,5,0,0:0:0:0:
184,168,85171,1,0,0:0:0:0:
218,151,85278,1,0,0:0:0:0:
257,152,85385,1,0,0:0:0:0:
290,168,85492,1,0,0:0:0:0:
172,294,85706,5,0,0:0:0:0:
147,286,85813,1,0,0:0:0:0:
123,278,85920,1,0,0:0:0:0:
215,384,86135,5,0,0:0:0:0:
238,374,86242,1,0,0:0:0:0:
260,363,86349,2,0,L|316:334,2,46.7500014266968
237,230,86778,6,0,P|275:188|371:208,1,136
372,317,87421,1,0,0:0:0:0:
312,261,87635,2,0,P|260:254|155:262,1,136
79,188,88278,1,0,0:0:0:0:
79,188,88492,2,0,P|91:266|93:342,2,136
63,176,89778,1,0,0:0:0:0:
113,80,89992,1,0,0:0:0:0:
6,236,90206,6,0,P|82:221|161:239,1,136
212,343,90849,1,0,0:0:0:0:
132,312,91064,2,0,L|294:302,1,136
410,372,91706,2,0,L|323:361,1,68
479,292,92135,5,0,0:0:0:0:
444,159,92349,5,0,0:0:0:0:
408,225,92564,1,0,0:0:0:0:
323,76,92778,5,0,0:0:0:0:
334,151,92992,1,0,0:0:0:0:
254,268,93206,2,0,P|238:218|251:189,1,68
297,346,93635,6,0,P|227:352|172:291,1,136
144,210,94278,1,0,0:0:0:0:
144,210,94492,2,0,P|157:264|87:316,1,136
30,237,95135,2,0,P|29:263|35:288,1,34
58,149,95349,6,0,L|221:124,2,136
263,56,96635,1,0,0:0:0:0:
332,189,96849,2,0,L|335:113,1,68
407,253,97278,5,0,0:0:0:0:
280,306,97492,5,0,0:0:0:0:
350,333,97706,1,0,0:0:0:0:
489,201,97921,5,0,0:0:0:0:
419,228,98135,1,0,0:0:0:0:
461,354,98349,1,0,0:0:0:0:
495,250,98564,6,0,P|466:296|394:304,1,102
382,303,98992,1,0,0:0:0:0:
291,163,99206,2,0,P|285:202|290:241,1,68
395,176,99635,1,0,0:0:0:0:
301,256,99849,5,0,0:0:0:0:
275,243,99956,1,0,0:0:0:0:
247,237,100063,1,0,0:0:0:0:
218,239,100170,1,0,0:0:0:0:
192,249,100277,1,0,0:0:0:0:
78,378,100492,6,0,L|194:372,1,85
0,264,100921,2,0,P|43:246|65:192,1,85
40,74,101349,2,0,L|130:88,1,85
284,113,101778,1,0,0:0:0:0:
254,10,101992,1,0,0:0:0:0:
189,182,102206,6,0,P|217:217|274:229,1,85
388,74,102635,2,0,P|364:130|356:175,1,85
380,198,102956,1,0,0:0:0:0:
380,198,103064,1,0,0:0:0:0:
292,37,103278,1,0,0:0:0:0:
292,37,103492,2,0,P|243:37|200:19,1,85
44,167,103921,6,0,P|48:99|146:37,1,170
146,142,104564,1,0,0:0:0:0:
84,254,104778,2,0,P|123:233|196:239,1,85
348,350,105206,1,0,0:0:0:0:
256,322,105421,1,0,0:0:0:0:
350,169,105635,6,0,L|363:254,1,85
468,148,106064,2,0,P|471:100|478:59,1,85
465,23,106385,1,0,0:0:0:0:
465,23,106492,1,0,0:0:0:0:
369,142,106706,1,0,0:0:0:0:
225,98,106921,2,0,P|262:71|307:68,1,85
177,193,107349,6,0,L|-11:151,1,170
69,256,107992,1,0,0:0:0:0:
170,339,108206,2,0,P|212:304|219:264,1,85
196,154,108635,1,0,0:0:0:0:
301,197,108849,1,0,0:0:0:0:
114,113,109064,6,0,P|150:74|210:64,1,85
200,248,109492,2,0,P|148:236|109:189,1,85
276,102,109921,2,0,P|291:152|270:209,1,85
196,154,110349,2,0,P|287:142|357:124,1,127.5
364,137,110778,6,0,P|363:175|388:229,1,85
512,148,111206,1,0,0:0:0:0:
512,305,111421,2,0,P|469:301|427:304,1,85
257,364,111849,2,0,P|299:364|341:369,1,85
174,256,112278,6,0,P|240:270|336:213,1,170
357,109,112921,1,0,0:0:0:0:
250,121,113135,1,0,0:0:0:0:
174,256,113349,1,0,0:0:0:0:
77,147,113564,5,0,0:0:0:0:
98,145,113671,1,0,0:0:0:0:
118,136,113778,2,0,P|140:112|146:63,1,63.7500024318696
115,0,114206,5,0,0:0:0:0:
188,179,117206,6,0,P|198:139|212:186,1,127.5
212,187,117635,6,0,L|346:168,1,127.500004863739
466,225,118278,1,0,0:0:0:0:
402,301,118492,2,0,P|324:285|272:302,1,127.500004863739
122,349,119135,2,0,P|180:355|209:364,1,63.7500024318696
32,267,119564,2,0,P|82:261|114:252,1,63.7500024318696
158,187,119992,1,0,0:0:0:0:
192,323,120206,1,0,0:0:0:0:
335,219,120421,5,0,0:0:0:0:
317,195,120528,1,0,0:0:0:0:
285,192,120635,1,0,0:0:0:0:
263,212,120742,1,0,0:0:0:0:
263,243,120849,1,0,0:0:0:0:
405,286,121064,6,0,P|430:232|412:150,1,106.25
320,0,121492,2,0,P|309:58|348:133,1,106.25
405,286,121921,1,0,0:0:0:0:
428,186,122135,1,0,0:0:0:0:
340,366,122349,2,0,P|289:366|237:339,1,106.25
90,220,122778,6,0,L|221:205,1,106.25
70,326,123206,1,0,0:0:0:0:
70,326,123421,1,0,0:0:0:0:
195,207,123635,2,0,P|192:145|97:114,1,159.375
38,155,124064,2,0,P|100:84|65:0,1,159.375
0,68,124492,5,0,0:0:0:0:
183,17,124706,1,0,0:0:0:0:
293,213,124921,2,0,P|225:188|206:156,1,106.25
300,5,125349,1,0,0:0:0:0:
288,125,125564,1,0,0:0:0:0:
447,63,125778,2,0,L|466:193,1,106.25
250,279,126206,6,0,P|310:277|364:285,1,106.25
463,169,126635,1,0,0:0:0:0:
308,136,126849,1,0,0:0:0:0:
356,284,127064,1,0,0:0:0:0:
162,300,127278,6,0,L|181:208,1,63.7500024318696
93,81,127492,6,0,L|110:170,1,63.7500024318696
215,69,127921,6,0,P|279:42|328:43,1,106.25
482,179,128349,2,0,P|429:182|377:169,1,106.25
215,69,128778,1,0,0:0:0:0:
315,41,128992,1,0,0:0:0:0:
148,257,129206,2,0,P|137:203|154:154,1,106.25
271,318,129635,6,0,L|389:335,1,106.25
239,215,130064,1,0,0:0:0:0:
239,215,130278,1,0,0:0:0:0:
124,342,130492,2,0,P|124:278|94:223,1,106.25
0,105,130921,2,0,L|168:133,1,159.375
209,138,131349,6,0,P|265:112|317:117,1,106.25
404,157,131778,1,0,0:0:0:0:
304,336,131992,6,0,P|341:285|237:250,1,212.5
201,336,132635,1,0,0:0:0:0:
97,137,132849,6,0,L|77:360,1,212.5
238,248,133492,2,0,L|222:135,1,106.25
208,42,133921,1,0,0:0:0:0:
345,201,134135,1,0,0:0:0:0:
455,38,134349,2,0,P|395:51|365:105,1,106.25
450,125,134778,5,0,0:0:0:0:
116,269,139492,6,0,L|116:238,5,21.2500008106232
131,227,139921,5,0,0:0:0:0:
273,330,140135,1,0,0:0:0:0:
309,167,140778,5,0,0:0:0:0:
152,245,140992,1,0,0:0:0:0:
50,97,141206,2,0,P|99:97|127:106,1,63.75
143,133,141635,6,0,L|208:125,1,63.7500024318696
245,146,141956,1,0,0:0:0:0:
245,146,142064,2,0,L|288:127,2,31.8750012159348
361,71,142492,2,0,L|353:124,1,31.8750012159348
373,144,142706,1,0,0:0:0:0:
491,101,142921,1,0,0:0:0:0:
472,230,143135,5,0,0:0:0:0:
472,230,143242,1,0,0:0:0:0:
472,230,143349,2,0,L|389:239,1,63.7500024318696
378,270,143671,1,0,0:0:0:0:
378,270,143778,2,0,L|294:259,1,63.7500024318696
284,229,144099,1,0,0:0:0:0:
284,229,144206,2,0,L|203:235,1,63.7500024318696
23,294,144635,6,0,P|80:293|102:322,1,76.4999976654053
91,338,145064,6,0,L|104:236,1,85
115,163,145492,1,0,0:0:0:0:
259,264,145706,2,0,L|237:150,1,93.5000028533936
286,96,146028,1,0,0:0:0:0:
286,96,146135,2,0,L|163:84,1,93.5000028533936
259,264,146564,6,0,P|311:286|410:228,1,152.999995330811
405,211,146992,1,0,0:0:0:0:
286,96,147206,1,0,0:0:0:0:
227,293,147421,1,0,0:0:0:0:
227,293,147528,1,0,0:0:0:0:
227,293,147635,2,0,L|213:174,1,101.999996887207
158,128,147956,1,0,0:0:0:0:
158,128,148064,2,0,L|98:116,3,50.9999984436036
58,52,148492,5,0,0:0:0:0:
40,221,148706,1,0,0:0:0:0:
7,141,148921,2,0,P|59:137|96:155,1,85
154,239,149349,1,0,0:0:0:0:
322,198,149564,1,0,0:0:0:0:
202,75,149778,1,0,0:0:0:0:
242,333,149992,1,0,0:0:0:0:
242,333,150206,6,0,L|250:229,1,85
363,339,150635,1,0,0:0:0:0:
457,207,150849,1,0,0:0:0:0:
415,205,150956,1,0,0:0:0:0:
381,230,151063,1,0,0:0:0:0:
512,314,151278,1,0,0:0:0:0:
457,207,151492,5,0,0:0:0:0:
460,175,151599,1,0,0:0:0:0:
463,143,151706,1,0,0:0:0:0:
467,111,151813,1,0,0:0:0:0:
470,80,151921,6,0,P|433:83|403:78,1,63.7500024318696
286,15,152349,2,0,L|349:6,1,63.7500024318696
256,99,152778,1,0,0:0:0:0:
256,99,152992,1,0,0:0:0:0:
157,40,153206,2,0,L|158:116,1,63.7500024318696
136,201,153635,6,0,L|207:187,2,63.7500024318696
57,157,154278,1,0,0:0:0:0:
7,258,154492,2,0,P|47:253|92:290,1,95.6250036478044
34,336,154921,2,0,L|137:323,1,95.6250036478044
205,315,155349,5,0,0:0:0:0:
286,357,155564,1,0,0:0:0:0:
375,300,155778,2,0,L|367:382,1,63.7500024318696
315,246,156206,1,0,0:0:0:0:
315,246,156421,1,0,0:0:0:0:
243,190,156635,2,0,P|279:162|323:161,1,63.7500024318696
443,199,157064,6,0,L|361:182,1,63.7500024318696
355,105,157492,1,0,0:0:0:0:
380,186,157706,1,0,0:0:0:0:
438,122,157921,1,0,0:0:0:0:
355,105,158135,6,0,L|302:117,1,31.8750012159348
274,168,158349,2,0,L|211:154,1,63.7500024318696
125,39,158778,6,0,L|139:107,1,63.7500024318696
42,195,159206,2,0,L|56:120,1,63.7500024318696
115,250,159635,1,0,0:0:0:0:
115,250,159849,1,0,0:0:0:0:
82,330,160064,2,0,P|145:331|165:320,1,63.7500024318696
211,269,160492,6,0,L|288:281,2,63.7500024318696
257,367,161135,1,0,0:0:0:0:
257,367,161349,2,0,P|304:358|338:360,1,63.7500024318696
407,366,161778,2,0,L|395:286,1,63.7500024318696
388,195,162206,6,0,L|424:182,2,34
311,211,162849,2,0,P|277:200|239:201,1,68
245,200,163492,1,0,0:0:0:0:
174,240,163706,2,0,P|166:189|163:139,1,95.6250036478044
188,115,164135,5,0,0:0:0:0:
352,47,164349,1,0,0:0:0:0:
371,139,164564,5,0,0:0:0:0:
232,31,164778,1,0,0:0:0:0:
305,197,164992,6,0,P|273:206|240:204,1,63.7500024318696
48,155,165206,6,0,P|86:135|123:134,1,63.7500024318696
141,159,165528,1,0,0:0:0:0:
141,159,165635,6,0,L|113:274,1,106.25
258,384,166064,2,0,L|232:280,1,106.25
141,159,166492,1,0,0:0:0:0:
115,262,166706,1,0,0:0:0:0:
267,160,166921,2,0,P|319:143|374:153,1,106.25
448,320,167349,6,0,L|319:292,1,106.25
235,275,167778,1,0,0:0:0:0:
235,275,167992,1,0,0:0:0:0:
113,59,168206,2,0,P|124:128|221:146,1,159.375
292,116,168635,2,0,P|231:115|189:217,1,159.375
235,275,169064,5,0,0:0:0:0:
309,137,169278,1,0,0:0:0:0:
419,290,169492,2,0,P|397:235|401:172,1,106.25
420,29,169921,1,0,0:0:0:0:
512,87,170135,1,0,0:0:0:0:
322,53,170349,2,0,P|400:24|450:44,1,106.25
277,164,170778,6,0,L|173:138,1,106.25
200,232,171206,1,0,0:0:0:0:
187,43,171420,1,0,0:0:0:0:
31,145,171635,1,0,0:0:0:0:
187,43,171849,6,0,P|194:74|184:105,1,63.7500024318696
118,256,172064,6,0,L|122:193,1,63.7500024318696
242,233,172492,6,0,L|357:205,1,106.25
468,359,172921,2,0,L|364:333,1,106.25
242,233,173349,1,0,0:0:0:0:
345,207,173564,1,0,0:0:0:0:
177,321,173778,2,0,P|132:272|148:191,1,106.25
210,31,174206,6,0,L|187:142,1,106.25
334,79,174635,1,0,0:0:0:0:
334,79,174849,1,0,0:0:0:0:
270,173,175064,2,0,P|332:197|391:176,1,106.25
464,23,175492,2,0,P|373:29|329:101,1,159.375
294,95,175921,6,0,L|186:75,1,106.25
89,58,176349,1,0,0:0:0:0:
73,250,176564,6,0,P|72:184|157:240,1,212.5
108,337,177206,1,0,0:0:0:0:
317,370,177421,6,0,L|108:337,1,212.5
291,236,178064,2,0,L|401:227,1,106.25
512,221,178492,1,0,0:0:0:0:
432,119,178706,1,0,0:0:0:0:
397,291,178921,2,0,P|317:270|402:234,1,223.125002127886
424,258,179349,5,0,0:0:0:0:
372,140,182135,5,0,0:0:0:0:
307,202,182349,2,0,P|251:187|239:171,1,63.7500024318696
186,24,182778,5,0,0:0:0:0:
64,124,182992,2,0,L|103:113,2,31.1666676177979
3,172,183206,2,0,P|59:164|104:196,1,93.5000028533936
168,300,183635,1,0,0:0:0:0:
90,180,183849,2,0,L|84:229,2,31.1666676177979
160,140,184064,2,0,L|150:26,1,93.5000028533936
243,211,184492,5,0,0:0:0:0:
285,78,184706,2,0,L|236:64,2,31.1666676177979
345,24,184921,2,0,L|233:43,1,93.5000028533936
423,174,185349,1,0,0:0:0:0:
355,38,185564,1,0,0:0:0:0:
228,211,185778,6,0,P|250:157|279:247,1,216.750004134178
218,233,186206,5,0,0:0:0:0:
399,185,186421,2,0,P|395:158|382:134,2,31.1666676177979,0|0|0,2:0|2:0|0:0,0:0:0:0:
434,250,186635,2,0,L|425:131,1,93.5000028533936
421,39,187064,1,0,0:0:0:0:
257,129,187278,2,0,P|234:129|215:118,2,31.1666676177979
258,54,187492,2,0,P|290:92|288:144,1,93.5000028533936
142,191,187921,5,0,0:0:0:0:
138,323,188135,2,0,L|91:313,2,31.1666676177979
194,272,188349,2,0,L|310:256,1,93.5000028533936
400,247,188778,1,0,0:0:0:0:
287,259,188992,5,0,0:0:0:0:
460,354,189206,1,0,0:0:0:0:
456,153,189421,1,0,0:0:0:0:
400,247,189635,5,0,0:0:0:0:
316,60,189849,2,0,P|297:51|277:51,2,31.1666676177979
345,131,190064,2,0,P|340:104|376:41,1,93.5000028533936
227,185,190492,1,0,0:0:0:0:
104,78,190706,2,0,L|61:65,2,31.1666676177979
149,16,190921,2,0,L|139:129,1,93.5000028533936
72,207,191349,5,0,0:0:0:0:
176,334,191564,2,0,P|190:296|187:285,2,31.1666676177979
120,284,191778,2,0,P|178:294|230:280,1,93.5000028533936
328,200,192206,1,0,0:0:0:0:
385,333,192421,1,0,0:0:0:0:
488,229,192635,1,0,0:0:0:0:
265,128,192849,6,0,P|247:148|237:175,1,46.7500014266968
258,254,193064,1,0,0:0:0:0:
385,333,193278,5,0,0:0:0:0:
349,336,193385,1,0,0:0:0:0:
314,340,193492,1,0,0:0:0:0:
279,345,193599,1,0,0:0:0:0:
244,349,193706,5,0,0:0:0:0:
232,345,193813,1,0,0:0:0:0:
221,342,193921,2,0,L|176:323,1,46.7500014266968
85,279,194135,1,0,0:0:0:0:
258,254,194349,1,0,0:0:0:0:
86,280,194564,1,0,0:0:0:0:
167,135,194778,5,0,0:0:0:0:
138,117,194885,1,0,0:0:0:0:
107,130,194992,1,0,0:0:0:0:
99,163,195099,1,0,0:0:0:0:
122,188,195206,1,0,0:0:0:0:
320,107,195421,5,0,0:0:0:0:
297,112,195528,1,0,0:0:0:0:
274,118,195635,1,0,0:0:0:0:
401,288,195849,5,0,0:0:0:0:
240,200,196064,2,0,P|285:265|326:197,1,187.000005706787
