osu file format v14

[General]
AudioFilename: audio.mp3
AudioLeadIn: 0
PreviewTime: 55949
Countdown: 0
SampleSet: Soft
StackLeniency: 0.7
Mode: 0
LetterboxInBreaks: 0
WidescreenStoryboard: 1

[Editor]
DistanceSpacing: 1.2
BeatDivisor: 6
GridSize: 8
TimelineZoom: 1.9

[Metadata]
Title:Tada Kimi ni Hare
TitleUnicode:ただ君に晴れ
Artist:Yorushika
ArtistUnicode:ヨルシカ
Creator:GreenHue
Version:defiance's Another
Source:
Tags:makeinu ni encore wa iranai '負け犬にアンコールはいらない suis tada kimi ni hare nbuna KKipalt Ultima Fox defiance osuskrub jennglebells quanhitter39 just a another sunny day for you
BeatmapID:1786484
BeatmapSetID:847238

[Difficulty]
HPDrainRate:6
CircleSize:5
OverallDifficulty:8
ApproachRate:8.5
SliderMultiplier:2
SliderTickRate:1

[Events]
//Background and Video events
0,0,"593482.jpg",0,0
//Break Periods
2,69836,71748
2,114408,116533
2,134979,138819
2,179551,181462
//Storyboard Layer 0 (Background)
//Storyboard Layer 1 (Fail)
//Storyboard Layer 2 (Pass)
//Storyboard Layer 3 (Foreground)
//Storyboard Sound Samples

[TimingPoints]
1066,428.571428571429,4,2,1,60,1,0
14351,-166.666666666667,4,2,1,60,0,0
14780,-100,4,2,1,60,0,0
28494,-125,4,2,1,60,0,0
29137,-125,4,2,1,60,0,0
42208,-111.111111111111,4,2,1,60,0,0
54423,-90.9090909090909,4,2,1,60,0,1
55923,-100,4,2,1,72,0,1
56780,-100,4,2,1,72,0,1
57208,-100,4,2,1,72,0,1
58494,-100,4,2,1,72,0,1
58816,-100,4,2,1,5,0,1
58923,-100,4,2,1,72,0,1
59244,-100,4,2,1,5,0,1
59351,-100,4,2,1,72,0,1
67173,-100,4,2,1,5,0,1
67280,-100,4,2,1,72,0,1
68030,-100,4,2,1,5,0,1
68137,-100,4,2,1,72,0,1
68780,-125,4,2,1,60,0,0
72637,-166.666666666667,4,2,1,60,0,0
73066,-100,4,2,1,60,0,0
86780,-125,4,2,1,60,0,0
100494,-111.111111111111,4,2,1,60,0,0
117637,-125,4,2,1,60,0,0
121066,-100,4,2,1,72,0,1
123958,-100,4,2,1,5,0,1
124066,-100,4,2,1,72,0,1
124387,-100,4,2,1,5,0,1
124494,-100,4,2,1,72,0,1
132316,-100,4,2,1,5,0,1
132423,-100,4,2,1,72,0,1
133173,-100,4,2,1,5,0,1
133280,-100,4,2,1,72,0,1
134780,-100,4,2,1,60,0,0
165637,-83.3333333333333,4,2,1,72,0,1
168530,-83.3333333333333,4,2,1,5,0,1
168637,-83.3333333333333,4,2,1,72,0,1
179351,-100,4,2,1,60,0,0

[Colours]
Combo1 : 210,210,210
Combo2 : 62,158,255
Combo3 : 255,111,131
Combo4 : 128,255,128

[HitObjects]
75,158,14137,5,0,3:0:0:0:
182,100,14351,2,0,L|107:77,1,59.9999981689454,4|0,0:1|0:0,0:0:0:0:
274,202,14780,5,4,3:2:0:0:
345,33,14994,1,2,0:3:0:0:
345,33,15066,1,0,0:0:0:0:
345,33,15137,1,0,0:0:0:0:
345,33,15208,2,0,L|365:151,1,100,8|2,0:0|0:3,0:0:0:0:
455,192,15637,1,0,3:0:0:0:
345,351,15851,1,2,3:3:0:0:
345,351,15923,1,0,0:0:0:0:
345,351,15994,1,0,0:0:0:0:
345,351,16065,2,0,L|365:233,1,100,8|2,0:0|3:3,0:0:0:0:
272,160,16494,5,0,0:0:0:0:
109,66,16708,1,2,3:3:0:0:
109,66,16780,1,0,0:0:0:0:
109,66,16851,1,0,0:0:0:0:
109,66,16922,2,0,P|159:56|227:86,1,100,8|2,0:0|0:3,0:0:0:0:
297,10,17351,5,0,3:3:0:0:
302,170,17566,1,2,3:3:0:0:
307,334,17780,1,8,0:0:0:0:
386,251,17994,1,2,0:3:0:0:
199,205,18208,5,0,3:2:0:0:
77,357,18423,1,2,0:3:0:0:
77,357,18495,1,0,0:0:0:0:
77,357,18566,1,0,0:0:0:0:
77,357,18637,2,0,P|67:307|84:237,1,100,8|2,0:0|0:3,0:0:0:0:
2,142,19066,1,0,3:0:0:0:
179,36,19280,1,2,3:3:0:0:
179,36,19351,1,0,0:0:0:0:
179,36,19423,1,0,0:0:0:0:
179,36,19494,2,0,P|118:34|59:38,1,100,8|2,0:0|3:3,0:0:0:0:
237,170,19923,5,0,0:0:0:0:
293,5,20137,1,2,3:3:0:0:
314,140,20351,1,8,0:0:0:0:
345,276,20566,2,0,P|392:266|457:281,1,100,2|0,0:3|0:0,0:0:0:0:
236,359,20994,5,8,3:2:0:0:
123,202,21208,1,8,3:2:0:0:
332,180,21423,1,8,3:2:0:0:
163,288,21637,5,4,3:2:0:0:
237,151,21851,1,2,0:3:0:0:
237,151,21923,1,0,0:0:0:0:
237,151,21994,1,0,0:0:0:0:
237,151,22066,2,0,P|241:84|235:38,1,100,8|2,0:0|0:3,0:0:0:0:
350,5,22494,1,0,3:0:0:0:
414,143,22708,1,2,3:3:0:0:
414,143,22780,1,0,0:0:0:0:
414,143,22851,1,0,0:0:0:0:
414,143,22923,2,0,P|407:203|409:252,1,100,8|2,0:0|3:3,0:0:0:0:
335,355,23351,5,0,0:0:0:0:
249,196,23566,1,2,3:3:0:0:
249,196,23637,1,0,0:0:0:0:
249,196,23708,1,0,0:0:0:0:
249,196,23780,2,0,P|251:254|249:313,1,100,8|2,0:0|0:3,0:0:0:0:
182,368,24208,5,0,3:3:0:0:
96,281,24423,1,2,3:3:0:0:
195,208,24637,1,8,0:0:0:0:
296,121,24851,1,2,0:3:0:0:
311,150,24958,1,0,0:0:0:0:
309,181,25066,1,0,3:2:0:0:
116,39,25280,5,2,0:3:0:0:
150,58,25387,1,0,0:0:0:0:
188,70,25494,1,8,0:0:0:0:
228,73,25601,1,0,0:0:0:0:
268,67,25708,1,2,0:3:0:0:
305,52,25815,1,0,0:0:0:0:
338,29,25922,1,0,3:0:0:0:
338,29,26030,1,0,0:0:0:0:
338,29,26137,2,0,P|329:107|337:168,1,100,2|8,3:3|0:0,0:0:0:0:
394,268,26566,1,2,3:3:0:0:
236,365,26780,5,0,0:0:0:0:
245,317,26887,1,0,0:0:0:0:
216,278,26994,1,2,3:3:0:0:
168,274,27101,1,0,0:0:0:0:
127,302,27208,2,0,P|78:313|9:295,1,100,12|8,0:0|0:0,0:0:0:0:
81,208,27530,1,8,0:0:0:0:
81,208,27637,1,0,3:3:0:0:
213,145,27851,5,0,3:0:0:0:
213,145,27958,1,0,3:0:0:0:
213,145,28066,2,0,L|219:225,1,50,8|8,0:0|0:0,0:0:0:0:
96,36,28280,1,4,0:3:0:0:
290,40,28494,6,0,P|363:54|452:26,1,160,4|8,3:2|0:0,0:0:0:0:
215,4,29137,1,0,0:0:0:0:
249,191,29351,2,0,P|254:148|245:78,1,80,0|0,3:0|0:0,0:0:0:0:
317,262,29780,1,8,0:0:0:0:
150,195,29994,6,0,P|61:190|-17:219,1,160,0|0,3:0|3:0,0:0:0:0:
166,93,30637,1,8,0:0:0:0:
256,189,30851,1,0,0:0:0:0:
256,189,30958,1,0,0:0:0:0:
256,189,31066,1,0,3:0:0:0:
300,39,31280,1,0,3:0:0:0:
374,220,31494,2,0,L|397:133,1,80,8|0,0:0|0:0,0:0:0:0:
321,322,31923,6,0,P|252:308|172:348,1,160,0|8,3:2|0:0,0:0:0:0:
100,287,32566,1,0,0:0:0:0:
179,217,32780,2,0,P|177:175|169:133,1,80,0|0,3:0|0:0,0:0:0:0:
265,224,33208,1,8,0:0:0:0:
367,74,33423,6,0,P|352:132|353:242,1,160,0|0,3:0|3:0,0:0:0:0:
396,330,34066,1,8,0:0:0:0:
480,204,34280,1,0,0:0:0:0:
480,204,34387,1,0,0:0:0:0:
480,204,34494,2,0,P|484:130|481:102,1,80,0|0,3:0|3:0,0:0:0:0:
423,27,34923,1,8,0:0:0:0:
334,117,35137,1,0,0:0:0:0:
157,54,35351,6,0,P|251:55|301:-7,1,160,0|8,3:2|0:0,0:0:0:0:
68,8,35994,1,0,0:0:0:0:
108,198,36208,2,0,P|118:149|109:88,1,80,0|0,3:0|0:0,0:0:0:0:
22,252,36637,1,8,0:0:0:0:
132,316,36851,6,0,P|249:314|315:314,1,160,0|0,3:0|3:0,0:0:0:0:
213,199,37494,1,8,0:0:0:0:
402,147,37708,1,0,0:0:0:0:
402,147,37816,1,0,0:0:0:0:
402,147,37923,1,0,3:0:0:0:
337,222,38137,1,0,3:0:0:0:
304,29,38351,2,0,L|296:117,1,80,8|0,0:0|0:0,0:0:0:0:
77,134,38780,6,0,P|127:150|209:82,1,160,0|8,3:2|0:0,0:0:0:0:
324,0,39423,1,0,0:0:0:0:
324,0,39530,1,0,0:0:0:0:
324,0,39637,1,0,3:0:0:0:
429,90,39851,1,0,3:0:0:0:
387,254,40066,1,8,0:0:0:0:
312,172,40280,6,0,B|362:168|362:168|492:201,1,160,0|0,3:0|3:0,0:0:0:0:
250,99,40923,1,8,0:0:0:0:
230,314,41137,1,0,0:0:0:0:
244,289,41244,1,0,0:0:0:0:
253,263,41351,1,0,0:0:0:0:
258,236,41458,1,8,0:0:0:0:
257,208,41565,1,8,0:3:0:0:
363,82,41780,1,8,0:0:0:0:
422,228,41994,1,2,0:3:0:0:
254,111,42208,6,0,B|193:105|193:105|59:141,1,179.999994506836,4|8,3:2|0:0,0:0:0:0:
95,24,42851,1,0,0:0:0:0:
162,207,43066,2,0,P|164:262|159:304,1,89.9999972534181,0|0,3:0|0:0,0:0:0:0:
261,250,43494,1,8,0:0:0:0:
388,364,43708,6,0,P|331:356|197:360,1,179.999994506836,0|0,3:0|3:0,0:0:0:0:
339,275,44351,1,8,0:0:0:0:
478,328,44566,1,0,0:0:0:0:
443,199,44780,5,0,3:0:0:0:
443,199,44851,1,0,0:0:0:0:
443,199,44923,1,0,0:0:0:0:
443,199,44994,1,0,3:0:0:0:
314,146,45208,1,8,0:0:0:0:
412,292,45423,1,0,0:0:0:0:
489,95,45637,6,0,P|429:102|356:19,1,179.999994506836,0|8,3:2|0:0,0:0:0:0:
265,122,46280,1,0,0:0:0:0:
386,189,46494,2,0,P|364:234|362:284,1,89.9999972534181,0|0,3:0|0:0,0:0:0:0:
414,374,46923,1,8,0:0:0:0:
422,344,47137,1,0,3:0:0:0:
259,291,47351,6,0,P|266:241|254:188,1,89.9999972534181,0|0,0:0|3:0,0:0:0:0:
342,115,47780,1,8,0:0:0:0:
161,143,47994,1,0,0:0:0:0:
161,143,48101,1,0,0:0:0:0:
161,143,48208,2,0,L|174:37,1,89.9999972534181,0|0,3:0|3:0,0:0:0:0:
281,8,48637,1,8,0:0:0:0:
82,87,48851,1,0,0:0:0:0:
258,194,49066,6,0,P|192:197|108:275,1,179.999994506836,0|8,3:2|0:0,0:0:0:0:
313,110,49708,1,0,0:0:0:0:
331,291,49923,2,0,P|346:222|346:191,1,89.9999972534181,0|0,3:0|3:0,0:0:0:0:
394,368,50351,1,8,0:0:0:0:
249,329,50566,1,0,3:0:0:0:
417,262,50780,6,0,P|493:254|536:265,1,89.9999972534181,0|0,0:0|3:0,0:0:0:0:
328,132,51208,2,0,P|252:124|209:135,1,89.9999972534181,8|0,0:0|0:0,0:0:0:0:
470,39,51637,1,0,3:0:0:0:
511,115,51851,1,0,3:0:0:0:
343,232,52066,2,0,L|333:111,1,89.9999972534181,8|0,0:0|0:0,0:0:0:0:
183,23,52494,6,0,L|162:140,1,89.9999972534181,0|0,3:2|0:0,0:0:0:0:
32,143,52923,1,8,0:0:0:0:
125,248,53137,1,0,0:0:0:0:
125,248,53244,1,0,0:0:0:0:
125,248,53351,2,0,L|35:251,1,89.9999972534181,0|0,3:0|0:0,0:0:0:0:
184,357,53780,5,8,0:0:0:0:
277,112,53994,1,8,3:2:0:0:
281,124,54423,5,8,3:2:0:0:
275,342,54637,1,0,0:0:0:0:
111,236,54851,1,8,3:2:0:0:
436,175,55066,1,8,3:2:0:0:
194,15,55923,5,6,3:2:0:0:
340,96,56137,1,0,0:0:0:0:
161,191,56351,1,10,0:0:0:0:
330,269,56566,1,0,0:0:0:0:
153,349,56780,2,0,P|96:341|29:331,1,100,2|0,3:2|3:3,0:0:0:0:
8,204,57208,1,10,0:0:0:0:
183,109,57423,1,0,0:0:0:0:
99,55,57637,5,2,3:2:0:0:
328,96,57851,1,0,0:0:0:0:
263,7,58066,1,10,0:0:0:0:
164,231,58280,1,0,0:0:0:0:
304,185,58494,2,0,P|361:186|438:268,1,150,2|0,3:2|0:0,0:0:0:0:
445,319,58923,2,0,P|438:240|479:160,1,150,10|0,0:0|0:0,0:0:0:0:
488,143,59351,5,2,3:2:0:0:
310,233,59566,1,0,0:0:0:0:
370,360,59780,1,10,0:0:0:0:
416,124,59994,1,0,0:0:0:0:
216,154,60208,2,0,P|159:150|88:153,1,100,2|0,3:2|3:0,0:0:0:0:
45,76,60637,1,10,0:0:0:0:
218,33,60851,1,0,0:0:0:0:
126,13,61066,5,2,3:2:0:0:
194,202,61280,1,0,0:0:0:0:
308,112,61494,1,10,0:0:0:0:
77,139,61708,2,0,L|62:199,1,50,0|0,0:0|0:0,0:0:0:0:
119,309,61923,1,2,3:2:0:0:
236,55,62137,5,8,0:1:0:0:
304,365,62351,1,8,0:1:0:0:
375,241,62566,1,0,3:0:0:0:
285,279,62780,5,6,3:2:0:0:
416,150,62994,1,0,0:0:0:0:
305,71,63208,1,10,0:0:0:0:
445,263,63423,1,0,0:0:0:0:
322,351,63637,2,0,P|262:344|185:354,1,100,2|0,3:2|3:0,0:0:0:0:
145,229,64066,5,10,0:0:0:0:
310,259,64280,1,0,0:0:0:0:
254,188,64494,1,2,3:2:0:0:
44,262,64708,1,0,0:0:0:0:
139,105,64923,2,0,P|145:49|140:2,1,100,10|0,0:0|0:0,0:0:0:0:
311,58,65351,2,0,P|305:111|299:170,2,100,2|0|10,3:2|3:0|0:0,0:0:0:0:
465,15,65994,2,0,L|455:72,1,50,0|0,0:0|0:0,0:0:0:0:
433,206,66208,5,4,3:2:0:0:
234,268,66423,1,0,0:0:0:0:
366,311,66637,1,8,0:0:0:0:
122,224,66851,2,0,P|138:176|119:53,1,150,4|0,3:2|0:0,0:0:0:0:
116,41,67280,1,0,3:0:0:0:
236,143,67494,1,8,0:0:0:0:
424,0,67708,6,0,P|394:74|406:173,1,150,4|0,3:2|0:0,0:0:0:0:
399,175,68137,1,0,3:0:0:0:
506,110,68351,1,10,0:0:0:0:
449,280,68566,1,0,3:0:0:0:
285,266,68780,1,8,0:3:0:0:
258,292,68994,1,4,0:3:0:0:
163,39,69208,6,0,P|182:120|152:202,1,160,10|0,0:0|3:0,0:0:0:0:
15,13,72423,5,0,3:0:0:0:
82,84,72637,2,0,L|71:156,1,59.9999981689454,4|0,0:1|0:0,0:0:0:0:
139,299,73066,5,4,3:2:0:0:
252,160,73280,1,2,0:3:0:0:
252,160,73352,1,0,0:0:0:0:
252,160,73423,1,0,0:0:0:0:
252,160,73494,2,0,L|272:278,1,100,8|2,0:0|0:3,0:0:0:0:
365,347,73923,1,0,3:0:0:0:
448,247,74137,1,2,3:3:0:0:
448,247,74209,1,0,0:0:0:0:
448,247,74280,1,0,0:0:0:0:
448,247,74351,2,0,L|468:129,1,100,8|2,0:0|3:3,0:0:0:0:
395,63,74780,5,0,0:0:0:0:
227,136,74994,1,2,3:3:0:0:
227,136,75066,1,0,0:0:0:0:
227,136,75137,1,0,0:0:0:0:
227,136,75208,2,0,P|277:126|345:156,1,100,8|2,0:0|0:3,0:0:0:0:
159,33,75637,1,0,3:3:0:0:
102,136,75851,1,2,3:3:0:0:
172,227,76066,2,0,P|176:278|171:332,1,100,8|2,0:0|0:3,0:0:0:0:
337,376,76494,5,0,3:2:0:0:
292,197,76708,1,2,0:3:0:0:
292,197,76780,1,0,0:0:0:0:
292,197,76851,1,0,0:0:0:0:
292,197,76923,2,0,L|279:321,1,100,8|2,0:0|0:3,0:0:0:0:
213,109,77351,1,0,3:0:0:0:
369,63,77566,1,2,3:3:0:0:
369,63,77637,1,0,0:0:0:0:
369,63,77708,1,0,0:0:0:0:
369,63,77780,2,0,L|474:60,1,100,8|2,0:0|3:3,0:0:0:0:
260,12,78208,5,0,0:0:0:0:
314,159,78423,1,2,3:3:0:0:
174,45,78637,1,8,0:0:0:0:
143,226,78851,2,0,L|29:221,1,100,2|0,0:3|3:3,0:0:0:0:
247,364,79280,5,8,3:2:0:0:
365,232,79494,1,8,3:2:0:0:
187,159,79708,1,8,3:2:0:0:
319,61,79923,5,4,3:2:0:0:
456,161,80137,1,2,0:3:0:0:
456,161,80208,1,0,0:0:0:0:
456,161,80280,1,0,0:0:0:0:
456,161,80351,2,0,L|441:279,1,100,8|2,0:0|0:3,0:0:0:0:
359,348,80780,1,0,3:0:0:0:
234,285,80994,1,2,3:3:0:0:
234,285,81066,1,0,0:0:0:0:
234,285,81137,1,0,0:0:0:0:
234,285,81208,2,0,L|103:293,1,100,8|2,0:0|3:3,0:0:0:0:
306,206,81637,5,0,0:0:0:0:
197,113,81851,1,2,3:3:0:0:
197,113,81923,1,0,0:0:0:0:
197,113,81994,1,0,0:0:0:0:
197,113,82066,2,0,P|190:49|209:-5,1,100,8|2,0:0|0:3,0:0:0:0:
56,75,82494,1,0,3:3:0:0:
131,184,82708,1,2,3:3:0:0:
0,255,82923,1,8,0:0:0:0:
94,328,83137,5,2,0:3:0:0:
142,340,83244,1,0,0:0:0:0:
189,324,83351,1,0,3:2:0:0:
458,199,83566,5,2,0:3:0:0:
421,183,83673,1,0,0:0:0:0:
381,180,83780,1,8,0:0:0:0:
343,190,83887,1,0,0:0:0:0:
310,212,83994,1,2,0:3:0:0:
285,244,84101,1,0,0:0:0:0:
273,282,84208,1,0,3:0:0:0:
273,282,84315,1,0,0:0:0:0:
273,282,84423,2,0,L|279:397,1,100,2|8,3:3|0:0,0:0:0:0:
154,261,84851,1,2,3:3:0:0:
225,123,85066,5,0,0:0:0:0:
265,147,85173,1,0,0:0:0:0:
304,120,85280,1,2,3:3:0:0:
295,74,85387,1,0,0:0:0:0:
246,61,85494,6,0,P|191:59|119:62,1,100,12|8,0:0|0:0,0:0:0:0:
51,122,85816,1,8,0:0:0:0:
51,122,85923,1,0,3:0:0:0:
149,233,86137,1,0,3:0:0:0:
149,233,86244,1,0,3:0:0:0:
149,233,86351,2,0,L|157:163,1,50,8|8,0:0|0:0,0:0:0:0:
56,320,86566,1,4,0:3:0:0:
262,334,86780,6,0,P|335:310|448:339,1,160,4|8,3:2|0:0,0:0:0:0:
197,290,87423,1,0,0:0:0:0:
263,237,87637,2,0,P|269:193|252:148,1,80,0|0,0:0|0:0,0:0:0:0:
309,80,88066,1,8,0:0:0:0:
201,26,88280,6,0,P|129:46|30:55,1,160,0|0,3:0|0:0,0:0:0:0:
171,120,88923,1,8,0:0:0:0:
171,120,89780,1,8,0:0:0:0:
96,230,89994,1,0,3:0:0:0:
218,205,90208,6,0,P|278:204|369:262,1,160,0|8,3:0|0:0,0:0:0:0:
423,167,90851,1,0,0:0:0:0:
481,265,91066,2,0,P|484:312|478:353,1,80,0|0,0:0|0:0,0:0:0:0:
336,364,91494,1,8,0:0:0:0:
337,247,91708,1,0,3:0:0:0:
230,304,91923,6,0,P|163:291|65:330,1,160,0|8,3:0|0:0,0:0:0:0:
58,208,92566,1,4,0:3:0:0:
58,208,92673,1,0,0:0:0:0:
58,208,92780,2,0,P|64:149|51:93,1,80,0|0,0:0|3:0,0:0:0:0:
168,44,93208,1,12,0:0:0:0:
85,23,93423,1,0,0:0:0:0:
210,142,93637,6,0,P|255:144|250:246,1,160,4|8,3:2|0:0,0:0:0:0:
201,297,94280,1,0,0:0:0:0:
301,360,94494,2,0,P|354:353|480:377,1,160,0|8,0:0|0:0,0:0:0:0:
430,277,95137,1,0,0:0:0:0:
430,277,95244,1,0,0:0:0:0:
430,277,95351,6,0,P|430:220|432:165,1,80,0|0,0:0|0:0,0:0:0:0:
328,150,95780,2,0,P|328:93|326:38,1,80,8|0,0:0|0:0,0:0:0:0:
251,14,96208,2,0,P|183:11|76:-5,1,160,0|8,0:0|0:0,0:0:0:0:
23,102,96851,1,0,3:0:0:0:
150,191,97066,6,0,P|109:187|46:222,1,80,0|0,3:0|0:0,0:0:0:0:
226,107,97494,1,8,0:0:0:0:
266,185,97708,2,0,P|270:257|259:354,1,160,0|0,0:0|0:0,0:0:0:0:
170,287,98351,1,8,0:0:0:0:
347,275,98566,6,0,P|432:280|502:333,1,160,0|2,0:0|3:2,0:0:0:0:
433,163,99208,1,8,0:0:0:0:
284,220,99423,1,8,0:3:0:0:
276,235,99637,1,4,0:3:0:0:
198,133,99851,1,0,0:0:0:0:
197,109,99958,1,8,0:0:0:0:
196,85,100065,1,8,0:0:0:0:
196,61,100172,1,8,0:0:0:0:
195,37,100279,1,0,3:0:0:0:
39,201,100494,6,0,P|102:193|181:281,1,179.999994506836,4|8,3:2|0:0,0:0:0:0:
233,152,101137,1,0,0:0:0:0:
271,348,101351,2,0,P|278:297|266:245,1,89.9999972534181,0|0,3:0|0:0,0:0:0:0:
343,185,101780,1,8,0:0:0:0:
415,300,101994,6,0,P|474:309|474:188,1,179.999994506836,0|0,3:0|3:0,0:0:0:0:
455,139,102637,1,8,0:0:0:0:
500,66,102851,1,0,0:0:0:0:
397,24,103066,2,0,P|341:27|272:33,1,89.9999972534181,0|0,3:0|3:0,0:0:0:0:
377,108,103494,1,8,0:0:0:0:
250,93,103708,1,0,0:0:0:0:
305,218,103923,6,0,P|241:215|182:313,1,179.999994506836,0|8,3:2|0:0,0:0:0:0:
97,352,104566,1,0,0:0:0:0:
251,370,104780,2,0,P|312:367|357:354,1,89.9999972534181,0|0,3:0|0:0,0:0:0:0:
274,287,105208,1,8,0:0:0:0:
421,304,105423,1,0,3:0:0:0:
351,213,105637,2,0,P|358:159|330:93,1,89.9999972534181,0|0,0:0|3:0,0:0:0:0:
285,23,106066,1,8,0:0:0:0:
226,118,106280,1,0,0:0:0:0:
226,118,106387,1,0,0:0:0:0:
226,118,106494,6,0,P|164:121|88:211,1,179.999994506836,0|8,3:0|0:0,0:0:0:0:
21,92,107137,1,0,0:0:0:0:
31,290,107351,6,0,P|79:289|211:354,1,179.999994506836,0|8,3:2|0:0,0:0:0:0:
263,280,107994,1,0,0:0:0:0:
193,198,108208,2,0,P|188:145|204:98,1,89.9999972534181,0|0,3:0|3:0,0:0:0:0:
103,134,108637,1,8,0:0:0:0:
162,24,108851,1,0,3:0:0:0:
283,80,109066,6,0,P|330:90|393:78,1,89.9999972534181,0|0,0:0|3:0,0:0:0:0:
497,193,109494,2,0,P|450:203|387:191,1,89.9999972534181,8|0,0:0|0:0,0:0:0:0:
488,298,109923,1,0,3:0:0:0:
357,270,110137,1,0,3:0:0:0:
266,344,110351,2,0,P|209:346|149:350,1,89.9999972534181,8|0,0:0|0:0,0:0:0:0:
105,277,110780,5,0,3:2:0:0:
236,204,110994,1,0,0:0:0:0:
72,146,111208,1,8,0:0:0:0:
213,122,111423,2,0,P|226:67|212:-6,1,89.9999972534181,0|0,0:0|3:0,0:0:0:0:
316,13,111851,1,0,0:0:0:0:
148,58,112066,1,8,0:0:0:0:
279,169,112280,6,0,P|339:159|453:209,1,179.999994506836,2|2,3:2|3:2,0:0:0:0:
446,202,113137,1,10,0:0:0:0:
263,320,113351,1,8,0:0:0:0:
351,272,113566,1,8,0:3:0:0:
361,237,113673,1,8,0:3:0:0:
365,201,113780,1,4,0:3:0:0:
362,166,113887,1,0,3:0:0:0:
353,131,113994,1,10,0:0:0:0:
165,215,114208,5,0,0:0:0:0:
159,166,117208,6,0,P|160:117|148:65,1,89.9999972534181,0|0,0:0|0:0,0:0:0:0:
151,76,117494,1,0,0:0:0:0:
151,76,117566,1,0,0:0:0:0:
151,76,117637,6,0,P|200:79|249:69,1,80,0|0,3:0|0:0,0:0:0:0:
338,5,118066,1,0,0:0:0:0:
338,13,118280,1,0,3:0:0:0:
430,155,118494,2,0,P|382:141|336:171,1,80,8|0,0:0|0:0,0:0:0:0:
288,232,118923,1,0,0:0:0:0:
368,330,119137,1,8,0:3:0:0:
372,324,119566,5,4,0:3:0:0:
277,367,119780,1,0,0:0:0:0:
187,305,119994,1,4,0:3:0:0:
80,365,120208,1,4,3:2:0:0:
131,290,120423,5,0,0:0:0:0:
146,253,120530,1,8,0:0:0:0:
152,213,120637,1,8,0:0:0:0:
148,173,120744,1,8,0:0:0:0:
136,135,120851,1,0,3:0:0:0:
118,31,121066,5,4,3:2:0:0:
140,235,121280,1,0,0:0:0:0:
27,191,121494,1,8,0:0:0:0:
239,116,121708,1,0,0:0:0:0:
212,356,121923,2,0,P|207:305|216:219,1,100,0|0,3:1|3:0,0:0:0:0:
306,189,122351,5,8,0:0:0:0:
116,84,122566,1,0,0:0:0:0:
134,167,122780,1,2,3:1:0:0:
172,0,122994,1,0,0:0:0:0:
6,90,123208,1,8,0:0:0:0:
220,60,123423,1,0,0:0:0:0:
412,97,123637,6,0,P|384:141|387:252,1,150,0|0,3:1|0:0,0:0:0:0:
462,282,124066,2,0,P|397:267|332:321,1,150,8|0,0:0|0:0,0:0:0:0:
329,345,124494,5,2,3:1:0:0:
250,153,124708,1,0,0:0:0:0:
275,232,124923,1,8,0:0:0:0:
339,77,125137,1,2,0:1:0:0:
187,92,125351,2,0,P|137:94|78:89,1,100,2|0,3:1|3:0,0:0:0:0:
243,11,125780,5,8,0:0:0:0:
170,201,125994,1,2,0:1:0:0:
281,132,126208,1,2,3:1:0:0:
74,168,126423,1,0,0:0:0:0:
233,233,126637,1,8,0:0:0:0:
86,302,126851,1,0,0:0:0:0:
182,112,127066,1,0,3:1:0:0:
203,348,127280,5,8,0:1:0:0:
495,215,127494,1,8,0:1:0:0:
394,146,127708,1,0,0:0:0:0:
377,335,127923,5,4,3:2:0:0:
245,188,128137,1,0,0:0:0:0:
310,378,128351,1,8,0:0:0:0:
367,164,128566,1,0,0:0:0:0:
210,305,128780,2,0,P|161:298|82:304,1,100,0|0,3:1|3:0,0:0:0:0:
13,186,129208,1,8,0:0:0:0:
185,148,129423,1,0,0:0:0:0:
32,282,129637,5,0,3:0:0:0:
75,60,129851,1,0,0:0:0:0:
201,48,130066,1,8,0:0:0:0:
1,168,130280,1,0,0:0:0:0:
146,248,130494,2,0,P|194:224|275:227,2,100,0|0|8,3:0|3:0|0:0,0:0:0:0:
338,364,131351,6,0,P|336:304|351:262,1,100,4|0,3:2|0:0,0:0:0:0:
233,336,131780,1,8,0:0:0:0:
248,82,131994,2,0,P|264:157|265:243,1,150,4|0,3:2|0:0,0:0:0:0:
257,249,132423,1,0,3:0:0:0:
359,133,132637,1,8,0:0:0:0:
118,50,132851,6,0,P|203:56|265:26,1,150,4|0,3:2|0:0,0:0:0:0:
285,4,133280,1,0,3:0:0:0:
177,140,133494,1,10,0:0:0:0:
303,220,133708,1,8,0:3:0:0:
421,169,133923,1,0,3:3:0:0:
453,182,134137,1,0,3:3:0:0:
281,347,134351,6,0,P|196:338|76:389,1,200,10|0,0:0|3:0,0:0:0:0:
79,138,139494,6,0,L|91:107,5,33.3333333333333,0|0|0|0|0|0,0:0|0:0|0:0|0:0|0:0|0:0,0:0:0:0:
41,163,139923,5,0,3:0:0:0:
96,223,140137,1,0,3:0:0:0:
270,82,140780,1,0,3:0:0:0:
215,142,140994,1,0,3:0:0:0:
295,312,141208,6,0,P|368:307|462:343,1,150,2|0,3:2|0:0,0:0:0:0:
442,359,141637,2,0,P|437:283|498:159,1,200,4|8,3:2|0:0,0:0:0:0:
206,10,142494,1,0,3:0:0:0:
270,54,142708,1,0,3:0:0:0:
205,103,142923,2,0,P|127:105|78:111,1,100,8|0,0:0|0:0,0:0:0:0:
43,155,143244,1,0,0:0:0:0:
54,175,143351,6,0,P|60:228|56:287,1,100,0|0,3:0|0:0,0:0:0:0:
160,362,143780,2,0,P|160:303|177:230,1,100,8|0,0:0|0:0,0:0:0:0:
244,160,144208,1,0,3:0:0:0:
370,232,144423,2,0,L|361:289,1,50,0|0,3:0|0:0,0:0:0:0:
316,164,144637,2,0,P|317:91|346:-22,1,150,8|0,0:0|0:0,0:0:0:0:
386,109,145066,6,0,P|392:175|384:253,1,100,4|0,3:2|0:0,0:0:0:0:
489,325,145494,1,8,0:0:0:0:
446,314,145601,1,0,0:0:0:0:
401,320,145708,1,6,3:2:0:0:
365,342,145816,1,0,0:0:0:0:
252,231,146030,1,0,0:0:0:0:
291,250,146137,1,0,3:0:0:0:
331,255,146244,1,0,0:0:0:0:
371,235,146351,1,8,0:0:0:0:
390,199,146458,1,0,0:0:0:0:
396,163,146566,6,0,P|380:78|279:32,1,200,4|0,3:2|0:0,0:0:0:0:
493,83,147208,1,8,0:0:0:0:
288,141,147423,1,0,0:0:0:0:
288,141,147530,1,0,0:0:0:0:
288,141,147637,2,0,L|303:258,1,100,4|0,0:0|3:0,0:0:0:0:
178,359,148066,2,0,L|192:306,1,50,8|0,0:0|0:0,0:0:0:0:
132,183,148280,1,0,3:0:0:0:
100,200,148387,1,0,0:0:0:0:
75,224,148494,6,0,P|50:281|51:351,1,100,4|2,0:0|0:0,0:0:0:0:
256,322,148923,2,0,P|186:323|140:344,1,100,0|0,0:0|0:0,0:0:0:0:
335,367,149351,5,2,0:0:0:0:
263,177,149566,1,0,0:0:0:0:
409,315,149780,1,0,0:0:0:0:
131,214,149994,1,2,0:0:0:0:
385,57,150208,6,0,P|367:132|369:193,1,100,4|0,3:2|3:0,0:0:0:0:
386,192,150530,1,0,0:0:0:0:
337,174,150637,1,8,0:0:0:0:
295,195,150744,1,0,0:0:0:0:
255,223,150851,1,0,0:0:0:0:
209,225,150958,1,0,0:0:0:0:
168,204,151066,6,0,P|162:141|179:76,1,100,4|0,3:2|3:0,0:0:0:0:
294,6,151494,1,8,0:0:0:0:
247,24,151601,1,0,0:0:0:0:
198,32,151708,1,0,0:0:0:0:
148,27,151815,1,0,0:0:0:0:
101,11,151922,5,4,3:2:0:0:
21,72,152137,1,0,0:0:0:0:
110,189,152351,5,8,0:0:0:0:
23,158,152566,1,0,0:0:0:0:
57,255,152780,2,0,L|29:364,1,100,0|0,3:0|3:0,0:0:0:0:
129,366,153208,1,8,0:0:0:0:
210,316,153423,1,0,0:0:0:0:
145,244,153637,6,0,L|176:131,2,100,0|0|8,3:0|0:0|0:0,0:0:0:0:
100,117,154280,1,0,0:0:0:0:
243,193,154494,2,0,L|396:182,1,150,0|0,3:0|0:0,0:0:0:0:
424,171,154923,2,0,L|326:144,1,100,8|0,0:0|0:0,0:0:0:0:
263,273,155351,5,0,3:0:0:0:
312,351,155566,1,0,0:0:0:0:
213,332,155780,2,0,L|110:358,1,100,8|0,0:0|0:0,0:0:0:0:
335,277,156208,2,0,L|446:290,2,100,0|0|8,3:0|3:0|0:0,0:0:0:0:
269,197,156851,1,0,0:0:0:0:
360,95,157066,6,0,P|351:146|344:198,1,100,0|0,3:0|0:0,0:0:0:0:
260,275,157494,1,8,0:0:0:0:
423,192,157708,1,0,0:0:0:0:
280,100,157923,1,0,3:0:0:0:
358,357,158137,5,8,3:1:0:0:
512,70,158351,1,8,0:1:0:0:
389,142,158566,1,2,3:0:0:0:
456,251,158780,6,0,P|401:251|324:260,1,100,0|0,3:0|0:0,0:0:0:0:
228,347,159208,1,8,0:0:0:0:
268,202,159423,1,0,0:0:0:0:
334,345,159637,2,0,P|338:277|358:210,1,100,0|0,3:0|3:0,0:0:0:0:
311,127,160066,1,8,0:0:0:0:
408,197,160280,1,0,0:0:0:0:
222,258,160494,6,0,L|115:251,2,100,0|0|8,3:0|0:0|0:0,0:0:0:0:
84,322,161137,1,0,0:0:0:0:
168,184,161351,2,0,L|152:78,1,100,0|0,3:0|3:0,0:0:0:0:
270,189,161780,2,0,P|255:255|243:303,1,100,8|0,0:0|0:0,0:0:0:0:
357,371,162208,5,0,3:0:0:0:
348,358,163708,1,0,0:0:0:0:
332,336,164137,5,8,0:0:0:0:
82,281,164351,1,8,0:0:0:0:
255,362,164566,1,8,0:0:0:0:
147,106,164780,1,8,0:0:0:0:
148,371,164994,5,8,0:0:0:0:
388,16,165208,1,8,0:0:0:0:
6,229,165423,1,0,3:0:0:0:
6,229,165530,1,0,0:0:0:0:
6,229,165637,5,4,3:2:0:0:
219,280,165851,1,0,0:0:0:0:
66,97,166066,1,10,0:0:0:0:
306,86,166280,1,0,0:0:0:0:
146,6,166494,2,0,P|124:141|118:175,1,119.999996337891,2|0,3:2|3:3,0:0:0:0:
190,244,166923,5,10,0:0:0:0:
38,5,167137,1,0,0:0:0:0:
215,149,167351,1,2,3:2:0:0:
3,181,167566,1,0,0:0:0:0:
192,11,167780,1,10,0:0:0:0:
275,91,167994,1,0,0:0:0:0:
89,242,168208,6,0,P|161:231|191:97,1,179.999994506836,2|0,3:2|0:0,0:0:0:0:
107,50,168637,2,0,P|40:107|33:195,1,179.999994506836,10|0,0:0|0:0,0:0:0:0:
64,283,169066,5,2,3:2:0:0:
315,253,169280,1,0,0:0:0:0:
160,300,169494,1,10,0:0:0:0:
96,364,169708,1,0,0:0:0:0:
161,129,169923,2,0,P|231:141|323:147,1,119.999996337891,2|0,3:2|3:0,0:0:0:0:
95,211,170351,1,10,0:0:0:0:
193,48,170566,1,0,0:0:0:0:
37,159,170780,5,2,3:2:0:0:
219,262,170994,1,0,0:0:0:0:
118,306,171208,1,10,0:0:0:0:
208,113,171423,1,0,0:0:0:0:
119,167,171637,1,2,3:2:0:0:
219,262,171851,5,8,0:1:0:0:
177,9,172066,1,8,0:1:0:0:
82,87,172280,1,0,3:0:0:0:
262,216,172494,5,6,3:2:0:0:
25,161,172708,1,0,0:0:0:0:
123,304,172923,1,10,0:0:0:0:
258,79,173137,1,0,0:0:0:0:
262,216,173351,2,0,P|173:221|96:219,1,119.999996337891,2|0,3:2|3:0,0:0:0:0:
341,133,173780,1,10,0:0:0:0:
262,313,173994,1,0,0:0:0:0:
477,122,174208,5,2,3:2:0:0:
263,149,174423,1,0,0:0:0:0:
357,41,174637,1,10,0:0:0:0:
450,209,174851,1,0,0:0:0:0:
334,327,175066,2,0,P|329:257|347:198,1,119.999996337891,2|0,3:2|3:0,0:0:0:0:
212,67,175494,2,0,P|228:136|218:189,1,119.999996337891,10|0,0:0|0:0,0:0:0:0:
67,264,175923,6,0,P|130:261|188:291,1,119.999996337891,4|0,3:2|0:0,0:0:0:0:
4,136,176351,1,8,0:0:0:0:
348,0,176566,2,0,P|330:89|309:182,1,179.999994506836,4|0,3:2|0:0,0:0:0:0:
246,237,176994,1,0,3:0:0:0:
109,46,177208,1,8,0:0:0:0:
276,212,177423,6,0,P|382:215|485:218,1,179.999994506836,4|0,3:2|0:0,0:0:0:0:
512,171,177851,1,0,3:0:0:0:
386,338,178066,1,10,0:0:0:0:
310,100,178280,1,0,3:0:0:0:
462,273,178494,1,8,0:3:0:0:
450,289,178708,1,4,0:3:0:0:
216,174,178923,6,0,P|292:208|424:127,1,239.999992675781,10|0,0:0|3:0,0:0:0:0:
104,244,182137,5,0,0:0:0:0:
197,162,182351,2,0,L|97:152,1,100,0|0,0:0|0:0,0:0:0:0:
291,58,182780,5,4,3:2:0:0:
403,275,182994,1,2,0:3:0:0:
403,275,183066,1,0,0:0:0:0:
403,275,183137,1,0,0:0:0:0:
403,275,183208,2,0,L|416:159,1,100,8|2,0:0|0:3,0:0:0:0:
475,56,183637,1,0,3:0:0:0:
253,192,183851,1,2,3:3:0:0:
253,192,183923,1,0,0:0:0:0:
253,192,183994,1,0,0:0:0:0:
253,192,184066,2,0,P|183:204|134:209,1,100,8|2,0:0|3:3,0:0:0:0:
320,344,184494,5,0,0:0:0:0:
430,209,184708,1,2,3:3:0:0:
430,209,184780,1,0,0:0:0:0:
430,209,184851,1,0,0:0:0:0:
430,209,184923,2,0,L|415:83,1,100,8|2,0:0|0:3,0:0:0:0:
339,22,185351,1,0,3:3:0:0:
500,121,185566,1,2,3:3:0:0:
327,164,185780,2,0,L|225:178,1,100,8|2,0:0|0:3,0:0:0:0:
330,271,186208,5,0,3:2:0:0:
132,101,186423,1,2,0:3:0:0:
132,101,186494,1,0,0:0:0:0:
132,101,186566,1,0,0:0:0:0:
132,101,186637,2,0,L|117:207,1,100,8|2,0:0|0:3,0:0:0:0:
20,308,187066,1,0,3:0:0:0:
203,269,187280,1,2,3:3:0:0:
203,269,187351,1,0,0:0:0:0:
203,269,187423,1,0,0:0:0:0:
203,269,187494,2,0,P|299:283|330:289,1,100,8|2,0:0|3:3,0:0:0:0:
230,151,187923,5,0,0:0:0:0:
153,329,188137,1,2,3:3:0:0:
98,201,188351,1,8,0:0:0:0:
285,350,188566,2,0,L|399:363,1,100,2|0,0:3|0:0,0:0:0:0:
220,206,188994,5,8,3:2:0:0:
452,349,189208,1,8,3:2:0:0:
413,85,189423,1,8,3:2:0:0:
333,240,189637,5,4,3:2:0:0:
224,62,189851,1,2,0:3:0:0:
224,62,189923,1,0,0:0:0:0:
224,62,189994,1,0,0:0:0:0:
224,62,190066,2,0,L|211:171,1,100,8|2,0:0|0:3,0:0:0:0:
87,240,190494,1,0,3:0:0:0:
26,39,190708,1,2,3:3:0:0:
26,39,190780,1,0,0:0:0:0:
26,39,190851,1,0,0:0:0:0:
26,39,190923,2,0,L|6:160,1,100,8|2,0:0|3:3,0:0:0:0:
145,17,191351,5,0,0:0:0:0:
242,126,191566,1,2,3:3:0:0:
242,126,191637,1,0,0:0:0:0:
242,126,191708,1,0,0:0:0:0:
242,126,191780,2,0,P|293:134|355:127,1,100,8|2,0:0|0:3,0:0:0:0:
425,46,192208,1,0,3:3:0:0:
305,201,192423,1,2,3:3:0:0:
478,180,192637,1,8,0:0:0:0:
389,348,192851,5,2,0:3:0:0:
382,309,192958,1,0,0:0:0:0:
391,269,193066,1,0,3:2:0:0:
245,91,193280,5,2,0:3:0:0:
274,130,193387,1,0,0:0:0:0:
284,179,193494,1,8,0:0:0:0:
272,227,193601,1,0,0:0:0:0:
240,265,193708,1,2,0:3:0:0:
196,286,193815,1,0,0:0:0:0:
146,286,193922,1,0,3:0:0:0:
146,286,194030,1,0,0:0:0:0:
146,286,194137,2,0,P|92:302|30:333,1,100,2|8,3:3|0:0,0:0:0:0:
272,356,194566,1,2,3:3:0:0:
117,205,194780,5,0,0:0:0:0:
108,157,194887,1,0,0:0:0:0:
137,118,194994,1,2,3:3:0:0:
185,114,195101,1,0,0:0:0:0:
226,142,195208,2,0,P|275:153|344:135,1,100,12|8,0:0|0:0,0:0:0:0:
427,52,195637,1,0,3:3:0:0:
370,233,195851,5,0,3:0:0:0:
199,25,196066,2,0,L|-16:50,1,200,8|0,0:0|0:0,0:0:0:0:
