osu file format v14

[General]
AudioFilename: audio.mp3
AudioLeadIn: 0
PreviewTime: 55949
Countdown: 0
SampleSet: Soft
StackLeniency: 0.7
Mode: 0
LetterboxInBreaks: 0
WidescreenStoryboard: 1

[Editor]
Bookmarks: 85734,114234,121092
DistanceSpacing: 1.4
BeatDivisor: 4
GridSize: 8
TimelineZoom: 1.9

[Metadata]
Title:Tada Kimi ni Hare
TitleUnicode:ただ君に晴れ
Artist:Yorushika
ArtistUnicode:ヨルシカ
Creator:GreenHue
Version:GreenFox's Advanced
Source:
Tags:makeinu ni encore wa iranai '負け犬にアンコールはいらない suis tada kimi ni hare nbuna KKipalt Ultima Fox defiance osuskrub jennglebells quanhitter39 just a another sunny day for you
BeatmapID:1812575
BeatmapSetID:847238

[Difficulty]
HPDrainRate:4
CircleSize:3.7
OverallDifficulty:4.8
ApproachRate:6
SliderMultiplier:1.35
SliderTickRate:1

[Events]
//Background and Video events
0,0,"593482.jpg",0,0
//Break Periods
2,69837,71373
2,114194,116587
2,134980,140587
2,179551,181730
//Storyboard Layer 0 (Background)
//Storyboard Layer 1 (Fail)
//Storyboard Layer 2 (Pass)
//Storyboard Layer 3 (Foreground)
//Storyboard Sound Samples

[TimingPoints]
1066,428.571428571429,4,2,1,60,1,0
14351,-100,4,2,1,60,0,0
55923,-90.9090909090909,4,2,1,72,0,1
58816,-90.9090909090909,4,2,1,5,0,1
58923,-90.9090909090909,4,2,1,72,0,1
59244,-90.9090909090909,4,2,1,5,0,1
59351,-90.9090909090909,4,2,1,72,0,1
67173,-90.9090909090909,4,2,1,5,0,1
67280,-90.9090909090909,4,2,1,72,0,1
68030,-90.9090909090909,4,2,1,5,0,1
68137,-90.9090909090909,4,2,1,72,0,1
68780,-90.9090909090909,4,2,1,60,0,1
69637,-100,4,2,1,60,0,0
114208,-111.111111111111,4,2,1,60,0,0
119137,-100,4,2,1,60,0,0
120958,-90.9090909090909,4,2,1,60,0,1
121066,-90.9090909090909,4,2,1,72,0,1
123958,-90.9090909090909,4,2,1,5,0,1
124066,-90.9090909090909,4,2,1,72,0,1
124387,-90.9090909090909,4,2,1,5,0,1
124494,-90.9090909090909,4,2,1,72,0,1
132316,-90.9090909090909,4,2,1,5,0,1
132423,-90.9090909090909,4,2,1,72,0,1
133173,-90.9090909090909,4,2,1,5,0,1
133280,-90.9090909090909,4,2,1,72,0,1
134780,-90.9090909090909,4,2,1,60,0,0
141637,-100,4,2,1,60,0,0
165637,-90.9090909090909,4,2,1,72,0,1
168530,-90.9090909090909,4,2,1,5,0,1
168637,-90.9090909090909,4,2,1,72,0,1
179351,-100,4,2,1,60,0,0
182780,-100,4,2,1,60,0,0

[Colours]
Combo1 : 212,212,212
Combo2 : 62,158,255
Combo3 : 255,111,131
Combo4 : 128,255,128

[HitObjects]
163,145,14137,6,0,L|158:224,1,67.5,0|4,3:0|0:1,0:0:0:0:
158,212,14780,6,0,P|204:243|289:224,1,135,4|8,3:2|0:0,0:0:0:0:
317,144,15423,1,2,0:3:0:0:
390,203,15637,2,0,L|383:299,2,67.5,0|2|8,3:0|3:3|0:0,0:0:0:0:
468,150,16280,6,0,L|456:75,1,67.5,2|0,3:3|0:0,0:0:0:0:
367,54,16708,2,0,L|377:120,1,67.5,2|8,3:3|0:0,0:0:0:0:
295,167,17137,2,0,L|283:92,1,67.5,2|0,0:3|3:3,0:0:0:0:
215,35,17566,1,2,3:3:0:0:
215,35,17780,2,0,P|174:32|112:74,1,101.25,8|0,0:0|0:0,0:0:0:0:
99,101,18208,6,0,L|90:250,1,135,0|8,3:2|0:0,0:0:0:0:
180,205,18851,1,2,0:3:0:0:
225,288,19066,2,0,P|268:301|310:296,1,67.5,0|0,3:0|0:0,0:0:0:0:
371,252,19494,1,8,0:0:0:0:
371,252,19708,6,0,P|379:216|376:163,1,67.5,2|0,3:3|0:0,0:0:0:0:
370,91,20137,2,0,P|335:101|290:131,1,67.5,2|8,3:3|0:0,0:0:0:0:
225,163,20566,2,0,P|251:188|299:211,1,67.5,2|0,0:3|0:0,0:0:0:0:
379,185,20994,1,8,3:2:0:0:
368,278,21208,1,8,3:2:0:0:
456,243,21423,1,8,3:2:0:0:
448,337,21637,6,0,P|414:372|323:372,1,135,4|8,3:2|0:0,0:0:0:0:
280,296,22280,1,2,0:3:0:0:
226,373,22494,2,0,L|126:367,2,67.5,0|2|8,3:0|3:3|0:0,0:0:0:0:
280,296,23137,6,0,L|268:216,1,67.5,2|0,3:3|0:0,0:0:0:0:
188,180,23566,2,0,L|177:246,1,67.5,2|8,3:3|0:0,0:0:0:0:
96,294,23994,2,0,L|84:214,1,67.5,2|0,0:3|3:3,0:0:0:0:
106,134,24423,1,2,3:3:0:0:
106,134,24637,2,0,P|147:94|199:90,1,101.25,8|0,0:0|0:0,0:0:0:0:
230,111,25066,6,0,P|266:138|362:123,1,135,0|8,3:2|0:0,0:0:0:0:
387,43,25708,1,2,0:3:0:0:
466,93,25923,2,0,L|458:169,1,67.5,0|2,3:0|3:3,0:0:0:0:
413,242,26351,5,8,0:0:0:0:
413,242,26566,2,0,P|375:248|340:242,1,67.5,2|0,3:3|0:0,0:0:0:0:
320,334,26994,2,0,P|287:314|264:287,1,67.5,2|12,3:3|0:0,0:0:0:0:
190,347,27423,2,0,P|177:310|177:275,1,67.5,8|0,0:0|3:3,0:0:0:0:
235,207,27851,1,0,3:0:0:0:
235,207,28066,2,0,L|246:110,1,67.5,8|4,0:0|0:3,0:0:0:0:
197,57,28494,6,0,P|141:50|80:99,1,135,4|8,3:2|0:0,0:0:0:0:
163,144,29137,1,0,0:0:0:0:
72,118,29351,2,0,P|69:186|77:265,1,135,0|8,3:0|0:0,0:0:0:0:
143,317,29994,1,0,3:0:0:0:
215,256,30208,6,0,L|285:267,1,67.5,0|0,0:0|3:0,0:0:0:0:
320,353,30637,2,0,L|468:333,1,135,8|0,0:0|3:0,0:0:0:0:
493,248,31280,1,0,3:0:0:0:
414,195,31494,2,0,P|413:155|425:120,1,67.5,8|0,0:0|0:0,0:0:0:0:
500,78,31923,6,0,P|471:47|375:49,1,135,0|8,3:2|0:0,0:0:0:0:
296,5,32566,1,0,0:0:0:0:
371,61,32780,2,0,P|342:92|246:90,1,135,0|8,3:0|0:0,0:0:0:0:
199,17,33423,1,0,3:0:0:0:
149,97,33637,6,0,L|67:91,2,67.5,0|0|8,0:0|3:0|0:0,0:0:0:0:
212,167,34280,1,0,0:0:0:0:
212,167,34494,2,0,L|223:253,1,67.5,0|0,3:0|3:0,0:0:0:0:
284,303,34923,2,0,P|321:311|364:304,1,67.5,8|0,0:0|0:0,0:0:0:0:
436,269,35351,6,0,L|456:108,1,135,0|8,3:2|0:0,0:0:0:0:
510,59,35994,1,0,0:0:0:0:
433,114,36208,2,0,P|397:90|295:108,1,135,0|8,3:0|0:0,0:0:0:0:
219,128,36851,1,0,3:0:0:0:
294,185,37066,6,0,P|306:221|303:263,1,67.5,0|0,0:0|3:0,0:0:0:0:
235,317,37494,1,8,0:0:0:0:
155,265,37708,1,0,0:0:0:0:
155,265,37923,2,0,L|74:277,1,67.5,0|0,3:0|3:0,0:0:0:0:
8,223,38351,2,0,P|9:180|56:122,1,101.25,8|0,0:0|0:0,0:0:0:0:
86,123,38780,6,0,L|169:137,1,67.5,0|0,3:2|0:0,0:0:0:0:
214,63,39208,1,8,0:0:0:0:
293,114,39423,2,0,P|310:169|300:265,1,135,0|0,0:0|3:0,0:0:0:0:
211,255,40066,1,8,0:0:0:0:
255,338,40280,6,0,P|216:352|128:298,1,135,0|0,3:0|3:0,0:0:0:0:
79,237,40923,2,0,L|64:99,1,135,8|0,0:0|0:0,0:0:0:0:
105,17,41566,1,8,0:3:0:0:
158,95,41780,2,0,P|199:120|233:120,1,67.5,8|2,0:0|0:3,0:0:0:0:
287,59,42208,6,0,P|342:47|411:96,1,135,4|8,3:2|0:0,0:0:0:0:
486,36,42851,1,0,0:0:0:0:
421,105,43066,2,0,L|436:245,1,135,0|8,3:0|0:0,0:0:0:0:
394,324,43708,1,0,3:0:0:0:
327,256,43923,6,0,P|289:260|257:282,1,67.5,0|0,0:0|3:0,0:0:0:0:
206,349,44351,2,0,P|166:349|133:330,1,67.5,8|0,0:0|0:0,0:0:0:0:
93,255,44780,2,0,L|85:221,2,33.75,0|0|0,3:0|0:0|3:0,0:0:0:0:
187,250,45208,2,0,L|196:153,1,67.5,8|0,0:0|0:0,0:0:0:0:
274,134,45637,6,0,L|293:284,1,135,0|8,3:2|0:0,0:0:0:0:
378,231,46280,1,0,0:0:0:0:
305,291,46494,2,0,P|346:325|431:309,1,135,0|8,3:0|0:0,0:0:0:0:
466,230,47137,1,0,3:0:0:0:
416,149,47351,6,0,L|327:139,1,67.5,0|0,0:0|3:0,0:0:0:0:
271,196,47780,2,0,L|182:206,1,67.5,8|0,0:0|0:0,0:0:0:0:
125,151,48208,1,0,3:0:0:0:
63,223,48423,1,0,3:0:0:0:
63,223,48637,2,0,P|57:263|62:306,1,67.5,8|0,0:0|0:0,0:0:0:0:
128,353,49066,6,0,B|196:338|196:375|269:364,1,135,0|8,3:2|0:0,0:0:0:0:
249,271,49708,1,0,0:0:0:0:
285,358,49923,2,0,P|318:335|330:232,1,135,0|8,3:0|0:0,0:0:0:0:
268,180,50566,1,0,3:0:0:0:
249,271,50780,6,0,L|167:280,1,67.5,0|0,0:0|3:0,0:0:0:0:
134,359,51208,2,0,L|66:351,1,67.5,8|0,0:0|0:0,0:0:0:0:
2,281,51637,2,0,P|1:249|10:210,1,67.5,0|0,3:0|3:0,0:0:0:0:
90,166,52066,1,8,0:0:0:0:
252,261,52494,6,0,L|346:253,1,67.5,0|0,3:2|0:0,0:0:0:0:
413,247,52923,1,8,0:0:0:0:
359,66,53351,2,0,L|336:146,1,67.5,0|0,3:0|0:0,0:0:0:0:
256,174,53780,1,8,0:0:0:0:
205,94,53994,6,0,P|139:86|73:130,1,135,8|8,3:2|3:2,0:0:0:0:
25,195,54637,2,0,P|58:215|106:209,1,67.5,0|8,0:0|3:2,0:0:0:0:
158,173,55066,1,8,3:2:0:0:
464,200,55923,6,0,P|425:202|390:224,1,74.2500022659302,6|0,3:2|0:0,0:0:0:0:
331,301,56351,2,0,P|292:299|257:277,1,74.2500022659302,10|0,0:0|0:0,0:0:0:0:
205,194,56780,2,0,L|224:30,1,148.50000453186,2|10,3:2|0:0,0:0:0:0:
128,1,57423,1,0,0:0:0:0:
52,72,57637,6,0,L|59:145,1,74.2500022659302,2|0,3:2|0:0,0:0:0:0:
158,179,58066,2,0,L|168:82,1,74.2500022659302,10|0,0:0|0:0,0:0:0:0:
247,41,58494,2,0,B|321:25|321:75|410:56,1,148.50000453186,2|10,3:2|0:0,0:0:0:0:
391,59,59351,6,0,P|376:94|374:138,1,74.2500022659302,2|0,3:2|0:0,0:0:0:0:
272,157,59780,2,0,P|289:190|321:220,1,74.2500022659302,10|0,0:0|0:0,0:0:0:0:
409,240,60208,2,0,P|371:238|293:316,1,148.50000453186,2|10,3:2|0:0,0:0:0:0:
220,382,60851,1,0,0:0:0:0:
159,297,61066,6,0,L|73:290,1,74.2500022659302,2|0,3:2|0:0,0:0:0:0:
127,196,61494,2,0,L|201:202,2,74.2500022659302,10|0|2,0:0|0:0|3:2,0:0:0:0:
53,122,62137,5,8,0:1:0:0:
53,122,62351,1,8,0:1:0:0:
123,45,62566,5,0,3:0:0:0:
197,117,62780,2,0,L|275:107,1,74.2500022659302,6|0,3:2|0:0,0:0:0:0:
323,18,63208,2,0,L|401:28,1,74.2500022659302,10|0,0:0|0:0,0:0:0:0:
488,77,63637,2,0,P|519:147|495:235,1,148.50000453186,2|10,3:2|0:0,0:0:0:0:
422,277,64280,1,0,0:0:0:0:
344,208,64494,6,0,L|251:200,1,74.2500022659302,2|0,3:2|0:0,0:0:0:0:
184,261,64923,1,10,0:0:0:0:
125,175,65137,1,0,0:0:0:0:
47,244,65351,2,0,L|36:328,2,74.2500022659302,2|0|10,3:2|3:0|0:0,0:0:0:0:
71,75,66208,5,4,3:2:0:0:
71,75,66423,2,0,P|107:61|152:64,1,74.2500022659302,0|8,0:0|0:0,0:0:0:0:
244,43,66851,2,0,P|233:106|229:207,1,148.50000453186,4|0,3:2|3:0,0:0:0:0:
303,262,67494,1,8,0:0:0:0:
384,198,67708,6,0,P|351:168|234:186,1,148.50000453186,4|0,3:2|3:0,0:0:0:0:
212,267,68351,2,0,L|128:273,1,74.2500022659302,10|0,0:0|3:0,0:0:0:0:
33,278,68780,2,0,P|18:328|11:366,2,74.2500022659302,8|4|10,0:3|0:3|0:0,0:0:0:0:
169,147,69637,5,0,3:0:0:0:
119,157,72423,6,0,L|106:242,1,67.5,0|4,3:0|0:1,0:0:0:0:
212,186,72851,5,0,0:0:0:0:
256,269,73066,2,0,P|287:286|384:257,1,135,4|8,3:2|0:0,0:0:0:0:
412,174,73708,1,2,0:3:0:0:
349,102,73923,2,0,L|364:24,2,67.5,0|2|8,3:0|3:3|0:0,0:0:0:0:
258,130,74566,6,0,L|182:139,1,67.5,2|0,3:3|0:0,0:0:0:0:
139,217,74994,2,0,L|215:226,1,67.5,2|8,3:3|0:0,0:0:0:0:
251,308,75423,2,0,L|175:317,1,67.5,2|0,0:3|3:3,0:0:0:0:
90,304,75851,1,2,3:3:0:0:
90,304,76066,2,0,P|54:270|57:195,1,101.25,8|0,0:0|0:0,0:0:0:0:
55,174,76494,6,0,L|78:34,1,135,0|8,3:2|0:0,0:0:0:0:
164,4,77137,1,2,0:3:0:0:
221,78,77351,2,0,L|235:156,2,67.5,0|2|8,3:0|3:3|0:0,0:0:0:0:
285,8,77994,6,0,P|322:3|357:14,1,67.5,2|0,3:3|0:0,0:0:0:0:
444,25,78423,2,0,P|454:61|451:106,1,67.5,2|8,3:3|0:0,0:0:0:0:
492,176,78851,2,0,P|468:207|436:228,1,67.5,2|0,0:3|3:3,0:0:0:0:
382,294,79280,1,8,3:2:0:0:
358,202,79494,1,8,3:2:0:0:
290,267,79708,1,8,3:2:0:0:
265,175,79923,6,0,B|201:159|200:195|125:182,1,135,4|8,3:2|0:0,0:0:0:0:
60,121,80566,1,2,0:3:0:0:
115,44,80780,2,0,P|149:32|192:37,2,67.5,0|2|8,3:0|3:3|0:0,0:0:0:0:
60,121,81423,6,0,L|47:201,1,67.5,2|0,3:3|0:0,0:0:0:0:
143,192,81851,2,0,L|130:272,1,67.5,2|8,3:3|0:0,0:0:0:0:
226,261,82280,2,0,L|213:341,1,67.5,2|0,0:3|3:3,0:0:0:0:
295,377,82708,1,2,3:3:0:0:
371,320,82923,2,0,P|368:257|356:230,1,67.5,8|2,0:0|0:3,0:0:0:0:
307,178,83351,6,0,L|153:167,1,135,0|8,3:2|0:0,0:0:0:0:
103,103,83994,1,2,0:3:0:0:
36,170,84208,1,0,3:0:0:0:
36,170,84423,2,0,L|26:241,1,67.5,2|8,3:3|0:0,0:0:0:0:
65,322,84851,6,0,P|110:316|143:293,1,67.5,2|0,3:3|0:0,0:0:0:0:
186,230,85280,2,0,P|231:236|264:259,1,67.5,2|12,3:3|0:0,0:0:0:0:
311,317,85708,2,0,P|356:311|389:288,1,67.5,8|0,0:0|3:0,0:0:0:0:
432,225,86137,1,0,3:0:0:0:
432,225,86351,2,0,L|422:147,1,67.5,8|4,0:0|0:3,0:0:0:0:
370,79,86780,6,0,P|308:68|239:131,1,135,4|8,3:2|0:0,0:0:0:0:
295,189,87423,1,0,0:0:0:0:
228,121,87637,2,0,P|166:132|97:69,1,135,0|8,0:0|0:0,0:0:0:0:
85,2,88280,1,0,3:0:0:0:
13,63,88494,6,0,L|2:136,1,67.5,0|0,3:0|0:0,0:0:0:0:
83,179,88923,2,0,L|106:320,1,135,8|0,0:0|0:0,0:0:0:0:
184,363,89566,1,0,0:0:0:0:
245,291,89780,2,0,P|283:288|315:305,1,67.5,8|0,0:0|3:0,0:0:0:0:
368,373,90208,6,0,P|392:320|479:294,1,135,0|8,3:0|0:0,0:0:0:0:
396,221,90851,1,0,0:0:0:0:
473,275,91066,2,0,L|490:125,1,135,0|8,0:0|0:0,0:0:0:0:
435,62,91708,1,0,3:0:0:0:
350,105,91923,6,0,L|265:114,2,67.5,0|0|8,3:0|0:0|0:0,0:0:0:0:
319,15,92566,1,4,0:3:0:0:
319,15,92780,2,0,L|232:2,1,67.5,0|0,0:0|3:0,0:0:0:0:
169,50,93208,2,0,P|156:104|148:177,1,101.25,12|0,0:0|0:0,0:0:0:0:
162,195,93637,6,0,P|191:224|291:214,1,135,4|8,3:2|0:0,0:0:0:0:
281,127,94280,1,0,0:0:0:0:
307,217,94494,2,0,B|373:200|372:241|445:231,1,135,0|8,0:0|0:0,0:0:0:0:
499,158,95137,1,0,0:0:0:0:
445,82,95351,6,0,P|406:82|375:103,1,67.5,0|0,0:0|0:0,0:0:0:0:
310,157,95780,2,0,P|276:137|238:140,1,67.5,8|0,0:0|0:0,0:0:0:0:
154,144,96208,2,0,P|134:110|100:93,1,67.5,0|0,0:0|0:0,0:0:0:0:
21,129,96637,2,0,L|10:222,1,67.5,8|0,0:0|3:0,0:0:0:0:
65,274,97066,6,0,P|103:288|147:285,1,67.5,0|0,3:0|0:0,0:0:0:0:
189,215,97494,1,8,0:0:0:0:
251,286,97708,2,0,L|411:266,1,135,0|0,0:0|0:0,0:0:0:0:
456,206,98351,1,8,0:0:0:0:
384,143,98566,6,0,L|250:126,1,135,0|2,0:0|3:2,0:0:0:0:
155,122,99208,1,8,0:0:0:0:
125,212,99423,1,8,0:3:0:0:
169,295,99637,2,0,P|203:296|271:259,1,101.25,4|8,0:3|0:0,0:0:0:0:
302,241,100066,2,0,L|311:292,2,33.75,8|8|0,0:0|0:0|3:0,0:0:0:0:
395,277,100494,6,0,L|386:374,2,67.5,4|0|8,3:2|0:0|0:0,0:0:0:0:
457,205,101137,1,0,0:0:0:0:
395,133,101351,2,0,P|359:132|324:146,1,67.5,0|0,3:0|0:0,0:0:0:0:
273,218,101780,2,0,P|237:219|202:205,1,67.5,8|0,0:0|3:0,0:0:0:0:
148,135,102208,6,0,L|160:57,1,67.5,0|0,0:0|3:0,0:0:0:0:
72,28,102637,2,0,L|48:180,1,135,8|0,0:0|3:0,0:0:0:0:
80,251,103280,1,0,3:0:0:0:
166,212,103494,2,0,P|203:211|236:237,1,67.5,8|0,0:0|0:0,0:0:0:0:
266,313,103923,6,0,P|310:326|389:277,1,135,0|8,3:2|0:0,0:0:0:0:
474,257,104566,1,0,0:0:0:0:
379,256,104780,2,0,P|373:210|377:117,1,135,0|8,3:0|0:0,0:0:0:0:
466,91,105423,1,0,3:0:0:0:
393,30,105637,6,0,L|311:42,1,67.5,0|0,0:0|3:0,0:0:0:0:
280,122,106066,2,0,L|198:110,1,67.5,8|0,0:0|0:0,0:0:0:0:
152,39,106494,1,0,3:0:0:0:
78,97,106708,1,0,3:0:0:0:
78,97,106923,2,0,P|71:147|71:186,1,67.5,8|0,0:0|0:0,0:0:0:0:
114,247,107351,6,0,L|260:234,1,135,0|8,3:2|0:0,0:0:0:0:
267,142,107994,1,0,0:0:0:0:
274,236,108208,2,0,P|306:243|362:342,1,135,0|8,3:0|0:0,0:0:0:0:
435,382,108851,1,0,3:0:0:0:
504,317,109066,6,0,L|510:237,1,67.5,0|0,0:0|3:0,0:0:0:0:
426,204,109494,2,0,L|411:57,1,135,8|0,0:0|3:0,0:0:0:0:
338,9,110137,1,0,3:0:0:0:
289,89,110351,2,0,P|244:100|190:64,1,101.25,8|0,0:0|0:0,0:0:0:0:
173,34,110780,6,0,L|101:27,1,67.5,0|0,3:2|0:0,0:0:0:0:
46,100,111208,1,8,0:0:0:0:
133,137,111423,2,0,P|155:178|130:263,1,135,0|0,0:0|0:0,0:0:0:0:
48,301,112066,1,8,0:0:0:0:
118,363,112280,6,0,L|199:349,1,67.5,2|0,3:2|0:0,0:0:0:0:
276,331,112708,2,0,L|357:317,1,67.5,2|0,3:2|0:0,0:0:0:0:
435,301,113137,1,10,0:0:0:0:
373,229,113351,2,0,P|379:174|393:137,1,67.5,8|8,0:0|0:3,0:0:0:0:
462,112,113780,2,0,L|500:118,2,33.75,4|0|10,0:3|3:0|0:0,0:0:0:0:
379,170,117637,6,0,P|332:162|257:205,1,121.499996292114,0|0,3:0|0:0,0:0:0:0:
211,257,118280,1,0,3:0:0:0:
211,257,118494,2,0,P|164:265|89:222,1,121.499996292114,8|0,0:0|0:0,0:0:0:0:
56,149,119137,6,0,L|74:13,2,135,8|4|4,0:3|0:3|0:3,0:0:0:0:
99,234,120208,2,0,P|135:237|187:222,1,67.5,4|0,3:2|0:0,0:0:0:0:
230,162,120637,2,0,L|220:120,2,33.75,8|8|0,0:0|0:0|3:0,0:0:0:0:
319,194,121066,6,0,L|311:282,1,74.2500022659302,4|0,3:2|0:0,0:0:0:0:
407,308,121494,2,0,L|413:234,1,74.2500022659302,8|0,0:0|0:0,0:0:0:0:
386,133,121923,2,0,P|339:104|240:147,1,148.50000453186,0|8,3:1|0:0,0:0:0:0:
150,135,122566,1,0,0:0:0:0:
219,211,122780,6,0,P|187:236|132:234,1,74.2500022659302,2|0,3:1|0:0,0:0:0:0:
61,193,123208,2,0,L|45:98,1,74.2500022659302,8|0,0:0|0:0,0:0:0:0:
119,42,123637,2,0,B|198:23|197:74|273:58,1,148.50000453186,0|8,3:1|0:0,0:0:0:0:
263,59,124494,6,0,P|303:60|341:86,1,74.2500022659302,2|0,3:1|0:0,0:0:0:0:
421,23,124923,2,0,P|440:58|436:104,1,74.2500022659302,8|2,0:0|0:1,0:0:0:0:
369,167,125351,2,0,P|314:159|240:223,1,148.50000453186,2|8,3:1|0:0,0:0:0:0:
217,313,125994,1,2,0:1:0:0:
297,377,126208,6,0,L|401:369,1,74.2500022659302,2|0,3:1|0:0,0:0:0:0:
381,267,126637,2,0,L|306:272,2,74.2500022659302,8|0|0,0:0|0:0|3:1,0:0:0:0:
450,189,127280,5,8,0:1:0:0:
450,189,127494,1,8,0:1:0:0:
385,107,127708,1,0,0:0:0:0:
309,178,127923,6,0,P|266:179|232:158,1,74.2500022659302,4|0,3:2|0:0,0:0:0:0:
174,83,128351,2,0,L|186:3,1,74.2500022659302,8|0,0:0|0:0,0:0:0:0:
82,26,128780,2,0,L|57:175,1,148.50000453186,0|8,3:1|0:0,0:0:0:0:
106,264,129423,5,0,0:0:0:0:
188,201,129637,2,0,L|216:305,1,74.2500022659302,0|0,3:0|0:0,0:0:0:0:
302,315,130066,1,8,0:0:0:0:
349,222,130280,1,0,0:0:0:0:
418,299,130494,2,0,L|502:291,2,74.2500022659302,0|0|8,3:0|3:0|0:0,0:0:0:0:
226,217,131351,5,4,3:2:0:0:
226,217,131566,2,0,P|214:166|217:123,1,74.2500022659302,0|8,0:0|0:0,0:0:0:0:
272,58,131994,2,0,P|317:49|411:113,1,148.50000453186,4|0,3:2|3:0,0:0:0:0:
506,110,132637,1,8,0:0:0:0:
459,203,132851,6,0,P|414:194|320:258,1,148.50000453186,4|0,3:2|3:0,0:0:0:0:
264,324,133494,2,0,P|219:314|181:281,1,74.2500022659302,10|8,0:0|0:3,0:0:0:0:
126,220,133923,2,0,P|81:230|43:263,2,74.2500022659302,0|0|10,3:3|3:3|0:0,0:0:0:0:
328,267,134780,1,0,3:0:0:0:
132,126,141637,6,0,P|164:116|200:120,1,67.5,4|0,3:2|0:0,0:0:0:0:
285,153,142066,2,0,P|318:156|350:146,1,67.5,8|0,0:0|0:0,0:0:0:0:
405,69,142494,1,0,3:0:0:0:
405,69,142708,1,0,3:0:0:0:
310,70,142923,1,8,0:0:0:0:
488,285,143351,6,0,L|515:136,2,135,0|8|0,3:0|0:0|3:0,0:0:0:0:
410,338,144423,1,0,3:0:0:0:
337,277,144637,2,0,P|300:271|256:281,1,67.5,8|0,0:0|0:0,0:0:0:0:
180,305,145066,6,0,P|95:309|44:263,1,135,4|8,3:2|0:0,0:0:0:0:
71,188,145708,2,0,P|156:184|207:230,1,135,6|0,3:2|3:0,0:0:0:0:
270,275,146351,1,8,0:0:0:0:
345,217,146566,1,4,3:2:0:0:
473,78,146994,6,0,L|479:159,2,67.5,0|8|0,0:0|0:0|0:0,0:0:0:0:
387,36,147637,2,0,P|314:21|245:40,1,135,4|8,0:0|0:0,0:0:0:0:
198,98,148280,1,0,3:0:0:0:
52,55,148708,5,2,0:0:0:0:
79,134,148923,1,0,0:0:0:0:
225,177,149351,1,2,0:0:0:0:
198,98,149566,1,0,0:0:0:0:
79,134,149994,1,2,0:0:0:0:
113,221,150208,6,0,L|166:369,1,135,4|8,3:2|0:0,0:0:0:0:
158,348,151066,2,0,P|226:324|302:356,1,135,4|8,3:2|0:0,0:0:0:0:
480,228,151923,6,0,L|483:144,1,67.5,4|0,3:2|0:0,0:0:0:0:
404,107,152351,2,0,L|401:191,1,67.5,8|0,0:0|0:0,0:0:0:0:
317,130,152780,2,0,P|269:165|181:156,1,135,0|8,3:0|0:0,0:0:0:0:
234,76,153423,1,0,0:0:0:0:
148,35,153637,6,0,P|141:69|151:127,1,67.5,0|0,3:0|0:0,0:0:0:0:
49,97,154066,2,0,P|55:131|97:175,1,67.5,8|0,0:0|0:0,0:0:0:0:
125,236,154494,2,0,L|115:317,2,67.5,0|0|8,3:0|3:0|0:0,0:0:0:0:
268,359,155351,5,0,3:0:0:0:
227,273,155566,1,0,0:0:0:0:
282,196,155780,2,0,P|317:185|373:200,1,67.5,8|0,0:0|0:0,0:0:0:0:
411,119,156208,2,0,P|371:79|284:72,1,135,0|8,3:0|0:0,0:0:0:0:
220,11,156851,1,0,0:0:0:0:
282,82,157066,6,0,P|228:99|192:88,1,67.5,0|0,3:0|0:0,0:0:0:0:
127,71,157494,2,0,P|87:69|54:84,2,67.5,8|0|0,0:0|0:0|3:0,0:0:0:0:
108,163,158137,1,8,3:1:0:0:
108,163,158351,1,8,0:1:0:0:
77,252,158566,1,2,3:0:0:0:
157,301,158780,6,0,P|191:306|234:295,1,67.5,0|0,3:0|0:0,0:0:0:0:
307,257,159208,2,0,P|340:250|373:255,1,67.5,8|0,0:0|0:0,0:0:0:0:
448,313,159637,2,0,L|452:403,2,67.5,0|0|8,3:0|3:0|0:0,0:0:0:0:
511,242,160280,1,0,0:0:0:0:
461,161,160494,6,0,P|457:94|439:16,1,135,0|8,3:0|0:0,0:0:0:0:
349,10,161137,1,0,0:0:0:0:
279,74,161351,2,0,P|278:107|282:149,2,67.5,0|0|8,3:0|3:0|0:0,0:0:0:0:
279,74,162208,5,0,3:0:0:0:
117,151,164137,1,8,0:0:0:0:
236,148,164351,1,8,0:0:0:0:
137,225,164566,1,8,0:0:0:0:
219,221,164780,1,8,0:0:0:0:
183,297,164994,1,8,0:0:0:0:
183,297,165208,1,8,0:0:0:0:
48,184,165637,6,0,P|87:182|122:160,1,74.2500022659302,4|0,3:2|0:0,0:0:0:0:
181,83,166065,2,0,P|220:85|255:107,1,74.2500022659302,10|0,0:0|0:0,0:0:0:0:
307,190,166494,2,0,P|288:251|308:359,1,148.50000453186,2|10,3:2|0:0,0:0:0:0:
384,383,167137,1,0,0:0:0:0:
460,312,167351,6,0,L|453:239,1,74.2500022659302,2|0,3:2|0:0,0:0:0:0:
353,205,167780,2,0,P|335:252|343:302,1,74.2500022659302,10|0,0:0|0:0,0:0:0:0:
265,343,168208,2,0,B|101:344,1,148.50000453186,2|10,3:2|0:0,0:0:0:0:
116,343,169065,6,0,P|131:308|133:264,1,74.2500022659302,2|0,3:2|0:0,0:0:0:0:
34,245,169494,2,0,P|51:212|83:182,1,74.2500022659302,10|0,0:0|0:0,0:0:0:0:
175,175,169922,2,0,P|213:177|291:99,1,148.50000453186,2|10,3:2|0:0,0:0:0:0:
306,3,170565,1,0,0:0:0:0:
391,62,170780,6,0,L|396:146,1,74.2500022659302,2|0,3:2|0:0,0:0:0:0:
403,239,171208,2,0,L|407:337,2,74.2500022659302,10|0|2,0:0|0:0|3:2,0:0:0:0:
498,280,171851,5,8,0:1:0:0:
498,280,172065,1,8,0:1:0:0:
407,342,172280,5,0,3:0:0:0:
315,267,172494,2,0,P|280:278|237:277,1,74.2500022659302,6|0,3:2|0:0,0:0:0:0:
189,366,172922,2,0,L|111:356,1,74.2500022659302,10|0,0:0|0:0,0:0:0:0:
24,307,173351,2,0,P|-7:237|17:149,1,148.50000453186,2|10,3:2|0:0,0:0:0:0:
91,226,173994,1,0,0:0:0:0:
168,156,174208,6,0,L|261:164,1,74.2500022659302,2|0,3:2|0:0,0:0:0:0:
332,109,174637,1,10,0:0:0:0:
386,197,174851,1,0,0:0:0:0:
468,133,175065,2,0,L|479:49,2,74.2500022659302,2|0|10,3:2|3:0|0:0,0:0:0:0:
441,309,175922,5,4,3:2:0:0:
441,309,176137,2,0,P|405:323|360:320,1,74.2500022659302,0|8,0:0|0:0,0:0:0:0:
268,341,176565,2,0,P|281:271|225:197,1,148.50000453186,4|0,3:2|3:0,0:0:0:0:
200,122,177208,1,8,0:0:0:0:
121,170,177422,6,0,P|154:200|271:182,1,148.50000453186,4|0,3:2|3:0,0:0:0:0:
306,114,178065,2,0,L|303:28,1,74.2500022659302,10|0,0:0|3:0,0:0:0:0:
396,34,178494,2,0,L|401:118,2,74.2500022659302,8|4|10,0:3|0:3|0:0,0:0:0:0:
396,34,179351,5,0,3:0:0:0:
354,172,182780,6,0,P|291:186|223:160,1,135,4|8,3:2|0:0,0:0:0:0:
174,241,183423,1,2,0:3:0:0:
115,167,183637,2,0,L|122:71,2,67.5,0|2|8,3:0|3:3|0:0,0:0:0:0:
44,234,184280,6,0,L|56:309,1,67.5,2|0,3:3|0:0,0:0:0:0:
132,354,184708,2,0,L|212:348,1,67.5,2|8,3:3|0:0,0:0:0:0:
229,258,185137,2,0,L|314:254,1,67.5,2|0,0:3|3:3,0:0:0:0:
328,343,185566,1,2,3:3:0:0:
328,343,185780,2,0,P|366:329|407:266,1,101.25,8|0,0:0|0:0,0:0:0:0:
415,238,186208,6,0,L|424:89,1,135,0|8,3:2|0:0,0:0:0:0:
332,179,186851,1,2,0:3:0:0:
287,96,187066,2,0,P|247:101|202:88,1,67.5,0|0,3:0|0:0,0:0:0:0:
141,132,187494,1,8,0:0:0:0:
141,132,187708,6,0,P|133:168|136:221,1,67.5,2|0,3:3|0:0,0:0:0:0:
142,292,188137,2,0,P|177:282|222:252,1,67.5,2|8,3:3|0:0,0:0:0:0:
287,221,188566,2,0,P|261:196|213:173,1,67.5,2|0,0:3|0:0,0:0:0:0:
133,199,188994,1,8,3:2:0:0:
39,214,189208,1,8,3:2:0:0:
19,121,189423,1,8,3:2:0:0:
65,38,189637,6,0,P|99:3|190:3,1,135,4|8,3:2|0:0,0:0:0:0:
232,88,190280,1,2,0:3:0:0:
310,36,190494,2,0,L|410:42,2,67.5,0|2|8,3:0|3:3|0:0,0:0:0:0:
232,88,191137,6,0,P|228:125|244:168,1,67.5,2|0,3:3|0:0,0:0:0:0:
324,204,191566,2,0,P|335:171|335:138,1,67.5,2|8,3:3|0:0,0:0:0:0:
416,90,191994,2,0,P|433:122|428:170,1,67.5,2|0,0:3|3:3,0:0:0:0:
406,250,192423,1,2,3:3:0:0:
406,250,192637,2,0,P|365:290|313:294,1,101.25,8|0,0:0|0:0,0:0:0:0:
282,273,193066,6,0,P|215:288|132:269,1,135,0|8,3:2|0:0,0:0:0:0:
101,358,193708,1,2,0:3:0:0:
34,289,193923,2,0,L|42:213,1,67.5,0|2,3:0|3:3,0:0:0:0:
89,141,194351,5,8,0:0:0:0:
89,141,194566,2,0,L|162:141,1,67.5,2|0,3:3|0:0,0:0:0:0:
189,50,194994,2,0,L|245:97,1,67.5,2|12,3:3|0:0,0:0:0:0:
319,37,195423,2,0,L|332:109,1,67.5,8|0,0:0|3:3,0:0:0:0:
277,177,195851,1,0,3:0:0:0:
277,177,196066,2,0,P|265:216|266:274,1,67.5,8|0,0:0|0:0,0:0:0:0:
