osu file format v14

[General]
AudioFilename: audio.mp3
AudioLeadIn: 0
PreviewTime: 137960
Countdown: 0
SampleSet: Soft
StackLeniency: 0.7
Mode: 0
LetterboxInBreaks: 0
WidescreenStoryboard: 0

[Editor]
Bookmarks: 42440,44120,48440,88760,92600,105800,137960,230840,245960,284120
DistanceSpacing: 0.6
BeatDivisor: 4
GridSize: 16
TimelineZoom: 2

[Metadata]
Title:Spring Thief
TitleUnicode:春泥棒
Artist:Yorushika
ArtistUnicode:ヨルシカ
Creator:FreezingAnimenz
Version:Cherry Blossoms, Cold Breeze, and You
Source:
Tags:Jrock J-rock rock pop jpop j-pop Japanese haru dorobou n-buna nbuna suis スイ 創作 creation
BeatmapID:3351906
BeatmapSetID:1642142

[Difficulty]
HPDrainRate:6
CircleSize:4.2
OverallDifficulty:8
ApproachRate:9
SliderMultiplier:2.12
SliderTickRate:1

[Events]
//Background and Video events
0,0,"frz (1).jpg",0,0
//Break Periods
2,186640,187760
2,190480,191600
2,194320,195440
2,198160,199280
2,202000,203120
2,205840,206960
2,215680,226400
//Storyboard Layer 0 (Background)
//Storyboard Layer 1 (Fail)
//Storyboard Layer 2 (Pass)
//Storyboard Layer 3 (Foreground)
//Storyboard Layer 4 (Overlay)
//Storyboard Sound Samples

[TimingPoints]
440,480,4,2,1,30,1,0
440,-125,4,2,1,30,0,0
680,-125,4,2,1,40,0,0
9080,-125,4,2,1,40,0,0
15800,-125,4,2,1,40,0,0
38840,-142.857142857143,4,2,1,50,0,0
42200,-142.857142857143,4,2,1,40,0,0
44120,-100,4,2,1,40,0,0
44840,-100,4,2,1,50,0,0
45320,-100,4,2,1,40,0,0
46520,-142.857142857143,4,2,1,45,0,0
47960,-125,4,2,1,45,0,0
48440,-83.3333333333333,4,2,1,60,0,1
48800,-66.6666666666667,4,2,1,60,0,1
48920,-83.3333333333333,4,2,1,60,0,1
49280,-66.6666666666667,4,2,1,60,0,1
49400,-83.3333333333333,4,2,1,60,0,1
49880,-142.857142857143,4,2,1,70,0,1
50360,-66.6666666666667,4,2,1,80,0,1
52040,-83.3333333333333,4,2,1,80,0,1
52520,-66.6666666666667,4,2,1,80,0,1
59720,-83.3333333333333,4,2,1,80,0,1
60200,-66.6666666666667,4,2,1,80,0,1
61400,-142.857142857143,4,2,1,80,0,1
61880,-66.6666666666667,4,2,1,80,0,1
67400,-83.3333333333333,4,2,1,80,0,1
67760,-66.6666666666667,4,2,1,80,0,1
69080,-142.857142857143,4,2,1,80,0,1
69560,-83.3333333333333,4,2,1,80,0,1
69800,-66.6666666666667,4,2,1,80,0,1
70280,-83.3333333333333,4,2,1,80,0,1
71240,-83.3333333333333,4,2,1,80,0,1
72920,-142.857142857143,4,2,1,80,0,1
73400,-66.6666666666667,4,2,1,80,0,0
74120,-100,4,2,1,80,0,0
74360,-66.6666666666667,4,2,1,80,0,0
75800,-200,4,2,1,80,0,0
76520,-66.6666666666667,4,2,1,80,0,0
77240,-76.9230769230769,4,2,1,60,0,0
82760,-83.3333333333333,4,2,1,60,0,0
83000,-66.6666666666667,4,2,1,60,0,0
83240,-76.9230769230769,4,2,1,60,0,0
88760,-100,4,2,1,40,0,0
92600,-111.111111111111,4,2,1,40,0,0
107960,-100,4,2,1,40,0,0
131000,-133.333333333333,4,2,1,40,0,0
134600,-100,4,2,1,40,0,0
136520,-83.3333333333333,4,2,1,80,0,0
137000,-83.3333333333333,4,2,1,50,0,0
137240,-83.3333333333333,4,2,1,60,0,0
137480,-83.3333333333333,4,2,1,70,0,0
137720,-83.3333333333333,4,2,1,80,0,0
137960,-142.857142857143,4,2,1,40,0,0
138680,-66.6666666666667,4,2,1,80,0,1
145880,-100,4,2,1,80,0,1
146360,-66.6666666666667,4,2,1,80,0,1
159560,-90.9090909090909,4,2,1,80,0,1
160040,-66.6666666666667,4,2,1,80,0,1
161240,-100,4,2,1,80,0,1
161720,-66.6666666666667,4,2,1,80,0,1
162440,-100,4,2,1,80,0,1
162800,-66.6666666666667,4,2,1,80,0,1
165560,-66.6666666666667,4,2,1,80,0,0
167960,-200,4,2,1,80,0,0
168680,-66.6666666666667,4,2,1,80,0,0
169400,-66.6666666666667,4,2,1,60,0,1
177080,-100,4,2,1,40,0,0
178040,-100,4,2,1,40,0,0
180920,-133.333333333333,4,2,1,30,0,0
184760,-100,4,2,1,40,0,0
186320,-100,4,2,1,5,0,0
186440,-100,4,2,1,40,0,0
207560,-100,4,2,1,45,0,0
213320,-142.857142857143,4,2,1,80,0,0
213680,-100,4,2,1,40,0,0
213800,-100,4,2,1,50,0,0
214040,-100,4,2,1,55,0,0
214280,-100,4,2,1,60,0,0
214520,-100,4,2,1,80,0,0
215480,-100,4,2,2,40,0,0
227000,-100,4,2,1,30,0,0
227240,-100,4,2,1,35,0,0
227480,-100,4,2,1,40,0,0
227720,-100,4,2,1,45,0,0
227960,-100,4,2,1,50,0,0
228200,-100,4,2,1,55,0,0
228440,-100,4,2,1,60,0,0
228680,-66.6666666666667,4,2,1,80,0,0
230840,-66.6666666666667,4,2,1,80,0,1
241880,-142.857142857143,4,2,1,80,0,1
242360,-83.3333333333333,4,2,1,80,0,1
246200,-66.6666666666667,4,2,1,60,0,0
253880,-66.6666666666667,4,2,1,80,0,0
259400,-83.3333333333333,4,2,1,80,0,0
259760,-66.6666666666667,4,2,1,80,0,0
261560,-66.6666666666667,4,2,1,80,0,0
267080,-83.3333333333333,4,2,1,80,0,0
267440,-66.6666666666667,4,2,1,80,0,0
268760,-142.857142857143,4,2,1,80,0,0
269240,-66.6666666666667,4,2,1,80,0,0
274760,-83.3333333333333,4,2,1,80,0,0
275120,-66.6666666666667,4,2,1,80,0,0
276440,-142.857142857143,4,2,1,80,0,0
276920,-83.3333333333333,4,2,1,80,0,0
277160,-66.6666666666667,4,2,1,80,0,0
277640,-83.3333333333333,4,2,1,80,0,0
278120,-66.6666666666667,4,2,1,80,0,0
278600,-83.3333333333333,4,2,1,80,0,0
278960,-66.6666666666667,4,2,1,80,0,0
280280,-142.857142857143,4,2,1,80,0,0
280760,-66.6666666666667,4,2,1,70,0,0
281000,-66.6666666666667,4,2,1,70,0,0
281480,-100,4,2,1,70,0,0
281720,-66.6666666666667,4,2,1,70,0,0
281960,-66.6666666666667,4,2,1,70,0,0
282440,-100,4,2,1,70,0,0
284120,-125,4,2,1,70,0,0
284600,-66.6666666666667,4,2,1,5,0,0

[Colours]
Combo1 : 231,209,124
Combo2 : 91,189,104
Combo3 : 221,181,153
Combo4 : 222,88,88

[HitObjects]
19,150,200,6,0,L|9:176,2,26.5
34,115,440,2,0,P|74:98|132:132,1,84.8,4|2,3:0|2:0,0:0:0:0:
237,154,920,1,2,3:0:0:0:
237,154,1400,2,0,P|201:175|159:173,1,84.8,2|2,0:2|1:2,0:0:0:0:
344,190,1880,1,2,3:0:0:0:
233,239,2120,6,0,P|274:285|381:276,1,169.6,2|2,1:2|0:0,0:0:0:0:
445,332,2840,1,2,2:2:0:0:
327,361,3080,1,2,2:2:0:0:
327,361,3560,1,0,2:0:0:0:
298,207,3800,2,0,P|243:217|218:259,1,84.8,2|0,2:0|0:0,0:0:0:0:
175,322,4280,6,0,P|213:344|273:313,1,84.8,2|2,1:2|0:2,0:2:0:0:
366,287,4760,1,2,3:2:0:0:
366,287,5240,2,0,P|371:245|333:190,1,84.8,2|2,2:0|1:2,0:0:0:0:
298,114,5720,1,2,3:0:0:0:
170,189,5960,6,0,B|153:218|119:233|119:233|179:215|227:238,1,169.6,2|2,1:2|2:0,0:0:0:0:
337,248,6680,1,2,0:2:0:0:
272,358,6920,1,2,0:2:0:0:
272,358,7400,1,2,2:0:0:0:
164,289,7640,1,2,2:0:0:0:
200,167,7880,2,0,L|218:135,2,21.2,2|0|0,3:0|3:0|3:0,3:0:0:0:
171,178,8120,6,0,P|124:172|83:142,1,84.8,0|2,1:2|0:2,0:0:0:0:
184,61,8600,1,0,3:2:0:0:
184,61,9080,2,0,B|225:34|272:61,1,84.8,2|2,0:2|1:2,0:0:0:0:
367,120,9560,1,0,3:0:0:0:
271,167,9800,6,0,B|232:275|232:275|285:322,1,169.6,2|2,1:2|0:2,0:0:0:0:
368,344,10520,1,2,0:2:0:0:
419,251,10760,1,2,0:2:0:0:
419,251,11240,1,2,2:0:0:0:
313,220,11480,2,0,P|294:184|302:139,1,84.8,2|0,3:0|0:0,0:0:0:0:
405,64,11960,6,0,B|372:33|372:33|316:36,1,84.8,2|2,1:2|0:2,0:0:0:0:
252,156,12440,1,2,0:3:0:0:
252,156,12920,2,0,P|295:148|321:105,1,84.8,2|2,0:0|1:2,0:0:0:0:
185,104,13400,1,2,0:3:0:0:
129,197,13640,6,0,B|139:243|139:243|287:260,1,169.6,2|2,1:2|0:2,0:0:0:0:
358,247,14360,2,0,L|358:316,1,42.4,2|2,3:2|0:3,0:3:0:0:
328,374,14600,2,0,L|290:363,2,28.2666666666667,2|2|2,0:3|0:3|0:3,0:3:0:0:
370,384,14840,2,0,L|444:322,1,84.8,2|2,0:2|0:2,0:0:0:0:
482,253,15320,1,2,0:2:0:0:
438,171,15560,1,2,3:2:0:0:
336,202,15800,6,0,P|291:215|247:190,1,84.8,2|2,1:2|2:0,0:0:0:0:
176,172,16160,2,0,P|226:163|281:102,1,127.2,2|2,0:2|0:2,0:0:0:0:
399,61,16760,1,2,0:2:0:0:
419,180,17000,1,2,1:2:0:0:
322,130,17240,1,2,0:2:0:0:
475,73,17480,2,0,P|502:130|483:205,1,127.2,2|0,1:2|0:0,0:0:0:0:
475,216,17960,5,0,0:0:0:0:
406,351,18200,2,0,L|413:252,1,84.8,2|0,3:0|0:0,0:0:0:0:
411,266,18920,1,0,0:0:0:0:
375,83,19160,2,0,L|343:166,1,84.8,2|0,3:0|0:0,0:0:0:0:
373,272,19640,6,0,L|310:295,1,42.4,2|2,1:2|2:2,2:0:0:0:
295,354,19880,2,0,L|178:386,1,84.8,2|2,2:0|2:2,2:0:0:0:
134,334,20240,1,2,0:2:0:0:
134,334,20360,2,0,L|118:290,1,42.4,2|2,2:2|2:2,2:2:0:0:
195,212,20600,6,0,P|185:166|138:146,1,84.8,2|2,2:0|1:2,0:0:0:0:
37,262,21080,1,2,3:0:0:0:
37,262,21320,2,0,P|91:270|183:219,1,127.2,2|0,1:2|0:0,0:0:0:0:
187,226,21800,1,2,0:2:0:0:
339,263,22040,2,0,L|328:379,1,84.8,2|0,3:0|0:0,0:0:0:0:
330,347,22760,1,2,0:3:0:0:
230,299,23000,1,2,0:3:0:0:
322,209,23240,1,2,3:3:0:0:
211,159,23480,6,0,P|190:119|216:59,1,84.8,2|2,1:2|0:0,0:0:0:0:
291,44,23960,1,2,3:2:0:0:
379,99,24200,1,2,2:0:0:0:
423,226,24440,2,0,P|381:198|321:203,1,84.8,2|2,0:2|1:2,0:0:0:0:
184,272,24920,1,2,0:2:0:0:
184,272,25160,6,0,P|236:328|326:310,1,169.6,2|0,1:2|0:2,0:2:0:0:
369,199,25880,2,0,L|388:117,1,84.8,2|0,3:0|0:0,0:0:0:0:
388,116,26600,1,0,0:0:0:0:
234,203,26840,1,2,0:3:0:0:
267,52,27080,2,0,L|216:64,1,42.4,2|0,0:2|0:0,0:0:0:0:
131,32,27320,5,2,1:2:0:0:
131,32,27440,1,2,0:2:0:0:
131,32,27560,2,0,P|131:81|163:113,1,84.8,2|2,0:2|3:0,0:0:0:0:
230,142,27920,1,2,0:2:0:0:
230,142,28040,2,0,L|251:203,1,42.4,2|2,0:2|0:2,0:0:0:0:
266,251,28280,6,0,P|227:282|158:274,1,84.8,2|2,0:2|1:2,0:0:0:0:
72,227,28760,1,2,3:2:0:0:
106,364,29000,2,0,P|149:336|279:354,1,169.6,2|0,1:2|0:0,0:0:0:0:
374,225,29720,1,2,3:0:0:0:
224,195,29960,2,0,L|197:177,2,28.2666666666667
261,211,30200,2,0,P|291:182|290:121,1,84.8
249,58,30680,1,2,0:3:0:0:
356,48,30920,1,2,0:2:0:0:
480,130,31160,6,0,L|396:158,1,84.8,2|0,1:2|0:0,0:0:0:0:
303,179,31640,1,2,3:2:0:0:
292,306,31880,2,0,P|312:344|370:357,1,84.8,2|0,2:0|1:0,0:0:0:0:
505,285,32360,1,2,2:0:0:0:
452,176,32600,1,2,1:2:0:0:
340,274,32840,1,2,0:2:0:0:
274,201,33800,6,0,L|192:176,1,84.8,8|0,3:0|0:0,0:0:0:0:
110,164,34280,1,0,3:0:0:0:
63,247,34520,1,0,3:0:0:0:
195,336,34760,5,2,0:2:0:0:
195,336,35000,2,0,P|243:312|268:236,1,127.2,2|0,1:2|0:0,0:0:0:0:
259,213,35480,1,2,1:2:0:0:
332,84,35720,2,0,P|388:84|409:109,1,84.8,2|0,0:2|1:0,0:0:0:0:
439,185,36200,1,2,0:2:0:0:
366,248,36440,1,2,1:2:0:0:
267,254,36680,1,2,0:2:0:0:
140,209,37160,6,0,L|118:221,2,21.2
174,184,37400,2,0,L|182:121,1,42.4
101,65,37640,6,0,P|174:29|259:83,1,169.6,4|0,3:0|0:0,0:0:0:0:
332,144,38360,1,0,0:0:0:0:
214,245,38600,1,2,0:2:0:0:
117,107,38840,6,0,P|131:188|112:264,1,148.399995471192,2|2,1:2|0:2,0:0:0:0:
129,373,39560,2,0,P|163:356|207:347,1,74.1999977355958,2|0,1:2|0:0,0:0:0:0:
280,312,40040,1,2,0:2:0:0:
331,380,40280,2,0,L|424:347,1,74.1999977355958,2|2,3:2|0:2,0:0:0:0:
442,233,40760,6,0,P|390:212|332:227,1,111.299996603394,0|0,1:0|0:0,0:0:0:0:
309,243,41240,1,2,3:2:0:0:
140,183,41480,2,0,P|160:154|215:149,1,74.1999977355958,2|0,1:2|0:0,0:0:0:0:
350,124,41960,1,2,1:2:0:0:
242,209,42200,1,10,2:0:0:0:
300,44,42440,5,2,1:3:0:0:
168,85,44120,5,8,2:0:0:0:
207,235,44360,2,0,P|224:145|175:71,1,159,4|0,1:0|0:0,0:0:0:0:
121,182,44840,2,0,P|95:206|94:249,1,53,8|0,2:0|2:0,0:0:0:0:
141,346,45080,2,0,P|167:322|168:279,1,53,8|0,2:0|2:0,0:0:0:0:
302,227,45320,1,8,1:2:0:0:
77,94,45560,5,8,2:0:0:0:
151,136,45800,2,0,P|223:139|259:115,2,106,2|2|2,0:2|0:2|0:2,0:0:0:0:
325,33,46520,6,0,P|353:81|349:146,1,111.299996603394,6|0,0:2|0:0,0:0:0:0:
285,197,47000,2,0,P|316:222|368:221,1,74.1999977355958,2|0,2:0|0:0,0:0:0:0:
460,207,47360,6,0,P|426:249|438:325,1,111.299996603394,2|0,2:0|0:0,0:0:0:0:
246,364,47960,2,0,L|180:362,1,42.4,2|0,2:0|0:0,0:0:0:0:
256,273,48200,2,0,L|323:270,1,42.4,2|0,2:0|0:0,0:0:0:0:
141,94,48440,6,0,B|166:182|166:182|113:272,1,190.799994177246,6|0,1:2|0:0,0:0:0:0:
70,347,48920,6,0,P|144:371|252:319,1,190.799994177246,6|0,1:2|0:0,0:0:0:0:
337,262,49400,2,0,L|346:349,1,63.5999980590821,6|0,1:2|0:0,0:0:0:0:
223,249,49640,2,0,L|214:165,1,63.5999980590821,0|0,1:0|0:0,0:0:0:0:
330,51,49880,5,10,2:2:0:0:
296,36,50000,1,8,2:0:0:0:
198,71,50120,2,0,L|231:92,1,37.0999988677979,2|0,1:2|1:0,0:0:0:0:
399,122,50360,6,0,B|444:153|485:156|485:156|400:156|337:184,1,238.500009098053,6|0,1:2|0:0,0:0:0:0:
174,194,50840,2,0,P|249:196|219:272,1,159.000006065369,10|0,2:0|0:0,0:0:0:0:
376,366,51200,2,0,B|404:338|404:338|344:320|288:363,1,159.000006065369,2|0,1:2|0:0,0:0:0:0:
151,373,51560,2,0,B|158:332|121:294,1,79.5000030326844,2|0,1:2|0:0,0:0:0:0:
29,171,51800,2,0,P|67:159|63:201,1,79.5000030326844,8|0,2:0|0:0,0:0:0:0:
55,218,52040,6,0,L|71:18,1,190.799994177246,6|0,1:2|0:0,0:0:0:0:
192,148,52520,2,0,P|220:177|266:179,1,79.5000030326844,2|0,1:2|0:0,0:0:0:0:
310,240,52760,2,0,P|339:212|341:166,1,79.5000030326844,10|0,2:0|0:0,0:0:0:0:
408,128,53000,2,0,P|380:99|334:97,1,79.5000030326844,2|0,1:2|0:0,0:0:0:0:
290,34,53240,2,0,P|261:62|259:108,1,79.5000030326844,10|0,2:0|0:0,0:0:0:0:
168,178,53480,6,0,P|196:207|242:209,1,79.5000030326844,0|0,1:0|0:0,0:0:0:0:
420,237,53720,1,10,2:2:0:0:
421,284,53840,1,8,2:0:0:0:
401,327,53960,1,0,1:0:0:0:
359,350,54080,1,0,1:0:0:0:
264,366,54200,6,0,B|213:271|213:271|267:224|221:127,1,238.500009098053,6|0,1:2|0:0,0:0:0:0:
236,52,54680,2,0,P|225:95|120:145,1,159.000006065369,10|0,2:0|0:0,0:0:0:0:
0,175,55040,6,0,B|21:138|-15:104|-15:104|31:119|60:92,1,159.000006065369,2|0,1:2|0:0,0:0:0:0:
144,69,55400,2,0,L|128:165,1,79.5000030326844,0|0,1:0|0:0,0:0:0:0:
176,321,55640,2,0,P|161:275|131:254,1,79.5000030326844,10|0,2:0|0:0,0:0:0:0:
70,319,55880,2,0,P|41:344|32:383,1,79.5000030326844,2|0,0:2|0:0,0:0:0:0:
265,360,56120,6,0,P|294:333|303:295,1,79.5000030326844,2|0,1:2|0:0,0:0:0:0:
197,173,56360,2,0,P|205:211|235:236,1,79.5000030326844,2|0,0:2|0:0,0:0:0:0:
320,150,56600,2,0,P|339:116|331:77,1,79.5000030326844,10|0,2:0|0:2,0:0:0:0:
170,50,56840,2,0,P|204:69|243:61,1,79.5000030326844,2|0,2:0|0:2,0:0:0:0:
31,204,57080,6,0,B|64:169|64:169|31:46,1,159.000006065369,2|0,1:2|1:0,0:0:0:0:
139,130,57440,1,0,0:0:0:0:
217,80,57560,2,0,P|254:97|305:80,1,79.5000030326844,8|0,2:0|0:0,0:0:0:0:
436,156,57800,2,0,P|399:173|348:156,1,79.5000030326844,2|0,1:2|0:0,0:0:0:0:
222,232,58040,6,0,B|209:320|209:320|225:355|261:363,1,159.000006065369,6|0,1:2|0:0,0:0:0:0:
284,163,58400,1,0,1:0:0:0:
396,235,58520,2,0,B|445:254|445:254|484:251,1,79.5000030326844,10|0,2:0|0:0,0:0:0:0:
442,98,58760,1,0,1:0:0:0:
442,98,58880,2,0,B|393:79|393:79|354:82,1,79.5000030326844,2|0,1:2|0:0,0:0:0:0:
213,29,59120,1,0,0:0:0:0:
213,29,59240,2,0,P|219:70|261:101,1,79.5000030326844,2|0,1:2|0:0,0:0:0:0:
323,235,59480,2,0,P|350:207|355:168,1,79.5000030326844,10|0,2:0|0:0,0:0:0:0:
188,188,59720,6,0,B|137:196|105:155|105:155|75:196|13:189,1,190.799994177246,6|0,1:2|0:0,0:0:0:0:
233,318,60200,2,0,P|260:351|305:358,1,79.5000030326844,0|0,1:0|0:0,0:0:0:0:
378,278,60440,2,0,P|392:240|374:184,1,79.5000030326844,8|0,2:0|0:0,0:0:0:0:
292,111,60680,2,0,P|280:73|294:32,1,79.5000030326844,0|0,1:2|0:0,0:0:0:0:
429,37,60920,2,0,P|462:64|469:109,1,79.5000030326844,8|0,2:0|0:0,0:0:0:0:
305,193,61160,2,0,P|278:226|233:233,1,79.5000030326844,2|0,1:2|0:0,0:0:0:0:
64,107,61400,5,10,2:2:0:0:
96,88,61520,1,8,2:0:0:0:
132,82,61640,1,2,1:2:0:0:
168,89,61760,1,0,1:0:0:0:
284,145,61880,6,0,B|315:161|315:161|182:204,1,159.000006065369,6|0,1:2|0:0,0:0:0:0:
98,249,62240,1,0,1:0:0:0:
42,156,62360,2,0,B|5:70|5:70|73:113,1,159.000006065369,10|0,2:0|0:0,0:0:0:0:
216,223,62720,2,0,B|307:272|368:263|368:263|288:287,1,238.500009098053,2|0,1:2|1:2,0:0:0:0:
110,332,63320,2,0,P|71:325|38:292,1,79.5000030326844,10|0,2:0|0:0,0:0:0:0:
95,190,63560,2,0,P|134:183|164:158,1,79.5000030326844,2|0,2:0|0:0,0:0:0:0:
236,70,63800,6,0,B|133:23|133:23|97:51,1,159.000006065369,2|2,1:2|0:2,0:0:0:0:
264,171,64160,1,0,1:0:0:0:
264,171,64280,2,0,P|304:191|358:188,1,79.5000030326844,10|0,2:0|2:0,0:0:0:0:
374,67,64520,2,0,P|344:92|298:88,1,79.5000030326844,2|0,1:2|0:0,0:0:0:0:
181,168,64760,2,0,B|161:227|161:227|223:307,1,159.000006065369,2|0,1:2|0:0,0:0:0:0:
311,379,65120,1,0,1:0:0:0:
311,379,65240,2,0,B|335:323|335:323|307:215,1,159.000006065369,10|2,2:0|2:0,0:0:0:0:
268,144,65600,1,0,1:0:0:0:
398,158,65720,6,0,P|475:169|458:246,1,159.000006065369,2|0,1:2|0:0,0:0:0:0:
408,366,66080,1,0,1:0:0:0:
408,366,66200,2,8,L|392:272,1,79.5000030326844,10|0,2:0|2:0,2:0:0:0:
280,271,66440,1,0,1:0:0:0:
295,162,66560,2,0,P|337:169|359:222,1,79.5000030326844,2|0,1:2|0:0,0:0:0:0:
280,271,66800,1,0,1:0:0:0:
125,244,66920,2,0,B|159:217|159:217|216:222,1,79.5000030326844,2|0,1:2|0:0,0:0:0:0:
99,18,67160,2,0,B|141:22|141:22|165:50,1,79.5000030326844,8|0,2:0|0:0,0:0:0:0:
17,264,67400,6,0,B|4:178|4:178|87:81,1,190.799994177246,6|0,1:2|0:0,0:0:0:0:
178,169,67880,2,0,P|211:185|278:185,1,79.5000030326844,2|0,1:2|0:0,0:0:0:0:
325,250,68120,2,0,P|341:217|341:150,1,79.5000030326844,10|0,2:2|0:0,0:0:0:0:
404,109,68360,2,0,P|371:93|304:93,1,79.5000030326844,2|0,1:2|1:0,0:0:0:0:
256,29,68600,2,0,P|240:62|240:129,1,79.5000030326844,10|0,2:0|0:0,0:0:0:0:
240,240,68840,2,0,P|236:279|219:315,1,79.5000030326844,0|0,1:0|0:0,0:0:0:0:
15,142,69080,5,10,2:0:0:0:
52,139,69200,1,8,2:0:0:0:
87,151,69320,1,2,2:0:0:0:
115,176,69440,1,0,1:0:0:0:
169,246,69560,6,0,L|144:370,1,127.199996118164,6|2,1:2|0:2,0:0:0:0:
213,58,69920,1,0,0:2:0:0:
91,75,70040,2,0,P|57:58|2:78,1,79.5000030326844,10|0,2:2|2:0,0:0:0:0:
20,226,70280,6,0,B|64:306|64:306|75:246,1,127.199996118164,6|0,1:2|0:0,0:0:0:0:
200,111,70760,2,0,P|167:99|125:112,1,63.5999980590821,2|0,1:2|0:0,0:0:0:0:
69,159,71000,2,0,P|37:154|8:166,1,63.5999980590821,10|0,2:0|0:0,0:0:0:0:
154,239,71240,6,0,B|205:266|205:266|354:230,1,190.799994177246,6|0,1:2|0:0,0:0:0:0:
413,159,71720,2,0,P|402:135|350:123,1,63.5999980590821,0|0,1:0|0:0,0:0:0:0:
262,32,71960,2,0,B|234:65|234:65|259:171,1,127.199996118164,8|0,2:0|0:0,0:0:0:0:
348,295,72320,1,8,2:0:0:0:
348,295,72440,2,0,P|314:310|267:309,1,63.5999980590821,0|0,1:0|0:0,0:0:0:0:
122,279,72680,2,0,P|153:275|182:261,1,63.5999980590821,0|0,1:0|0:0,0:0:0:0:
214,135,72920,5,10,2:2:0:0:
188,161,73040,1,8,2:0:0:0:
155,177,73160,1,2,1:2:0:0:
118,179,73280,1,0,1:0:0:0:
37,156,73400,6,0,P|8:86|61:25,1,159.000006065369,6|0,1:2|0:2,0:2:0:0:
204,32,73880,2,0,P|245:48|265:81,1,79.5000030326844,10|0,2:0|0:0,0:0:0:0:
322,122,74120,6,0,L|218:106,1,106,6|0,1:2|0:0,0:0:0:0:
217,105,74600,2,0,P|178:122|148:170,1,79.5000030326844,2|0,1:2|0:0,0:0:0:0:
243,236,74840,2,0,P|274:261|313:269,1,79.5000030326844,10|0,2:0|0:0,0:0:0:0:
441,169,75080,2,0,P|479:233|431:290,1,159.000006065369,6|0,1:2|0:0,0:0:0:0:
236,280,75560,5,2,1:2:0:0:
192,56,75800,2,0,P|213:130|171:195,1,159,10|2,2:0|0:2,0:0:0:0:
118,332,76760,5,14,2:0:0:0:
118,332,77000,2,0,P|84:309|71:251,1,79.5000030326844,2|0,1:2|0:0,0:0:0:0:
309,233,77240,6,0,B|240:198|240:198|190:245,1,137.799993692017,6|0,1:2|0:0,0:0:0:0:
277,329,77600,1,2,1:2:0:0:
277,329,77720,2,0,B|330:332|366:290|366:290|410:309,1,137.799993692017,10|2,2:0|0:2,0:0:0:0:
496,266,78080,1,0,1:0:0:0:
430,187,78200,6,0,P|456:117|402:47,1,137.799993692017,2|0,1:2|0:0,0:0:0:0:
297,124,78560,1,2,0:2:0:0:
297,124,78680,2,0,B|249:137|249:137|139:72,1,137.799993692017,10|2,2:0|0:2,0:0:0:0:
102,24,79160,6,0,L|122:173,1,137.799993692017,2|2,1:2|0:2,0:0:0:0:
111,296,79520,1,0,1:0:0:0:
110,295,79640,2,0,P|76:281|60:245,1,68.8999968460084,10|0,2:0|0:0,0:0:0:0:
267,342,79880,1,2,1:2:0:0:
267,342,80000,6,0,B|248:323|193:346|218:364|167:381|136:362,1,137.799993692017,2|0,1:2|0:3,0:3:0:0:
342,288,80360,2,0,P|319:255|324:222,1,68.8999968460084,0|0,1:0|0:0,0:0:0:0:
296,104,80600,2,0,P|246:165|166:173,1,137.799993692017,10|2,2:2|0:2,0:0:0:0:
86,132,80960,1,0,0:0:0:0:
112,231,81080,6,0,B|180:303|180:303|107:303,1,137.799993692017,2|0,1:2|0:0,0:0:0:0:
13,163,81440,1,0,1:0:0:0:
13,163,81560,2,0,B|90:156|90:156|153:107,1,137.799993692017,10|0,2:0|0:0,0:0:0:0:
281,71,81920,2,0,P|269:167|213:167,1,137.799993692017,2|0,1:2|0:0,0:0:0:0:
107,185,82280,1,2,1:2:0:0:
44,19,82520,1,10,2:2:0:0:
214,107,82760,6,0,B|245:179|194:253,1,127.199996118164,6|0,1:2|0:0,0:0:0:0:
10,292,83240,2,0,P|45:273|87:286,1,68.8999968460084,2|0,1:2|0:0,0:0:0:0:
149,326,83480,1,10,2:2:0:0:
241,233,83720,1,2,1:2:0:0:
241,233,83840,1,0,1:0:0:0:
241,233,83960,2,0,P|319:243|359:192,1,137.799993692017,10|0,2:0|1:0,0:0:0:0:
318,314,84440,1,10,0:2:0:0:
345,333,84560,1,2,0:2:0:0:
254,368,84680,2,0,L|185:375,1,68.8999968460084,2|0,1:2|0:0,0:0:0:0:
70,318,84920,6,0,P|74:254|137:239,1,137.799993692017,6|0,1:2|0:0,0:0:0:0:
220,284,85280,1,2,1:2:0:0:
207,169,85400,2,0,P|186:146|144:146,1,68.8999968460084,10|0,2:0|0:0,0:0:0:0:
0,180,85640,6,0,P|-21:155|-16:99,1,68.8999968460084,6|0,1:2|0:0,0:0:0:0:
84,23,85880,2,0,P|81:57|60:83,1,68.8999968460084,2|0,0:2|0:0,0:0:0:0:
158,76,86120,2,0,P|186:103|221:113,1,68.8999968460084,2|0,1:3|0:0,0:0:0:0:
114,252,86360,2,0,P|84:280|27:286,1,68.8999968460084,10|0,2:0|0:0,0:0:0:0:
1,131,86600,6,0,P|60:171|158:160,1,137.799993692017,6|2,1:2|1:2,0:0:0:0:
295,113,87080,2,0,P|318:148|313:196,1,68.8999968460084,2|0,1:2|0:0,0:0:0:0:
378,217,87320,2,0,L|210:246,1,137.799993692017,10|2,2:2|1:2,0:0:0:0:
166,183,87680,1,2,1:2:0:0:
166,183,87800,2,0,P|212:135|279:146,1,137.799993692017,0|0,1:2|3:0,0:0:0:0:
402,229,88280,6,0,P|368:218|322:234,1,68.8999968460084,10|0,2:0|1:2,0:0:0:0:
192,221,88520,2,0,P|199:264|235:284,1,68.8999968460084,2|0,1:2|0:2,0:0:0:0:
278,358,88760,6,0,P|170:380|66:330,1,212,6|2,0:2|0:2,0:0:0:0:
46,251,89480,1,2,0:2:0:0:
198,255,89960,5,2,0:2:0:0:
141,165,90200,1,2,0:2:0:0:
89,72,90440,2,0,P|189:62|243:146,1,212,2|0,0:2|0:0,0:0:0:0:
330,232,91160,5,0,0:2:0:0:
377,149,91400,1,0,0:2:0:0:
272,124,91640,1,0,0:2:0:0:
310,36,91880,1,0,0:2:0:0:
195,57,92120,2,0,P|147:77|93:59,1,106,0|0,2:0|0:2,0:0:0:0:
23,154,92600,6,0,L|41:223,1,47.6999985443116,2|2,1:2|2:0,0:0:0:0:
109,275,92840,2,0,L|121:228,1,47.6999985443116,2|0,2:0|0:0,0:0:0:0:
151,144,93080,2,0,P|199:133|257:157,1,95.3999970886231,2|2,1:2|0:2,0:0:0:0:
335,290,93560,1,2,1:2:0:0:
335,290,93800,2,0,P|298:318|233:312,1,95.3999970886231,2|2,0:2|1:2,0:2:0:0:
144,289,94280,1,2,2:3:0:0:
144,289,94760,5,0,0:0:0:0:
81,162,95000,1,0,1:0:0:0:
279,118,95240,2,0,P|262:169|202:190,1,95.3999970886231,8|0,0:3|0:0,0:0:0:0:
149,216,95720,1,0,1:0:0:0:
255,268,95960,2,0,P|306:275|351:256,1,95.3999970886231,8|0,3:0|0:0,0:0:0:0:
457,288,96440,6,0,L|398:309,1,47.6999985443116,6|2,0:3|0:2,0:3:0:0:
382,371,96680,2,0,L|307:394,1,47.6999985443116,2|2,0:2|0:2,0:0:0:0:
241,350,96920,1,2,1:2:0:0:
210,363,97040,1,2,0:2:0:0:
177,357,97160,1,2,0:2:0:0:
74,266,97400,2,0,P|107:234|171:240,1,95.3999970886231,2|2,1:2|0:2,0:0:0:0:
233,185,97880,1,2,1:2:0:0:
115,75,98120,6,0,B|90:130|90:130|109:180,1,95.3999970886231,2|0,0:2|1:0,0:0:0:0:
42,223,98600,1,2,0:2:0:0:
169,244,98840,2,0,L|161:298,2,47.6999985443116,8|8|0,2:0|0:2|1:0,0:0:0:0:
316,187,99560,5,0,0:0:0:0:
219,191,99800,2,0,L|227:245,2,47.6999985443116,8|8|0,2:0|0:2|1:0,0:0:0:0:
309,77,100280,6,0,P|348:52|417:65,1,95.3999970886231,2|2,1:2|0:2,0:0:0:0:
403,158,100640,1,2,0:2:0:0:
403,158,100760,2,0,L|417:217,1,47.6999985443116,2|0,1:2|0:0,0:0:0:0:
497,236,101000,2,0,L|479:280,1,47.6999985443116,2|0,0:2|0:0,0:0:0:0:
381,300,101240,6,0,P|333:291|282:328,1,95.3999970886231,2|2,1:2|0:2,0:0:0:0:
164,382,101720,1,2,1:2:0:0:
116,304,101960,1,2,0:2:0:0:
256,128,102440,5,0,0:0:0:0:
167,73,102680,2,0,L|171:169,1,95.3999970886231,0|0,1:0|0:0,0:0:0:0:
170,168,103040,1,0,0:0:0:0:
170,168,103160,1,0,1:0:0:0:
261,243,103400,1,0,0:0:0:0:
348,162,103640,1,0,1:0:0:0:
220,106,103880,5,2,0:3:0:0:
161,233,104120,2,0,P|121:258|75:255,1,95.3999970886231,2|2,2:0|0:2,0:0:0:0:
5,195,104600,1,2,2:3:0:0:
116,362,105080,6,0,P|166:359|212:318,1,95.3999970886231,2|2,2:2|2:0,0:0:0:0:
271,251,105560,1,2,2:3:0:0:
163,195,105800,1,2,2:0:0:0:
144,103,107480,5,8,2:0:0:0:
302,167,107960,6,0,P|268:181|184:165,1,106,2|2,1:2|0:2,0:0:0:0:
159,191,108320,2,0,P|138:238|146:290,1,106,2|0,2:2|0:0,0:0:0:0:
172,331,108680,1,2,0:0:0:0:
320,276,108920,6,0,P|343:220|311:160,1,106,2|2,1:2|0:2,0:0:0:0:
249,112,109400,1,10,1:2:0:0:
154,130,109640,1,2,0:2:0:0:
154,130,110120,5,0,0:0:0:0:
79,216,110360,2,0,P|96:269|140:286,1,106,8|0,2:0|0:0,0:0:0:0:
299,344,110840,2,0,L|313:293,1,53,0|0,1:0|0:0,0:0:0:0:
229,204,111080,2,0,L|237:264,1,53
395,243,111320,2,0,P|442:222|455:172,1,106,8|0,2:0|0:0,0:0:0:0:
353,117,111800,6,0,L|365:177,1,53,2|2,1:2|0:2,0:0:0:0:
286,299,112040,2,0,L|298:239,1,53,2|2,0:2|0:2,0:0:0:0:
212,139,112280,2,0,L|223:191,1,53,10|2,2:2|0:2,0:0:0:0:
186,282,112520,1,2,0:2:0:0:
150,293,112640,1,2,0:2:0:0:
113,290,112760,1,2,1:2:0:0:
22,230,113000,6,0,L|4:290,1,53,2|0,2:0|0:0,0:0:0:0:
116,176,113240,2,0,L|104:115,1,53,10|0,2:2|0:0,0:0:0:0:
36,27,113480,2,0,P|90:40|160:16,1,106,2|0,2:0|1:0,0:0:0:0:
237,51,113960,1,2,2:0:0:0:
341,203,114200,2,0,P|292:224|240:216,1,106,8|0,2:0|0:0,0:0:0:0:
128,173,114680,1,0,1:0:0:0:
285,93,114920,5,0,0:0:0:0:
270,248,115160,1,8,2:0:0:0:
97,158,115400,1,0,0:0:0:0:
97,158,115520,1,0,0:0:0:0:
97,158,115640,6,0,L|172:146,1,53,2|2,1:2|0:2,0:0:0:0:
282,216,115880,2,0,L|206:223,1,53,2|2,0:2|0:2,0:0:0:0:
170,292,116120,2,0,P|186:345|242:372,1,106,10|2,2:2|0:0,0:0:0:0:
394,287,116480,1,0,0:0:0:0:
394,287,116600,6,0,P|348:314|296:319,1,106,2|2,1:2|0:2,0:0:0:0:
274,143,117080,1,10,2:2:0:0:
395,101,117320,1,2,2:0:0:0:
271,227,117560,5,0,1:0:0:0:
198,91,117800,1,0,0:0:0:0:
303,34,118040,2,0,P|315:88|287:126,1,106,8|0,2:0|0:0,0:0:0:0:
140,269,118520,2,0,P|110:226|123:176,1,106,0|0,1:0|0:0,0:0:0:0:
72,87,119000,1,8,2:0:0:0:
205,112,119240,1,0,0:0:0:0:
239,217,119480,6,0,L|167:241,1,53,2|2,1:2|0:2,0:0:0:0:
50,274,119720,2,0,L|122:298,1,53,2|2,0:2|0:2,0:0:0:0:
192,348,119960,1,10,2:2:0:0:
192,348,120080,1,2,0:2:0:0:
192,348,120200,2,0,L|250:328,1,53,2|2,0:2|0:2,0:0:0:0:
308,286,120440,1,2,1:2:0:0:
384,187,120680,2,0,L|416:251,1,53,2|0,0:2|0:0,0:0:0:0:
258,197,120920,2,0,L|281:149,1,53,10|0,2:2|0:0,0:0:0:0:
439,70,121160,6,0,P|388:85|319:66,1,106,2|0,0:2|1:0,0:0:0:0:
238,31,121640,1,0,0:0:0:0:
104,146,121880,2,0,P|157:161|212:130,1,106,8|0,2:0|0:0,0:0:0:0:
338,233,122240,1,8,2:0:0:0:
338,233,122360,2,0,L|302:301,1,53,0|0,1:0|0:0,0:0:0:0:
209,291,122600,2,0,L|179:238,1,53,0|0,1:0|0:0,0:0:0:0:
275,169,122840,1,8,2:0:0:0:
275,169,122960,1,8,2:0:0:0:
275,169,123080,2,0,L|321:106,1,53,2|0,1:2|0:0,0:0:0:0:
423,34,123320,6,0,P|363:24|307:38,1,106,2|0,1:2|0:0,0:0:0:0:
466,135,123800,1,2,1:2:0:0:
364,244,124040,1,2,0:2:0:0:
364,244,124160,1,0,0:0:0:0:
364,244,124280,2,0,P|372:198|360:139,1,106,0|2,1:0|0:2,0:0:0:0:
290,42,124760,1,2,1:2:0:0:
238,225,125000,1,2,0:3:0:0:
244,237,126440,6,0,P|195:252|134:240,1,106,8|0,3:0|0:0,0:0:0:0:
59,184,126920,1,2,1:2:0:0:
24,306,127160,6,0,P|76:298|132:322,1,106,6|0,1:2|0:0,0:0:0:0:
220,356,127640,1,2,1:2:0:0:
275,266,127880,1,2,0:2:0:0:
275,266,128000,1,0,0:0:0:0:
275,266,128120,2,0,P|333:283|382:256,1,106,0|2,1:2|0:2,0:0:0:0:
496,241,128600,1,2,1:2:0:0:
415,143,128840,6,0,P|422:87|463:59,1,106,2|0,0:2|1:0,0:0:0:0:
298,172,129320,2,2,L|258:132,1,53,2|2,3:0|3:0,0:0:0:0:
222,59,129560,2,2,L|169:98,1,53,2|2,0:3|0:3,0:0:0:0:
172,192,129800,2,0,L|38:181,1,106,4|0,2:0|2:0,2:0:0:0:
11,260,130280,1,0,0:0:0:0:
142,281,130520,2,0,L|230:267,1,53
265,226,130760,1,10,0:2:0:0:
265,226,130880,1,8,0:0:0:0:
265,226,131000,6,0,P|222:223|180:193,1,79.5000030326844,2|0,0:2|0:0,0:0:0:0:
255,90,131480,2,0,P|282:89|303:107,1,39.7500015163422,2|0,0:2|0:0,0:0:0:0:
353,143,131720,1,2,1:2:0:0:
325,286,131960,2,0,P|370:303|448:235,1,159.000006065369,8|2,2:0|0:2,0:0:0:0:
419,111,132680,6,0,L|415:31,1,79.5000030326844,2|0,0:2|1:0,0:0:0:0:
314,62,133160,2,0,L|311:101,1,39.7500015163422,2|0,0:2|1:0,0:0:0:0:
217,85,133400,2,0,L|216:151,1,39.7500015163422,2|0,0:2|0:0,0:0:0:0:
304,224,133640,1,2,1:2:0:0:
236,321,133880,2,0,P|199:336|161:329,1,79.5000030326844,8|2,0:2|0:2,3:0:0:0:
86,249,134360,1,2,0:2:0:0:
184,127,134600,5,2,1:2:0:0:
264,80,136040,2,0,L|269:146,1,53,8|0,3:0|0:0,0:0:0:0:
251,224,136280,1,0,1:0:0:0:
5,179,136520,6,0,P|87:150|183:181,1,190.799994177246,4|0,1:2|0:0,0:0:0:0:
157,279,137000,2,0,P|177:314|170:341,1,63.5999980590821,8|0,2:0|0:0,0:0:0:0:
75,278,137240,2,0,P|75:245|103:218,1,63.5999980590821,8|0,2:0|0:0,0:0:0:0:
265,159,137480,2,0,P|265:192|237:219,1,63.5999980590821,8|0,2:0|0:0,0:0:0:0:
144,59,137720,1,8,2:0:0:0:
317,105,137960,6,0,P|370:129|344:243,1,185.499994338989,2|0,2:0|0:0,0:0:0:0:
229,333,138680,6,0,B|181:270|181:270|224:194,1,159.000006065369,6|0,1:2|0:0,0:0:0:0:
216,105,139040,1,0,1:0:0:0:
216,105,139160,2,0,B|158:115|113:82|113:82|81:121,1,159.000006065369,10|0,2:0|2:0,0:0:0:0:
70,287,139520,6,0,L|57:120,1,159.000006065369,2|0,1:2|0:0,0:0:0:0:
21,50,139880,1,0,1:0:0:0:
189,32,140120,2,0,L|278:37,1,79.5000030326844,10|0,2:0|0:0,0:0:0:0:
395,158,140360,2,0,L|306:163,1,79.5000030326844,2|0,2:0|0:0,0:0:0:0:
223,305,140600,6,0,B|195:225|195:225|231:149,1,159.000006065369,2|2,1:2|2:0,0:0:0:0:
226,157,140960,1,0,0:0:0:0:
172,84,141080,2,0,B|143:111|97:96|97:96|133:130|112:167,1,159.000006065369,10|2,2:0|0:0,0:0:0:0:
87,288,141440,1,0,1:0:0:0:
87,288,141560,6,0,B|187:269,1,79.5000030326844,2|0,1:2|0:0,0:0:0:0:
282,227,141800,1,0,1:0:0:0:
449,323,142040,2,0,P|442:364|393:377,1,79.5000030326844,10|0,2:0|0:0,0:0:0:0:
274,320,142280,2,0,P|314:312|350:336,1,79.5000030326844,2|0,0:0|0:0,0:0:0:0:
374,101,142520,6,0,B|401:184|401:184|356:240,1,159.000006065369,2|0,1:2|0:0,0:0:0:0:
223,240,142880,1,0,1:0:0:0:
182,55,143000,2,0,B|285:89|285:89|280:174,1,159.000006065369,10|0,2:2|0:0,0:0:0:0:
91,228,143360,2,0,P|53:171|71:79,1,159.000006065369,2|0,1:2|0:0,0:0:0:0:
136,153,143720,1,2,1:2:0:0:
111,317,143960,2,0,P|72:323|35:309,1,79.5000030326844,8|0,2:0|0:0,0:0:0:0:
159,380,144200,6,0,P|264:341|262:229,1,238.500009098053,6|0,1:2|0:0,0:0:0:0:
290,138,144680,2,0,P|253:155|199:152,1,79.5000030326844,2|0,1:2|0:0,0:0:0:0:
150,210,144920,2,0,P|133:173|136:119,1,79.5000030326844,10|0,2:0|0:0,0:0:0:0:
75,74,145160,2,0,P|112:57|166:60,1,79.5000030326844,2|0,1:2|0:0,0:0:0:0:
214,4,145400,2,0,P|231:41|228:95,1,79.5000030326844,10|0,2:0|0:0,0:0:0:0:
348,184,145640,6,0,P|365:147|362:93,1,79.5000030326844,2|0,1:2|0:0,0:0:0:0:
239,180,145880,1,10,2:0:0:0:
228,221,146000,1,8,2:0:0:0:
231,263,146120,1,2,1:2:0:0:
250,300,146240,1,0,1:0:0:0:
336,348,146360,6,0,P|411:366|500:334,1,159.000006065369,6|0,1:2|0:0,0:0:0:0:
512,197,146720,1,0,1:0:0:0:
359,87,146840,2,0,B|332:195|332:195|367:243,1,159.000006065369,10|0,2:0|0:0,0:0:0:0:
491,95,147200,6,0,B|489:54|489:54|452:9,1,79.5000030326844,2|0,1:2|0:0,0:0:0:0:
257,31,147440,1,0,0:0:0:0:
257,31,147560,2,0,L|338:67,1,79.5000030326844,2|0,1:2|0:0,0:0:0:0:
398,163,147800,2,0,L|310:203,1,79.5000030326844,10|0,2:0|0:0,0:0:0:0:
216,213,148040,2,0,L|228:116,1,79.5000030326844,2|0,0:2|0:0,0:0:0:0:
326,277,148280,6,0,P|329:318|291:360,1,79.5000030326844,2|0,1:2|0:2,0:0:0:0:
167,293,148520,2,0,P|208:290|250:328,1,79.5000030326844,2|0,0:2|0:2,0:0:0:0:
89,367,148760,6,0,P|74:332|74:278,1,79.5000030326844,10|0,2:0|0:0,0:0:0:0:
246,122,149000,2,0,P|254:163|238:214,1,79.5000030326844,2|0,2:0|0:0,0:0:0:0:
53,183,149240,6,0,B|31:148|31:148|70:20,1,159.000006065369,2|0,1:2|0:0,0:0:0:0:
149,104,149600,1,0,0:0:0:0:
189,194,149720,2,0,P|204:276|204:377,1,159.000006065369,8|2,2:0|0:2,0:0:0:0:
205,351,150080,1,0,1:0:0:0:
104,335,150200,6,0,P|71:313|57:276,1,79.5000030326844,6|0,1:2|0:0,0:0:0:0:
274,228,150440,2,0,P|252:260|215:274,1,79.5000030326844,2|0,0:2|0:0,0:0:0:0:
180,115,150680,2,0,P|274:94|349:145,1,159.000006065369,10|0,2:0|0:0,0:0:0:0:
392,200,151040,2,0,P|360:285|305:260,1,159.000006065369,2|0,1:2|0:0,0:0:0:0:
414,67,151400,2,0,P|453:68|487:88,1,79.5000030326844,2|0,1:2|0:0,0:0:0:0:
483,224,151640,2,0,P|459:255|422:267,1,79.5000030326844,10|0,2:0|0:0,0:0:0:0:
392,200,151880,6,0,L|406:358,1,159.000006065369,6|0,1:2|0:0,0:0:0:0:
293,156,152360,1,0,1:0:0:0:
189,212,152600,2,0,P|208:249|268:254,1,79.5000030326844,8|0,2:0|0:0,0:0:0:0:
320,320,152840,2,0,P|301:357|241:362,1,79.5000030326844,0|0,1:2|0:0,0:0:0:0:
73,347,153080,2,0,P|104:326|143:334,1,79.5000030326844,8|0,0:0|0:0,3:0:0:0:
173,230,153320,2,0,P|142:203|84:220,1,79.5000030326844,2|0,1:2|0:0,0:0:0:0:
8,174,153560,5,10,2:0:0:0:
0,143,153680,1,8,2:0:0:0:
5,111,153800,1,2,1:2:0:0:
23,84,153920,1,0,1:0:0:0:
97,33,154040,6,0,B|274:48|274:48|203:81,1,238.500009098053,6|0,1:2|0:0,0:0:0:0:
248,235,154520,2,0,P|176:248|158:177,1,159.000006065369,10|0,0:0|0:0,0:0:0:0:
415,129,154880,2,0,B|445:234|445:234|416:275,1,159.000006065369,2|0,3:2|0:0,0:0:0:0:
326,357,155240,2,0,P|310:321|319:284,1,79.5000030326844,0|0,1:0|0:0,0:0:0:0:
213,135,155480,6,0,B|135:201|144:308|144:308|184:289,1,238.500009098053,10|0,2:0|0:0,0:0:0:0:
259,234,155960,2,0,B|275:201|316:193|316:193|337:239|392:255,1,159.000006065369,2|2,1:2|0:2,0:0:0:0:
502,341,156320,1,0,0:0:0:0:
502,341,156440,2,0,P|433:363|380:326,1,79.5000030326844,10|0,1:2|0:2,0:0:0:0:
275,333,156680,6,0,P|292:302|337:292,1,79.5000030326844,2|0,0:2|0:2,0:0:0:0:
470,214,156920,2,0,P|468:252|429:277,1,79.5000030326844,2|0,0:2|1:0,0:0:0:0:
369,187,157160,2,0,P|365:147|386:114,1,79.5000030326844,0|0,3:0|1:0,0:0:0:0:
480,72,157400,2,0,P|396:76|328:12,1,159.000006065369,10|2,2:0|0:2,0:0:0:0:
208,50,157760,1,0,0:0:0:0:
278,144,157880,6,0,B|307:219|307:219|293:267|225:252,1,159.000006065369,2|0,1:2|0:0,0:0:0:0:
113,208,158240,1,0,1:0:0:0:
113,208,158360,2,8,B|142:181|142:181|193:175,1,79.5000030326844,10|0,2:0|2:2,2:0:0:0:
146,347,158600,1,0,1:0:0:0:
145,347,158720,2,0,P|68:349|17:291,1,159.000006065369,2|0,1:2|0:0,0:0:0:0:
19,113,159080,2,0,P|38:142|35:212,1,79.5000030326844,2|0,1:2|0:0,0:0:0:0:
175,263,159320,2,0,P|214:259|247:238,1,79.5000030326844,8|0,2:0|0:0,0:0:0:0:
253,66,159560,6,0,P|189:107|124:88,2,116.60000355835,6|0|2,1:2|0:0|1:2,0:0:0:0:
366,26,160160,1,0,0:0:0:0:
366,26,160280,2,0,P|386:65|387:100,1,79.5000030326844,10|0,2:0|0:0,0:0:0:0:
438,161,160520,2,0,P|403:179|363:181,1,79.5000030326844,2|0,1:2|0:0,0:0:0:0:
308,233,160761,2,0,P|289:198|287:158,1,79.5000030326844,10|0,2:0|0:0,0:0:0:0:
227,101,161000,2,0,P|266:81|301:80,1,79.5000030326844,0|0,1:0|0:0,0:0:0:0:
432,126,161240,5,10,2:2:0:0:
445,176,161360,1,8,2:0:0:0:
435,228,161480,1,2,1:2:0:0:
404,270,161600,1,0,1:0:0:0:
320,307,161720,6,0,P|288:302|222:321,1,79.5000030326844,6|0,1:2|0:2,0:0:0:0:
106,371,161960,2,0,P|145:375|183:366,1,79.5000030326844,2|0,1:2|0:2,0:0:0:0:
55,280,162200,1,10,2:0:0:0:
135,98,162440,6,0,P|186:153|144:233,1,159,6|0,1:2|0:0,0:0:0:0:
13,194,162920,2,0,P|37:168|94:172,1,79.5000030326844,2|0,1:2|0:0,0:0:0:0:
317,250,163160,2,0,P|289:280|231:274,1,79.5000030326844,10|0,2:0|0:0,0:0:0:0:
196,89,163400,6,0,B|259:49|259:49|329:110|438:88,1,238.500009098053,6|0,1:2|0:0,0:0:0:0:
454,241,163880,2,0,P|416:232|396:195,1,79.5000030326844,0|0,1:0|0:0,0:0:0:0:
464,34,164120,2,0,P|487:65|492:105,1,79.5000030326844,8|0,2:0|0:0,0:0:0:0:
310,176,164360,6,0,P|271:182|237:163,1,79.5000030326844,0|0,1:0|1:0,0:0:0:0:
169,103,164600,2,0,P|129:106|98:129,1,79.5000030326844,8|0,2:0|0:0,0:0:0:0:
275,344,164840,6,0,B|287:307|287:307|269:249,1,79.5000030326844,0|0,1:0|0:0,0:0:0:0:
165,193,165080,2,0,B|152:231|152:231|164:268,1,79.5000030326844,10|0,2:2|0:0,0:0:0:0:
355,215,165320,2,0,L|432:171,1,79.5000030326844,10|0,2:2|0:0,0:0:0:0:
264,138,165560,6,0,P|189:88|125:115,1,159.000006065369,6|0,1:2|0:0,0:0:0:0:
269,20,166040,1,10,2:0:0:0:
372,49,166280,6,0,B|400:109|400:109|377:150|405:205,1,159.000006065369,6|0,1:2|0:0,0:0:0:0:
344,285,166640,1,0,0:0:0:0:
201,227,166760,2,0,L|298:212,1,79.5000030326844,2|0,1:2|0:0,0:0:0:0:
220,327,167000,2,0,P|191:355|145:356,1,79.5000030326844,10|0,2:0|0:0,0:0:0:0:
52,207,167240,6,0,P|80:282|52:351,1,159.000006065369,6|0,1:2|0:0,0:0:0:0:
39,110,167720,1,2,1:2:0:0:
202,252,167960,6,0,P|226:207|199:143,1,106,10|0,1:2|0:2,0:0:0:0:
143,82,168680,5,0,1:0:0:0:
314,54,168920,2,0,B|330:86|330:86|332:141,1,79.5000030326844,10|8,2:0|2:0,0:0:0:0:
218,289,169160,2,0,B|202:257|202:257|200:213,1,79.5000030326844,0|0,1:0|1:0,0:0:0:0:
443,181,169400,6,0,P|376:235|299:213,1,159.000006065369,6|2,1:2|0:2,0:0:0:0:
249,95,169880,1,10,2:0:0:0:
267,60,170000,1,2,0:2:0:0:
302,43,170120,2,0,P|344:40|383:69,1,79.5000030326844,2|0,1:2|0:0,0:0:0:0:
481,135,170360,2,0,P|510:190|459:287,1,159.000006065369,2|2,1:2|1:2,0:0:0:0:
403,326,170720,1,2,2:2:0:0:
303,333,170840,2,0,P|274:314|258:268,1,79.5000030326844,10|2,2:2|0:2,0:0:0:0:
277,132,171080,1,2,0:2:0:0:
315,123,171200,1,2,0:2:0:0:
352,135,171320,6,0,B|396:211|396:211|350:271,1,159.000006065369,2|2,1:2|0:2,0:0:0:0:
244,289,171680,2,0,L|224:375,1,79.5000030326844,2|8,1:2|2:0,0:0:0:0:
152,219,171920,1,2,0:2:0:0:
157,266,172040,1,2,0:2:0:0:
129,305,172160,1,2,0:0:0:0:
102,328,172280,6,0,P|59:338|22:315,1,79.5000030326844,2|0,1:2|0:0,0:0:0:0:
20,156,172520,2,0,B|131:124|131:124|109:161,1,159.000006065369,2|8,3:2|0:2,0:0:0:0:
217,279,173000,2,0,L|303:267,1,79.5000030326844,2|2,0:2|0:2,0:2:0:0:
345,198,173240,5,2,1:2:0:0:
345,198,173360,1,2,0:2:0:0:
345,198,173480,2,0,L|393:117,1,79.5000030326844,2|0,0:2|1:2,0:2:0:0:
159,182,173720,5,10,0:2:0:0:
159,182,173840,1,2,0:2:0:0:
159,182,173960,2,0,P|185:210|224:215,1,79.5000030326844,2|0,1:2|0:2,0:2:0:0:
165,330,174200,5,2,1:2:0:0:
165,330,174320,1,2,0:2:0:0:
165,330,174440,2,0,P|125:337|78:324,1,79.5000030326844,2|0,1:2|0:0,0:0:0:0:
241,247,174680,1,10,2:0:0:0:
76,181,174920,6,0,B|120:117|136:23|136:23|140:96,1,238.500009098053,6|0,1:2|0:2,0:0:0:0:
248,151,175400,2,0,P|280:161|333:149,1,79.5000030326844,2|0,1:2|0:0,0:0:0:0:
438,110,175640,1,10,2:0:0:0:
438,110,175760,2,0,P|422:54|398:45,1,79.5000030326844,2|2,2:0|1:2,0:0:0:0:
366,180,176000,1,0,1:0:0:0:
351,294,176120,6,0,P|384:323|438:324,1,79.5000030326844,10|0,2:0|0:0,0:0:0:0:
477,205,176360,2,0,P|448:232|409:240,1,79.5000030326844,2|0,1:2|0:0,0:0:0:0:
316,217,176600,1,8,2:2:0:0:
244,206,176720,1,8,2:2:0:0:
188,237,176840,1,0,1:3:0:0:
165,278,176960,1,0,1:3:0:0:
166,309,177080,1,6,1:2:0:0:
259,134,177320,5,2,0:2:0:0:
175,82,177560,2,0,P|131:98|128:164,1,106,10|2,2:0|0:2,0:0:0:0:
204,211,178040,5,2,1:2:0:0:
298,220,178280,1,2,1:2:0:0:
376,166,178520,1,10,2:2:0:0:
372,70,178760,1,2,1:2:0:0:
280,42,179000,5,2,0:2:0:0:
228,95,179240,1,2,1:2:0:0:
255,163,179480,1,10,2:2:0:0:
323,192,179720,1,2,0:2:0:0:
415,277,179960,5,2,1:2:0:0:
404,318,180200,1,2,2:2:0:0:
371,345,180440,1,10,2:2:0:0:
329,355,180680,1,2,0:2:0:0:
228,352,180920,5,4,2:3:0:0:
150,303,181160,2,0,L|146:211,2,79.5000030326844,0|2|0,0:0|3:0|0:0,0:0:0:0:
247,242,181880,2,0,L|251:150,2,79.5000030326844,2|0|2,3:0|0:0|3:0,0:0:0:0:
163,98,182600,6,0,P|223:67|307:102,1,159.000006065369,0|0,2:0|0:0,0:0:0:0:
339,180,183320,1,0,2:0:0:0:
245,204,183560,1,0,2:0:0:0:
153,154,183800,2,0,L|165:51,2,79.5000030326844,0|0|0,2:0|2:0|2:0,0:0:0:0:
48,209,184520,5,2,2:0:0:0:
106,278,184760,2,0,P|161:286|211:265,1,106,2|0,1:2|0:0,0:0:0:0:
310,270,185240,1,2,1:2:0:0:
374,162,185480,2,0,B|350:114|350:114|274:130,1,106,2|0,0:2|1:0,0:0:0:0:
209,108,185960,1,2,0:2:0:0:
169,184,186200,1,2,0:2:0:0:
416,241,186440,5,4,2:3:0:0:
101,78,188360,6,0,P|130:90|154:128,1,53,2|0,2:0|0:0,0:0:0:0:
152,128,188600,2,0,L|272:128,1,106,2|0,1:2|0:0,0:0:0:0:
372,68,189080,1,2,1:2:0:0:
343,230,189320,2,0,B|371:198|420:208|420:208|358:156|332:92,1,212,2|2,0:2|0:2,0:0:0:0:
212,76,190040,1,2,1:2:0:0:
265,285,190280,5,4,0:3:0:0:
452,159,192200,5,2,2:0:0:0:
445,79,192440,2,0,B|423:52|436:15|436:15|370:53|293:54,1,212,2|2,1:2|1:2,0:0:0:0:
190,136,193160,2,0,P|231:163|292:134,1,106,2|0,0:2|1:0,0:0:0:0:
367,180,193640,1,2,0:2:0:0:
407,84,193880,1,2,1:2:0:0:
173,31,194120,5,4,0:3:0:0:
35,169,196040,5,2,0:2:0:0:
110,100,196280,2,0,B|187:96|206:57|206:57|214:99|289:125,1,212,2|2,1:2|1:2,0:0:0:0:
337,207,197000,2,0,P|293:230|221:215,1,106,2|0,0:2|1:0,0:0:0:0:
131,226,197480,1,2,0:2:0:0:
84,148,197720,1,2,1:2:0:0:
290,41,197960,5,4,0:3:0:0:
272,105,199880,5,2,0:2:0:0:
382,79,200120,2,0,B|464:91|506:75|506:75|464:97|422:135,1,212,2|2,1:2|1:2,0:0:0:0:
276,197,200840,2,0,P|262:245|318:271,1,106,2|0,0:2|1:0,0:0:0:0:
418,334,201320,1,2,0:2:0:0:
476,270,201560,1,2,1:2:0:0:
325,121,201800,5,4,0:3:0:0:
245,161,203720,5,2,0:2:0:0:
176,36,203960,2,0,B|132:80|72:80|72:80|135:113|140:168,1,212,2|2,1:2|1:2,0:0:0:0:
132,232,204680,2,0,B|204:244|204:244|256:220,1,106,2|0,0:2|1:0,0:0:0:0:
277,149,205160,2,0,L|342:158,1,53,2|0,0:2|0:0,0:0:0:0:
401,239,205400,2,0,L|336:248,1,53,2|0,1:2|0:0,0:0:0:0:
221,322,205640,5,4,0:3:0:0:
208,183,207560,5,2,0:2:0:0:
233,83,207800,2,0,P|278:59|337:71,1,106,2|0,1:2|0:0,0:0:0:0:
444,107,208280,1,2,0:2:0:0:
331,157,208520,2,0,B|309:197|309:197|381:287,1,159,2|0,1:2|0:0,0:0:0:0:
411,295,209000,2,0,L|328:387,1,106,2|10,1:2|2:0,0:0:0:0:
226,380,209480,1,2,0:2:0:0:
158,281,209720,6,0,P|205:226|288:254,1,159,0|0,1:0|1:0,0:0:0:0:
304,256,210200,2,0,L|352:184,1,53,2|0,1:2|0:0,0:0:0:0:
258,77,210440,2,0,P|289:120|341:120,1,106,2|0,1:2|0:0,0:0:0:0:
371,114,210800,1,8,3:0:0:0:
371,114,210920,1,2,1:2:0:0:
189,24,211160,1,10,2:0:0:0:
114,140,211400,6,0,P|84:197|102:256,1,106,2|0,3:2|0:0,0:0:0:0:
404,140,213080,5,0,0:0:0:0:
398,33,213320,2,0,P|389:81|408:147,1,111.299996603394,4|0,1:2|0:0,0:0:0:0:
283,157,213800,6,0,L|207:151,1,53,8|0,1:2|0:0,0:0:0:0:
112,242,214040,2,0,L|188:236,1,53,8|0,1:2|0:0,0:0:0:0:
310,312,214280,2,0,L|234:306,1,53,8|0,1:2|0:0,0:0:0:0:
134,355,214520,5,8,2:0:0:0:
134,355,215480,1,6,2:0:0:0:
256,192,227000,12,0,228440,0:0:0:0:
236,108,228680,6,0,B|280:130|333:113|308:95|353:77|407:111,1,159.000006065369,6|0,1:2|0:0,0:0:0:0:
446,161,229040,1,0,0:0:0:0:
446,161,229160,2,0,P|438:201|386:213,1,79.5000030326844,0|0,1:0|1:2,0:0:0:0:
281,350,229400,2,0,B|237:279|237:279|262:206,1,159.000006065369,8|0,2:0|0:0,0:0:0:0:
279,182,229760,1,8,2:0:0:0:
134,301,229880,6,0,B|137:261|137:261|116:222,1,79.5000030326844,0|0,1:0|0:0,0:0:0:0:
250,28,230120,2,0,B|247:68|247:68|268:107,1,79.5000030326844,2|0,1:2|0:0,0:0:0:0:
32,142,230360,5,10,2:0:0:0:
63,161,230480,1,8,2:0:0:0:
207,158,230600,2,0,L|135:113,1,79.5000030326844,2|0,1:2|0:0,0:0:0:0:
91,45,230840,6,0,B|156:23|156:23|251:61,1,159.000006065369,6|0,1:2|0:0,0:0:0:0:
379,98,231200,1,0,1:2:0:0:
307,230,231320,2,0,P|234:222|231:149,1,159.000006065369,10|0,2:0|0:0,0:0:0:0:
402,263,231680,6,0,P|468:289|445:357,1,159.000006065369,2|0,1:2|0:0,0:0:0:0:
287,339,232040,2,0,P|254:313|207:307,1,79.5000030326844,0|0,1:0|0:0,0:0:0:0:
76,268,232280,2,0,P|108:242|156:236,1,79.5000030326844,10|0,2:0|0:0,0:0:0:0:
265,118,232520,2,0,L|243:204,1,79.5000030326844,2|0,0:2|0:0,0:0:0:0:
124,139,232760,6,0,B|90:118|41:136|41:136|97:58,1,159.000006065369,2|2,1:2|0:2,0:0:0:0:
105,54,233120,1,0,1:0:0:0:
266,26,233240,2,0,P|256:60|218:90,1,79.5000030326844,10|0,2:0|0:0,0:0:0:0:
384,163,233480,2,0,P|353:138|341:100,1,79.5000030326844,2|0,0:2|1:0,0:0:0:0:
219,248,233720,1,2,0:2:0:0:
219,248,233840,6,0,B|244:279|244:279|378:227,1,159.000006065369,0|0,1:0|0:0,0:0:0:0:
474,189,234200,2,0,B|492:232|492:232|487:281,1,79.5000030326844,10|0,2:0|0:0,0:0:0:0:
340,360,234440,2,0,B|336:327|336:327|354:284,1,79.5000030326844,2|0,1:2|0:0,0:0:0:0:
344,41,234680,6,0,P|396:124|292:138,1,238.500009098053,2|0,1:2|1:0,0:0:0:0:
201,89,235160,2,0,B|149:133|149:133|192:235,1,159.000006065369,10|0,2:0|0:0,0:0:0:0:
325,296,235520,2,0,B|254:349|233:270|164:324,1,159.000006065369,2|0,1:2|0:0,0:0:0:0:
72,374,235880,2,0,L|44:274,1,79.5000030326844,2|0,1:2|0:0,0:0:0:0:
153,149,236120,2,0,L|131:225,1,79.5000030326844,8|0,2:0|0:0,0:0:0:0:
3,152,236360,6,0,B|61:94|61:94|224:116,1,238.500009098053,6|0,1:2|0:0,0:0:0:0:
339,120,236840,2,0,P|352:150|343:208,1,79.5000030326844,2|0,1:2|0:0,0:0:0:0:
380,268,237080,2,0,P|343:283|304:278,1,79.5000030326844,10|0,2:2|1:0,0:0:0:0:
232,312,237319,2,0,P|227:273|241:237,1,79.5000030326844,2|0,1:2|0:0,0:0:0:0:
202,165,237560,2,0,P|241:160|277:174,1,79.5000030326844,10|0,2:0|0:0,0:0:0:0:
402,149,237800,2,0,P|406:109|392:73,1,79.5000030326844,0|0,1:0|0:0,0:0:0:0:
311,31,238040,5,10,2:2:0:0:
264,21,238160,1,8,2:0:0:0:
217,30,238280,1,2,1:2:0:0:
182,62,238400,1,0,1:0:0:0:
156,141,238520,6,0,P|222:200|290:167,1,159.000006065369,6|2,1:2|1:2,0:0:0:0:
164,44,239000,1,10,2:0:0:0:
56,144,239240,6,0,B|29:216|29:216|83:297,1,159.000006065369,6|0,2:0|2:0,2:0:0:0:
234,285,239720,2,0,L|321:293,1,79.5000030326844,2|0,1:2|0:0,0:0:0:0:
154,354,239960,2,0,P|119:337|106:301,1,79.5000030326844,10|0,2:2|0:0,0:0:0:0:
210,147,240200,6,0,B|246:168|245:227|179:253|101:225|77:175|102:118,1,238.500009098053,6|0,1:2|0:0,0:0:0:0:
182,54,240680,2,0,P|213:33|259:46,1,79.5000030326844,0|0,1:0|0:0,0:0:0:0:
404,125,240920,2,0,B|323:205|323:205|330:145,1,159.000006065369,8|0,2:0|0:0,0:0:0:0:
472,43,241280,1,8,1:2:0:0:
494,178,241400,2,0,L|477:266,1,79.5000030326844,0|0,2:0|0:0,0:0:0:0:
390,363,241640,2,0,L|376:284,1,79.5000030326844,0|0,1:0|0:0,0:0:0:0:
166,221,241880,5,10,2:0:0:0:
195,199,242000,1,8,2:0:0:0:
231,190,242120,1,2,1:2:0:0:
267,195,242240,1,0,1:0:0:0:
355,209,242360,6,0,P|413:178|406:115,1,127.199996118164,6|0,1:2|0:0,0:0:0:0:
246,26,242840,1,10,2:0:0:0:
135,161,243080,6,0,B|161:221|155:301|155:301|199:245,1,190.799994177246,2|0,1:2|0:0,0:0:0:0:
256,181,243560,2,0,L|337:199,1,63.5999980590821,2|0,1:2|0:0,0:0:0:0:
388,306,243800,2,0,L|307:324,1,63.5999980590821,10|0,2:0|0:0,0:0:0:0:
460,220,244040,6,0,B|436:144|436:144|452:28,1,190.799994177246,6|0,1:2|0:0,0:0:0:0:
317,35,244520,2,0,P|287:57|241:70,1,63.5999980590821,2|0,1:2|0:0,0:0:0:0:
167,127,244760,2,0,P|193:147|222:159,1,63.5999980590821,14|0,2:0|0:0,0:0:0:0:
340,227,245000,1,2,2:0:0:0:
340,227,245120,1,8,2:0:0:0:
340,227,245240,2,0,P|302:264|216:267,1,127.199996118164,0|0,1:0|1:0,0:0:0:0:
25,182,245720,1,10,2:2:0:0:
71,203,245840,1,8,2:2:0:0:
166,108,245960,2,0,L|94:142,1,63.5999980590821,10|8,2:2|2:2,0:2:0:0:
53,51,246200,6,0,P|109:67|206:32,1,159.000006065369,6|0,1:2|0:0,0:0:0:0:
324,61,246560,1,0,1:0:0:0:
254,186,246680,2,0,P|257:225|293:251,1,79.5000030326844,10|0,2:0|0:0,0:0:0:0:
332,317,246920,1,2,1:2:0:0:
332,317,247040,6,0,L|333:157,1,159.000006065369,0|0,1:2|0:0,0:0:0:0:
405,20,247400,2,0,P|431:56|437:96,1,79.5000030326844,2|0,1:2|0:0,0:0:0:0:
491,167,247640,2,0,P|455:193|415:199,1,79.5000030326844,10|0,2:0|0:0,0:0:0:0:
310,152,247880,2,0,P|318:113|342:82,1,79.5000030326844,2|0,2:0|0:0,0:0:0:0:
195,74,248120,6,0,B|177:110|177:110|223:246,1,159.000006065369,0|0,1:0|0:0,0:0:0:0:
196,317,248480,1,0,1:0:0:0:
324,294,248600,2,0,P|346:256|326:202,1,79.5000030326844,8|0,2:0|0:0,0:0:0:0:
285,127,248840,1,0,0:0:0:0:
170,189,248960,6,0,B|92:211|92:211|26:169,1,159.000006065369,0|0,1:0|0:0,0:0:0:0:
87,29,249320,2,0,P|105:67|103:113,1,79.5000030326844,2|0,1:2|0:0,0:0:0:0:
197,121,249560,2,0,B|237:114|269:141|269:141|318:133|343:83,1,159.000006065369,10|2,2:0|0:2,0:0:0:0:
336,16,249920,1,0,0:0:0:0:
399,145,250040,6,0,P|471:151|487:80,1,159.000006065369,2|0,1:2|0:0,0:0:0:0:
407,63,250400,1,0,1:0:0:0:
298,143,250520,2,0,B|286:194|286:194|333:330,1,159.000006065369,10|2,2:2|0:2,0:0:0:0:
439,315,250880,2,0,P|433:353|406:382,1,79.5000030326844,0|0,1:0|0:0,0:0:0:0:
258,367,251120,1,0,0:0:0:0:
320,219,251240,2,0,P|360:209|405:218,1,79.5000030326844,2|0,1:2|0:0,0:0:0:0:
212,289,251480,2,0,P|172:299|127:290,1,79.5000030326844,10|0,2:2|0:0,0:0:0:0:
26,218,251720,6,0,B|-5:139|56:70|56:70|101:136,1,238.500009098053,6|0,1:2|0:0,0:0:0:0:
278,202,252200,2,0,P|315:185|331:134,1,79.5000030326844,0|0,1:0|0:0,0:0:0:0:
223,131,252440,2,0,P|192:77|101:82,1,159.000006065369,8|0,2:0|1:0,0:0:0:0:
109,201,252800,1,0,1:0:0:0:
187,281,252920,2,0,B|222:296|222:296|283:289,1,79.5000030326844,8|0,2:0|0:0,0:0:0:0:
387,277,253160,2,0,P|385:325|349:362,1,79.5000030326844,0|0,1:0|0:0,0:0:0:0:
343,204,253400,5,10,2:2:0:0:
367,163,253520,1,2,1:2:0:0:
353,125,253640,2,0,L|329:41,1,79.5000030326844,2|0,1:2|1:0,0:0:0:0:
240,101,253880,6,0,P|155:98|114:18,1,159.000006065369,6|0,1:2|0:0,0:0:0:0:
22,89,254240,1,2,1:2:0:0:
153,183,254360,2,0,P|134:220|93:230,1,79.5000030326844,10|0,2:0|0:0,0:0:0:0:
40,308,254600,2,0,P|52:344|87:361,1,79.5000030326844,2|0,1:2|0:0,0:0:0:0:
170,296,254840,2,0,B|214:264|214:264|265:290|330:279,1,159.000006065369,2|0,1:2|0:0,0:0:0:0:
407,242,255200,1,0,1:2:0:0:
381,337,255320,2,0,P|360:367|297:361,1,79.5000030326844,8|0,2:2|0:0,0:0:0:0:
268,283,255560,2,0,L|254:204,1,79.5000030326844,2|0,1:2|0:0,0:0:0:0:
184,207,255800,6,0,P|253:162|268:75,1,159.000006065369,2|2,1:2|0:2,0:0:0:0:
189,35,256160,1,0,1:0:0:0:
90,101,256280,2,0,B|122:123|122:123|170:125,1,79.5000030326844,10|0,2:0|0:0,0:0:0:0:
270,91,256520,1,2,1:2:0:0:
294,247,256640,6,0,P|290:335|174:298,1,238.500009098053,2|0,1:2|0:0,0:0:0:0:
67,169,257120,1,0,1:0:0:0:
67,169,257240,2,0,B|105:158|105:158|157:177,1,79.5000030326844,10|0,2:0|0:0,0:0:0:0:
99,299,257480,2,0,B|60:309|60:309|9:291,1,79.5000030326844,2|0,1:2|0:0,0:0:0:0:
230,129,257720,6,0,B|237:213|237:213|202:281,1,159.000006065369,2|0,1:2|0:0,0:0:0:0:
267,360,258080,1,0,1:0:0:0:
314,258,258200,2,0,P|354:247|400:269,1,79.5000030326844,10|0,2:2|0:0,0:0:0:0:
512,352,258440,1,2,1:2:0:0:
512,352,258560,2,0,P|444:366|354:331,1,159.000006065369,0|0,1:0|0:0,0:0:0:0:
484,180,258920,2,0,L|470:270,1,79.5000030326844,2|0,1:2|0:0,0:0:0:0:
384,168,259160,2,0,L|371:89,1,79.5000030326844,10|0,2:2|0:0,0:0:0:0:
438,60,259400,6,0,B|352:39|352:39|249:70,1,190.799994177246,6|0,1:2|0:0,0:0:0:0:
166,160,259880,2,0,P|194:196|241:193,1,79.5000030326844,0|0,1:0|0:0,0:0:0:0:
343,175,260120,2,0,B|318:251|318:251|391:204,1,159.000006065369,8|0,2:0|1:0,0:0:0:0:
369,327,260480,1,0,1:0:0:0:
247,360,260600,6,0,P|229:326|231:260,1,79.5000030326844,8|0,2:0|0:0,0:0:0:0:
136,187,260840,2,0,P|132:226|114:261,1,79.5000030326844,4|0,1:2|0:0,0:0:0:0:
40,363,261080,2,0,B|13:311|13:311|36:199,1,159.000006065369,10|2,2:0|0:2,0:0:0:0:
77,100,261440,1,0,1:0:0:0:
77,100,261560,6,0,P|33:68|89:83,1,159.000006065369,6|2,1:2|0:2,0:0:0:0:
226,57,261920,1,0,1:0:0:0:
115,206,262040,2,0,B|156:185|203:209|180:235|233:250|273:235,1,159.000006065369,10|2,2:0|0:2,0:0:0:0:
347,200,262400,6,0,P|404:135|351:99,1,159.000006065369,0|0,1:2|0:0,0:0:0:0:
171,264,262760,2,0,L|198:338,1,79.5000030326844,2|0,1:2|0:0,0:0:0:0:
315,385,263000,2,0,L|342:310,1,79.5000030326844,10|0,2:0|0:0,0:0:0:0:
332,209,263240,2,0,B|289:196|289:196|256:207,1,79.5000030326844,2|0,0:2|0:0,0:0:0:0:
453,259,263480,6,0,P|486:182|443:118,1,159.000006065369,2|0,1:2|0:0,0:0:0:0:
406,33,263840,1,0,1:0:0:0:
304,107,263960,2,0,B|266:128|266:128|147:104,1,159.000006065369,10|0,2:0|0:0,0:0:0:0:
85,41,264320,2,0,P|34:99|69:161,1,159.000006065369,2|0,1:2|0:0,0:0:0:0:
118,260,264680,2,0,L|199:245,1,79.5000030326844,0|0,1:0|0:0,0:0:0:0:
296,184,264920,2,0,B|316:225|316:225|290:336,1,159.000006065369,10|2,2:0|0:0,0:0:0:0:
204,374,265280,1,0,0:0:0:0:
25,282,265400,6,0,P|98:259|192:288,1,159.000006065369,2|0,1:2|0:0,0:0:0:0:
275,192,265760,1,0,1:0:0:0:
349,298,265880,2,0,P|327:330|289:334,1,79.5000030326844,10|0,2:0|0:0,0:0:0:0:
120,223,266120,1,0,0:0:0:0:
202,157,266240,6,0,B|226:57|226:57|176:12,1,159.000006065369,2|0,1:2|0:0,0:0:0:0:
48,89,266600,2,0,P|78:115|124:117,1,79.5000030326844,0|0,1:0|0:0,0:0:0:0:
278,170,266840,2,0,P|310:188|328:234,1,79.5000030326844,8|0,2:0|0:0,0:0:0:0:
417,279,267080,6,0,L|416:78,1,190.799994177246,6|0,1:2|0:0,0:0:0:0:
202,29,267560,2,0,P|211:63|264:98,1,79.5000030326844,2|0,1:2|0:0,0:0:0:0:
355,130,267800,2,0,P|389:121|419:71,1,79.5000030326844,10|0,2:2|0:0,0:0:0:0:
430,216,268040,6,0,P|421:250|368:280,1,79.5000030326844,2|0,1:2|1:0,0:0:0:0:
277,349,268280,2,0,P|229:337|203:294,1,79.5000030326844,10|0,2:2|0:0,0:0:0:0:
131,219,268520,2,0,P|171:207|228:224,1,79.5000030326844,0|0,1:2|0:0,0:0:0:0:
307,201,268760,5,10,2:2:0:0:
315,165,268880,1,8,2:0:0:0:
310,128,269000,1,2,1:2:0:0:
292,96,269120,1,0,1:0:0:0:
218,63,269240,6,0,B|134:46|134:46|48:64,1,159.000006065369,6|2,1:2|0:2,0:0:0:0:
33,150,269600,1,0,1:0:0:0:
167,243,269720,2,0,P|177:209|155:150,1,79.5000030326844,10|0,2:0|0:0,0:0:0:0:
44,250,269960,1,0,0:0:0:0:
44,250,270080,2,0,B|66:358|66:358|79:309,1,159.000006065369,2|0,1:2|0:0,0:0:0:0:
258,245,270440,2,0,P|222:272|177:270,1,79.5000030326844,2|0,1:2|0:0,0:0:0:0:
236,356,270680,2,0,P|266:380|305:384,1,79.5000030326844,10|0,2:2|0:0,0:0:0:0:
372,313,270920,2,0,P|398:287|389:225,1,79.5000030326844,2|0,1:2|0:0,0:0:0:0:
200,146,271160,6,0,B|231:129|231:129|295:169|359:136,1,159.000006065369,2|0,1:2|0:0,0:0:0:0:
438,70,271520,1,0,1:0:0:0:
493,209,271640,2,0,P|456:221|419:207,1,79.5000030326844,10|0,2:0|0:0,0:0:0:0:
290,61,271880,1,0,1:0:0:0:
304,197,272000,6,8,B|323:250|323:250|271:356,1,159.000006065369,2|0,1:2|0:0,0:0:0:0:
113,346,272360,2,0,L|188:370,1,79.5000030326844,0|0,1:0|0:0,0:0:0:0:
214,256,272600,2,2,B|147:217|147:217|72:250,1,159.000006065369,10|2,2:0|0:0,0:0:0:0:
48,140,272960,1,0,0:0:0:0:
151,55,273080,6,0,P|188:121|145:183,1,159.000006065369,2|0,1:2|0:0,0:0:0:0:
75,33,273440,1,0,1:0:0:0:
265,105,273560,2,0,B|307:114|307:114|353:101,1,79.5000030326844,10|0,2:0|0:0,0:0:0:0:
432,54,273800,1,0,1:0:0:0:
419,165,273920,6,0,B|397:202|397:202|426:314,1,159.000006065369,2|0,1:2|0:0,0:0:0:0:
336,347,274280,2,0,P|300:369|256:368,1,79.5000030326844,0|0,1:0|0:0,0:0:0:0:
171,269,274520,2,0,P|206:291|251:290,1,79.5000030326844,8|0,2:0|0:0,0:0:0:0:
329,220,274760,6,0,B|310:197|310:157|310:157|245:186|172:154,1,190.799994177246,6|0,1:2|0:0,0:0:0:0:
90,245,275240,2,0,B|104:287|104:287|158:297,1,79.5000030326844,0|0,1:0|0:0,0:0:0:0:
113,120,275480,2,0,B|99:78|99:78|45:68,1,79.5000030326844,10|0,2:2|0:0,0:0:0:0:
4,208,275720,2,0,L|95:212,1,79.5000030326844,0|0,1:0|1:0,0:0:0:0:
264,217,275960,6,0,P|284:178|284:125,1,79.5000030326844,10|0,2:0|0:0,0:0:0:0:
175,33,276200,2,0,P|179:72|198:106,1,79.5000030326844,0|0,1:0|0:0,0:0:0:0:
278,41,276440,5,10,2:2:0:0:
312,52,276560,1,8,2:0:0:0:
348,48,276680,1,2,1:2:0:0:
382,35,276800,1,0,1:0:0:0:
474,23,276920,6,0,L|487:103,1,63.5999980590821,6|0,1:2|0:0,0:0:0:0:
427,220,277160,2,0,P|438:187|432:140,1,79.5000030326844,2|0,1:2|0:0,0:0:0:0:
342,219,277400,2,0,P|331:262|350:306,1,79.5000030326844,10|0,0:2|0:0,0:0:0:0:
415,307,277640,6,0,L|198:360,1,190.799994177246,6|0,1:2|0:0,0:0:0:0:
123,307,278120,2,0,P|141:271|195:243,1,79.5000030326844,6|0,1:2|0:0,0:0:0:0:
265,203,278360,2,0,P|247:167|193:139,1,79.5000030326844,10|0,2:2|0:0,0:0:0:0:
166,44,278600,6,0,B|227:37|227:37|351:105,1,190.799994177246,6|0,1:2|0:0,0:0:0:0:
439,159,279080,2,0,P|420:198|387:219,1,79.5000030326844,0|0,1:0|0:0,0:0:0:0:
431,53,279320,2,0,P|470:71|491:105,1,79.5000030326844,12|0,2:0|0:0,0:0:0:0:
273,150,279560,5,8,3:0:0:0:
273,150,279680,1,8,3:0:0:0:
273,150,279800,2,0,P|273:110|304:68,1,79.5000030326844,0|0,1:0|0:0,0:0:0:0:
336,243,280040,2,0,P|304:273|238:264,1,79.5000030326844,0|0,1:0|0:0,0:0:0:0:
153,346,280280,5,10,2:2:0:0:
141,310,280400,1,8,2:0:0:0:
140,274,280520,1,2,1:2:0:0:
148,238,280640,1,0,1:0:0:0:
185,164,280760,6,0,P|210:96|171:13,1,159.000006065369,6|0,1:2|0:0,0:0:0:0:
67,136,281240,1,10,0:2:0:0:
252,75,281480,2,0,P|302:86|318:149,1,106,6|0,1:2|0:0,0:0:0:0:
225,309,281960,2,0,P|235:242|310:250,1,159.000006065369,2|10,1:2|2:0,0:0:0:0:
453,348,282440,6,0,B|472:310|472:310|465:247,1,106,6|0,1:2|0:0,0:0:0:0:
418,128,282920,1,2,1:2:0:0:
277,159,283160,1,10,2:0:0:0:
277,159,283400,2,0,P|230:182|178:176,1,106,2|0,2:2|0:2,0:0:0:0:
28,287,283880,1,0,1:0:0:0:
223,350,284120,6,0,B|275:326|275:326|323:369|394:352,1,169.6,12|0,2:0|0:0,0:0:0:0:
