osu file format v14

[General]
AudioFilename: audio.mp3
AudioLeadIn: 0
PreviewTime: 807839
Countdown: 0
SampleSet: Normal
StackLeniency: 0.7
Mode: 1
LetterboxInBreaks: 0
WidescreenStoryboard: 1

[Editor]
Bookmarks: 73,39721,96851,145014,203863,257279,317332,394854,455001,512160,562862,626164,678130,749073,794768,871084,951391,988481
DistanceSpacing: 1
BeatDivisor: 4
GridSize: 32
TimelineZoom: 2.6

[Metadata]
Title:Songs Compilation
TitleUnicode:Songs Compilation
Artist:Yorushika
ArtistUnicode:ヨルシカ
Creator:Hivie
Version:Sunlight
Source:
Tags:ナブナ n-buna nbuna Typ4 Jerry japanese jpop pop j-pop rock jrock j-rock エルマ スイ suis ただ君に晴れ Tada Kimi ni Hare just a sunny day for you あの夏に咲け Ano Natsu ni Sake blooming in that summer 五月は花緑青の窓辺から Gogatsu wa Hana Rokushou no Madobe Kara in may, from the emerald-green window 冬眠 Tomin 夜紛い Yoru magai 爆弾魔 bakudanma compulsive bomber 言って。itte. say it. 詩書きとコーヒー Shikaki to Coffee songwriting and coffee 神様のダンス Kamisama no dance dance of god 負け犬にアンコールはいらない Makeinu ni Encore wa Iranai a loser doesn't need an encore 準透明少年 jun toumei shounen Semi-transparent boy 踊ろうぜ odorouze let's dance 心に穴が空いた kokoro ni ana ga aita Hole In The Heart 歩く Aruku 藍二乗 Ai Nijou deep indigo 八月、某、月明かり Hachigatsu, Bou, Tsukiakari August, A Certain Person, Moonlight 夕凪、某、花惑い Yuunagi, Bou, Hana Madoi Evening Calm, A Certain Day, Illusion of Flowers
BeatmapID:2649299
BeatmapSetID:1275044

[Difficulty]
HPDrainRate:3
CircleSize:2
OverallDifficulty:6
ApproachRate:9
SliderMultiplier:1.4
SliderTickRate:1

[Events]
//Background and Video events
0,0,"bg.jpg",0,210
//Break Periods
2,139717,147080
2,198547,205929
2,252062,259345
2,312145,319398
2,389531,396920
2,449720,455698
2,507092,512823
2,557833,564788
2,621167,627102
2,673133,678880
2,741930,748773
2,787673,795168
2,808682,810168
2,841648,844447
2,870389,872665
2,950102,952972
//Storyboard Layer 0 (Background)
Sprite,Background,TopLeft,"bg.jpg",0,0
//Storyboard Layer 1 (Fail)
//Storyboard Layer 2 (Pass)
//Storyboard Layer 3 (Foreground)
//Storyboard Layer 4 (Overlay)
//Storyboard Sound Samples

[TimingPoints]
73,428.571428571429,4,1,0,50,1,0
1767,-111.111111111111,4,1,0,30,0,0
1981,-109.58904109589,4,1,0,34,0,0
2195,-108.108108108108,4,1,0,38,0,0
2410,-106.666666666667,4,1,0,41,0,0
2517,-105.960264900662,4,1,0,45,0,0
2624,-105.263157894737,4,1,0,49,0,0
2838,-103.896103896104,4,1,0,52,0,0
3053,-102.564102564103,4,1,0,56,0,0
3481,-100,4,1,0,60,0,0
6481,-96.8054211035818,4,1,0,60,0,0
6695,-93.8086303939962,4,1,0,60,0,0
6910,-90.9090909090909,4,1,0,80,0,0
18695,-86.9565217391304,4,1,0,80,0,0
20624,-83.3333333333333,4,1,0,100,0,0
20644,-83.3333333333333,4,1,0,100,0,1
26731,-66.6666666666667,4,1,0,100,0,1
27160,-74.0740740740741,4,1,0,100,0,1
27374,-83.3333333333333,4,1,0,100,0,1
34338,-100,4,1,0,40,0,1
34358,-100,4,1,0,40,0,0
36910,-95.2380952380952,4,1,0,40,0,0
37231,-90.9090909090909,4,1,0,40,0,0
37553,-83.3333333333333,4,1,0,40,0,0
37981,-100,4,1,0,40,0,0
39501,428.571428571429,4,1,0,50,1,8
39721,375,4,1,0,60,1,0
42701,-100,4,1,0,80,0,0
45689,375,4,1,0,60,1,0
45721,375,4,1,0,60,1,8
51607,-95.2380952380952,4,1,0,90,0,0
56388,-95.2380952380952,4,1,0,90,0,0
56576,-90.9657377548746,4,1,0,90,0,0
56763,-87.060236977965,4,1,0,90,0,0
56951,-83.4762864739199,4,1,0,90,0,0
57701,-83.3333333333333,4,1,0,100,0,0
57721,-83.3333333333333,4,1,0,100,0,1
62951,-86.9565217391304,4,1,0,100,0,1
62971,-86.9565217391304,4,1,0,100,0,0
63701,-83.3333333333333,4,1,0,100,0,0
63721,-83.3333333333333,4,1,0,100,0,1
66701,-83.3333333333333,4,1,0,100,0,1
66721,-83.3333333333333,4,1,0,100,0,0
66794,-90.9090909090909,4,1,0,100,0,0
68951,-90.9090909090909,4,1,0,100,0,0
69044,-89.8980645845676,4,1,0,100,0,0
69138,-88.9092787501489,4,1,0,100,0,0
69232,-87.9420075225593,4,1,0,100,0,0
69326,-86.9954805847836,4,1,0,100,0,0
69419,-86.0691858543572,4,1,0,100,0,0
69513,-85.1624089720301,4,1,0,100,0,0
69607,-84.274539481779,4,1,0,100,0,0
69701,-83.3333333333333,4,1,0,100,0,0
69721,-83.3333333333333,4,1,0,100,0,1
74951,-86.9565217391304,4,1,0,100,0,1
74971,-86.9565217391304,4,1,0,100,0,0
75701,-83.3333333333333,4,1,0,100,0,0
75721,-83.3333333333333,4,1,0,100,0,1
78794,-90.9090909090909,4,1,0,100,0,1
80951,-90.9090909090909,4,1,0,100,0,1
81044,-90.4007101879792,4,1,0,100,0,1
81138,-89.8980645845676,4,1,0,100,0,1
81232,-89.4008977638153,4,1,0,100,0,1
81326,-88.9092787501489,4,1,0,100,0,1
81419,-88.422958844418,4,1,0,100,0,1
81513,-87.9420075225593,4,1,0,100,0,1
81607,-87.4661833868481,4,1,0,100,0,1
81701,-86.9954805847836,4,1,0,100,0,1
81721,-86.9954805847836,4,1,0,100,0,0
96721,375,4,1,0,60,1,8
96851,333.333333333333,4,1,0,60,1,0
98164,-111.111111111111,4,1,0,30,0,0
98331,-110.346775777559,4,1,0,32,0,0
98497,-109.592884353205,4,1,0,35,0,0
98831,-108.115705427949,4,1,0,37,0,0
98997,-107.391891267858,4,1,0,39,0,0
99164,-106.677704253133,4,1,0,42,0,0
99497,-105.277564298272,4,1,0,44,0,0
99664,-104.591132345435,4,1,0,46,0,0
99831,-103.91359376851,4,1,0,48,0,0
99997,-103.244883441689,4,1,0,51,0,0
100331,-101.932746812308,4,1,0,53,0,0
100497,-101.28910645789,4,1,0,55,0,0
100664,-100.653644769131,4,1,0,58,0,0
100831,-100.026006761758,4,1,0,60,0,0
107497,-86.9565217391304,4,1,0,100,0,0
107517,-86.9565217391304,4,1,0,100,0,1
115497,-86.9565217391304,4,1,0,100,0,1
115517,-86.9565217391304,4,1,0,100,0,0
115830,-95.2380952380952,4,1,0,90,0,0
117830,-92.3465915334798,4,1,0,90,0,0
117914,-90.9657377548746,4,1,0,90,0,0
117997,-89.6255712509848,4,1,0,90,0,0
118080,-88.3242418247082,4,1,0,90,0,0
118164,-86.9565217391304,4,1,0,100,0,0
118184,-86.9565217391304,4,1,0,100,0,1
128830,-86.9565217391304,4,1,0,100,0,1
128850,-86.9565217391304,4,1,0,100,0,0
128997,-95.2380952380952,4,1,0,80,0,0
138830,-97.0873786407767,4,1,0,80,0,0
138997,-99.009900990099,4,1,0,80,0,0
139164,-101.010101010101,4,1,0,80,0,0
139414,-105.263157894737,4,1,0,50,0,0
144850,333.333333333333,4,1,0,60,1,8
145014,333.333333333333,4,1,0,60,1,0
147660,-125,4,1,0,30,0,0
147827,-124.033469191327,4,1,0,33,0,0
147994,-123.081770605119,4,1,0,36,0,0
148160,-122.144714614982,4,1,0,39,0,0
148327,-121.221672010522,4,1,0,42,0,0
148660,-119.416816037201,4,1,0,45,0,0
148827,-118.534533851092,4,1,0,48,0,0
148994,-117.665054655418,4,1,0,51,0,0
149077,-117.235080956685,4,1,0,54,0,0
149160,-116.808238251427,4,1,0,56,0,0
149327,-115.963810014171,4,1,0,59,0,0
149660,-114.31118935077,4,1,0,62,0,0
149744,-113.905335553728,4,1,0,65,0,0
149827,-113.502353471299,4,1,0,68,0,0
149994,-112.704883389892,4,1,0,71,0,0
150160,-111.918666466705,4,1,0,74,0,0
150244,-111.529594935664,4,1,0,77,0,0
150327,-111.1432191522,4,1,0,80,0,0
152827,-107.181136120043,4,1,0,80,0,0
152910,-103.51966873706,4,1,0,80,0,0
152994,-100,4,1,0,90,0,0
155660,-90.9090909090909,4,1,0,95,0,0
155680,-90.9090909090909,4,1,0,95,0,1
165493,-90.9090909090909,4,1,0,95,0,1
165660,-89.2988699228011,4,1,0,95,0,1
165743,-88.515001522458,4,1,0,95,0,1
165827,-87.7447750180096,4,1,0,95,0,1
165910,-86.9877616918076,4,1,0,95,0,1
165993,-86.243773199575,4,1,0,95,0,1
166077,-85.5124031465144,4,1,0,95,0,1
166160,-84.7932613099372,4,1,0,95,0,1
166243,-84.0861849761531,4,1,0,95,0,1
166327,-83.3907339552058,4,1,0,95,0,1
166493,-90.9774066708274,4,1,0,95,0,1
174160,-86.9565217391304,4,1,0,95,0,1
176993,-86.9565217391304,4,1,0,95,0,1
177013,-86.9565217391304,4,1,0,95,0,0
177160,-100,4,1,0,85,0,0
203680,333.333333333333,4,1,0,60,1,8
203863,333.333333333333,4,1,0,60,1,0
206506,-125,4,1,0,35,0,0
206843,-122.648972508233,4,1,0,38,0,0
207176,-120.384604735208,4,1,0,41,0,0
207343,-119.283487944614,4,1,0,43,0,0
207509,-118.202471377272,4,1,0,46,0,0
207676,-117.140735222111,4,1,0,49,0,0
207843,-116.097903039675,4,1,0,52,0,0
208176,-114.067096547531,4,1,0,54,0,0
208509,-112.1059894867,4,1,0,57,0,0
208676,-111.150507791095,4,1,0,60,0,0
209009,-100,4,1,0,80,0,0
214676,-97.5609756097561,4,1,0,80,0,0
214843,-96.3855421686747,4,1,0,80,0,0
214926,-95.8083832335329,4,1,0,80,0,0
215009,-95.2380952380952,4,1,0,80,0,0
215176,-94.1176470588235,4,1,0,80,0,0
215343,-93.0232558139535,4,1,0,80,0,0
215509,-91.9540229885058,4,1,0,80,0,0
215676,-90.9090909090909,4,1,0,80,0,0
217176,-86.9565217391304,4,1,0,100,0,0
217196,-86.9565217391304,4,1,0,100,0,1
226676,-86.0215053763441,4,1,0,100,0,1
226759,-85.5614973262032,4,1,0,100,0,1
226842,-85.1063829787234,4,1,0,100,0,1
226926,-84.6560846560847,4,1,0,100,0,1
227009,-84.2105263157895,4,1,0,100,0,1
227092,-83.7696335078534,4,1,0,100,0,1
227176,-83.3333333333333,4,1,0,100,0,1
227259,-82.9015544041451,4,1,0,100,0,1
227342,-82.4742268041237,4,1,0,100,0,1
227426,-82.0512820512821,4,1,0,100,0,1
227509,-81.6326530612245,4,1,0,100,0,1
227592,-81.2182741116751,4,1,0,100,0,1
227676,-80.8080808080808,4,1,0,100,0,1
227759,-80.4020100502513,4,1,0,100,0,1
227842,-80,4,1,0,100,0,1
227926,-86.9565217391304,4,1,0,100,0,1
238509,-86.9565217391304,4,1,0,100,0,1
238529,-86.9565217391304,4,1,0,100,0,0
238592,-95.2380952380952,4,1,0,100,0,0
249009,-96.7527830938057,4,1,0,100,0,0
249176,-98.3165261231926,4,1,0,90,0,0
249342,-99.9315468903801,4,1,0,80,0,0
257196,333.333333333333,4,1,0,60,1,8
257279,333.333333333333,4,1,0,60,1,0
259925,-142.857142857143,4,1,0,30,0,0
260092,-140.357180954092,4,1,0,32,0,0
260259,-137.943401822232,4,1,0,35,0,0
260425,-135.61105664067,4,1,0,37,0,0
260759,-131.175410382271,4,1,0,39,0,0
260925,-129.064732416544,4,1,0,42,0,0
261092,-127.020741216833,4,1,0,44,0,0
261425,-123.121170931584,4,1,0,46,0,0
261592,-121.259890259799,4,1,0,48,0,0
261759,-119.45390453005,4,1,0,51,0,0
261925,-117.701062840597,4,1,0,53,0,0
262092,-115.99878433274,4,1,0,55,0,0
262259,-114.345173776078,4,1,0,58,0,0
262592,-111.111111111111,4,1,0,60,0,0
265259,-90.9090909090909,4,1,0,90,0,0
268092,-95.2380952380952,4,1,0,90,0,0
268259,-100,4,1,0,90,0,0
272925,-98.0392156862745,4,1,0,90,0,0
273009,-96.1538461538461,4,1,0,90,0,0
273092,-94.3396226415094,4,1,0,90,0,0
273175,-92.5925925925926,4,1,0,90,0,0
273259,-90.9090909090909,4,1,0,90,0,0
277342,-111.111111111111,4,1,0,90,0,0
279592,-105.263157894737,4,1,0,90,0,0
279925,-83.3333333333333,4,1,0,100,0,0
279945,-83.3333333333333,4,1,0,100,0,1
300592,-100,4,1,0,100,0,1
301175,-83.3333333333333,4,1,0,100,0,1
301258,-83.3333333333333,4,1,0,100,0,1
301278,-83.3333333333333,4,1,0,100,0,0
301342,-100,4,1,0,90,0,0
317278,333.333333333333,4,1,0,60,1,8
317332,333.333333333333,4,1,0,60,1,0
319978,-142.857142857143,4,1,0,30,0,0
320311,-137.943401822232,4,1,0,33,0,0
320645,-133.356448451065,4,1,0,35,0,0
320978,-129.064732416544,4,1,0,38,0,0
321145,-127.020741216833,4,1,0,41,0,0
321478,-123.121170931584,4,1,0,44,0,0
321645,-121.259890259799,4,1,0,46,0,0
321811,-119.45390453005,4,1,0,49,0,0
321978,-117.701062840597,4,1,0,52,0,0
322311,-114.345173776078,4,1,0,55,0,0
322478,-112.737919286414,4,1,0,57,0,0
322645,-111.111111111111,4,1,0,60,0,0
325228,-100,4,1,0,90,0,0
328145,-111.111111111111,4,1,0,85,0,0
338478,-109.89010989011,4,1,0,85,0,0
338562,-100,4,1,0,90,0,0
341645,-100,4,1,0,90,0,0
343978,-86.9565217391304,4,1,0,100,0,0
343998,-86.9565217391304,4,1,0,100,0,1
365311,-86.9565217391304,4,1,0,100,0,1
365331,-86.9565217391304,4,1,0,100,0,0
367811,-100,4,1,0,90,0,0
394665,333.333333333333,4,1,0,60,1,8
394854,333.333333333333,4,1,0,60,1,0
397498,-153.846153846154,4,1,0,30,0,0
397832,-146.80644597743,4,1,0,32,0,0
397998,-143.52288400624,4,1,0,35,0,0
398332,-137.377356365105,4,1,0,37,0,0
398498,-134.497905867606,4,1,0,39,0,0
398832,-129.086391067222,4,1,0,42,0,0
398998,-126.540632196998,4,1,0,44,0,0
399165,-124.093497004383,4,1,0,46,0,0
399332,-121.739066918748,4,1,0,48,0,0
399665,-117.28870732597,4,1,0,51,0,0
399832,-115.183221951158,4,1,0,53,0,0
399998,-113.152123978519,4,1,0,55,0,0
400082,-112.163201945359,4,1,0,58,0,0
400165,-111.191292387511,4,1,0,60,0,0
402833,-90.962758936864,4,1,0,80,0,0
405667,-100,4,1,0,75,0,0
410833,-90.9090909090909,4,1,0,80,0,0
417500,-86.9565217391304,4,1,0,100,0,0
417520,-86.9565217391304,4,1,0,100,0,1
438167,-90.9090909090909,4,1,0,100,0,1
438187,-90.9090909090909,4,1,0,100,0,0
438833,-100,4,1,0,90,0,0
454853,333.333333333333,4,1,0,60,1,8
455001,324.324324324324,4,1,0,60,1,0
456278,-153.846153846154,4,1,0,30,0,0
456602,-146.788990825688,4,1,0,34,0,0
457143,-136.363698347136,4,1,0,38,0,0
457251,-134.453781512605,4,1,0,41,0,0
457575,-129.032258064516,4,1,0,45,0,0
457899,-124.031007751938,4,1,0,49,0,0
458440,-116.504899613553,4,1,0,52,0,0
458548,-115.107913669065,4,1,0,56,0,0
458872,-111.111111111111,4,1,0,60,0,0
465467,-133.333333333333,4,1,0,60,0,0
466546,-111.111111111111,4,1,0,60,0,0
466870,-108.549464362668,4,1,0,60,0,0
466979,-107.721591392614,4,1,0,60,0,0
467303,-105.312155760891,4,1,0,60,0,0
467953,-90.9090909090909,4,1,0,100,0,0
467973,-90.9090909090909,4,1,0,100,0,1
477897,-79.3650793650794,4,1,0,100,0,1
478005,-81.9672131147541,4,1,0,100,0,1
478116,-84.7457627118644,4,1,0,100,0,1
478222,-87.719298245614,4,1,0,100,0,1
478330,-90.9090909090909,4,1,0,100,0,1
483087,-79.3650793650794,4,1,0,100,0,1
483195,-81.9672131147541,4,1,0,100,0,1
483306,-84.7457627118644,4,1,0,100,0,1
483412,-87.719298245614,4,1,0,100,0,1
483520,-90.9090909090909,4,1,0,100,0,1
488276,-79.3650793650794,4,1,0,100,0,1
488384,-81.9672131147541,4,1,0,100,0,1
488493,-84.7457627118644,4,1,0,100,0,1
488601,-87.719298245614,4,1,0,100,0,1
488709,-90.9090909090909,4,1,0,100,0,1
493463,-79.3650793650794,4,1,0,100,0,1
493571,-81.9672131147541,4,1,0,100,0,1
493682,-84.7457627118644,4,1,0,100,0,1
493788,-87.719298245614,4,1,0,100,0,1
493896,-90.9090909090909,4,1,0,100,0,1
494760,-79.3650793650794,4,1,0,100,0,1
494868,-81.9672131147541,4,1,0,100,0,1
494979,-84.7457627118644,4,1,0,100,0,1
495085,-87.719298245614,4,1,0,100,0,1
495193,-90.9090909090909,4,1,0,100,0,1
496494,-100,4,1,0,75,0,1
496514,-100,4,1,0,75,0,0
496816,-101.081368479999,4,1,0,75,0,0
497033,-101.815471675445,4,1,0,75,0,0
497141,-102.18648420248,4,1,0,75,0,0
497357,-102.936680559687,4,1,0,75,0,0
497465,-103.315924600038,4,1,0,75,0,0
497682,-104.082858281821,4,1,0,75,0,0
497790,-104.470610850109,4,1,0,75,0,0
498114,-105.651510605299,4,1,0,75,0,0
498330,-106.453645824462,4,1,0,75,0,0
498438,-106.859298361847,4,1,0,75,0,0
498654,-107.679949347352,4,1,0,75,0,0
498762,-108.095136691705,4,1,0,75,0,0
498978,-108.934953849707,4,1,0,75,0,0
499087,-109.359775068815,4,1,0,75,0,0
499411,-110.654354525486,4,1,0,75,0,0
499627,-111.534695097604,4,1,0,75,0,0
499735,-111.980076504788,4,1,0,75,0,0
499951,-112.881596236076,4,1,0,75,0,0
500060,-113.337821511065,4,1,0,75,0,0
500276,-114.26142557125,4,1,0,75,0,0
500384,-114.728895619651,4,1,0,75,0,0
500708,-116.154676213032,4,1,0,75,0,0
500924,-117.124957102984,4,1,0,75,0,0
501033,-117.647058823529,4,1,0,75,0,0
501249,-105.263157894737,4,1,0,75,0,0
501357,-100,4,1,0,75,0,0
502006,-101.081368479999,4,1,0,75,0,0
502223,-101.815471675445,4,1,0,75,0,0
502331,-102.18648420248,4,1,0,75,0,0
502547,-102.936680559687,4,1,0,75,0,0
502655,-103.315924600038,4,1,0,75,0,0
502872,-104.082858281821,4,1,0,75,0,0
502980,-104.470610850109,4,1,0,75,0,0
503304,-105.651510605299,4,1,0,75,0,0
503520,-106.453645824462,4,1,0,75,0,0
503628,-106.859298361847,4,1,0,75,0,0
503844,-107.679949347352,4,1,0,75,0,0
503952,-108.095136691705,4,1,0,75,0,0
504168,-108.934953849707,4,1,0,75,0,0
504277,-109.359775068815,4,1,0,75,0,0
504601,-110.654354525486,4,1,0,75,0,0
504817,-111.534695097604,4,1,0,75,0,0
504925,-111.980076504788,4,1,0,75,0,0
505141,-112.881596236076,4,1,0,75,0,0
505250,-113.337821511065,4,1,0,75,0,0
505465,-100,4,1,0,75,0,0
507217,-100,4,1,0,40,0,0
512082,324.324324324324,4,1,0,60,1,8
512160,315.789473684211,4,1,0,60,1,0
513403,-142.857142857143,4,1,0,30,0,0
513561,-139.999944000022,4,1,0,33,0,0
513718,-137.254982699009,4,1,0,36,0,0
514034,-132.075446778218,4,1,0,39,0,0
514350,-127.272773553736,4,1,0,42,0,0
514666,-122.806974453693,4,1,0,45,0,0
514824,-120.68971759813,4,1,0,48,0,0
514982,-118.644087905778,4,1,0,51,0,0
515140,-116.666647222225,4,1,0,54,0,0
515297,-114.754041924242,4,1,0,57,0,0
515613,-111.111111111111,4,1,0,60,0,0
515771,-100,4,1,0,100,0,0
517192,-90.9090909090909,4,1,0,100,0,0
522245,-80,4,1,0,100,0,0
522265,-80,4,1,0,100,0,1
522403,-86.9565217391304,4,1,0,100,0,1
531087,-83.3333333333333,4,1,0,100,0,1
532023,-82.6446280991736,4,1,0,100,0,1
532111,-81.9672131147541,4,1,0,100,0,1
532190,-81.3008130081301,4,1,0,100,0,1
532269,-80.6451612903226,4,1,0,100,0,1
532348,-80,4,1,0,100,0,1
532429,-86.9565217391304,4,1,0,100,0,1
544982,-90.9090909090909,4,1,0,100,0,1
545002,-90.9090909090909,4,1,0,100,0,0
550034,-83.3333333333333,4,1,0,100,0,0
552403,-86.9565217391304,4,1,0,100,0,0
556271,-100,4,1,0,100,0,0
557297,-90.9090909090909,4,1,0,100,0,0
562686,315.789473684211,4,1,0,60,1,8
562862,315.789473684211,4,1,0,60,1,0
565368,-153.846153846154,4,1,0,30,0,0
565684,-146.788990825688,4,1,0,32,0,0
565842,-143.497757847534,4,1,0,34,0,0
565999,-140.350877192982,4,1,0,36,0,0
566315,-134.453781512605,4,1,0,39,0,0
566473,-131.687242798354,4,1,0,41,0,0
566631,-129.032258064516,4,1,0,43,0,0
566789,-125.786163522013,4,1,0,43,0,0
566947,-124.031007751938,4,1,0,45,0,0
567105,-121.673003802281,4,1,0,47,0,0
567263,-119.402985074627,4,1,0,49,0,0
567420,-117.216117216117,4,1,0,51,0,0
567578,-115.107913669065,4,1,0,54,0,0
567736,-113.074204946996,4,1,0,56,0,0
567815,-112.084000233135,4,1,0,58,0,0
567894,-111.111111111111,4,1,0,60,0,0
570105,-107.142895408177,4,1,0,60,0,0
570184,-105.263157894737,4,1,0,60,0,0
570263,-103.448240190262,4,1,0,60,0,0
570342,-101.694949727102,4,1,0,60,0,0
570420,-100,4,1,0,80,0,0
575473,-86.9565217391304,4,1,0,100,0,0
575493,-86.9565217391304,4,1,0,100,0,1
595684,-86.9565217391304,4,1,0,100,0,1
595704,-86.9565217391304,4,1,0,100,0,0
595842,-100,4,1,0,100,0,0
597894,-93.090194158218,4,1,0,100,0,0
598052,-89.9814638184534,4,1,0,100,0,0
598131,-88.5036423674016,4,1,0,100,0,0
598210,-87.0735789156553,4,1,0,100,0,0
608473,-95.2380952380952,4,1,0,100,0,0
617789,-111.111111111111,4,1,0,100,0,0
618263,-90.9090909090909,4,1,0,100,0,0
618736,-142.857142857143,4,1,0,40,0,0
620473,-138.888888888889,4,1,0,40,0,0
620552,-140.845070422535,4,1,0,40,0,0
620631,-142.857142857143,4,1,0,40,0,0
620789,-90.9090909090909,4,1,0,100,0,0
626019,315.789473684211,4,1,0,60,1,8
626164,307.692307692308,4,1,0,60,1,0
627067,-166.666666666667,4,1,0,30,0,0
627682,-153.846153846154,4,1,0,30,0,0
627990,-146.679613587226,4,1,0,34,0,0
628144,-143.341021190103,4,1,0,38,0,0
628297,-140.151026746422,4,1,0,41,0,0
628605,-134.178838923671,4,1,0,45,0,0
628913,-128.69482852701,4,1,0,49,0,0
629220,-123.641489138095,4,1,0,52,0,0
629374,-121.260772503877,4,1,0,56,0,0
629528,-118.970005282268,4,1,0,60,0,0
629836,-114.638670374846,4,1,0,80,0,0
629990,-112.589156538334,4,1,0,80,0,0
630067,-111.5915748361,4,1,0,80,0,0
630144,-110.611638114116,4,1,0,80,0,0
630220,-109.648641891922,4,1,0,80,0,0
630297,-108.702386995716,4,1,0,80,0,0
630374,-107.772208349544,4,1,0,80,0,0
630451,-106.85792811026,4,1,0,80,0,0
630528,-105.958917608465,4,1,0,80,0,0
630605,-105.075018309322,4,1,0,80,0,0
630682,-104.205635232342,4,1,0,80,0,0
630759,-103.350627338308,4,1,0,80,0,0
630836,-102.50943086764,4,1,0,80,0,0
630913,-101.681920649463,4,1,0,80,0,0
630990,-100.867561899901,4,1,0,80,0,0
631067,-100.066243853431,4,1,0,80,0,0
636297,-117.647058823529,4,1,0,60,0,0
636605,-118.916527732523,4,1,0,60,0,0
636913,-120.213547345505,4,1,0,60,0,0
637067,-120.872798301979,4,1,0,60,0,0
637220,-121.539319793043,4,1,0,60,0,0
637528,-122.89466084146,4,1,0,60,0,0
637836,-124.280570845518,4,1,0,60,0,0
638144,-125.697937799632,4,1,0,60,0,0
638297,-126.418894062231,4,1,0,60,0,0
638451,-127.148168303487,4,1,0,60,0,0
638759,-128.63225325118,4,1,0,60,0,0
639067,-130.15139209929,4,1,0,60,0,0
639374,-131.706668176903,4,1,0,60,0,0
639682,-133.2997417984,4,1,0,60,0,0
640913,-90.9090909090909,4,1,0,100,0,0
640933,-90.9090909090909,4,1,0,100,0,1
662451,-100,4,1,0,80,0,1
663067,-90.9090909090909,4,1,0,100,0,1
663087,-90.9090909090909,4,1,0,100,0,0
663220,-100,4,1,0,90,0,0
677856,307.692307692308,4,1,0,60,1,8
678130,300,4,1,0,60,1,0
678410,-153.846153846154,4,1,0,30,0,0
679460,-153.846153846154,4,1,0,32,0,0
679610,-151.320269350079,4,1,0,33,0,0
679910,-146.5094132298,4,1,0,35,0,0
680060,-144.21690222094,4,1,0,36,0,0
680210,-141.995030173944,4,1,0,38,0,0
680510,-137.750723535675,4,1,0,39,0,0
680810,-133.752603160039,4,1,0,41,0,0
681110,-129.980022070608,4,1,0,43,0,0
681260,-128.172427803676,4,1,0,44,0,0
681410,-126.414419334327,4,1,0,46,0,0
681560,-124.703983918174,4,1,0,47,0,0
681860,-121.418311581243,4,1,0,49,0,0
682010,-119.839702414051,4,1,0,51,0,0
682310,-116.802235127571,4,1,0,52,0,0
682460,-115.340519816655,4,1,0,54,0,0
682610,-113.914937437916,4,1,0,55,0,0
682760,-112.52416456434,4,1,0,57,0,0
682835,-111.841435686142,4,1,0,58,0,0
682910,-111.166941619569,4,1,0,60,0,0
686210,-111.111111111111,4,1,0,60,0,0
686360,-109.895061206054,4,1,0,60,0,0
686510,-108.705459296871,4,1,0,60,0,0
686660,-107.541220549837,4,1,0,60,0,0
686810,-106.401768823005,4,1,0,60,0,0
686960,-105.286099181611,4,1,0,60,0,0
687035,-104.737047169377,4,1,0,60,0,0
687110,-104.193691905505,4,1,0,60,0,0
687260,-103.123614276433,4,1,0,60,0,0
687410,-102.075396971219,4,1,0,60,0,0
687560,-101.048172695369,4,1,0,60,0,0
687710,-100,4,1,0,100,0,0
688610,-100,4,1,0,100,0,0
688910,-97.0990682373412,4,1,0,100,0,0
689060,-95.7109071192644,4,1,0,100,0,0
689135,-95.0315599810697,4,1,0,100,0,0
689210,-94.3617887598124,4,1,0,100,0,0
689360,-93.0501754461058,4,1,0,100,0,0
689510,-91.7745246767931,4,1,0,100,0,0
689660,-90.5334593559087,4,1,0,100,0,0
689810,-89.3254322011037,4,1,0,100,0,0
689960,-88.1492189979197,4,1,0,100,0,0
690110,-87.0035793272535,4,1,0,100,0,0
690260,-100,4,1,0,100,0,0
691272,-97.0990682373412,4,1,0,100,0,0
691422,-95.7109071192644,4,1,0,100,0,0
691497,-95.0315599810697,4,1,0,100,0,0
691572,-94.3617887598124,4,1,0,100,0,0
691722,-93.0501754461058,4,1,0,100,0,0
691872,-91.7745246767931,4,1,0,100,0,0
692022,-90.5334593559087,4,1,0,100,0,0
692172,-89.3254322011037,4,1,0,100,0,0
692322,-88.1492189979197,4,1,0,100,0,0
692397,-87.719298245614,4,1,0,100,0,0
692472,-87.0035793272535,4,1,0,100,0,0
692660,-100,4,1,0,100,0,0
693672,-97.0990682373412,4,1,0,100,0,0
693822,-95.7109071192644,4,1,0,100,0,0
693897,-95.0315599810697,4,1,0,100,0,0
693972,-94.3617887598124,4,1,0,100,0,0
694122,-93.0501754461058,4,1,0,100,0,0
694272,-91.7745246767931,4,1,0,100,0,0
694422,-90.5334593559087,4,1,0,100,0,0
694610,-89.2857142857143,4,1,0,100,0,0
694685,-88.703832981327,4,1,0,100,0,0
694760,-88.1294868925014,4,1,0,100,0,0
694835,-87.5625305921591,4,1,0,100,0,0
694910,-87.0028223715577,4,1,0,100,0,0
695060,-90.9090909090909,4,1,0,100,0,0
697460,-100,4,1,0,100,0,0
699635,-86.9565217391304,4,1,0,100,0,0
701135,-33.3333333333333,4,1,0,70,0,0
701960,-86.9565217391304,4,1,0,100,0,0
701980,-86.9565217391304,4,1,0,100,0,1
710960,-86.9565217391304,4,1,0,100,0,1
711110,-86.0310520479262,4,1,0,100,0,1
711185,-85.5756287455383,4,1,0,100,0,1
711260,-85.1250742716273,4,1,0,100,0,1
711335,-84.6791675699111,4,1,0,100,0,1
711410,-84.2379790297975,4,1,0,100,0,1
711485,-83.8012937243725,4,1,0,100,0,1
711560,-83.3691125774812,4,1,0,100,0,1
711635,-86.9565217391304,4,1,0,100,0,1
722210,-100,4,1,0,100,0,1
722380,-100,4,1,0,100,0,0
748930,300,4,1,0,60,1,8
749073,300,4,1,0,60,1,0
749073,-142.857142857143,4,1,0,60,0,0
749353,-142.857142857143,4,1,0,30,0,0
749953,-132.105108108215,4,1,0,30,0,0
750103,-129.665191509005,4,1,0,34,0,0
750403,-125.046423484719,4,1,0,39,0,0
750553,-122.858122211888,4,1,0,43,0,0
751003,-116.73010948117,4,1,0,47,0,0
751153,-114.821108712626,4,1,0,51,0,0
751303,-112.973542726029,4,1,0,56,0,0
751453,-111.184369256632,4,1,0,60,0,0
753853,-100,4,1,0,80,0,0
756253,-100,4,1,0,80,0,0
756403,-98.7717730027113,4,1,0,80,0,0
756478,-98.1688563230069,4,1,0,80,0,0
756553,-97.5733507664387,4,1,0,80,0,0
756703,-96.4035684744906,4,1,0,80,0,0
756778,-95.8292246553262,4,1,0,80,0,0
756853,-95.261593097726,4,1,0,80,0,0
756928,-94.7006465213138,4,1,0,80,0,0
757003,-94.1463561594312,4,1,0,80,0,0
757078,-93.5984290439669,4,1,0,80,0,0
757153,-93.0569294377221,4,1,0,80,0,0
757228,-92.5215737179517,4,1,0,80,0,0
757303,-91.9923425574055,4,1,0,80,0,0
757378,-91.4692151209589,4,1,0,80,0,0
757453,-90.9519209955233,4,1,0,80,0,0
758653,-86.9565217391304,4,1,0,100,0,0
758673,-86.9565217391304,4,1,0,100,0,1
776653,-86.9565217391304,4,1,0,100,0,1
776673,-86.9565217391304,4,1,0,100,0,0
776953,-88.8786184707545,4,1,0,100,0,0
777253,-90.8876909891216,4,1,0,100,0,0
777553,-92.9896065516757,4,1,0,100,0,0
777703,-94.0775368242998,4,1,0,100,0,0
777778,-94.6310147472973,4,1,0,100,0,0
777853,-95.1911342785178,4,1,0,100,0,0
778003,-80,4,1,0,100,0,0
778303,-100,4,1,0,100,0,0
782823,-80,4,1,0,100,0,0
783123,-100,4,1,0,100,0,0
794673,300,4,1,0,60,1,8
794768,285.714285714286,4,1,0,60,1,0
795748,-133.333333333333,4,1,0,30,0,0
795890,-130.434725897945,4,1,0,35,0,0
796176,-125,4,1,0,40,0,0
796319,-122.448929612682,4,1,0,45,0,0
796605,-117.647058823529,4,1,0,50,0,0
796890,-113.207589889657,4,1,0,55,0,0
797033,-111.111111111111,4,1,0,60,0,0
799319,-105.263157894737,4,1,0,60,0,0
803890,-83.3333333333333,4,1,0,100,0,0
804033,-84.2082571248606,4,1,0,100,0,0
804319,-86.0143282668027,4,1,0,100,0,0
804462,-86.9466929825324,4,1,0,100,0,0
804748,-88.873484151636,4,1,0,100,0,0
804891,-89.8693030725416,4,1,0,100,0,0
805176,-91.9293394325386,4,1,0,100,0,0
805319,-92.9951410038825,4,1,0,100,0,0
805605,-95.2027342225269,4,1,0,100,0,0
805748,-96.3463535795561,4,1,0,100,0,0
806033,-98.7179499835635,4,1,0,100,0,0
806176,-99.9481269221274,4,1,0,100,0,0
806748,-124.918958825462,4,1,0,60,0,0
807890,-166.522624596391,4,1,0,50,0,0
808176,-156.25,4,1,0,50,0,0
808248,-158.730158730159,4,1,0,50,0,0
808319,-161.290322580645,4,1,0,50,0,0
808390,-163.934426229508,4,1,0,50,0,0
808462,-166.522624596391,4,1,0,50,0,0
810748,-100,4,1,0,90,0,0
813319,-76.9230769230769,4,1,0,100,0,0
813339,-76.9230769230769,4,1,0,100,0,1
813462,-86.9565217391304,4,1,0,100,0,1
837890,-90.9090909090909,4,1,0,100,0,1
838033,-95.2380952380952,4,1,0,100,0,1
838176,-95.2380952380952,4,1,0,50,0,1
838196,315.789473684211,4,1,0,50,1,0
838511,352.941176470588,4,1,0,50,1,8
838863,375,4,1,0,50,1,8
839238,428.571428571429,4,1,0,50,1,8
839666,387.096774193548,4,1,0,50,1,0
839666,-110.717449069973,4,1,0,50,0,0
840440,504.201680672269,4,1,0,40,1,8
840440,-84.9978750531237,4,1,0,40,0,0
841428,-84.9978750531237,4,1,0,30,0,0
841448,504.201680672269,4,1,0,30,1,0
844473,285.714285714286,4,1,0,50,1,8
845047,285.714285714286,4,1,0,60,1,0
856741,-76.9230769230769,4,1,0,100,0,0
856761,-76.9230769230769,4,1,0,100,0,1
856884,-86.9565217391304,4,1,0,100,0,1
863169,-85.4700854700855,4,1,0,100,0,1
865455,-83.3333333333333,4,1,0,100,0,1
865598,-86.9565217391304,4,1,0,100,0,1
865618,-86.9565217391304,4,1,0,100,0,0
867239,-90.0900900900901,4,1,0,60,0,0
867310,-93.4579439252336,4,1,0,60,0,0
867382,-97.0873786407767,4,1,0,60,0,0
867453,-101.010101010101,4,1,0,60,0,0
867884,-111.111111111111,4,1,0,50,0,0
868455,-117.647058823529,4,1,0,42,0,0
869027,-125,4,1,0,35,0,0
869598,-133.333333333333,4,1,0,28,0,0
870169,-142.857142857143,4,1,0,20,0,0
871084,272.727272727273,4,1,0,60,1,0
873245,-153.846153846154,4,1,0,30,0,0
873382,-148.176685880244,4,1,0,36,0,0
873654,-138.005081347095,4,1,0,42,0,0
873791,-133.425485868907,4,1,0,48,0,0
874064,-125.121524280457,4,1,0,54,0,0
874336,-117.79062480859,4,1,0,60,0,0
878632,-117.647058823529,4,1,0,75,0,0
878768,-100,4,1,0,100,0,0
880950,-125,4,1,0,50,0,0
887291,-95.2380952380952,4,1,0,100,0,0
889677,-111.111111111111,4,1,0,75,0,0
895677,-111.111111111111,4,1,0,100,0,0
897382,-111.111111111111,4,1,0,100,0,0
897518,-106.870261639775,4,1,0,100,0,0
897586,-104.868960989795,4,1,0,100,0,0
897654,-102.941131055383,4,1,0,100,0,0
897723,-101.083003297328,4,1,0,100,0,0
897791,-99.2907660580474,4,1,0,100,0,0
897859,-97.5609756097561,4,1,0,100,0,0
897927,-95.8904240945786,4,1,0,100,0,0
897995,-94.2761196703353,4,1,0,100,0,0
898064,-92.7152686285836,4,1,0,100,0,0
898132,-91.2051760761527,4,1,0,100,0,0
898200,-89.7435667324188,4,1,0,100,0,0
898268,-88.3280645642821,4,1,0,100,0,0
898336,-86.9565217391304,4,1,0,100,0,0
898356,-86.9565217391304,4,1,0,100,0,1
915791,-86.9565217391304,4,1,0,100,0,1
915811,-86.9565217391304,4,1,0,100,0,0
915927,-95.2380952380952,4,1,0,100,0,0
933382,-90.9090909090909,4,1,0,100,0,0
941973,-90.9090909090909,4,1,0,100,0,0
941993,-90.9090909090909,4,1,0,100,0,1
942041,-86.9565217391304,4,1,0,100,0,1
947427,-86.9565217391304,4,1,0,100,0,1
947447,-86.9565217391304,4,1,0,100,0,0
947973,-142.857142857143,4,1,0,100,0,0
948382,-100,4,1,0,100,0,0
949541,-90.9090909090909,4,1,0,100,0,0
949745,-76.9230769230769,4,1,0,100,0,0
950018,-100,4,1,0,100,0,0
950720,272.727272727273,4,1,0,60,1,8
951391,272.727272727273,4,1,0,60,1,0
951916,-125,4,1,0,60,0,0
953552,-100,4,1,0,90,0,0
958189,-76.9230769230769,4,1,0,100,0,0
958209,-76.9230769230769,4,1,0,100,0,1
958345,-81.6326530612245,4,1,0,100,0,1
958413,-84.2105263157895,4,1,0,100,0,1
958481,-86.9565217391304,4,1,0,100,0,1
973052,-86.9565217391304,4,1,0,100,0,1
973072,-86.9565217391304,4,1,0,100,0,0
975302,-95.2380952380952,4,1,0,100,0,0
983893,-90.9090909090909,4,1,0,100,0,0
986416,-95.2380952380952,4,1,0,100,0,0
986552,-97.0873786407767,4,1,0,100,0,0
986825,-100,4,1,0,100,0,0

[HitObjects]
256,192,1787,5,0,0:0:0:0:
256,192,2001,1,8,0:0:0:0:
256,192,2215,1,0,0:0:0:0:
256,192,2430,1,0,0:0:0:0:
256,192,2537,1,0,0:0:0:0:
256,192,2644,1,8,0:0:0:0:
256,192,2858,1,0,0:0:0:0:
256,192,3073,1,8,0:0:0:0:
256,192,3501,1,0,0:0:0:0:
256,192,3715,1,8,0:0:0:0:
256,192,3930,1,0,0:0:0:0:
256,192,4144,1,8,0:0:0:0:
256,192,4251,1,0,0:0:0:0:
256,192,4358,1,0,0:0:0:0:
256,192,4573,1,8,0:0:0:0:
256,192,4787,1,8,0:0:0:0:
256,192,5001,1,0,0:0:0:0:
256,192,5430,1,0,0:0:0:0:
256,192,5644,1,8,0:0:0:0:
256,192,5858,1,0,0:0:0:0:
256,192,5965,1,8,0:0:0:0:
256,192,6073,1,0,0:0:0:0:
256,192,6180,1,0,0:0:0:0:
256,192,6287,1,8,0:0:0:0:
256,192,6501,1,8,0:0:0:0:
256,192,6715,1,8,0:0:0:0:
256,96,6930,1,4,0:0:0:0:
256,192,7358,1,8,0:0:0:0:
256,192,7573,1,8,0:0:0:0:
256,192,7680,1,8,0:0:0:0:
256,192,7787,1,0,0:0:0:0:
256,192,8215,1,0,0:0:0:0:
256,192,8430,1,8,0:0:0:0:
256,192,8644,1,8,0:0:0:0:
256,192,8858,1,0,0:0:0:0:
256,192,9073,1,8,0:0:0:0:
256,192,9287,1,0,0:0:0:0:
256,192,9394,1,8,0:0:0:0:
256,192,9501,1,0,0:0:0:0:
256,192,9608,1,8,0:0:0:0:
256,192,9715,1,0,0:0:0:0:
256,192,9930,1,8,0:0:0:0:
256,192,10144,1,8,0:0:0:0:
256,192,10358,1,0,0:0:0:0:
256,192,10787,1,8,0:0:0:0:
256,192,11002,1,8,0:0:0:0:
256,192,11109,1,8,0:0:0:0:
256,192,11216,1,0,0:0:0:0:
256,192,11644,1,0,0:0:0:0:
256,192,11859,1,0,0:0:0:0:
256,192,12073,1,8,0:0:0:0:
256,192,12287,1,8,0:0:0:0:
256,192,12502,1,0,0:0:0:0:
256,192,12715,1,8,0:0:0:0:
256,192,12823,1,8,0:0:0:0:
256,192,12930,1,0,0:0:0:0:
256,192,13144,1,0,0:0:0:0:
256,192,13359,1,0,0:0:0:0:
256,192,13573,1,8,0:0:0:0:
256,192,13787,1,0,0:0:0:0:
256,192,14215,1,8,0:0:0:0:
256,192,14430,1,8,0:0:0:0:
256,192,14537,1,8,0:0:0:0:
256,192,14644,1,0,0:0:0:0:
256,192,14858,1,0,0:0:0:0:
256,192,15073,1,8,0:0:0:0:
256,192,15287,1,0,0:0:0:0:
256,192,15394,1,0,0:0:0:0:
256,192,15501,1,8,0:0:0:0:
256,192,15930,1,8,0:0:0:0:
256,192,16144,1,8,0:0:0:0:
256,192,16251,1,8,0:0:0:0:
256,192,16358,1,0,0:0:0:0:
256,192,16573,1,0,0:0:0:0:
256,192,16787,1,8,0:0:0:0:
256,192,17001,1,8,0:0:0:0:
256,192,17215,1,0,0:0:0:0:
256,192,17644,1,8,0:0:0:0:
256,192,17858,1,8,0:0:0:0:
256,192,17965,1,8,0:0:0:0:
256,192,18073,1,0,0:0:0:0:
256,192,18501,1,8,0:0:0:0:
256,96,18715,1,4,0:0:0:0:
256,96,19144,1,4,0:0:0:0:
256,96,19573,1,4,0:0:0:0:
256,96,19787,1,4,0:0:0:0:
256,96,20644,1,12,0:0:0:0:
256,192,20858,1,0,0:0:0:0:
256,192,21073,1,0,0:0:0:0:
256,192,21287,1,8,0:0:0:0:
256,192,21394,1,0,0:0:0:0:
256,192,21501,1,8,0:0:0:0:
256,192,21715,1,0,0:0:0:0:
256,192,21930,1,8,0:0:0:0:
256,192,22144,1,8,0:0:0:0:
256,192,22358,1,0,0:0:0:0:
256,192,22573,1,0,0:0:0:0:
256,192,22680,1,0,0:0:0:0:
256,192,22787,1,8,0:0:0:0:
256,192,23001,1,8,0:0:0:0:
256,192,23215,1,0,0:0:0:0:
256,192,23430,1,0,0:0:0:0:
256,192,23644,1,8,0:0:0:0:
256,192,24073,1,0,0:0:0:0:
256,192,24287,1,8,0:0:0:0:
256,192,24501,1,8,0:0:0:0:
256,192,24715,1,0,0:0:0:0:
256,192,24823,1,0,0:0:0:0:
256,192,24930,1,8,0:0:0:0:
256,192,25144,1,0,0:0:0:0:
256,192,25358,1,8,0:0:0:0:
256,192,25465,1,0,0:0:0:0:
256,192,25573,1,0,0:0:0:0:
256,192,25787,1,0,0:0:0:0:
256,192,26001,1,8,0:0:0:0:
256,192,26108,1,8,0:0:0:0:
256,192,26215,1,0,0:0:0:0:
256,192,26430,1,8,0:0:0:0:
256,192,26644,1,0,0:0:0:0:
256,96,26858,1,12,0:0:0:0:
256,96,27073,1,12,0:0:0:0:
256,192,27287,1,0,0:0:0:0:
256,96,27501,1,12,0:0:0:0:
256,192,27715,1,0,0:0:0:0:
256,192,27930,1,8,0:0:0:0:
256,192,28144,1,8,0:0:0:0:
256,192,28251,1,8,0:0:0:0:
256,192,28358,1,0,0:0:0:0:
256,192,28572,1,0,0:0:0:0:
256,192,28787,1,8,0:0:0:0:
256,192,29001,1,8,0:0:0:0:
256,192,29215,1,0,0:0:0:0:
256,192,29430,1,0,0:0:0:0:
256,192,29537,1,0,0:0:0:0:
256,192,29644,1,8,0:0:0:0:
256,192,29858,1,8,0:0:0:0:
256,192,30072,1,0,0:0:0:0:
256,192,30287,1,8,0:0:0:0:
256,192,30501,1,0,0:0:0:0:
256,96,30930,1,12,0:0:0:0:
256,192,31144,1,0,0:0:0:0:
256,192,31358,1,0,0:0:0:0:
256,96,31573,1,12,0:0:0:0:
256,192,32001,1,0,0:0:0:0:
256,192,32215,1,0,0:0:0:0:
256,96,32430,1,12,0:0:0:0:
256,192,32858,1,0,0:0:0:0:
256,192,33073,1,8,0:0:0:0:
256,192,33287,1,8,0:0:0:0:
256,192,33501,1,0,0:0:0:0:
256,192,33715,1,0,0:0:0:0:
256,96,33930,1,12,0:0:0:0:
256,192,34358,1,0,0:0:0:0:
256,192,35001,1,0,0:0:0:0:
256,192,35215,1,0,0:0:0:0:
256,192,35430,1,0,0:0:0:0:
256,192,35858,1,0,0:0:0:0:
256,192,36287,1,0,0:0:0:0:
256,192,36715,1,0,0:0:0:0:
256,192,36930,1,0,0:0:0:0:
256,192,37144,1,8,0:0:0:0:
256,192,37358,1,8,0:0:0:0:
256,96,37787,1,12,0:0:0:0:
256,192,42346,5,8,0:0:0:0:
256,192,42533,5,0,0:0:0:0:
256,192,42627,1,0,0:0:0:0:
256,96,42721,1,12,0:0:0:0:
256,192,43096,1,8,0:0:0:0:
256,192,43283,1,0,0:0:0:0:
256,192,43471,1,8,0:0:0:0:
256,192,43658,1,8,0:0:0:0:
256,192,44033,1,0,0:0:0:0:
256,192,44408,1,8,0:0:0:0:
256,192,44596,1,8,0:0:0:0:
256,192,44783,1,0,0:0:0:0:
256,192,44971,1,8,0:0:0:0:
256,192,45127,1,0,0:0:0:0:
256,192,45221,1,0,0:0:0:0:
256,192,45315,1,8,0:0:0:0:
256,192,45408,1,8,0:0:0:0:
256,192,45502,1,0,0:0:0:0:
256,192,45596,1,0,0:0:0:0:
256,96,45689,1,12,0:0:0:0:
256,192,46283,1,0,0:0:0:0:
256,192,46471,1,8,0:0:0:0:
256,192,46846,1,8,0:0:0:0:
256,192,47221,1,0,0:0:0:0:
256,192,47408,1,0,0:0:0:0:
256,192,47783,1,0,0:0:0:0:
256,192,47971,1,8,0:0:0:0:
256,192,48346,1,8,0:0:0:0:
256,192,48721,1,0,0:0:0:0:
256,192,48908,1,0,0:0:0:0:
256,192,49283,1,0,0:0:0:0:
256,192,49471,1,8,0:0:0:0:
256,192,49846,1,8,0:0:0:0:
256,192,50220,1,0,0:0:0:0:
256,192,50407,1,0,0:0:0:0:
256,192,50782,1,0,0:0:0:0:
256,192,50971,1,8,0:0:0:0:
256,192,51158,1,0,0:0:0:0:
256,96,51346,1,12,0:0:0:0:
256,96,51721,1,4,0:0:0:0:
256,192,52096,1,8,0:0:0:0:
256,192,52283,1,0,0:0:0:0:
256,192,52377,1,0,0:0:0:0:
256,192,52471,1,0,0:0:0:0:
256,192,52658,1,8,0:0:0:0:
256,192,52752,1,8,0:0:0:0:
256,192,52846,1,0,0:0:0:0:
256,192,53033,1,0,0:0:0:0:
256,192,53221,1,8,0:0:0:0:
256,192,53596,1,0,0:0:0:0:
256,192,53783,1,8,0:0:0:0:
256,192,53877,1,8,0:0:0:0:
256,192,53971,1,8,0:0:0:0:
256,192,54158,1,8,0:0:0:0:
256,192,54346,1,0,0:0:0:0:
256,192,54532,1,0,0:0:0:0:
256,192,54626,1,0,0:0:0:0:
256,96,54720,1,12,0:0:0:0:
256,96,54907,1,12,0:0:0:0:
256,192,55283,1,0,0:0:0:0:
256,96,55471,1,12,0:0:0:0:
256,192,55658,1,0,0:0:0:0:
256,192,55751,1,0,0:0:0:0:
256,192,55845,1,0,0:0:0:0:
256,96,56032,1,12,0:0:0:0:
256,192,56407,1,0,0:0:0:0:
256,192,56596,1,8,0:0:0:0:
256,192,56783,1,8,0:0:0:0:
256,192,56971,1,8,0:0:0:0:
256,96,57721,1,12,0:0:0:0:
256,192,57908,1,0,0:0:0:0:
256,192,58096,1,0,0:0:0:0:
256,192,58283,1,8,0:0:0:0:
256,192,58658,1,8,0:0:0:0:
256,192,58846,1,0,0:0:0:0:
256,192,59033,1,8,0:0:0:0:
256,192,59221,1,0,0:0:0:0:
256,192,59408,1,0,0:0:0:0:
256,192,59502,1,0,0:0:0:0:
256,192,59596,1,8,0:0:0:0:
256,192,59783,1,8,0:0:0:0:
256,192,59971,1,8,0:0:0:0:
256,192,60158,1,0,0:0:0:0:
256,192,60346,1,0,0:0:0:0:
256,192,60533,1,8,0:0:0:0:
256,192,60721,1,0,0:0:0:0:
256,192,61096,1,8,0:0:0:0:
256,192,61189,1,8,0:0:0:0:
256,192,61283,1,0,0:0:0:0:
256,192,61471,1,0,0:0:0:0:
256,192,61658,1,8,0:0:0:0:
256,192,61846,1,0,0:0:0:0:
256,192,62033,1,8,0:0:0:0:
256,192,62221,1,0,0:0:0:0:
256,192,62408,1,8,0:0:0:0:
256,192,62502,1,0,0:0:0:0:
256,192,62596,1,8,0:0:0:0:
256,192,62783,1,0,0:0:0:0:
256,96,62971,1,12,0:0:0:0:
256,96,63346,1,12,0:0:0:0:
256,96,63721,1,4,0:0:0:0:
256,192,63908,1,8,0:0:0:0:
256,192,64096,1,8,0:0:0:0:
256,192,64283,1,0,0:0:0:0:
256,192,64658,1,8,0:0:0:0:
256,192,64846,1,0,0:0:0:0:
256,192,65033,1,8,0:0:0:0:
256,192,65221,1,0,0:0:0:0:
256,192,65408,1,0,0:0:0:0:
256,192,65502,1,8,0:0:0:0:
256,192,65596,1,8,0:0:0:0:
256,192,65783,1,8,0:0:0:0:
256,192,65971,1,0,0:0:0:0:
256,192,66158,1,0,0:0:0:0:
256,192,66346,1,8,0:0:0:0:
256,192,66533,1,8,0:0:0:0:
256,96,66721,1,4,0:0:0:0:
256,192,67096,1,0,0:0:0:0:
256,192,67283,1,0,0:0:0:0:
256,192,67471,1,8,0:0:0:0:
256,192,67658,1,0,0:0:0:0:
256,192,68033,1,8,0:0:0:0:
256,192,68408,1,0,0:0:0:0:
256,192,68596,1,0,0:0:0:0:
256,192,68783,1,8,0:0:0:0:
256,192,68971,1,0,0:0:0:0:
256,192,69064,1,0,0:0:0:0:
256,192,69158,1,8,0:0:0:0:
256,192,69252,1,8,0:0:0:0:
256,192,69346,1,0,0:0:0:0:
256,192,69439,1,0,0:0:0:0:
256,192,69533,1,0,0:0:0:0:
256,192,69627,1,0,0:0:0:0:
256,96,69721,1,12,0:0:0:0:
256,192,69908,1,0,0:0:0:0:
256,192,70096,1,0,0:0:0:0:
256,192,70283,1,8,0:0:0:0:
256,192,70658,1,8,0:0:0:0:
256,192,70846,1,0,0:0:0:0:
256,192,71033,1,8,0:0:0:0:
256,192,71221,1,0,0:0:0:0:
256,192,71408,1,0,0:0:0:0:
256,192,71502,1,0,0:0:0:0:
256,192,71596,1,8,0:0:0:0:
256,192,71783,1,8,0:0:0:0:
256,192,71971,1,8,0:0:0:0:
256,192,72158,1,0,0:0:0:0:
256,192,72346,1,0,0:0:0:0:
256,192,72533,1,8,0:0:0:0:
256,192,72721,1,0,0:0:0:0:
256,192,73096,1,0,0:0:0:0:
256,192,73189,1,0,0:0:0:0:
256,192,73283,1,8,0:0:0:0:
256,192,73471,1,0,0:0:0:0:
256,192,73658,1,8,0:0:0:0:
256,192,73846,1,8,0:0:0:0:
256,192,74033,1,8,0:0:0:0:
256,192,74221,1,0,0:0:0:0:
256,192,74408,1,8,0:0:0:0:
256,192,74502,1,8,0:0:0:0:
256,192,74596,1,0,0:0:0:0:
256,192,74783,1,0,0:0:0:0:
256,96,74971,1,12,0:0:0:0:
256,96,75346,1,12,0:0:0:0:
256,96,75721,1,4,0:0:0:0:
256,192,75908,1,8,0:0:0:0:
256,192,76096,1,8,0:0:0:0:
256,192,76283,1,0,0:0:0:0:
256,192,76658,1,8,0:0:0:0:
256,192,76846,1,0,0:0:0:0:
256,192,77033,1,8,0:0:0:0:
256,192,77221,1,0,0:0:0:0:
256,192,77408,1,0,0:0:0:0:
256,192,77502,1,8,0:0:0:0:
256,192,77596,1,8,0:0:0:0:
256,192,77783,1,8,0:0:0:0:
256,192,77971,1,0,0:0:0:0:
256,192,78158,1,0,0:0:0:0:
256,192,78346,1,8,0:0:0:0:
256,192,78533,1,8,0:0:0:0:
256,96,78721,1,4,0:0:0:0:
256,192,79096,1,8,0:0:0:0:
256,192,79283,1,0,0:0:0:0:
256,192,79471,1,8,0:0:0:0:
256,192,79846,1,8,0:0:0:0:
256,192,80033,1,0,0:0:0:0:
256,192,80408,1,0,0:0:0:0:
256,192,80596,1,8,0:0:0:0:
256,192,80783,1,8,0:0:0:0:
256,192,80971,1,0,0:0:0:0:
256,192,81064,1,0,0:0:0:0:
256,192,81158,1,8,0:0:0:0:
256,192,81252,1,0,0:0:0:0:
256,192,81346,1,8,0:0:0:0:
256,192,81439,1,8,0:0:0:0:
256,192,81533,1,0,0:0:0:0:
256,192,81627,1,0,0:0:0:0:
256,96,81721,1,12,0:0:0:0:
256,192,81908,1,0,0:0:0:0:
256,192,82283,1,8,0:0:0:0:
256,192,82658,1,8,0:0:0:0:
256,192,82846,1,8,0:0:0:0:
256,192,83033,1,0,0:0:0:0:
256,192,83127,1,0,0:0:0:0:
256,192,83221,1,0,0:0:0:0:
256,192,83408,1,8,0:0:0:0:
256,192,83502,1,8,0:0:0:0:
256,192,83596,1,8,0:0:0:0:
256,192,83783,1,8,0:0:0:0:
256,192,83971,1,0,0:0:0:0:
256,192,84346,1,0,0:0:0:0:
256,192,84533,1,0,0:0:0:0:
256,192,84627,1,0,0:0:0:0:
256,192,84721,1,8,0:0:0:0:
256,192,84908,1,0,0:0:0:0:
256,192,85096,1,0,0:0:0:0:
256,192,85283,1,8,0:0:0:0:
256,192,85658,1,8,0:0:0:0:
256,192,85846,1,0,0:0:0:0:
256,192,86033,1,8,0:0:0:0:
256,192,86127,1,8,0:0:0:0:
256,192,86221,1,0,0:0:0:0:
256,192,86408,1,0,0:0:0:0:
256,192,86502,1,0,0:0:0:0:
256,192,86596,1,0,0:0:0:0:
256,192,86783,1,8,0:0:0:0:
256,96,86971,1,4,0:0:0:0:
256,96,87346,1,4,0:0:0:0:
256,96,87721,1,12,0:0:0:0:
256,192,87908,1,0,0:0:0:0:
256,192,88283,1,8,0:0:0:0:
256,192,88658,1,8,0:0:0:0:
256,192,88846,1,8,0:0:0:0:
256,192,89033,1,0,0:0:0:0:
256,192,89127,1,0,0:0:0:0:
256,192,89221,1,0,0:0:0:0:
256,192,89408,1,8,0:0:0:0:
256,192,89502,1,8,0:0:0:0:
256,192,89596,1,8,0:0:0:0:
256,192,89783,1,8,0:0:0:0:
256,192,89971,1,0,0:0:0:0:
256,192,90346,1,0,0:0:0:0:
256,192,90533,1,0,0:0:0:0:
256,192,90627,1,0,0:0:0:0:
256,96,90721,1,12,0:0:0:0:
256,192,91283,1,0,0:0:0:0:
256,192,91471,1,8,0:0:0:0:
256,192,91846,1,8,0:0:0:0:
256,192,92033,1,8,0:0:0:0:
256,192,92408,1,0,0:0:0:0:
256,192,92596,1,8,0:0:0:0:
256,192,92971,1,0,0:0:0:0:
256,192,93064,1,0,0:0:0:0:
256,192,93158,1,8,0:0:0:0:
256,192,93252,1,0,0:0:0:0:
256,192,93346,1,8,0:0:0:0:
256,192,93439,1,8,0:0:0:0:
256,192,93533,1,0,0:0:0:0:
256,192,93627,1,0,0:0:0:0:
256,96,93721,1,12,0:0:0:0:
256,192,98184,5,0,0:0:0:0:
256,192,98351,1,0,0:0:0:0:
256,192,98517,1,8,0:0:0:0:
256,192,98851,1,8,0:0:0:0:
256,192,99017,1,8,0:0:0:0:
256,192,99184,1,0,0:0:0:0:
256,192,99517,1,0,0:0:0:0:
256,192,99684,1,0,0:0:0:0:
256,192,99851,1,8,0:0:0:0:
256,192,100017,1,0,0:0:0:0:
256,192,100351,1,0,0:0:0:0:
256,192,100517,1,8,0:0:0:0:
256,192,100684,1,8,0:0:0:0:
256,192,100851,1,0,0:0:0:0:
256,192,101017,1,0,0:0:0:0:
256,192,101184,1,8,0:0:0:0:
256,192,101517,1,0,0:0:0:0:
256,192,101684,1,0,0:0:0:0:
256,192,101851,1,8,0:0:0:0:
256,192,102017,1,8,0:0:0:0:
256,192,102101,1,8,0:0:0:0:
256,192,102184,1,0,0:0:0:0:
256,192,102267,1,0,0:0:0:0:
256,192,102351,1,0,0:0:0:0:
256,192,102517,1,8,0:0:0:0:
256,192,102851,1,8,0:0:0:0:
256,192,103017,1,0,0:0:0:0:
256,192,103184,1,8,0:0:0:0:
256,192,103351,1,8,0:0:0:0:
256,192,103517,1,0,0:0:0:0:
256,192,103684,1,0,0:0:0:0:
256,192,103851,1,8,0:0:0:0:
256,192,104184,1,8,0:0:0:0:
256,192,104350,1,0,0:0:0:0:
256,192,104517,1,8,0:0:0:0:
256,192,104684,1,8,0:0:0:0:
256,192,104767,1,8,0:0:0:0:
256,192,104850,1,0,0:0:0:0:
256,192,105184,1,0,0:0:0:0:
256,192,105517,1,0,0:0:0:0:
256,192,105850,1,0,0:0:0:0:
256,192,106184,1,0,0:0:0:0:
256,192,106517,1,8,0:0:0:0:
256,192,106684,1,8,0:0:0:0:
256,192,106850,1,0,0:0:0:0:
256,96,107517,1,12,0:0:0:0:
256,192,107684,1,0,0:0:0:0:
256,192,107850,1,8,0:0:0:0:
256,192,108017,1,0,0:0:0:0:
256,192,108184,1,8,0:0:0:0:
256,192,108267,1,0,0:0:0:0:
256,192,108350,1,0,0:0:0:0:
256,192,108517,1,8,0:0:0:0:
256,192,108684,1,0,0:0:0:0:
256,192,108850,1,8,0:0:0:0:
256,192,108934,1,0,0:0:0:0:
256,192,109017,1,8,0:0:0:0:
256,192,109184,1,0,0:0:0:0:
256,192,109517,1,8,0:0:0:0:
256,192,109684,1,8,0:0:0:0:
256,192,109767,1,8,0:0:0:0:
256,192,109850,1,0,0:0:0:0:
256,192,109934,1,0,0:0:0:0:
256,192,110017,1,0,0:0:0:0:
256,192,110184,1,8,0:0:0:0:
256,192,110351,1,0,0:0:0:0:
256,192,110517,1,8,0:0:0:0:
256,192,110684,1,0,0:0:0:0:
256,192,110851,1,8,0:0:0:0:
256,192,110934,1,0,0:0:0:0:
256,192,111017,1,8,0:0:0:0:
256,192,111184,1,8,0:0:0:0:
256,192,111351,1,0,0:0:0:0:
256,192,111517,1,8,0:0:0:0:
256,192,111601,1,0,0:0:0:0:
256,192,111684,1,0,0:0:0:0:
256,192,111851,1,8,0:0:0:0:
256,192,112017,1,0,0:0:0:0:
256,192,112184,1,8,0:0:0:0:
256,192,112267,1,8,0:0:0:0:
256,192,112351,1,8,0:0:0:0:
256,192,112517,1,8,0:0:0:0:
256,192,112600,1,8,0:0:0:0:
256,192,112684,1,0,0:0:0:0:
256,192,112767,1,0,0:0:0:0:
256,96,112850,1,12,0:0:0:0:
256,192,113184,1,0,0:0:0:0:
256,192,113350,1,0,0:0:0:0:
256,192,113434,1,0,0:0:0:0:
256,192,113517,1,8,0:0:0:0:
256,192,113684,1,0,0:0:0:0:
256,192,113850,1,8,0:0:0:0:
256,192,114017,1,8,0:0:0:0:
256,192,114100,1,8,0:0:0:0:
256,192,114184,1,0,0:0:0:0:
256,192,114350,1,0,0:0:0:0:
256,192,114517,1,8,0:0:0:0:
256,192,114684,1,0,0:0:0:0:
256,192,114850,1,8,0:0:0:0:
256,192,114934,1,8,0:0:0:0:
256,192,115017,1,0,0:0:0:0:
256,192,115100,1,0,0:0:0:0:
256,192,115184,1,8,0:0:0:0:
256,192,115350,1,8,0:0:0:0:
256,192,115517,1,0,0:0:0:0:
256,192,115684,1,0,0:0:0:0:
256,192,116017,1,8,0:0:0:0:
256,192,116184,1,0,0:0:0:0:
256,192,116517,1,0,0:0:0:0:
256,96,116684,1,12,0:0:0:0:
256,192,117017,1,0,0:0:0:0:
256,192,117184,1,0,0:0:0:0:
256,96,117350,1,12,0:0:0:0:
256,192,117684,1,0,0:0:0:0:
256,192,117850,1,8,0:0:0:0:
256,192,117934,1,8,0:0:0:0:
256,192,118017,1,0,0:0:0:0:
256,192,118100,1,0,0:0:0:0:
256,96,118184,1,12,0:0:0:0:
256,192,118351,1,0,0:0:0:0:
256,192,118517,1,8,0:0:0:0:
256,192,118684,1,0,0:0:0:0:
256,192,118851,1,8,0:0:0:0:
256,192,118934,1,0,0:0:0:0:
256,192,119017,1,0,0:0:0:0:
256,192,119184,1,8,0:0:0:0:
256,192,119351,1,0,0:0:0:0:
256,192,119517,1,8,0:0:0:0:
256,192,119601,1,8,0:0:0:0:
256,192,119684,1,0,0:0:0:0:
256,192,119767,1,0,0:0:0:0:
256,192,119851,1,8,0:0:0:0:
256,192,120184,1,0,0:0:0:0:
256,192,120351,1,8,0:0:0:0:
256,192,120434,1,0,0:0:0:0:
256,192,120517,1,8,0:0:0:0:
256,192,120600,1,0,0:0:0:0:
256,192,120684,1,0,0:0:0:0:
256,192,120851,1,8,0:0:0:0:
256,192,121018,1,0,0:0:0:0:
256,192,121184,1,8,0:0:0:0:
256,192,121351,1,0,0:0:0:0:
256,192,121518,1,8,0:0:0:0:
256,192,121601,1,0,0:0:0:0:
256,192,121684,1,8,0:0:0:0:
256,192,121851,1,8,0:0:0:0:
256,192,122018,1,0,0:0:0:0:
256,192,122184,1,8,0:0:0:0:
256,192,122268,1,0,0:0:0:0:
256,192,122351,1,0,0:0:0:0:
256,192,122434,1,0,0:0:0:0:
256,192,122518,1,8,0:0:0:0:
256,192,122684,1,0,0:0:0:0:
256,192,122851,1,0,0:0:0:0:
256,192,123018,1,8,0:0:0:0:
256,192,123101,1,8,0:0:0:0:
256,192,123184,1,0,0:0:0:0:
256,192,123351,1,0,0:0:0:0:
256,96,123517,1,12,0:0:0:0:
256,192,123850,1,0,0:0:0:0:
256,192,124017,1,0,0:0:0:0:
256,192,124100,1,0,0:0:0:0:
256,192,124184,1,8,0:0:0:0:
256,192,124350,1,8,0:0:0:0:
256,192,124517,1,0,0:0:0:0:
256,192,124684,1,0,0:0:0:0:
256,192,124850,1,8,0:0:0:0:
256,192,124934,1,8,0:0:0:0:
256,192,125017,1,8,0:0:0:0:
256,192,125184,1,0,0:0:0:0:
256,192,125350,1,0,0:0:0:0:
256,192,125517,1,8,0:0:0:0:
256,192,125684,1,0,0:0:0:0:
256,192,125767,1,0,0:0:0:0:
256,192,125850,1,0,0:0:0:0:
256,192,125934,1,0,0:0:0:0:
256,192,126017,1,8,0:0:0:0:
256,192,126184,1,0,0:0:0:0:
256,192,126350,1,0,0:0:0:0:
256,192,126517,1,8,0:0:0:0:
256,192,126850,1,0,0:0:0:0:
256,192,127017,1,0,0:0:0:0:
256,192,127184,1,8,0:0:0:0:
256,192,127350,1,0,0:0:0:0:
256,96,127517,1,12,0:0:0:0:
256,192,127684,1,0,0:0:0:0:
256,192,127767,1,0,0:0:0:0:
256,192,127850,1,8,0:0:0:0:
256,192,127934,1,8,0:0:0:0:
256,192,128017,1,8,0:0:0:0:
256,192,128100,1,0,0:0:0:0:
256,192,128184,1,8,0:0:0:0:
256,192,128267,1,0,0:0:0:0:
256,192,128350,1,0,0:0:0:0:
256,192,128434,1,0,0:0:0:0:
256,192,128517,1,8,0:0:0:0:
256,192,128600,1,8,0:0:0:0:
256,192,128684,1,0,0:0:0:0:
256,192,128767,1,0,0:0:0:0:
256,96,128850,1,12,0:0:0:0:
256,192,129184,1,0,0:0:0:0:
256,192,129350,1,0,0:0:0:0:
256,192,129517,1,8,0:0:0:0:
256,192,129684,1,0,0:0:0:0:
256,192,129850,1,8,0:0:0:0:
256,192,129934,1,8,0:0:0:0:
256,192,130017,1,0,0:0:0:0:
256,192,130184,1,8,0:0:0:0:
256,192,130350,1,0,0:0:0:0:
256,192,130517,1,8,0:0:0:0:
256,192,130684,1,8,0:0:0:0:
256,192,130767,1,8,0:0:0:0:
256,192,130850,1,0,0:0:0:0:
256,192,131184,1,8,0:0:0:0:
256,192,131350,1,8,0:0:0:0:
256,192,131517,1,0,0:0:0:0:
256,192,131684,1,0,0:0:0:0:
256,192,131850,1,8,0:0:0:0:
256,192,132017,1,0,0:0:0:0:
256,192,132183,1,8,0:0:0:0:
256,192,132350,1,0,0:0:0:0:
256,192,132516,1,8,0:0:0:0:
256,192,132600,1,8,0:0:0:0:
256,192,132683,1,0,0:0:0:0:
256,192,132767,1,0,0:0:0:0:
256,192,132850,1,8,0:0:0:0:
256,192,133016,1,0,0:0:0:0:
256,192,133183,1,0,0:0:0:0:
256,192,133350,1,8,0:0:0:0:
256,192,133433,1,0,0:0:0:0:
256,192,133516,1,8,0:0:0:0:
256,192,133684,1,0,0:0:0:0:
256,192,133850,1,8,0:0:0:0:
256,192,134017,1,0,0:0:0:0:
256,96,134184,1,12,0:0:0:0:
256,192,134517,1,0,0:0:0:0:
256,192,134683,1,0,0:0:0:0:
256,192,134850,1,8,0:0:0:0:
256,192,135017,1,0,0:0:0:0:
256,192,135183,1,8,0:0:0:0:
256,192,135267,1,8,0:0:0:0:
256,192,135350,1,0,0:0:0:0:
256,192,135434,1,0,0:0:0:0:
256,192,135517,1,8,0:0:0:0:
256,192,135683,1,0,0:0:0:0:
256,192,135850,1,8,0:0:0:0:
256,192,136017,1,8,0:0:0:0:
256,192,136100,1,8,0:0:0:0:
256,192,136183,1,0,0:0:0:0:
256,192,136350,1,0,0:0:0:0:
256,192,136517,1,8,0:0:0:0:
256,192,136850,1,8,0:0:0:0:
256,192,136934,1,0,0:0:0:0:
256,192,137017,1,0,0:0:0:0:
256,192,137100,1,0,0:0:0:0:
256,192,137184,1,8,0:0:0:0:
256,192,137267,1,8,0:0:0:0:
256,192,137350,1,0,0:0:0:0:
256,192,137434,1,8,0:0:0:0:
256,192,137517,1,0,0:0:0:0:
256,192,137684,1,0,0:0:0:0:
256,192,137850,1,8,0:0:0:0:
256,192,138017,1,0,0:0:0:0:
256,192,138184,1,8,0:0:0:0:
256,192,138434,1,8,0:0:0:0:
256,192,138684,1,0,0:0:0:0:
256,192,138850,1,0,0:0:0:0:
256,192,139017,1,0,0:0:0:0:
256,192,139184,1,8,0:0:0:0:
256,192,139517,1,0,0:0:0:0:
256,192,147680,5,0,0:0:0:0:
256,192,147847,1,0,0:0:0:0:
256,192,148014,1,8,0:0:0:0:
256,192,148180,1,0,0:0:0:0:
256,192,148347,1,8,0:0:0:0:
256,192,148680,1,0,0:0:0:0:
256,192,148847,1,8,0:0:0:0:
256,192,149014,1,8,0:0:0:0:
256,192,149097,1,8,0:0:0:0:
256,192,149180,1,0,0:0:0:0:
256,192,149347,1,8,0:0:0:0:
256,192,149680,1,8,0:0:0:0:
256,192,149764,1,8,0:0:0:0:
256,192,149847,1,0,0:0:0:0:
256,192,150014,1,8,0:0:0:0:
256,192,150180,1,0,0:0:0:0:
256,192,150264,1,0,0:0:0:0:
256,192,150347,1,8,0:0:0:0:
256,192,150680,1,8,0:0:0:0:
256,192,151014,1,0,0:0:0:0:
256,192,151180,1,0,0:0:0:0:
256,192,151347,1,8,0:0:0:0:
256,192,151514,1,8,0:0:0:0:
256,192,151597,1,8,0:0:0:0:
256,192,151680,1,0,0:0:0:0:
256,192,151847,1,8,0:0:0:0:
256,192,152180,1,8,0:0:0:0:
256,192,152347,1,0,0:0:0:0:
256,192,152514,1,8,0:0:0:0:
256,192,152680,1,0,0:0:0:0:
256,192,152847,1,8,0:0:0:0:
256,192,152930,1,8,0:0:0:0:
256,96,153014,1,4,0:0:0:0:
256,192,153347,1,8,0:0:0:0:
256,192,153514,1,0,0:0:0:0:
256,192,153680,1,8,0:0:0:0:
256,192,153847,1,0,0:0:0:0:
256,192,154014,1,0,0:0:0:0:
256,192,154180,1,8,0:0:0:0:
256,192,154347,1,8,0:0:0:0:
256,192,154430,1,0,0:0:0:0:
256,192,154514,1,0,0:0:0:0:
256,192,154597,1,0,0:0:0:0:
256,192,154680,1,8,0:0:0:0:
256,192,154764,1,8,0:0:0:0:
256,192,154847,1,0,0:0:0:0:
256,192,154930,1,0,0:0:0:0:
256,192,155014,1,8,0:0:0:0:
256,96,155680,1,12,0:0:0:0:
256,192,156014,1,8,0:0:0:0:
256,192,156180,1,0,0:0:0:0:
256,192,156347,1,0,0:0:0:0:
256,192,156514,1,0,0:0:0:0:
256,192,156680,1,8,0:0:0:0:
256,192,156847,1,8,0:0:0:0:
256,192,156930,1,8,0:0:0:0:
256,192,157014,1,0,0:0:0:0:
256,192,157347,1,8,0:0:0:0:
256,192,157513,1,0,0:0:0:0:
256,192,157680,1,8,0:0:0:0:
256,192,157847,1,8,0:0:0:0:
256,192,158014,1,0,0:0:0:0:
256,192,158180,1,8,0:0:0:0:
256,192,158263,1,8,0:0:0:0:
256,192,158347,1,0,0:0:0:0:
256,192,158514,1,8,0:0:0:0:
256,192,158680,1,8,0:0:0:0:
256,192,158846,1,0,0:0:0:0:
256,192,159013,1,8,0:0:0:0:
256,192,159180,1,8,0:0:0:0:
256,192,159347,1,0,0:0:0:0:
256,192,159513,1,0,0:0:0:0:
256,192,159596,1,0,0:0:0:0:
256,192,159680,1,8,0:0:0:0:
256,192,160013,1,0,0:0:0:0:
256,192,160179,1,0,0:0:0:0:
256,192,160346,1,8,0:0:0:0:
256,192,160513,1,8,0:0:0:0:
256,192,160680,1,0,0:0:0:0:
256,192,160846,1,0,0:0:0:0:
256,192,160929,1,0,0:0:0:0:
256,192,161013,1,8,0:0:0:0:
256,192,161347,1,8,0:0:0:0:
256,192,161513,1,0,0:0:0:0:
256,192,161680,1,0,0:0:0:0:
256,192,161847,1,0,0:0:0:0:
256,192,162014,1,8,0:0:0:0:
256,192,162180,1,0,0:0:0:0:
256,192,162263,1,0,0:0:0:0:
256,192,162347,1,8,0:0:0:0:
256,192,162513,1,0,0:0:0:0:
256,192,162680,1,8,0:0:0:0:
256,192,163013,1,8,0:0:0:0:
256,192,163180,1,0,0:0:0:0:
256,192,163347,1,8,0:0:0:0:
256,96,163680,1,12,0:0:0:0:
256,192,163847,1,0,0:0:0:0:
256,192,164013,1,0,0:0:0:0:
256,192,164180,1,8,0:0:0:0:
256,192,164347,1,8,0:0:0:0:
256,192,164513,1,8,0:0:0:0:
256,192,164680,1,0,0:0:0:0:
256,96,164847,1,12,0:0:0:0:
256,192,165013,1,0,0:0:0:0:
256,192,165347,1,8,0:0:0:0:
256,192,165513,1,0,0:0:0:0:
256,192,165680,1,0,0:0:0:0:
256,192,165763,1,0,0:0:0:0:
256,192,165847,1,8,0:0:0:0:
256,192,165930,1,0,0:0:0:0:
256,192,166013,1,8,0:0:0:0:
256,192,166097,1,0,0:0:0:0:
256,192,166180,1,0,0:0:0:0:
256,192,166263,1,0,0:0:0:0:
256,96,166347,1,12,0:0:0:0:
256,192,166680,1,8,0:0:0:0:
256,192,166846,1,0,0:0:0:0:
256,192,167013,1,0,0:0:0:0:
256,192,167180,1,0,0:0:0:0:
256,192,167346,1,8,0:0:0:0:
256,192,167513,1,8,0:0:0:0:
256,192,167596,1,8,0:0:0:0:
256,192,167680,1,0,0:0:0:0:
256,192,168013,1,8,0:0:0:0:
256,192,168179,1,0,0:0:0:0:
256,192,168346,1,8,0:0:0:0:
256,192,168430,1,8,0:0:0:0:
256,192,168513,1,8,0:0:0:0:
256,192,168680,1,0,0:0:0:0:
256,192,168847,1,0,0:0:0:0:
256,192,168930,1,0,0:0:0:0:
256,192,169013,1,8,0:0:0:0:
256,192,169180,1,8,0:0:0:0:
256,192,169346,1,8,0:0:0:0:
256,192,169512,1,0,0:0:0:0:
256,192,169679,1,8,0:0:0:0:
256,192,169846,1,0,0:0:0:0:
256,192,170013,1,8,0:0:0:0:
256,192,170180,1,8,0:0:0:0:
256,192,170262,1,8,0:0:0:0:
256,192,170346,1,0,0:0:0:0:
256,192,170680,1,0,0:0:0:0:
256,192,170846,1,0,0:0:0:0:
256,192,171013,1,8,0:0:0:0:
256,192,171180,1,8,0:0:0:0:
256,192,171347,1,0,0:0:0:0:
256,192,171513,1,0,0:0:0:0:
256,192,171596,1,0,0:0:0:0:
256,192,171680,1,8,0:0:0:0:
256,192,172014,1,8,0:0:0:0:
256,192,172180,1,0,0:0:0:0:
256,192,172347,1,0,0:0:0:0:
256,192,172513,1,0,0:0:0:0:
256,192,172681,1,8,0:0:0:0:
256,192,172847,1,0,0:0:0:0:
256,192,172930,1,0,0:0:0:0:
256,192,173014,1,8,0:0:0:0:
256,192,173180,1,0,0:0:0:0:
256,192,173347,1,8,0:0:0:0:
256,192,173513,1,0,0:0:0:0:
256,192,173680,1,8,0:0:0:0:
256,192,173847,1,0,0:0:0:0:
256,192,174013,1,0,0:0:0:0:
256,96,174347,1,12,0:0:0:0:
256,192,174513,1,0,0:0:0:0:
256,192,174680,1,0,0:0:0:0:
256,96,174847,1,12,0:0:0:0:
256,192,175180,1,0,0:0:0:0:
256,96,175347,1,12,0:0:0:0:
256,192,175680,1,0,0:0:0:0:
256,192,175847,1,8,0:0:0:0:
256,192,176013,1,0,0:0:0:0:
256,192,176180,1,0,0:0:0:0:
256,96,176347,1,12,0:0:0:0:
256,192,176680,1,8,0:0:0:0:
256,192,176763,1,0,0:0:0:0:
256,192,176847,1,0,0:0:0:0:
256,192,176930,1,0,0:0:0:0:
256,96,177013,1,12,0:0:0:0:
256,192,177347,1,8,0:0:0:0:
256,192,177513,1,0,0:0:0:0:
256,192,177680,1,0,0:0:0:0:
256,192,177847,1,0,0:0:0:0:
256,192,178013,1,8,0:0:0:0:
256,192,178180,1,0,0:0:0:0:
256,192,178347,1,8,0:0:0:0:
256,192,178513,1,0,0:0:0:0:
256,192,178680,1,0,0:0:0:0:
256,192,178847,1,0,0:0:0:0:
256,192,179013,1,8,0:0:0:0:
256,192,179180,1,8,0:0:0:0:
256,192,179347,1,0,0:0:0:0:
256,192,179513,1,0,0:0:0:0:
256,192,179597,1,0,0:0:0:0:
256,192,179680,1,8,0:0:0:0:
256,192,180013,1,8,0:0:0:0:
256,192,180179,1,0,0:0:0:0:
256,192,180346,1,0,0:0:0:0:
256,192,180513,1,0,0:0:0:0:
256,192,180679,1,8,0:0:0:0:
256,192,180846,1,8,0:0:0:0:
256,192,181013,1,8,0:0:0:0:
256,192,181179,1,0,0:0:0:0:
256,192,181513,1,0,0:0:0:0:
256,192,181679,1,8,0:0:0:0:
256,192,181846,1,8,0:0:0:0:
256,192,182013,1,0,0:0:0:0:
256,192,182179,1,0,0:0:0:0:
256,192,182263,1,0,0:0:0:0:
256,192,182346,1,8,0:0:0:0:
256,192,182680,1,8,0:0:0:0:
256,192,182846,1,0,0:0:0:0:
256,192,183013,1,0,0:0:0:0:
256,192,183180,1,0,0:0:0:0:
256,192,183346,1,8,0:0:0:0:
256,192,183513,1,0,0:0:0:0:
256,192,183680,1,8,0:0:0:0:
256,192,183846,1,0,0:0:0:0:
256,192,184013,1,0,0:0:0:0:
256,192,184180,1,0,0:0:0:0:
256,192,184347,1,8,0:0:0:0:
256,192,184513,1,0,0:0:0:0:
256,192,184680,1,8,0:0:0:0:
256,96,185013,1,12,0:0:0:0:
256,192,185180,1,0,0:0:0:0:
256,192,185347,1,0,0:0:0:0:
256,192,185513,1,8,0:0:0:0:
256,192,185847,1,0,0:0:0:0:
256,192,186013,1,0,0:0:0:0:
256,96,186180,1,12,0:0:0:0:
256,192,186513,1,0,0:0:0:0:
256,192,186680,1,8,0:0:0:0:
256,192,186847,1,8,0:0:0:0:
256,192,187013,1,0,0:0:0:0:
256,192,187097,1,0,0:0:0:0:
256,192,187180,1,8,0:0:0:0:
256,192,187263,1,8,0:0:0:0:
256,192,187347,1,0,0:0:0:0:
256,192,187430,1,8,0:0:0:0:
256,192,187513,1,0,0:0:0:0:
256,192,187597,1,0,0:0:0:0:
256,96,187680,1,12,0:0:0:0:
256,192,188013,1,8,0:0:0:0:
256,192,188179,1,0,0:0:0:0:
256,192,188346,1,0,0:0:0:0:
256,192,188513,1,0,0:0:0:0:
256,192,188679,1,8,0:0:0:0:
256,192,188846,1,0,0:0:0:0:
256,192,189013,1,8,0:0:0:0:
256,192,189097,1,8,0:0:0:0:
256,192,189179,1,0,0:0:0:0:
256,192,189347,1,8,0:0:0:0:
256,192,189513,1,0,0:0:0:0:
256,192,189680,1,8,0:0:0:0:
256,192,189847,1,8,0:0:0:0:
256,192,190013,1,0,0:0:0:0:
256,192,190180,1,0,0:0:0:0:
256,192,190263,1,0,0:0:0:0:
256,192,190347,1,8,0:0:0:0:
256,192,190680,1,8,0:0:0:0:
256,192,190846,1,0,0:0:0:0:
256,192,191013,1,0,0:0:0:0:
256,192,191180,1,0,0:0:0:0:
256,192,191346,1,8,0:0:0:0:
256,192,191513,1,8,0:0:0:0:
256,192,191680,1,8,0:0:0:0:
256,192,191763,1,0,0:0:0:0:
256,192,191846,1,0,0:0:0:0:
256,192,192013,1,8,0:0:0:0:
256,192,192180,1,0,0:0:0:0:
256,192,192346,1,8,0:0:0:0:
256,192,192513,1,8,0:0:0:0:
256,192,192680,1,0,0:0:0:0:
256,192,192846,1,0,0:0:0:0:
256,192,192930,1,0,0:0:0:0:
256,192,193013,1,8,0:0:0:0:
256,192,193347,1,8,0:0:0:0:
256,192,193513,1,0,0:0:0:0:
256,192,193680,1,0,0:0:0:0:
256,192,193847,1,0,0:0:0:0:
256,192,194013,1,8,0:0:0:0:
256,192,194180,1,0,0:0:0:0:
256,192,194347,1,8,0:0:0:0:
256,192,194431,1,8,0:0:0:0:
256,192,194513,1,0,0:0:0:0:
256,192,194681,1,8,0:0:0:0:
256,192,194847,1,0,0:0:0:0:
256,192,195014,1,8,0:0:0:0:
256,192,195181,1,8,0:0:0:0:
256,192,195347,1,0,0:0:0:0:
256,192,195514,1,0,0:0:0:0:
256,192,195597,1,0,0:0:0:0:
256,96,195680,1,12,0:0:0:0:
256,192,196013,1,0,0:0:0:0:
256,96,196180,1,12,0:0:0:0:
256,192,196347,1,0,0:0:0:0:
256,192,196513,1,0,0:0:0:0:
256,96,196680,1,12,0:0:0:0:
256,192,197013,1,0,0:0:0:0:
256,96,197180,1,8,0:0:0:0:
256,192,197513,1,0,0:0:0:0:
256,96,197680,1,12,0:0:0:0:
256,96,197847,1,0,0:0:0:0:
256,192,198013,5,8,0:0:0:0:
256,192,198180,1,0,0:0:0:0:
256,192,198263,1,0,0:0:0:0:
256,96,198347,1,12,0:0:0:0:
256,192,206529,5,0,0:0:0:0:
256,192,206863,1,8,0:0:0:0:
256,192,207196,1,0,0:0:0:0:
256,192,207363,1,0,0:0:0:0:
256,192,207529,1,8,0:0:0:0:
256,192,207696,1,0,0:0:0:0:
256,192,207863,1,8,0:0:0:0:
256,192,208196,1,8,0:0:0:0:
256,192,208529,1,0,0:0:0:0:
256,192,208696,1,0,0:0:0:0:
256,96,209029,1,12,0:0:0:0:
256,192,209363,1,0,0:0:0:0:
256,192,209529,1,8,0:0:0:0:
256,192,209863,1,0,0:0:0:0:
256,192,210029,1,0,0:0:0:0:
256,192,210196,1,8,0:0:0:0:
256,192,210363,1,0,0:0:0:0:
256,192,210446,1,8,0:0:0:0:
256,192,210529,1,8,0:0:0:0:
256,192,210696,1,0,0:0:0:0:
256,192,210863,1,8,0:0:0:0:
256,192,211196,1,8,0:0:0:0:
256,192,211363,1,8,0:0:0:0:
256,192,211529,1,0,0:0:0:0:
256,96,211696,1,12,0:0:0:0:
256,192,212029,1,8,0:0:0:0:
256,192,212196,1,0,0:0:0:0:
256,192,212363,1,0,0:0:0:0:
256,192,212529,1,8,0:0:0:0:
256,192,212863,1,0,0:0:0:0:
256,192,213029,1,8,0:0:0:0:
256,192,213363,1,0,0:0:0:0:
256,192,213529,1,8,0:0:0:0:
256,192,213863,1,0,0:0:0:0:
256,192,214029,1,8,0:0:0:0:
256,192,214196,1,0,0:0:0:0:
256,96,214363,1,12,0:0:0:0:
256,192,214696,1,0,0:0:0:0:
256,192,214863,1,8,0:0:0:0:
256,192,214946,1,8,0:0:0:0:
256,192,215029,1,0,0:0:0:0:
256,192,215196,1,8,0:0:0:0:
256,192,215363,1,8,0:0:0:0:
256,192,215529,1,8,0:0:0:0:
256,96,215696,1,4,0:0:0:0:
256,96,217196,1,12,0:0:0:0:
256,192,217529,1,0,0:0:0:0:
256,192,217696,1,8,0:0:0:0:
256,192,217779,1,8,0:0:0:0:
256,192,217863,1,0,0:0:0:0:
256,192,218029,1,8,0:0:0:0:
256,192,218196,1,0,0:0:0:0:
256,192,218362,1,8,0:0:0:0:
256,192,218529,1,0,0:0:0:0:
256,192,218696,1,0,0:0:0:0:
256,192,218779,1,0,0:0:0:0:
256,192,218862,1,8,0:0:0:0:
256,192,219029,1,0,0:0:0:0:
256,192,219362,1,8,0:0:0:0:
256,192,219529,1,0,0:0:0:0:
256,192,219696,1,0,0:0:0:0:
256,192,219862,1,8,0:0:0:0:
256,192,220029,1,8,0:0:0:0:
256,192,220196,1,0,0:0:0:0:
256,192,220362,1,8,0:0:0:0:
256,192,220446,1,0,0:0:0:0:
256,192,220529,1,8,0:0:0:0:
256,192,220696,1,8,0:0:0:0:
256,192,220862,1,0,0:0:0:0:
256,192,221029,1,8,0:0:0:0:
256,192,221196,1,8,0:0:0:0:
256,192,221362,1,0,0:0:0:0:
256,192,221446,1,0,0:0:0:0:
256,192,221529,1,0,0:0:0:0:
256,192,221696,1,8,0:0:0:0:
256,192,221779,1,8,0:0:0:0:
256,192,221862,1,8,0:0:0:0:
256,192,222029,1,0,0:0:0:0:
256,192,222196,1,8,0:0:0:0:
256,192,222362,1,8,0:0:0:0:
256,192,222446,1,0,0:0:0:0:
256,192,222529,1,8,0:0:0:0:
256,192,222612,1,0,0:0:0:0:
256,192,222696,1,0,0:0:0:0:
256,192,222862,1,8,0:0:0:0:
256,192,223196,1,0,0:0:0:0:
256,192,223362,1,0,0:0:0:0:
256,192,223446,1,0,0:0:0:0:
256,192,223529,1,8,0:0:0:0:
256,192,223696,1,8,0:0:0:0:
256,192,223862,1,0,0:0:0:0:
256,192,224029,1,8,0:0:0:0:
256,192,224196,1,0,0:0:0:0:
256,192,224362,1,8,0:0:0:0:
256,192,224696,1,8,0:0:0:0:
256,192,224862,1,0,0:0:0:0:
256,192,225029,1,0,0:0:0:0:
256,192,225196,1,8,0:0:0:0:
256,192,225362,1,0,0:0:0:0:
256,192,225529,1,0,0:0:0:0:
256,192,225696,1,8,0:0:0:0:
256,192,226029,1,0,0:0:0:0:
256,192,226196,1,8,0:0:0:0:
256,192,226362,1,0,0:0:0:0:
256,192,226529,1,8,0:0:0:0:
256,192,226696,1,0,0:0:0:0:
256,192,226779,1,0,0:0:0:0:
256,192,226862,1,8,0:0:0:0:
256,192,226946,1,0,0:0:0:0:
256,192,227029,1,8,0:0:0:0:
256,192,227112,1,8,0:0:0:0:
256,192,227196,1,8,0:0:0:0:
256,192,227279,1,0,0:0:0:0:
256,192,227362,1,8,0:0:0:0:
256,192,227446,1,0,0:0:0:0:
256,192,227529,1,8,0:0:0:0:
256,192,227612,1,8,0:0:0:0:
256,192,227696,1,0,0:0:0:0:
256,192,227779,1,0,0:0:0:0:
256,96,227862,1,12,0:0:0:0:
256,192,228196,1,0,0:0:0:0:
256,192,228363,1,8,0:0:0:0:
256,192,228446,1,8,0:0:0:0:
256,192,228530,1,0,0:0:0:0:
256,192,228696,1,8,0:0:0:0:
256,192,228863,1,0,0:0:0:0:
256,192,229029,1,8,0:0:0:0:
256,192,229112,1,8,0:0:0:0:
256,192,229196,1,8,0:0:0:0:
256,192,229363,1,0,0:0:0:0:
256,192,229446,1,0,0:0:0:0:
256,192,229529,1,8,0:0:0:0:
256,192,229696,1,0,0:0:0:0:
256,192,229862,1,8,0:0:0:0:
256,192,230029,1,0,0:0:0:0:
256,192,230196,1,8,0:0:0:0:
256,192,230279,1,8,0:0:0:0:
256,192,230363,1,0,0:0:0:0:
256,192,230529,1,0,0:0:0:0:
256,192,230696,1,8,0:0:0:0:
256,192,230779,1,0,0:0:0:0:
256,192,230863,1,8,0:0:0:0:
256,192,231029,1,8,0:0:0:0:
256,192,231112,1,0,0:0:0:0:
256,192,231196,1,0,0:0:0:0:
256,192,231363,1,8,0:0:0:0:
256,192,231529,1,0,0:0:0:0:
256,192,231696,1,8,0:0:0:0:
256,192,231779,1,8,0:0:0:0:
256,192,231862,1,0,0:0:0:0:
256,192,232029,1,0,0:0:0:0:
256,192,232196,1,0,0:0:0:0:
256,192,232362,1,8,0:0:0:0:
256,192,232529,1,0,0:0:0:0:
256,192,232696,1,0,0:0:0:0:
256,192,232779,1,8,0:0:0:0:
256,192,232862,1,8,0:0:0:0:
256,192,232946,1,0,0:0:0:0:
256,192,233029,1,8,0:0:0:0:
256,96,233196,1,4,0:0:0:0:
256,96,234529,1,4,0:0:0:0:
256,192,235362,1,8,0:0:0:0:
256,192,235529,1,0,0:0:0:0:
256,192,235696,1,0,0:0:0:0:
256,96,235862,1,12,0:0:0:0:
256,192,236362,1,0,0:0:0:0:
256,192,236696,1,0,0:0:0:0:
256,192,236862,1,8,0:0:0:0:
256,192,237196,1,0,0:0:0:0:
256,192,237362,1,0,0:0:0:0:
256,192,237529,1,8,0:0:0:0:
256,192,237862,1,0,0:0:0:0:
256,192,238029,1,8,0:0:0:0:
256,192,238112,1,0,0:0:0:0:
256,192,238196,1,8,0:0:0:0:
256,192,238279,1,0,0:0:0:0:
256,192,238362,1,8,0:0:0:0:
256,192,238446,1,8,0:0:0:0:
256,96,238529,1,4,0:0:0:0:
256,192,238862,1,8,0:0:0:0:
256,192,239196,1,8,0:0:0:0:
256,192,239362,1,0,0:0:0:0:
256,192,239446,1,0,0:0:0:0:
256,192,239529,1,8,0:0:0:0:
256,192,239696,1,0,0:0:0:0:
256,192,240029,1,8,0:0:0:0:
256,192,240196,1,0,0:0:0:0:
256,192,240362,1,8,0:0:0:0:
256,192,240446,1,8,0:0:0:0:
256,192,240529,1,0,0:0:0:0:
256,192,240696,1,0,0:0:0:0:
256,192,240862,1,8,0:0:0:0:
256,192,241029,1,8,0:0:0:0:
256,192,241196,1,0,0:0:0:0:
256,192,241529,1,0,0:0:0:0:
256,192,241696,1,8,0:0:0:0:
256,192,241862,1,0,0:0:0:0:
256,192,242029,1,0,0:0:0:0:
256,192,242112,1,0,0:0:0:0:
256,192,242196,1,8,0:0:0:0:
256,192,242362,1,0,0:0:0:0:
256,192,242446,1,0,0:0:0:0:
256,192,242529,1,8,0:0:0:0:
256,192,242612,1,0,0:0:0:0:
256,192,242696,1,8,0:0:0:0:
256,192,242862,1,8,0:0:0:0:
256,192,243029,1,8,0:0:0:0:
256,192,243112,1,0,0:0:0:0:
256,192,243196,1,0,0:0:0:0:
256,192,243362,1,8,0:0:0:0:
256,192,243529,1,0,0:0:0:0:
256,192,243696,1,8,0:0:0:0:
256,192,243779,1,8,0:0:0:0:
256,192,243862,1,0,0:0:0:0:
256,192,244196,1,8,0:0:0:0:
256,192,244530,1,8,0:0:0:0:
256,192,244696,1,0,0:0:0:0:
256,192,244780,1,0,0:0:0:0:
256,192,244863,1,8,0:0:0:0:
256,192,245030,1,0,0:0:0:0:
256,192,245362,1,8,0:0:0:0:
256,192,245529,1,0,0:0:0:0:
256,192,245696,1,8,0:0:0:0:
256,192,245780,1,8,0:0:0:0:
256,192,245863,1,0,0:0:0:0:
256,192,246029,1,8,0:0:0:0:
256,192,246196,1,0,0:0:0:0:
256,192,246362,1,0,0:0:0:0:
256,192,246529,1,8,0:0:0:0:
256,192,246862,1,0,0:0:0:0:
256,192,247029,1,0,0:0:0:0:
256,192,247112,1,8,0:0:0:0:
256,192,247196,1,8,0:0:0:0:
256,192,247362,1,0,0:0:0:0:
256,192,247529,1,8,0:0:0:0:
256,192,247612,1,0,0:0:0:0:
256,192,247696,1,8,0:0:0:0:
256,192,247779,1,0,0:0:0:0:
256,192,247862,1,0,0:0:0:0:
256,192,248029,1,8,0:0:0:0:
256,192,248195,1,8,0:0:0:0:
256,192,248279,1,8,0:0:0:0:
256,192,248362,1,0,0:0:0:0:
256,192,248529,1,8,0:0:0:0:
256,192,248696,1,8,0:0:0:0:
256,192,248779,1,0,0:0:0:0:
256,192,248862,1,8,0:0:0:0:
256,192,249029,1,0,0:0:0:0:
256,192,249196,1,0,0:0:0:0:
256,192,249362,1,0,0:0:0:0:
256,192,249696,1,0,0:0:0:0:
256,192,249862,1,8,0:0:0:0:
256,192,250362,1,0,0:0:0:0:
256,192,250696,1,0,0:0:0:0:
256,192,251029,1,0,0:0:0:0:
256,192,251196,1,8,0:0:0:0:
256,192,251529,1,0,0:0:0:0:
256,192,251696,1,0,0:0:0:0:
256,192,251779,1,0,0:0:0:0:
256,96,251862,1,12,0:0:0:0:
256,192,259945,5,0,0:0:0:0:
256,192,260279,1,0,0:0:0:0:
256,192,260445,1,0,0:0:0:0:
256,192,260779,1,0,0:0:0:0:
256,192,260945,1,0,0:0:0:0:
256,192,261112,1,8,0:0:0:0:
256,192,261445,1,0,0:0:0:0:
256,192,261612,1,0,0:0:0:0:
256,192,261779,1,8,0:0:0:0:
256,192,261945,1,0,0:0:0:0:
256,192,262112,1,0,0:0:0:0:
256,192,262279,1,8,0:0:0:0:
256,192,262612,1,8,0:0:0:0:
256,192,262945,1,0,0:0:0:0:
256,192,263112,1,0,0:0:0:0:
256,192,263279,1,8,0:0:0:0:
256,192,263612,1,8,0:0:0:0:
256,192,263779,1,0,0:0:0:0:
256,192,264112,1,0,0:0:0:0:
256,192,264279,1,8,0:0:0:0:
256,192,264612,1,0,0:0:0:0:
256,192,264779,1,8,0:0:0:0:
256,192,264945,1,0,0:0:0:0:
256,96,265279,1,12,0:0:0:0:
256,192,265445,1,0,0:0:0:0:
256,192,265612,1,0,0:0:0:0:
256,192,265779,1,8,0:0:0:0:
256,192,266112,1,0,0:0:0:0:
256,192,266279,1,8,0:0:0:0:
256,192,266362,1,8,0:0:0:0:
256,192,266445,1,0,0:0:0:0:
256,192,266612,1,8,0:0:0:0:
256,192,266779,1,0,0:0:0:0:
256,192,266945,1,0,0:0:0:0:
256,192,267112,1,8,0:0:0:0:
256,192,267279,1,0,0:0:0:0:
256,192,267445,1,0,0:0:0:0:
256,192,267612,1,8,0:0:0:0:
256,192,267695,1,8,0:0:0:0:
256,192,267779,1,0,0:0:0:0:
256,192,267862,1,0,0:0:0:0:
256,96,267945,1,12,0:0:0:0:
256,192,268112,1,0,0:0:0:0:
256,192,268445,1,0,0:0:0:0:
256,192,268612,1,8,0:0:0:0:
256,192,268779,1,0,0:0:0:0:
256,192,268945,1,8,0:0:0:0:
256,192,269112,1,0,0:0:0:0:
256,192,269195,1,0,0:0:0:0:
256,192,269279,1,8,0:0:0:0:
256,192,269612,1,8,0:0:0:0:
256,192,269779,1,0,0:0:0:0:
256,192,269945,1,8,0:0:0:0:
256,192,270112,1,0,0:0:0:0:
256,192,270279,1,8,0:0:0:0:
256,192,270362,1,8,0:0:0:0:
256,192,270445,1,8,0:0:0:0:
256,192,270612,1,0,0:0:0:0:
256,192,270779,1,0,0:0:0:0:
256,192,271112,1,0,0:0:0:0:
256,192,271279,1,8,0:0:0:0:
256,192,271446,1,0,0:0:0:0:
256,192,271612,1,8,0:0:0:0:
256,192,271779,1,8,0:0:0:0:
256,192,271862,1,8,0:0:0:0:
256,192,271946,1,0,0:0:0:0:
256,192,272279,1,8,0:0:0:0:
256,192,272446,1,0,0:0:0:0:
256,192,272612,1,8,0:0:0:0:
256,192,272779,1,8,0:0:0:0:
256,192,272946,1,0,0:0:0:0:
256,192,273029,1,0,0:0:0:0:
256,192,273112,1,0,0:0:0:0:
256,192,273195,1,0,0:0:0:0:
256,96,273279,1,12,0:0:0:0:
256,192,273612,1,8,0:0:0:0:
256,96,273779,1,4,0:0:0:0:
256,192,274112,1,0,0:0:0:0:
256,192,274279,1,8,0:0:0:0:
256,192,274362,1,0,0:0:0:0:
256,192,274445,1,0,0:0:0:0:
256,192,274529,1,0,0:0:0:0:
256,96,274612,1,12,0:0:0:0:
256,192,274945,1,8,0:0:0:0:
256,96,275112,1,4,0:0:0:0:
256,192,275445,1,0,0:0:0:0:
256,192,275529,1,0,0:0:0:0:
256,192,275612,1,8,0:0:0:0:
256,192,275779,1,0,0:0:0:0:
256,192,275945,1,8,0:0:0:0:
256,192,276112,1,8,0:0:0:0:
256,192,276279,1,0,0:0:0:0:
256,192,276445,1,8,0:0:0:0:
256,192,276612,1,8,0:0:0:0:
256,192,276779,1,0,0:0:0:0:
256,192,276945,1,0,0:0:0:0:
256,192,277112,1,8,0:0:0:0:
256,192,279279,1,0,0:0:0:0:
256,192,279612,1,0,0:0:0:0:
256,96,279945,1,12,0:0:0:0:
256,192,280112,1,0,0:0:0:0:
256,192,280279,1,0,0:0:0:0:
256,192,280445,1,8,0:0:0:0:
256,192,280612,1,8,0:0:0:0:
256,192,280695,1,8,0:0:0:0:
256,192,280779,1,0,0:0:0:0:
256,192,280945,1,8,0:0:0:0:
256,192,281112,1,0,0:0:0:0:
256,192,281195,1,0,0:0:0:0:
256,192,281279,1,8,0:0:0:0:
256,192,281612,1,8,0:0:0:0:
256,192,281779,1,0,0:0:0:0:
256,192,281945,1,8,0:0:0:0:
256,192,282029,1,0,0:0:0:0:
256,192,282112,1,0,0:0:0:0:
256,192,282279,1,8,0:0:0:0:
256,192,282445,1,8,0:0:0:0:
256,192,282612,1,0,0:0:0:0:
256,192,282695,1,8,0:0:0:0:
256,192,282779,1,0,0:0:0:0:
256,192,282862,1,0,0:0:0:0:
256,192,282945,1,8,0:0:0:0:
256,192,283112,1,0,0:0:0:0:
256,192,283279,1,8,0:0:0:0:
256,192,283362,1,0,0:0:0:0:
256,192,283446,1,8,0:0:0:0:
256,192,283612,1,8,0:0:0:0:
256,192,283779,1,0,0:0:0:0:
256,192,283862,1,0,0:0:0:0:
256,192,283946,1,8,0:0:0:0:
256,192,284279,1,8,0:0:0:0:
256,192,284445,1,0,0:0:0:0:
256,192,284529,1,0,0:0:0:0:
256,192,284612,1,8,0:0:0:0:
256,192,284779,1,0,0:0:0:0:
256,192,284945,1,8,0:0:0:0:
256,192,285112,1,8,0:0:0:0:
256,192,285195,1,0,0:0:0:0:
256,192,285279,1,8,0:0:0:0:
256,192,285445,1,0,0:0:0:0:
256,192,285612,1,0,0:0:0:0:
256,192,285778,1,0,0:0:0:0:
256,192,285862,1,8,0:0:0:0:
256,192,285945,1,8,0:0:0:0:
256,192,286112,1,0,0:0:0:0:
256,192,286278,1,8,0:0:0:0:
256,192,286445,1,8,0:0:0:0:
256,192,286528,1,8,0:0:0:0:
256,192,286612,1,0,0:0:0:0:
256,192,286945,1,0,0:0:0:0:
256,192,287028,1,0,0:0:0:0:
256,192,287112,1,8,0:0:0:0:
256,192,287278,1,0,0:0:0:0:
256,192,287445,1,8,0:0:0:0:
256,192,287612,1,0,0:0:0:0:
256,192,287778,1,0,0:0:0:0:
256,192,287945,1,8,0:0:0:0:
256,192,288112,1,0,0:0:0:0:
256,192,288195,1,0,0:0:0:0:
256,192,288278,1,8,0:0:0:0:
256,192,288445,1,0,0:0:0:0:
256,192,288528,1,0,0:0:0:0:
256,192,288611,1,8,0:0:0:0:
256,192,288695,1,8,0:0:0:0:
256,192,288778,1,0,0:0:0:0:
256,192,288862,1,8,0:0:0:0:
256,192,288945,1,0,0:0:0:0:
256,192,289028,1,0,0:0:0:0:
256,96,289112,1,12,0:0:0:0:
256,192,289445,1,8,0:0:0:0:
256,192,289612,1,0,0:0:0:0:
256,192,289778,1,0,0:0:0:0:
256,192,289945,1,8,0:0:0:0:
256,192,290028,1,8,0:0:0:0:
256,192,290112,1,0,0:0:0:0:
256,192,290278,1,8,0:0:0:0:
256,192,290362,1,8,0:0:0:0:
256,192,290445,1,0,0:0:0:0:
256,192,290528,1,0,0:0:0:0:
256,96,290612,1,12,0:0:0:0:
256,192,290779,1,0,0:0:0:0:
256,192,290946,1,0,0:0:0:0:
256,192,291112,1,8,0:0:0:0:
256,192,291278,1,0,0:0:0:0:
256,192,291362,1,8,0:0:0:0:
256,192,291446,1,0,0:0:0:0:
256,192,291528,1,0,0:0:0:0:
256,192,291612,1,8,0:0:0:0:
256,192,291779,1,8,0:0:0:0:
256,192,291862,1,0,0:0:0:0:
256,192,291945,1,8,0:0:0:0:
256,192,292279,1,8,0:0:0:0:
256,192,292446,1,0,0:0:0:0:
256,192,292612,1,8,0:0:0:0:
256,192,292696,1,0,0:0:0:0:
256,192,292779,1,0,0:0:0:0:
256,192,292946,1,8,0:0:0:0:
256,192,293112,1,0,0:0:0:0:
256,192,293279,1,8,0:0:0:0:
256,192,293362,1,0,0:0:0:0:
256,192,293446,1,8,0:0:0:0:
256,192,293612,1,0,0:0:0:0:
256,192,293779,1,0,0:0:0:0:
256,192,293946,1,8,0:0:0:0:
256,192,294029,1,0,0:0:0:0:
256,192,294113,1,8,0:0:0:0:
256,192,294195,1,0,0:0:0:0:
256,192,294279,1,8,0:0:0:0:
256,192,294446,1,8,0:0:0:0:
256,192,294529,1,8,0:0:0:0:
256,192,294613,1,0,0:0:0:0:
256,192,294946,1,8,0:0:0:0:
256,192,295112,1,0,0:0:0:0:
256,192,295196,1,0,0:0:0:0:
256,192,295279,1,8,0:0:0:0:
256,192,295446,1,0,0:0:0:0:
256,192,295612,1,8,0:0:0:0:
256,192,295779,1,8,0:0:0:0:
256,192,295862,1,8,0:0:0:0:
256,192,295945,1,0,0:0:0:0:
256,192,296112,1,0,0:0:0:0:
256,192,296278,1,8,0:0:0:0:
256,192,296445,1,0,0:0:0:0:
256,192,296778,1,0,0:0:0:0:
256,192,296945,1,8,0:0:0:0:
256,192,297112,1,0,0:0:0:0:
256,192,297195,1,0,0:0:0:0:
256,192,297278,1,8,0:0:0:0:
256,192,297445,1,0,0:0:0:0:
256,192,297612,1,8,0:0:0:0:
256,192,297778,1,8,0:0:0:0:
256,192,297945,1,0,0:0:0:0:
256,192,298112,1,0,0:0:0:0:
256,192,298279,1,8,0:0:0:0:
256,192,298446,1,0,0:0:0:0:
256,192,298529,1,0,0:0:0:0:
256,192,298612,1,8,0:0:0:0:
256,192,298778,1,0,0:0:0:0:
256,192,298945,1,0,0:0:0:0:
256,192,299112,1,8,0:0:0:0:
256,192,299195,1,8,0:0:0:0:
256,192,299278,1,0,0:0:0:0:
256,192,299445,1,8,0:0:0:0:
256,192,299612,1,8,0:0:0:0:
256,192,299695,1,0,0:0:0:0:
256,192,299778,1,8,0:0:0:0:
256,192,299945,1,0,0:0:0:0:
256,192,300112,1,0,0:0:0:0:
256,192,300195,1,0,0:0:0:0:
256,192,300278,1,0,0:0:0:0:
256,192,300362,1,0,0:0:0:0:
256,96,300445,1,12,0:0:0:0:
256,192,300778,1,8,0:0:0:0:
256,192,300945,1,0,0:0:0:0:
256,192,301028,1,8,0:0:0:0:
256,192,301112,1,0,0:0:0:0:
256,96,301278,1,12,0:0:0:0:
256,192,301612,1,0,0:0:0:0:
256,192,301778,1,8,0:0:0:0:
256,192,301945,1,0,0:0:0:0:
256,192,302028,1,0,0:0:0:0:
256,192,302112,1,0,0:0:0:0:
256,192,302278,1,0,0:0:0:0:
256,192,302445,1,8,0:0:0:0:
256,192,302778,1,8,0:0:0:0:
256,192,302862,1,8,0:0:0:0:
256,192,302945,1,0,0:0:0:0:
256,192,303112,1,0,0:0:0:0:
256,192,303445,1,8,0:0:0:0:
256,192,303612,1,0,0:0:0:0:
256,192,303695,1,8,0:0:0:0:
256,192,303779,1,0,0:0:0:0:
256,192,303945,1,8,0:0:0:0:
256,192,304112,1,0,0:0:0:0:
256,192,304279,1,8,0:0:0:0:
256,192,304445,1,8,0:0:0:0:
256,192,304612,1,0,0:0:0:0:
256,192,304695,1,0,0:0:0:0:
256,192,304779,1,0,0:0:0:0:
256,192,304945,1,0,0:0:0:0:
256,192,305112,1,8,0:0:0:0:
256,192,305195,1,0,0:0:0:0:
256,192,305278,1,0,0:0:0:0:
256,192,305445,1,8,0:0:0:0:
256,192,305529,1,8,0:0:0:0:
256,192,305612,1,0,0:0:0:0:
256,192,305779,1,0,0:0:0:0:
256,192,306112,1,8,0:0:0:0:
256,192,306279,1,0,0:0:0:0:
256,192,306362,1,8,0:0:0:0:
256,192,306446,1,0,0:0:0:0:
256,96,306612,1,12,0:0:0:0:
256,192,306779,1,0,0:0:0:0:
256,192,306946,1,0,0:0:0:0:
256,192,307112,1,8,0:0:0:0:
256,192,307279,1,0,0:0:0:0:
256,192,307362,1,0,0:0:0:0:
256,192,307446,1,0,0:0:0:0:
256,192,307612,1,0,0:0:0:0:
256,192,307779,1,8,0:0:0:0:
256,192,308112,1,8,0:0:0:0:
256,192,308196,1,8,0:0:0:0:
256,192,308279,1,0,0:0:0:0:
256,192,308446,1,0,0:0:0:0:
256,192,308779,1,0,0:0:0:0:
256,192,308946,1,0,0:0:0:0:
256,192,309113,1,8,0:0:0:0:
256,192,309195,1,8,0:0:0:0:
256,192,309278,1,0,0:0:0:0:
256,192,309446,1,0,0:0:0:0:
256,192,309613,1,0,0:0:0:0:
256,192,309779,1,8,0:0:0:0:
256,192,309862,1,8,0:0:0:0:
256,192,309946,1,0,0:0:0:0:
256,192,310113,1,0,0:0:0:0:
256,192,310279,1,8,0:0:0:0:
256,192,310612,1,0,0:0:0:0:
256,192,310778,1,0,0:0:0:0:
256,192,310945,1,8,0:0:0:0:
256,192,311112,1,0,0:0:0:0:
256,192,311278,1,0,0:0:0:0:
256,192,311362,1,0,0:0:0:0:
256,192,311445,1,8,0:0:0:0:
256,192,311528,1,0,0:0:0:0:
256,192,311612,1,8,0:0:0:0:
256,192,311695,1,8,0:0:0:0:
256,192,311778,1,0,0:0:0:0:
256,192,311862,1,0,0:0:0:0:
256,96,311945,1,12,0:0:0:0:
256,192,319998,5,0,0:0:0:0:
256,192,320331,1,8,0:0:0:0:
256,192,320665,1,0,0:0:0:0:
256,192,320998,1,8,0:0:0:0:
256,192,321165,1,0,0:0:0:0:
256,192,321498,1,0,0:0:0:0:
256,192,321665,1,8,0:0:0:0:
256,192,321831,1,8,0:0:0:0:
256,192,321998,1,0,0:0:0:0:
256,192,322331,1,0,0:0:0:0:
256,192,322498,1,0,0:0:0:0:
256,192,322665,1,8,0:0:0:0:
256,192,322998,1,8,0:0:0:0:
256,192,323331,1,8,0:0:0:0:
256,192,323665,1,0,0:0:0:0:
256,192,323831,1,8,0:0:0:0:
256,192,324165,1,8,0:0:0:0:
256,192,324331,1,0,0:0:0:0:
256,192,324498,1,8,0:0:0:0:
256,192,324665,1,8,0:0:0:0:
256,192,324831,1,0,0:0:0:0:
256,192,324998,1,8,0:0:0:0:
256,192,325081,1,0,0:0:0:0:
256,192,325165,1,0,0:0:0:0:
256,96,325331,1,12,0:0:0:0:
256,96,325665,1,12,0:0:0:0:
256,192,325831,1,0,0:0:0:0:
256,192,326165,1,0,0:0:0:0:
256,192,326331,1,8,0:0:0:0:
256,192,326498,1,0,0:0:0:0:
256,192,326581,1,0,0:0:0:0:
256,96,326665,1,12,0:0:0:0:
256,192,326831,1,0,0:0:0:0:
256,192,326998,1,0,0:0:0:0:
256,96,327165,1,12,0:0:0:0:
256,192,327331,1,0,0:0:0:0:
256,192,327415,1,0,0:0:0:0:
256,192,327498,1,0,0:0:0:0:
256,192,327665,1,8,0:0:0:0:
256,192,327831,1,8,0:0:0:0:
256,192,327915,1,8,0:0:0:0:
256,96,327998,1,4,0:0:0:0:
256,192,328331,1,8,0:0:0:0:
256,192,328665,1,0,0:0:0:0:
256,192,328831,1,0,0:0:0:0:
256,192,328998,1,8,0:0:0:0:
256,192,329165,1,8,0:0:0:0:
256,192,329248,1,8,0:0:0:0:
256,192,329331,1,0,0:0:0:0:
256,192,329498,1,0,0:0:0:0:
256,192,329665,1,8,0:0:0:0:
256,192,329998,1,0,0:0:0:0:
256,192,330165,1,0,0:0:0:0:
256,192,330331,1,8,0:0:0:0:
256,192,330498,1,0,0:0:0:0:
256,192,330581,1,0,0:0:0:0:
256,192,330665,1,8,0:0:0:0:
256,192,330831,1,0,0:0:0:0:
256,192,330998,1,8,0:0:0:0:
256,192,331331,1,8,0:0:0:0:
256,192,331498,1,0,0:0:0:0:
256,192,331581,1,8,0:0:0:0:
256,192,331665,1,8,0:0:0:0:
256,192,331831,1,8,0:0:0:0:
256,192,331998,1,0,0:0:0:0:
256,192,332165,1,0,0:0:0:0:
256,192,332331,1,8,0:0:0:0:
256,192,332498,1,0,0:0:0:0:
256,192,332665,1,8,0:0:0:0:
256,192,332831,1,0,0:0:0:0:
256,192,332998,1,8,0:0:0:0:
256,192,333081,1,0,0:0:0:0:
256,192,333165,1,0,0:0:0:0:
256,192,333331,1,8,0:0:0:0:
256,192,333665,1,8,0:0:0:0:
256,192,333998,1,0,0:0:0:0:
256,192,334165,1,0,0:0:0:0:
256,192,334331,1,8,0:0:0:0:
256,192,334498,1,8,0:0:0:0:
256,192,334581,1,8,0:0:0:0:
256,192,334665,1,0,0:0:0:0:
256,192,334831,1,0,0:0:0:0:
256,192,334998,1,8,0:0:0:0:
256,192,335331,1,0,0:0:0:0:
256,192,335498,1,0,0:0:0:0:
256,192,335665,1,8,0:0:0:0:
256,192,335831,1,8,0:0:0:0:
256,192,335915,1,8,0:0:0:0:
256,192,335998,1,0,0:0:0:0:
256,192,336165,1,0,0:0:0:0:
256,192,336331,1,8,0:0:0:0:
256,192,336665,1,8,0:0:0:0:
256,192,336831,1,8,0:0:0:0:
256,192,336915,1,8,0:0:0:0:
256,192,336998,1,0,0:0:0:0:
256,192,337165,1,0,0:0:0:0:
256,192,337331,1,8,0:0:0:0:
256,192,337498,1,0,0:0:0:0:
256,192,337665,1,8,0:0:0:0:
256,192,337831,1,0,0:0:0:0:
256,192,337998,1,8,0:0:0:0:
256,192,338081,1,0,0:0:0:0:
256,192,338165,1,0,0:0:0:0:
256,192,338331,1,8,0:0:0:0:
256,96,338665,1,4,0:0:0:0:
256,192,338998,1,8,0:0:0:0:
256,192,339331,1,0,0:0:0:0:
256,192,339498,1,8,0:0:0:0:
256,192,339665,1,8,0:0:0:0:
256,192,339831,1,0,0:0:0:0:
256,192,339998,1,8,0:0:0:0:
256,192,340081,1,8,0:0:0:0:
256,192,340165,1,0,0:0:0:0:
256,192,340331,1,8,0:0:0:0:
256,192,340498,1,8,0:0:0:0:
256,192,340665,1,0,0:0:0:0:
256,192,340831,1,0,0:0:0:0:
256,192,340998,1,8,0:0:0:0:
256,192,341331,1,0,0:0:0:0:
256,192,341665,1,8,0:0:0:0:
256,192,341831,1,8,0:0:0:0:
256,192,341998,1,8,0:0:0:0:
256,192,342165,1,8,0:0:0:0:
256,192,342331,1,8,0:0:0:0:
256,192,342498,1,0,0:0:0:0:
256,192,342581,1,0,0:0:0:0:
256,192,342665,1,8,0:0:0:0:
256,96,343998,1,4,0:0:0:0:
256,192,344331,1,8,0:0:0:0:
256,192,344498,1,0,0:0:0:0:
256,192,344665,1,8,0:0:0:0:
256,192,344748,1,8,0:0:0:0:
256,192,344831,1,0,0:0:0:0:
256,192,344998,1,8,0:0:0:0:
256,192,345165,1,8,0:0:0:0:
256,192,345331,1,0,0:0:0:0:
256,192,345498,1,0,0:0:0:0:
256,192,345665,1,8,0:0:0:0:
256,192,345748,1,0,0:0:0:0:
256,192,345831,1,0,0:0:0:0:
256,192,345998,1,8,0:0:0:0:
256,192,346165,1,0,0:0:0:0:
256,192,346331,1,8,0:0:0:0:
256,192,346415,1,0,0:0:0:0:
256,192,346498,1,8,0:0:0:0:
256,192,346665,1,0,0:0:0:0:
256,192,346998,1,8,0:0:0:0:
256,192,347165,1,0,0:0:0:0:
256,192,347331,1,8,0:0:0:0:
256,192,347415,1,0,0:0:0:0:
256,192,347498,1,0,0:0:0:0:
256,192,347665,1,8,0:0:0:0:
256,192,347748,1,0,0:0:0:0:
256,192,347831,1,8,0:0:0:0:
256,192,347915,1,8,0:0:0:0:
256,192,347998,1,0,0:0:0:0:
256,192,348331,1,8,0:0:0:0:
256,192,348498,1,0,0:0:0:0:
256,192,348665,1,8,0:0:0:0:
256,192,348748,1,0,0:0:0:0:
256,192,348831,1,0,0:0:0:0:
256,192,348998,1,8,0:0:0:0:
256,192,349165,1,0,0:0:0:0:
256,192,349331,1,8,0:0:0:0:
256,192,349415,1,8,0:0:0:0:
256,192,349498,1,8,0:0:0:0:
256,192,349665,1,0,0:0:0:0:
256,192,349831,1,8,0:0:0:0:
256,192,349998,1,0,0:0:0:0:
256,192,350165,1,0,0:0:0:0:
256,192,350331,1,8,0:0:0:0:
256,192,350498,1,8,0:0:0:0:
256,192,350581,1,8,0:0:0:0:
256,192,350665,1,0,0:0:0:0:
256,192,350831,1,0,0:0:0:0:
256,192,350998,1,8,0:0:0:0:
256,192,351165,1,0,0:0:0:0:
256,192,351331,1,8,0:0:0:0:
256,192,351415,1,0,0:0:0:0:
256,192,351498,1,0,0:0:0:0:
256,192,351665,1,8,0:0:0:0:
256,192,351831,1,8,0:0:0:0:
256,192,351915,1,8,0:0:0:0:
256,192,351998,1,0,0:0:0:0:
256,192,352331,1,8,0:0:0:0:
256,192,352498,1,0,0:0:0:0:
256,192,352665,1,8,0:0:0:0:
256,192,352831,1,0,0:0:0:0:
256,192,352998,1,0,0:0:0:0:
256,192,353081,1,0,0:0:0:0:
256,96,353165,1,12,0:0:0:0:
256,192,353498,1,0,0:0:0:0:
256,192,353665,1,8,0:0:0:0:
256,192,353831,1,0,0:0:0:0:
256,192,353998,1,8,0:0:0:0:
256,192,354165,1,0,0:0:0:0:
256,192,354248,1,0,0:0:0:0:
256,192,354331,1,8,0:0:0:0:
256,192,354415,1,0,0:0:0:0:
256,192,354498,1,8,0:0:0:0:
256,192,354581,1,8,0:0:0:0:
256,96,354665,1,4,0:0:0:0:
256,192,354998,1,8,0:0:0:0:
256,192,355165,1,0,0:0:0:0:
256,192,355331,1,8,0:0:0:0:
256,192,355415,1,8,0:0:0:0:
256,192,355498,1,0,0:0:0:0:
256,192,355665,1,8,0:0:0:0:
256,192,355831,1,8,0:0:0:0:
256,192,355998,1,0,0:0:0:0:
256,192,356165,1,0,0:0:0:0:
256,192,356331,1,8,0:0:0:0:
256,192,356415,1,8,0:0:0:0:
256,192,356498,1,0,0:0:0:0:
256,192,356665,1,0,0:0:0:0:
256,192,356831,1,0,0:0:0:0:
256,192,356998,1,8,0:0:0:0:
256,192,357081,1,8,0:0:0:0:
256,192,357165,1,8,0:0:0:0:
256,192,357331,1,0,0:0:0:0:
256,192,357665,1,8,0:0:0:0:
256,192,357831,1,0,0:0:0:0:
256,192,357998,1,8,0:0:0:0:
256,192,358081,1,0,0:0:0:0:
256,192,358165,1,0,0:0:0:0:
256,192,358331,1,8,0:0:0:0:
256,192,358415,1,0,0:0:0:0:
256,192,358498,1,8,0:0:0:0:
256,192,358581,1,8,0:0:0:0:
256,192,358665,1,0,0:0:0:0:
256,192,358998,1,8,0:0:0:0:
256,192,359165,1,0,0:0:0:0:
256,192,359331,1,8,0:0:0:0:
256,192,359415,1,0,0:0:0:0:
256,192,359498,1,0,0:0:0:0:
256,192,359665,1,8,0:0:0:0:
256,96,359998,1,12,0:0:0:0:
256,192,360165,1,0,0:0:0:0:
256,192,360331,1,8,0:0:0:0:
256,192,360498,1,0,0:0:0:0:
256,192,360665,1,8,0:0:0:0:
256,192,360748,1,0,0:0:0:0:
256,192,360831,1,0,0:0:0:0:
256,192,360998,1,8,0:0:0:0:
256,192,361331,1,8,0:0:0:0:
256,192,361498,1,0,0:0:0:0:
256,192,361665,1,8,0:0:0:0:
256,192,361831,1,0,0:0:0:0:
256,192,361998,1,8,0:0:0:0:
256,192,362081,1,0,0:0:0:0:
256,192,362165,1,0,0:0:0:0:
256,192,362331,1,8,0:0:0:0:
256,192,362665,1,8,0:0:0:0:
256,192,362831,1,0,0:0:0:0:
256,192,362998,1,8,0:0:0:0:
256,192,363165,1,8,0:0:0:0:
256,192,363331,1,0,0:0:0:0:
256,192,363498,1,8,0:0:0:0:
256,192,363665,1,0,0:0:0:0:
256,192,363748,1,0,0:0:0:0:
256,192,363831,1,8,0:0:0:0:
256,192,364165,1,0,0:0:0:0:
256,96,364331,1,12,0:0:0:0:
256,192,364498,1,0,0:0:0:0:
256,192,364665,1,8,0:0:0:0:
256,192,364831,1,0,0:0:0:0:
256,192,364915,1,0,0:0:0:0:
256,192,364998,1,8,0:0:0:0:
256,192,365081,1,8,0:0:0:0:
256,192,365165,1,8,0:0:0:0:
256,192,365248,1,8,0:0:0:0:
256,96,365331,1,4,0:0:0:0:
256,96,366665,1,4,0:0:0:0:
256,96,367998,1,12,0:0:0:0:
256,192,368165,1,0,0:0:0:0:
256,192,368331,1,8,0:0:0:0:
256,192,368498,1,8,0:0:0:0:
256,192,368581,1,0,0:0:0:0:
256,192,368665,1,8,0:0:0:0:
256,192,368831,1,0,0:0:0:0:
256,192,368998,1,0,0:0:0:0:
256,192,369165,1,8,0:0:0:0:
256,192,369498,1,0,0:0:0:0:
256,192,369665,1,8,0:0:0:0:
256,192,369831,1,0,0:0:0:0:
256,192,369998,1,0,0:0:0:0:
256,192,370081,1,0,0:0:0:0:
256,192,370165,1,0,0:0:0:0:
256,192,370331,1,8,0:0:0:0:
256,192,370665,1,8,0:0:0:0:
256,192,370831,1,0,0:0:0:0:
256,192,370998,1,8,0:0:0:0:
256,192,371165,1,8,0:0:0:0:
256,192,371248,1,0,0:0:0:0:
256,192,371331,1,0,0:0:0:0:
256,192,371498,1,8,0:0:0:0:
256,192,371581,1,8,0:0:0:0:
256,192,371665,1,0,0:0:0:0:
256,192,371831,1,8,0:0:0:0:
256,192,371998,1,0,0:0:0:0:
256,192,372165,1,0,0:0:0:0:
256,192,372331,1,0,0:0:0:0:
256,192,372415,1,0,0:0:0:0:
256,192,372498,1,8,0:0:0:0:
256,192,372831,1,0,0:0:0:0:
256,192,372998,1,8,0:0:0:0:
256,192,373165,1,0,0:0:0:0:
256,192,373248,1,0,0:0:0:0:
256,192,373331,1,8,0:0:0:0:
256,192,373498,1,0,0:0:0:0:
256,192,373665,1,8,0:0:0:0:
256,192,373831,1,8,0:0:0:0:
256,192,373915,1,8,0:0:0:0:
256,192,373998,1,0,0:0:0:0:
256,192,374165,1,0,0:0:0:0:
256,192,374331,1,0,0:0:0:0:
256,192,374415,1,0,0:0:0:0:
256,192,374498,1,8,0:0:0:0:
256,192,374831,1,0,0:0:0:0:
256,192,374998,1,8,0:0:0:0:
256,192,375165,1,0,0:0:0:0:
256,192,375248,1,0,0:0:0:0:
256,192,375331,1,0,0:0:0:0:
256,192,375498,1,0,0:0:0:0:
256,192,375665,1,8,0:0:0:0:
256,192,375998,1,0,0:0:0:0:
256,192,376331,1,8,0:0:0:0:
256,192,376665,1,8,0:0:0:0:
256,192,376831,1,0,0:0:0:0:
256,192,376998,1,0,0:0:0:0:
256,192,377081,1,0,0:0:0:0:
256,192,377165,1,8,0:0:0:0:
256,192,377498,1,0,0:0:0:0:
256,192,377665,1,8,0:0:0:0:
256,192,377831,1,8,0:0:0:0:
256,192,377998,1,0,0:0:0:0:
256,192,378165,1,0,0:0:0:0:
256,192,378248,1,0,0:0:0:0:
256,192,378331,1,8,0:0:0:0:
256,192,378498,1,0,0:0:0:0:
256,96,378665,1,12,0:0:0:0:
256,192,378831,1,0,0:0:0:0:
256,192,378998,1,8,0:0:0:0:
256,192,379165,1,8,0:0:0:0:
256,192,379248,1,8,0:0:0:0:
256,192,379331,1,0,0:0:0:0:
256,192,379498,1,0,0:0:0:0:
256,192,379665,1,0,0:0:0:0:
256,192,379831,1,8,0:0:0:0:
256,192,380165,1,0,0:0:0:0:
256,192,380331,1,8,0:0:0:0:
256,192,380498,1,0,0:0:0:0:
256,192,380665,1,0,0:0:0:0:
256,192,380748,1,0,0:0:0:0:
256,192,380831,1,0,0:0:0:0:
256,192,380998,1,8,0:0:0:0:
256,192,381331,1,8,0:0:0:0:
256,192,381498,1,0,0:0:0:0:
256,192,381665,1,8,0:0:0:0:
256,192,381831,1,8,0:0:0:0:
256,192,381915,1,0,0:0:0:0:
256,192,381998,1,0,0:0:0:0:
256,192,382165,1,8,0:0:0:0:
256,192,382248,1,0,0:0:0:0:
256,192,382331,1,8,0:0:0:0:
256,192,382498,1,8,0:0:0:0:
256,192,382665,1,0,0:0:0:0:
256,192,382831,1,0,0:0:0:0:
256,192,382998,1,0,0:0:0:0:
256,192,383081,1,0,0:0:0:0:
256,192,383165,1,8,0:0:0:0:
256,192,383498,1,0,0:0:0:0:
256,192,383665,1,8,0:0:0:0:
256,192,383831,1,0,0:0:0:0:
256,192,383915,1,0,0:0:0:0:
256,192,383998,1,8,0:0:0:0:
256,192,384165,1,0,0:0:0:0:
256,192,384331,1,8,0:0:0:0:
256,192,384498,1,8,0:0:0:0:
256,192,384581,1,8,0:0:0:0:
256,192,384665,1,0,0:0:0:0:
256,192,384831,1,0,0:0:0:0:
256,192,384998,1,0,0:0:0:0:
256,192,385081,1,0,0:0:0:0:
256,192,385165,1,8,0:0:0:0:
256,192,385498,1,0,0:0:0:0:
256,192,385665,1,8,0:0:0:0:
256,192,385831,1,0,0:0:0:0:
256,192,385915,1,0,0:0:0:0:
256,192,385998,1,8,0:0:0:0:
256,192,386165,1,0,0:0:0:0:
256,192,386331,1,8,0:0:0:0:
256,192,386665,1,0,0:0:0:0:
256,192,386998,1,8,0:0:0:0:
256,192,387331,1,8,0:0:0:0:
256,192,387498,1,0,0:0:0:0:
256,192,387665,1,0,0:0:0:0:
256,192,387748,1,0,0:0:0:0:
256,192,387831,1,8,0:0:0:0:
256,192,388165,1,0,0:0:0:0:
256,192,388331,1,8,0:0:0:0:
256,192,388498,1,8,0:0:0:0:
256,192,388665,1,0,0:0:0:0:
256,192,388831,1,0,0:0:0:0:
256,192,388915,1,0,0:0:0:0:
256,192,388998,1,8,0:0:0:0:
256,192,389165,1,8,0:0:0:0:
256,96,389331,1,4,0:0:0:0:
256,192,397520,5,0,0:0:0:0:
256,192,397854,1,8,0:0:0:0:
256,192,398020,1,0,0:0:0:0:
256,192,398354,1,0,0:0:0:0:
256,192,398520,1,8,0:0:0:0:
256,192,398854,1,0,0:0:0:0:
256,192,399020,1,0,0:0:0:0:
256,192,399187,1,8,0:0:0:0:
256,192,399354,1,0,0:0:0:0:
256,192,399687,1,8,0:0:0:0:
256,192,399854,1,8,0:0:0:0:
256,192,400020,1,0,0:0:0:0:
256,192,400104,1,0,0:0:0:0:
256,192,400187,1,0,0:0:0:0:
256,192,400354,1,0,0:0:0:0:
256,192,400520,1,8,0:0:0:0:
256,192,400854,1,0,0:0:0:0:
256,192,401020,1,0,0:0:0:0:
256,192,401187,1,8,0:0:0:0:
256,192,401354,1,8,0:0:0:0:
256,192,401520,1,0,0:0:0:0:
256,192,401687,1,0,0:0:0:0:
256,192,401854,1,8,0:0:0:0:
256,192,402187,1,8,0:0:0:0:
256,192,402354,1,8,0:0:0:0:
256,192,402520,1,0,0:0:0:0:
256,96,402854,1,12,0:0:0:0:
256,192,403020,1,0,0:0:0:0:
256,192,403354,1,0,0:0:0:0:
256,192,403520,1,8,0:0:0:0:
256,192,403687,1,0,0:0:0:0:
256,192,403854,1,0,0:0:0:0:
256,192,404020,1,8,0:0:0:0:
256,192,404354,1,0,0:0:0:0:
256,192,404520,1,8,0:0:0:0:
256,192,404687,1,8,0:0:0:0:
256,192,404854,1,0,0:0:0:0:
256,192,405020,1,0,0:0:0:0:
256,192,405187,1,8,0:0:0:0:
256,192,405354,1,0,0:0:0:0:
256,96,405520,1,12,0:0:0:0:
256,192,406020,1,0,0:0:0:0:
256,192,406187,1,8,0:0:0:0:
256,192,406520,1,0,0:0:0:0:
256,192,406687,1,0,0:0:0:0:
256,192,406854,1,8,0:0:0:0:
256,192,407020,1,0,0:0:0:0:
256,192,407187,1,0,0:0:0:0:
256,192,407354,1,8,0:0:0:0:
256,192,407687,1,0,0:0:0:0:
256,192,407854,1,8,0:0:0:0:
256,192,408020,1,0,0:0:0:0:
256,192,408187,1,0,0:0:0:0:
256,192,408520,1,0,0:0:0:0:
256,192,408687,1,8,0:0:0:0:
256,192,409020,1,0,0:0:0:0:
256,192,409187,5,8,0:0:0:0:
256,192,409354,1,8,0:0:0:0:
256,192,409520,1,0,0:0:0:0:
256,192,409687,1,0,0:0:0:0:
256,192,409854,1,8,0:0:0:0:
256,192,410187,1,8,0:0:0:0:
256,192,410354,1,0,0:0:0:0:
256,192,410520,1,8,0:0:0:0:
256,192,410687,1,0,0:0:0:0:
256,96,410854,1,12,0:0:0:0:
256,192,411187,1,8,0:0:0:0:
256,192,411354,1,0,0:0:0:0:
256,192,411520,1,8,0:0:0:0:
256,192,411687,1,8,0:0:0:0:
256,192,411854,1,0,0:0:0:0:
256,192,412020,1,0,0:0:0:0:
256,192,412187,1,8,0:0:0:0:
256,192,412354,1,0,0:0:0:0:
256,192,412520,1,0,0:0:0:0:
256,192,412687,1,8,0:0:0:0:
256,192,413020,1,0,0:0:0:0:
256,192,413187,1,0,0:0:0:0:
256,96,413354,1,12,0:0:0:0:
256,192,413687,1,0,0:0:0:0:
256,192,413854,1,8,0:0:0:0:
256,192,414020,1,0,0:0:0:0:
256,192,414354,1,8,0:0:0:0:
256,192,414520,1,0,0:0:0:0:
256,192,414687,1,8,0:0:0:0:
256,192,414854,1,0,0:0:0:0:
256,192,415020,1,0,0:0:0:0:
256,192,415187,1,8,0:0:0:0:
256,192,415354,1,0,0:0:0:0:
256,192,415520,1,0,0:0:0:0:
256,192,415687,1,8,0:0:0:0:
256,96,416020,1,12,0:0:0:0:
256,192,416354,1,0,0:0:0:0:
256,192,416520,1,0,0:0:0:0:
256,192,416687,1,0,0:0:0:0:
256,192,416854,1,8,0:0:0:0:
256,96,417520,1,12,0:0:0:0:
256,192,417854,1,0,0:0:0:0:
256,192,418020,1,0,0:0:0:0:
256,192,418104,1,0,0:0:0:0:
256,192,418187,1,8,0:0:0:0:
256,192,418354,1,0,0:0:0:0:
256,192,418520,1,8,0:0:0:0:
256,192,418687,1,8,0:0:0:0:
256,192,418770,1,8,0:0:0:0:
256,192,418854,1,0,0:0:0:0:
256,192,419020,1,0,0:0:0:0:
256,192,419187,1,8,0:0:0:0:
256,192,419354,1,0,0:0:0:0:
256,192,419438,1,0,0:0:0:0:
256,192,419521,1,8,0:0:0:0:
256,192,419604,1,8,0:0:0:0:
256,192,419688,1,0,0:0:0:0:
256,192,419854,1,8,0:0:0:0:
256,192,420021,1,0,0:0:0:0:
256,192,420104,1,8,0:0:0:0:
256,192,420188,1,8,0:0:0:0:
256,192,420521,1,8,0:0:0:0:
256,192,420687,1,0,0:0:0:0:
256,192,420771,1,0,0:0:0:0:
256,192,420854,1,8,0:0:0:0:
256,192,421021,1,0,0:0:0:0:
256,192,421187,1,8,0:0:0:0:
256,192,421354,1,8,0:0:0:0:
256,192,421437,1,8,0:0:0:0:
256,192,421521,1,0,0:0:0:0:
256,192,421687,1,0,0:0:0:0:
256,192,421854,1,8,0:0:0:0:
256,192,422020,1,0,0:0:0:0:
256,192,422104,1,0,0:0:0:0:
256,192,422187,1,8,0:0:0:0:
256,192,422270,1,0,0:0:0:0:
256,192,422354,1,0,0:0:0:0:
256,192,422520,1,8,0:0:0:0:
256,192,422687,1,0,0:0:0:0:
256,192,422770,1,8,0:0:0:0:
256,192,422854,1,0,0:0:0:0:
256,192,423187,1,8,0:0:0:0:
256,192,423354,1,0,0:0:0:0:
256,192,423520,1,8,0:0:0:0:
256,192,423687,1,0,0:0:0:0:
256,192,423853,1,0,0:0:0:0:
256,192,423937,1,0,0:0:0:0:
256,192,424020,1,8,0:0:0:0:
256,192,424187,1,8,0:0:0:0:
256,192,424353,1,0,0:0:0:0:
256,192,424520,1,8,0:0:0:0:
256,192,424603,1,8,0:0:0:0:
256,192,424687,1,0,0:0:0:0:
256,192,424853,1,0,0:0:0:0:
256,192,425020,1,8,0:0:0:0:
256,192,425187,1,8,0:0:0:0:
256,192,425270,1,0,0:0:0:0:
256,192,425353,1,0,0:0:0:0:
256,96,425520,1,12,0:0:0:0:
256,192,425687,1,0,0:0:0:0:
256,192,425853,1,0,0:0:0:0:
256,96,426020,1,12,0:0:0:0:
256,192,426353,1,0,0:0:0:0:
256,192,426520,1,0,0:0:0:0:
256,96,426687,1,12,0:0:0:0:
256,192,427020,1,0,0:0:0:0:
256,192,427187,1,8,0:0:0:0:
256,192,427353,1,0,0:0:0:0:
256,192,427520,1,8,0:0:0:0:
256,192,427687,1,0,0:0:0:0:
256,192,427770,1,0,0:0:0:0:
256,192,427853,1,8,0:0:0:0:
256,192,427937,1,0,0:0:0:0:
256,192,428020,1,0,0:0:0:0:
256,192,428103,1,0,0:0:0:0:
256,96,428187,1,12,0:0:0:0:
256,192,428520,1,0,0:0:0:0:
256,192,428686,1,0,0:0:0:0:
256,192,428770,1,0,0:0:0:0:
256,192,428853,1,8,0:0:0:0:
256,192,429020,1,0,0:0:0:0:
256,192,429186,1,8,0:0:0:0:
256,192,429270,1,0,0:0:0:0:
256,192,429353,1,8,0:0:0:0:
256,192,429436,1,8,0:0:0:0:
256,192,429520,1,0,0:0:0:0:
256,192,429687,1,0,0:0:0:0:
256,192,429853,1,8,0:0:0:0:
256,192,430020,1,0,0:0:0:0:
256,192,430104,1,0,0:0:0:0:
256,192,430187,1,8,0:0:0:0:
256,192,430354,1,0,0:0:0:0:
256,192,430520,1,8,0:0:0:0:
256,192,430603,1,8,0:0:0:0:
256,192,430687,1,0,0:0:0:0:
256,192,430770,1,0,0:0:0:0:
256,192,430853,1,8,0:0:0:0:
256,192,431187,1,0,0:0:0:0:
256,192,431353,1,0,0:0:0:0:
256,192,431437,1,8,0:0:0:0:
256,192,431520,1,8,0:0:0:0:
256,192,431687,1,0,0:0:0:0:
256,192,431853,1,8,0:0:0:0:
256,192,431937,1,8,0:0:0:0:
256,192,432020,1,0,0:0:0:0:
256,192,432103,1,8,0:0:0:0:
256,192,432187,1,0,0:0:0:0:
256,192,432353,1,0,0:0:0:0:
256,192,432520,1,8,0:0:0:0:
256,192,432686,1,0,0:0:0:0:
256,192,432770,1,8,0:0:0:0:
256,192,432853,1,0,0:0:0:0:
256,192,433020,1,0,0:0:0:0:
256,192,433103,1,0,0:0:0:0:
256,192,433186,1,8,0:0:0:0:
256,192,433270,1,0,0:0:0:0:
256,192,433353,1,0,0:0:0:0:
256,192,433436,1,0,0:0:0:0:
256,96,433520,1,12,0:0:0:0:
256,192,433853,1,0,0:0:0:0:
256,192,434020,1,0,0:0:0:0:
256,192,434186,1,8,0:0:0:0:
256,192,434353,1,0,0:0:0:0:
256,192,434519,1,8,0:0:0:0:
256,192,434603,1,0,0:0:0:0:
256,192,434686,1,0,0:0:0:0:
256,192,434853,1,8,0:0:0:0:
256,192,435020,1,8,0:0:0:0:
256,192,435103,1,0,0:0:0:0:
256,192,435187,1,8,0:0:0:0:
256,192,435270,1,8,0:0:0:0:
256,192,435353,1,0,0:0:0:0:
256,192,435519,1,0,0:0:0:0:
256,192,435687,1,8,0:0:0:0:
256,192,435770,1,0,0:0:0:0:
256,192,435853,1,8,0:0:0:0:
256,192,436020,1,8,0:0:0:0:
256,192,436187,1,0,0:0:0:0:
256,192,436520,1,8,0:0:0:0:
256,192,436687,1,8,0:0:0:0:
256,192,436770,1,8,0:0:0:0:
256,192,436853,1,0,0:0:0:0:
256,192,437020,1,0,0:0:0:0:
256,192,437187,1,0,0:0:0:0:
256,96,437353,1,12,0:0:0:0:
256,192,437687,1,0,0:0:0:0:
256,192,437853,1,0,0:0:0:0:
256,192,438020,1,8,0:0:0:0:
256,96,438853,1,4,0:0:0:0:
256,192,439187,1,0,0:0:0:0:
256,192,439353,1,8,0:0:0:0:
256,192,439437,1,8,0:0:0:0:
256,192,439520,1,0,0:0:0:0:
256,192,439687,1,0,0:0:0:0:
256,192,439853,1,8,0:0:0:0:
256,192,440020,1,8,0:0:0:0:
256,192,440187,1,0,0:0:0:0:
256,192,440353,1,8,0:0:0:0:
256,192,440437,1,8,0:0:0:0:
256,192,440520,1,0,0:0:0:0:
256,192,440687,1,0,0:0:0:0:
256,192,441020,1,0,0:0:0:0:
256,192,441187,1,0,0:0:0:0:
256,192,441353,1,8,0:0:0:0:
256,192,441520,1,0,0:0:0:0:
256,192,441687,1,0,0:0:0:0:
256,192,441770,1,0,0:0:0:0:
256,192,441854,1,0,0:0:0:0:
256,192,442020,1,8,0:0:0:0:
256,192,442187,1,0,0:0:0:0:
256,192,442353,1,0,0:0:0:0:
256,192,442437,1,0,0:0:0:0:
256,192,442520,1,8,0:0:0:0:
256,192,442603,1,8,0:0:0:0:
256,192,442687,1,0,0:0:0:0:
256,192,442853,1,8,0:0:0:0:
256,192,443020,1,8,0:0:0:0:
256,192,443187,1,0,0:0:0:0:
256,192,443353,1,8,0:0:0:0:
256,192,443520,1,0,0:0:0:0:
256,192,443687,1,8,0:0:0:0:
256,192,443770,1,0,0:0:0:0:
256,192,443853,1,8,0:0:0:0:
256,192,444020,1,0,0:0:0:0:
256,192,444187,1,0,0:0:0:0:
256,192,444520,1,0,0:0:0:0:
256,192,444686,1,8,0:0:0:0:
256,192,444770,1,8,0:0:0:0:
256,192,444853,1,0,0:0:0:0:
256,192,445020,1,0,0:0:0:0:
256,192,445186,1,0,0:0:0:0:
256,192,445353,1,8,0:0:0:0:
256,192,445520,1,0,0:0:0:0:
256,192,445686,1,8,0:0:0:0:
256,192,445770,1,8,0:0:0:0:
256,192,445853,1,0,0:0:0:0:
256,192,446020,1,0,0:0:0:0:
256,192,446353,1,0,0:0:0:0:
256,192,446520,1,0,0:0:0:0:
256,192,446686,1,8,0:0:0:0:
256,192,446853,1,0,0:0:0:0:
256,192,447020,1,8,0:0:0:0:
256,192,447187,1,0,0:0:0:0:
256,192,447270,1,8,0:0:0:0:
256,192,447353,1,0,0:0:0:0:
256,192,447520,1,8,0:0:0:0:
256,192,447686,1,0,0:0:0:0:
256,192,447770,1,8,0:0:0:0:
256,192,447853,1,0,0:0:0:0:
256,192,448020,1,0,0:0:0:0:
256,192,448186,1,8,0:0:0:0:
256,192,448270,1,0,0:0:0:0:
256,192,448353,1,8,0:0:0:0:
256,192,448520,1,0,0:0:0:0:
256,192,448687,1,8,0:0:0:0:
256,192,448853,1,0,0:0:0:0:
256,192,448937,1,0,0:0:0:0:
256,192,449020,1,8,0:0:0:0:
256,192,449103,1,8,0:0:0:0:
256,192,449187,1,0,0:0:0:0:
256,192,449270,1,8,0:0:0:0:
256,192,449353,1,0,0:0:0:0:
256,192,449437,1,0,0:0:0:0:
256,96,449520,1,12,0:0:0:0:
256,192,456298,5,0,0:0:0:0:
256,192,456622,1,8,0:0:0:0:
256,192,457163,1,0,0:0:0:0:
256,192,457271,1,8,0:0:0:0:
256,192,457595,1,0,0:0:0:0:
256,192,457919,1,8,0:0:0:0:
256,192,458460,1,0,0:0:0:0:
256,192,458568,1,8,0:0:0:0:
256,192,458892,1,0,0:0:0:0:
256,192,459217,1,8,0:0:0:0:
256,192,459541,1,0,0:0:0:0:
256,192,459757,1,0,0:0:0:0:
256,192,459865,1,8,0:0:0:0:
256,192,460082,1,8,0:0:0:0:
256,192,460190,1,0,0:0:0:0:
256,192,460514,1,8,0:0:0:0:
256,192,461055,1,0,0:0:0:0:
256,192,461163,1,0,0:0:0:0:
256,192,461379,1,0,0:0:0:0:
256,192,461487,1,8,0:0:0:0:
256,192,461703,1,0,0:0:0:0:
256,192,461811,1,8,0:0:0:0:
256,192,462136,1,0,0:0:0:0:
256,192,462352,1,0,0:0:0:0:
256,192,462460,1,8,0:0:0:0:
256,192,462784,1,0,0:0:0:0:
256,192,463109,1,0,0:0:0:0:
256,192,463433,1,8,0:0:0:0:
256,192,463649,1,0,0:0:0:0:
256,192,463757,1,8,0:0:0:0:
256,192,463973,1,8,0:0:0:0:
256,192,464082,1,0,0:0:0:0:
256,192,464406,1,8,0:0:0:0:
256,192,464730,1,0,0:0:0:0:
256,192,464946,1,0,0:0:0:0:
256,192,465055,1,8,0:0:0:0:
256,192,465379,1,0,0:0:0:0:
256,192,465919,1,0,0:0:0:0:
256,192,466028,1,8,0:0:0:0:
256,192,466244,1,0,0:0:0:0:
256,192,466568,1,8,0:0:0:0:
256,192,466892,1,8,0:0:0:0:
256,192,467001,1,0,0:0:0:0:
256,192,467325,1,8,0:0:0:0:
256,96,467973,1,12,0:0:0:0:
256,192,468190,1,0,0:0:0:0:
256,192,468298,1,8,0:0:0:0:
256,192,468514,1,8,0:0:0:0:
256,192,468622,1,8,0:0:0:0:
256,192,468838,1,8,0:0:0:0:
256,192,468946,1,0,0:0:0:0:
256,192,469163,1,0,0:0:0:0:
256,192,469271,1,8,0:0:0:0:
256,192,469487,1,0,0:0:0:0:
256,192,469595,1,8,0:0:0:0:
256,192,469811,1,0,0:0:0:0:
256,192,470136,1,0,0:0:0:0:
256,192,470244,1,8,0:0:0:0:
256,192,470568,1,0,0:0:0:0:
256,192,470784,1,0,0:0:0:0:
256,192,470892,1,8,0:0:0:0:
256,192,471109,1,8,0:0:0:0:
256,192,471217,1,0,0:0:0:0:
256,192,471433,1,0,0:0:0:0:
256,192,471541,1,8,0:0:0:0:
256,192,471757,1,0,0:0:0:0:
256,192,471865,1,0,0:0:0:0:
256,192,472082,1,8,0:0:0:0:
256,192,472190,1,8,0:0:0:0:
256,192,472514,1,0,0:0:0:0:
256,192,472730,1,8,0:0:0:0:
256,192,472838,1,8,0:0:0:0:
256,192,473055,1,0,0:0:0:0:
256,192,473163,1,0,0:0:0:0:
256,192,473379,1,0,0:0:0:0:
256,192,473487,1,8,0:0:0:0:
256,192,473703,1,0,0:0:0:0:
256,192,473811,1,8,0:0:0:0:
256,192,474027,1,8,0:0:0:0:
256,192,474135,1,0,0:0:0:0:
256,192,474352,1,0,0:0:0:0:
256,192,474460,1,8,0:0:0:0:
256,192,474676,1,0,0:0:0:0:
256,192,474784,1,8,0:0:0:0:
256,192,475000,1,8,0:0:0:0:
256,192,475325,1,0,0:0:0:0:
256,192,475433,1,8,0:0:0:0:
256,192,475649,1,8,0:0:0:0:
256,192,475757,1,0,0:0:0:0:
256,192,476081,1,8,0:0:0:0:
256,192,476297,1,8,0:0:0:0:
256,192,476621,1,8,0:0:0:0:
256,192,476729,1,0,0:0:0:0:
256,192,476946,1,0,0:0:0:0:
256,192,477054,1,8,0:0:0:0:
256,192,477270,1,0,0:0:0:0:
256,192,477378,1,8,0:0:0:0:
256,192,477594,1,0,0:0:0:0:
256,192,477703,1,8,0:0:0:0:
256,192,477919,1,0,0:0:0:0:
256,192,478027,1,8,0:0:0:0:
256,192,478136,1,8,0:0:0:0:
256,192,478244,1,8,0:0:0:0:
256,192,478351,1,0,0:0:0:0:
256,192,478568,1,0,0:0:0:0:
256,192,478676,1,8,0:0:0:0:
256,192,478892,1,8,0:0:0:0:
256,192,479000,1,0,0:0:0:0:
256,192,479216,1,0,0:0:0:0:
256,192,479324,1,8,0:0:0:0:
256,192,479541,1,8,0:0:0:0:
256,192,479649,1,0,0:0:0:0:
256,192,479865,1,0,0:0:0:0:
256,192,479973,1,8,0:0:0:0:
256,192,480189,1,0,0:0:0:0:
256,192,480514,1,0,0:0:0:0:
256,192,480622,1,8,0:0:0:0:
256,192,480946,1,0,0:0:0:0:
256,192,481162,1,0,0:0:0:0:
256,192,481270,1,8,0:0:0:0:
256,192,481487,1,8,0:0:0:0:
256,192,481595,1,0,0:0:0:0:
256,192,481811,1,0,0:0:0:0:
256,192,481919,1,8,0:0:0:0:
256,192,482135,1,8,0:0:0:0:
256,192,482243,1,0,0:0:0:0:
256,192,482460,1,0,0:0:0:0:
256,192,482568,1,8,0:0:0:0:
256,192,482784,1,8,0:0:0:0:
256,192,482892,1,8,0:0:0:0:
256,192,483109,1,0,0:0:0:0:
256,192,483217,1,8,0:0:0:0:
256,192,483326,1,8,0:0:0:0:
256,192,483434,1,8,0:0:0:0:
256,192,483541,1,0,0:0:0:0:
256,192,483757,1,0,0:0:0:0:
256,192,483865,1,0,0:0:0:0:
256,192,484081,1,0,0:0:0:0:
256,192,484189,1,8,0:0:0:0:
256,192,484405,1,8,0:0:0:0:
256,192,484513,1,0,0:0:0:0:
256,192,484730,1,0,0:0:0:0:
256,192,484838,1,8,0:0:0:0:
256,192,485054,1,0,0:0:0:0:
256,192,485162,1,8,0:0:0:0:
256,192,485378,1,0,0:0:0:0:
256,192,485487,1,0,0:0:0:0:
256,192,485703,1,0,0:0:0:0:
256,192,485811,1,8,0:0:0:0:
256,192,486136,1,0,0:0:0:0:
256,192,486352,1,8,0:0:0:0:
256,192,486460,1,0,0:0:0:0:
256,192,486784,1,8,0:0:0:0:
256,192,487000,1,0,0:0:0:0:
256,192,487109,1,8,0:0:0:0:
256,192,487325,1,0,0:0:0:0:
256,192,487433,1,0,0:0:0:0:
256,192,487649,1,0,0:0:0:0:
256,192,487757,1,8,0:0:0:0:
256,192,488082,1,8,0:0:0:0:
256,192,488298,1,0,0:0:0:0:
256,192,488406,1,8,0:0:0:0:
256,192,488514,1,8,0:0:0:0:
256,192,488622,1,8,0:0:0:0:
256,192,488730,1,0,0:0:0:0:
256,192,488946,1,0,0:0:0:0:
256,192,489054,1,0,0:0:0:0:
256,192,489270,1,0,0:0:0:0:
256,192,489378,1,8,0:0:0:0:
256,192,489594,1,8,0:0:0:0:
256,192,489702,1,0,0:0:0:0:
256,192,489919,1,0,0:0:0:0:
256,192,490027,1,8,0:0:0:0:
256,192,490243,1,0,0:0:0:0:
256,192,490351,1,8,0:0:0:0:
256,192,490567,1,8,0:0:0:0:
256,192,490676,1,0,0:0:0:0:
256,192,490892,1,0,0:0:0:0:
256,192,491000,1,8,0:0:0:0:
256,192,491325,1,8,0:0:0:0:
256,192,491541,1,8,0:0:0:0:
256,192,491649,1,0,0:0:0:0:
256,192,491973,1,8,0:0:0:0:
256,192,492189,1,0,0:0:0:0:
256,192,492298,1,8,0:0:0:0:
256,192,492514,1,8,0:0:0:0:
256,192,492622,1,0,0:0:0:0:
256,192,492838,1,0,0:0:0:0:
256,192,492946,1,8,0:0:0:0:
256,192,493163,1,8,0:0:0:0:
256,192,493271,1,0,0:0:0:0:
256,192,493487,1,0,0:0:0:0:
256,192,493595,1,8,0:0:0:0:
256,192,493703,1,8,0:0:0:0:
256,192,493811,1,8,0:0:0:0:
256,192,493919,1,0,0:0:0:0:
256,192,494244,1,8,0:0:0:0:
256,192,494460,1,8,0:0:0:0:
256,192,494568,1,0,0:0:0:0:
256,192,494784,1,0,0:0:0:0:
256,192,494892,1,8,0:0:0:0:
256,192,495000,1,0,0:0:0:0:
256,192,495109,1,0,0:0:0:0:
256,192,495217,1,8,0:0:0:0:
256,192,495433,1,8,0:0:0:0:
256,192,495865,1,0,0:0:0:0:
256,192,496082,1,0,0:0:0:0:
256,96,496514,1,12,0:0:0:0:
256,192,496838,1,0,0:0:0:0:
256,192,497055,1,8,0:0:0:0:
256,192,497163,1,0,0:0:0:0:
256,192,497379,1,0,0:0:0:0:
256,192,497487,1,0,0:0:0:0:
256,192,497704,1,8,0:0:0:0:
256,192,497812,1,0,0:0:0:0:
256,192,498136,1,0,0:0:0:0:
256,192,498352,1,8,0:0:0:0:
256,192,498460,1,0,0:0:0:0:
256,192,498676,1,0,0:0:0:0:
256,192,498784,1,0,0:0:0:0:
256,192,499000,1,0,0:0:0:0:
256,192,499109,1,8,0:0:0:0:
256,192,499433,1,0,0:0:0:0:
256,192,499649,1,8,0:0:0:0:
256,192,499757,1,0,0:0:0:0:
256,192,499973,1,0,0:0:0:0:
256,192,500082,1,0,0:0:0:0:
256,192,500298,1,0,0:0:0:0:
256,192,500406,1,0,0:0:0:0:
256,192,500730,1,0,0:0:0:0:
256,192,500946,1,0,0:0:0:0:
256,192,501055,1,0,0:0:0:0:
256,192,501271,1,0,0:0:0:0:
256,192,501379,1,8,0:0:0:0:
256,192,501596,1,8,0:0:0:0:
256,192,501704,1,8,0:0:0:0:
256,192,502028,1,0,0:0:0:0:
256,192,502245,1,8,0:0:0:0:
256,192,502353,1,0,0:0:0:0:
256,192,502569,1,0,0:0:0:0:
256,192,502677,1,0,0:0:0:0:
256,192,502892,1,8,0:0:0:0:
256,192,503000,1,0,0:0:0:0:
256,192,503326,1,0,0:0:0:0:
256,192,503541,1,8,0:0:0:0:
256,192,503649,1,0,0:0:0:0:
256,192,503865,1,0,0:0:0:0:
256,192,503973,1,0,0:0:0:0:
256,192,504190,1,0,0:0:0:0:
256,192,504298,1,8,0:0:0:0:
256,192,504623,1,0,0:0:0:0:
256,192,504838,1,8,0:0:0:0:
256,192,504946,1,0,0:0:0:0:
256,192,505164,1,0,0:0:0:0:
256,192,505272,1,0,0:0:0:0:
256,192,505487,1,0,0:0:0:0:
256,192,505595,1,8,0:0:0:0:
256,192,505703,1,0,0:0:0:0:
256,192,505811,1,0,0:0:0:0:
256,192,505919,1,8,0:0:0:0:
256,192,506244,1,0,0:0:0:0:
256,192,506352,1,0,0:0:0:0:
256,192,506460,1,8,0:0:0:0:
256,192,506568,1,8,0:0:0:0:
256,192,506676,1,0,0:0:0:0:
256,192,506784,1,8,0:0:0:0:
256,96,506892,1,4,0:0:0:0:
256,192,513423,5,0,0:0:0:0:
256,192,513581,1,0,0:0:0:0:
256,192,513738,1,8,0:0:0:0:
256,192,514054,1,8,0:0:0:0:
256,192,514370,1,0,0:0:0:0:
256,192,514686,1,0,0:0:0:0:
256,192,514844,1,0,0:0:0:0:
256,192,515002,1,8,0:0:0:0:
256,192,515160,1,8,0:0:0:0:
256,192,515317,1,0,0:0:0:0:
256,192,515633,1,0,0:0:0:0:
256,96,515791,1,12,0:0:0:0:
256,192,516107,1,0,0:0:0:0:
256,192,516265,1,8,0:0:0:0:
256,192,516581,1,0,0:0:0:0:
256,192,516738,1,0,0:0:0:0:
256,192,516817,1,0,0:0:0:0:
256,192,516896,1,8,0:0:0:0:
256,192,517054,1,8,0:0:0:0:
256,96,517212,1,4,0:0:0:0:
256,96,517528,1,4,0:0:0:0:
256,96,517686,1,4,0:0:0:0:
256,96,518002,1,4,0:0:0:0:
256,96,518160,1,4,0:0:0:0:
256,96,518317,1,4,0:0:0:0:
256,96,518633,5,12,0:0:0:0:
256,96,518791,1,12,0:0:0:0:
256,96,519107,1,12,0:0:0:0:
256,96,519423,1,12,0:0:0:0:
256,96,519738,1,4,0:0:0:0:
256,96,520054,1,4,0:0:0:0:
256,96,520370,1,4,0:0:0:0:
256,96,520528,1,4,0:0:0:0:
256,96,520844,1,4,0:0:0:0:
256,96,522265,1,12,0:0:0:0:
256,192,522581,1,0,0:0:0:0:
256,192,522738,1,0,0:0:0:0:
256,192,522817,1,0,0:0:0:0:
256,192,522896,1,8,0:0:0:0:
256,192,523054,1,0,0:0:0:0:
256,192,523212,1,8,0:0:0:0:
256,192,523291,1,0,0:0:0:0:
256,192,523370,1,8,0:0:0:0:
256,192,523528,1,0,0:0:0:0:
256,192,523686,1,8,0:0:0:0:
256,192,523844,1,0,0:0:0:0:
256,192,523923,1,0,0:0:0:0:
256,192,524002,1,8,0:0:0:0:
256,192,524081,1,8,0:0:0:0:
256,192,524160,1,0,0:0:0:0:
256,192,524317,1,8,0:0:0:0:
256,192,524475,1,8,0:0:0:0:
256,192,524633,1,0,0:0:0:0:
256,192,524712,1,0,0:0:0:0:
256,192,524791,1,8,0:0:0:0:
256,192,524949,1,8,0:0:0:0:
256,192,525107,1,0,0:0:0:0:
256,192,525423,1,8,0:0:0:0:
256,192,525581,1,8,0:0:0:0:
256,192,525738,1,8,0:0:0:0:
256,192,525896,1,0,0:0:0:0:
256,192,526054,1,8,0:0:0:0:
256,192,526212,1,8,0:0:0:0:
256,192,526291,1,0,0:0:0:0:
256,192,526370,1,8,0:0:0:0:
256,192,526528,1,8,0:0:0:0:
256,192,526686,1,0,0:0:0:0:
256,192,526765,1,0,0:0:0:0:
256,192,526844,1,0,0:0:0:0:
256,192,527002,1,8,0:0:0:0:
256,192,527160,1,8,0:0:0:0:
256,192,527317,1,0,0:0:0:0:
256,192,527475,1,0,0:0:0:0:
256,192,527554,1,0,0:0:0:0:
256,192,527633,1,8,0:0:0:0:
256,192,527791,1,0,0:0:0:0:
256,192,527949,1,8,0:0:0:0:
256,192,528107,1,8,0:0:0:0:
256,192,528186,1,8,0:0:0:0:
256,192,528265,1,0,0:0:0:0:
256,192,528344,1,0,0:0:0:0:
256,192,528423,1,8,0:0:0:0:
256,192,528581,1,0,0:0:0:0:
256,192,528738,1,0,0:0:0:0:
256,192,528896,1,8,0:0:0:0:
256,192,529212,1,0,0:0:0:0:
256,192,529370,1,0,0:0:0:0:
256,192,529528,1,8,0:0:0:0:
256,192,529686,1,0,0:0:0:0:
256,192,529765,1,0,0:0:0:0:
256,192,529844,1,0,0:0:0:0:
256,192,530002,1,0,0:0:0:0:
256,192,530160,1,8,0:0:0:0:
256,192,530317,1,0,0:0:0:0:
256,192,530396,1,0,0:0:0:0:
256,192,530475,1,8,0:0:0:0:
256,192,530554,1,8,0:0:0:0:
256,192,530633,1,0,0:0:0:0:
256,192,530791,1,8,0:0:0:0:
256,192,530949,1,0,0:0:0:0:
256,96,531107,1,12,0:0:0:0:
256,192,531265,1,0,0:0:0:0:
256,96,531423,1,12,0:0:0:0:
256,192,531581,1,0,0:0:0:0:
256,192,531738,1,8,0:0:0:0:
256,192,531817,1,0,0:0:0:0:
256,192,531896,1,0,0:0:0:0:
256,192,531975,1,0,0:0:0:0:
256,192,532054,1,8,0:0:0:0:
256,192,532133,1,8,0:0:0:0:
256,192,532212,1,0,0:0:0:0:
256,192,532291,1,0,0:0:0:0:
256,96,532370,1,12,0:0:0:0:
256,192,532686,1,8,0:0:0:0:
256,192,532843,1,0,0:0:0:0:
256,192,532922,1,8,0:0:0:0:
256,192,533001,1,8,0:0:0:0:
256,192,533159,1,0,0:0:0:0:
256,192,533317,1,8,0:0:0:0:
256,192,533396,1,0,0:0:0:0:
256,192,533475,1,8,0:0:0:0:
256,192,533633,1,0,0:0:0:0:
256,192,533791,1,8,0:0:0:0:
256,192,533870,1,0,0:0:0:0:
256,192,533949,1,8,0:0:0:0:
256,192,534028,1,0,0:0:0:0:
256,192,534107,1,8,0:0:0:0:
256,192,534186,1,8,0:0:0:0:
256,192,534265,1,0,0:0:0:0:
256,192,534422,1,8,0:0:0:0:
256,192,534580,1,8,0:0:0:0:
256,192,534738,1,0,0:0:0:0:
256,192,534817,1,0,0:0:0:0:
256,192,534896,1,8,0:0:0:0:
256,192,535054,1,8,0:0:0:0:
256,192,535212,1,0,0:0:0:0:
256,192,535528,1,8,0:0:0:0:
256,192,535686,1,8,0:0:0:0:
256,192,535843,1,8,0:0:0:0:
256,192,536001,1,0,0:0:0:0:
256,192,536159,1,8,0:0:0:0:
256,192,536317,1,8,0:0:0:0:
256,192,536396,1,0,0:0:0:0:
256,192,536475,1,8,0:0:0:0:
256,192,536633,1,8,0:0:0:0:
256,192,536791,1,0,0:0:0:0:
256,192,536870,1,0,0:0:0:0:
256,192,536949,1,0,0:0:0:0:
256,192,537107,1,8,0:0:0:0:
256,192,537265,1,8,0:0:0:0:
256,192,537422,1,0,0:0:0:0:
256,192,537580,1,0,0:0:0:0:
256,192,537659,1,0,0:0:0:0:
256,192,537738,1,8,0:0:0:0:
256,192,537896,1,0,0:0:0:0:
256,192,538212,1,8,0:0:0:0:
256,192,538370,1,0,0:0:0:0:
256,192,538449,1,0,0:0:0:0:
256,192,538528,1,8,0:0:0:0:
256,192,538686,1,0,0:0:0:0:
256,192,538843,1,0,0:0:0:0:
256,192,539001,1,8,0:0:0:0:
256,192,539160,1,0,0:0:0:0:
256,192,539317,1,8,0:0:0:0:
256,192,539396,1,8,0:0:0:0:
256,192,539475,1,0,0:0:0:0:
256,192,539633,1,8,0:0:0:0:
256,192,539791,1,0,0:0:0:0:
256,192,539870,1,0,0:0:0:0:
256,192,539949,1,0,0:0:0:0:
256,192,540107,1,0,0:0:0:0:
256,192,540265,1,8,0:0:0:0:
256,192,540422,1,0,0:0:0:0:
256,192,540580,1,8,0:0:0:0:
256,192,540659,1,8,0:0:0:0:
256,192,540738,1,0,0:0:0:0:
256,192,540817,1,0,0:0:0:0:
256,192,540896,1,8,0:0:0:0:
256,192,541054,1,8,0:0:0:0:
256,192,541212,1,0,0:0:0:0:
256,192,541370,1,8,0:0:0:0:
256,192,541528,1,0,0:0:0:0:
256,192,541686,1,0,0:0:0:0:
256,192,541844,1,8,0:0:0:0:
256,192,542002,1,0,0:0:0:0:
256,192,542081,1,0,0:0:0:0:
256,192,542160,1,8,0:0:0:0:
256,192,542238,1,0,0:0:0:0:
256,192,542317,1,8,0:0:0:0:
256,192,542396,1,8,0:0:0:0:
256,192,542475,1,0,0:0:0:0:
256,192,542633,1,8,0:0:0:0:
256,192,542791,1,8,0:0:0:0:
256,192,542949,1,8,0:0:0:0:
256,192,543028,1,0,0:0:0:0:
256,192,543107,1,8,0:0:0:0:
256,192,543423,1,0,0:0:0:0:
256,192,543581,1,8,0:0:0:0:
256,192,543660,1,8,0:0:0:0:
256,192,543738,1,0,0:0:0:0:
256,192,543896,1,0,0:0:0:0:
256,192,544054,1,8,0:0:0:0:
256,192,544212,1,0,0:0:0:0:
256,192,544370,1,8,0:0:0:0:
256,192,544449,1,0,0:0:0:0:
256,192,544528,1,0,0:0:0:0:
256,192,544607,1,0,0:0:0:0:
256,192,544686,1,8,0:0:0:0:
256,192,544844,1,8,0:0:0:0:
256,96,545002,1,4,0:0:0:0:
256,96,545317,1,4,0:0:0:0:
256,96,545475,1,4,0:0:0:0:
256,96,545791,1,4,0:0:0:0:
256,96,545949,1,4,0:0:0:0:
256,96,546107,1,4,0:0:0:0:
256,96,546423,1,4,0:0:0:0:
256,96,546581,1,4,0:0:0:0:
256,96,546896,1,4,0:0:0:0:
256,96,547212,1,4,0:0:0:0:
256,96,547528,1,4,0:0:0:0:
256,96,547843,1,4,0:0:0:0:
256,96,548001,1,4,0:0:0:0:
256,96,548317,1,4,0:0:0:0:
256,96,548475,1,4,0:0:0:0:
256,96,548633,1,4,0:0:0:0:
256,96,548949,1,4,0:0:0:0:
256,96,549107,1,4,0:0:0:0:
256,96,549422,1,4,0:0:0:0:
256,96,549738,1,4,0:0:0:0:
256,96,550054,1,12,0:0:0:0:
256,96,550369,1,12,0:0:0:0:
256,96,550527,1,12,0:0:0:0:
256,96,550843,1,12,0:0:0:0:
256,96,551001,1,12,0:0:0:0:
256,96,551159,1,12,0:0:0:0:
256,96,551475,1,12,0:0:0:0:
256,96,551633,1,12,0:0:0:0:
256,96,551948,1,12,0:0:0:0:
256,96,552264,1,12,0:0:0:0:
256,96,552581,1,12,0:0:0:0:
256,192,552896,1,0,0:0:0:0:
256,96,553054,1,12,0:0:0:0:
256,192,553370,1,0,0:0:0:0:
256,96,553528,1,12,0:0:0:0:
256,192,553844,1,0,0:0:0:0:
256,96,554002,1,12,0:0:0:0:
256,192,554317,1,0,0:0:0:0:
256,96,554475,1,12,0:0:0:0:
256,192,554791,1,0,0:0:0:0:
256,192,554870,1,0,0:0:0:0:
256,192,554949,1,0,0:0:0:0:
256,192,555028,1,0,0:0:0:0:
256,96,555107,1,12,0:0:0:0:
256,96,557633,1,4,0:0:0:0:
256,192,565388,5,0,0:0:0:0:
256,192,565704,1,8,0:0:0:0:
256,192,565862,1,0,0:0:0:0:
256,192,566019,1,8,0:0:0:0:
256,192,566335,1,8,0:0:0:0:
256,192,566493,1,0,0:0:0:0:
256,192,566809,1,0,0:0:0:0:
256,192,566967,1,0,0:0:0:0:
256,192,567125,1,8,0:0:0:0:
256,192,567283,1,0,0:0:0:0:
256,192,567440,1,8,0:0:0:0:
256,192,567598,1,0,0:0:0:0:
256,192,567756,1,0,0:0:0:0:
256,192,567835,1,0,0:0:0:0:
256,96,567914,1,12,0:0:0:0:
256,192,568230,1,8,0:0:0:0:
256,192,568388,1,0,0:0:0:0:
256,192,568467,1,0,0:0:0:0:
256,192,568546,1,8,0:0:0:0:
256,192,568704,1,0,0:0:0:0:
256,192,568862,1,0,0:0:0:0:
256,192,569019,1,8,0:0:0:0:
256,192,569177,1,0,0:0:0:0:
256,192,569335,1,8,0:0:0:0:
256,192,569493,1,0,0:0:0:0:
256,192,569651,1,8,0:0:0:0:
256,192,569730,1,8,0:0:0:0:
256,192,569809,1,0,0:0:0:0:
256,192,569967,1,0,0:0:0:0:
256,192,570125,1,8,0:0:0:0:
256,192,570204,1,0,0:0:0:0:
256,192,570283,1,0,0:0:0:0:
256,192,570362,1,0,0:0:0:0:
256,96,570440,1,12,0:0:0:0:
256,192,570756,1,0,0:0:0:0:
256,192,570914,1,8,0:0:0:0:
256,192,571072,1,8,0:0:0:0:
256,192,571230,1,0,0:0:0:0:
256,192,571388,1,8,0:0:0:0:
256,192,571546,1,8,0:0:0:0:
256,192,571625,1,0,0:0:0:0:
256,192,571704,1,0,0:0:0:0:
256,192,572019,1,8,0:0:0:0:
256,192,572177,1,8,0:0:0:0:
256,192,572335,1,0,0:0:0:0:
256,192,572493,1,0,0:0:0:0:
256,192,572651,1,8,0:0:0:0:
256,192,572809,1,0,0:0:0:0:
256,192,572888,1,0,0:0:0:0:
256,192,572967,1,8,0:0:0:0:
256,192,573125,1,0,0:0:0:0:
256,192,573283,1,8,0:0:0:0:
256,192,573440,1,0,0:0:0:0:
256,192,573598,1,8,0:0:0:0:
256,192,573755,1,0,0:0:0:0:
256,192,573914,1,0,0:0:0:0:
256,192,574072,1,8,0:0:0:0:
256,192,574388,1,0,0:0:0:0:
256,192,574546,1,0,0:0:0:0:
256,192,574704,1,8,0:0:0:0:
256,96,575493,1,12,0:0:0:0:
256,192,575651,1,0,0:0:0:0:
256,192,575730,1,0,0:0:0:0:
256,192,575809,1,0,0:0:0:0:
256,192,575967,1,8,0:0:0:0:
256,192,576125,1,0,0:0:0:0:
256,192,576283,1,8,0:0:0:0:
256,192,576362,1,0,0:0:0:0:
256,192,576440,1,8,0:0:0:0:
256,192,576598,1,8,0:0:0:0:
256,192,576756,1,0,0:0:0:0:
256,192,577072,1,8,0:0:0:0:
256,192,577230,1,0,0:0:0:0:
256,192,577388,1,8,0:0:0:0:
256,192,577467,1,0,0:0:0:0:
256,192,577546,1,0,0:0:0:0:
256,192,577704,1,8,0:0:0:0:
256,192,577862,1,0,0:0:0:0:
256,192,578019,1,8,0:0:0:0:
256,192,578177,1,8,0:0:0:0:
256,192,578256,1,0,0:0:0:0:
256,192,578335,1,0,0:0:0:0:
256,192,578493,1,8,0:0:0:0:
256,192,578651,1,0,0:0:0:0:
256,192,578809,1,8,0:0:0:0:
256,192,578888,1,0,0:0:0:0:
256,192,578967,1,8,0:0:0:0:
256,192,579125,1,8,0:0:0:0:
256,192,579283,1,0,0:0:0:0:
256,192,579598,1,0,0:0:0:0:
256,192,579756,1,0,0:0:0:0:
256,192,579914,1,8,0:0:0:0:
256,192,579993,1,8,0:0:0:0:
256,192,580072,1,0,0:0:0:0:
256,192,580151,1,0,0:0:0:0:
256,192,580230,1,8,0:0:0:0:
256,192,580388,1,0,0:0:0:0:
256,192,580545,1,8,0:0:0:0:
256,192,580704,1,0,0:0:0:0:
256,192,580783,1,0,0:0:0:0:
256,192,580862,1,0,0:0:0:0:
256,192,581019,1,8,0:0:0:0:
256,192,581098,1,8,0:0:0:0:
256,192,581177,1,0,0:0:0:0:
256,192,581335,1,0,0:0:0:0:
256,192,581493,1,8,0:0:0:0:
256,192,581572,1,8,0:0:0:0:
256,192,581651,1,8,0:0:0:0:
256,192,581730,1,8,0:0:0:0:
256,192,581809,1,0,0:0:0:0:
256,192,581967,1,0,0:0:0:0:
256,192,582125,1,8,0:0:0:0:
256,192,582283,1,0,0:0:0:0:
256,192,582362,1,0,0:0:0:0:
256,192,582440,1,8,0:0:0:0:
256,192,582519,1,0,0:0:0:0:
256,192,582598,1,0,0:0:0:0:
256,192,582756,1,8,0:0:0:0:
256,192,582914,1,8,0:0:0:0:
256,192,583072,1,0,0:0:0:0:
256,192,583230,1,0,0:0:0:0:
256,192,583388,1,8,0:0:0:0:
256,192,583546,1,0,0:0:0:0:
256,192,583625,1,0,0:0:0:0:
256,192,583704,1,8,0:0:0:0:
256,192,583862,1,0,0:0:0:0:
256,192,584019,1,0,0:0:0:0:
256,96,584177,1,12,0:0:0:0:
256,192,584493,1,0,0:0:0:0:
256,192,584651,1,8,0:0:0:0:
256,192,584967,1,8,0:0:0:0:
256,192,585046,1,8,0:0:0:0:
256,192,585125,1,0,0:0:0:0:
256,192,585204,1,0,0:0:0:0:
256,192,585283,1,8,0:0:0:0:
256,192,585362,1,8,0:0:0:0:
256,192,585440,1,0,0:0:0:0:
256,192,585519,1,0,0:0:0:0:
256,96,585598,1,12,0:0:0:0:
256,192,585756,1,0,0:0:0:0:
256,192,585835,1,0,0:0:0:0:
256,192,585914,1,0,0:0:0:0:
256,192,586072,1,8,0:0:0:0:
256,192,586230,1,0,0:0:0:0:
256,192,586388,1,8,0:0:0:0:
256,192,586467,1,0,0:0:0:0:
256,192,586545,1,8,0:0:0:0:
256,192,586625,1,0,0:0:0:0:
256,192,586704,1,8,0:0:0:0:
256,192,586861,1,0,0:0:0:0:
256,192,587019,1,0,0:0:0:0:
256,192,587177,1,8,0:0:0:0:
256,192,587335,1,0,0:0:0:0:
256,192,587493,1,8,0:0:0:0:
256,192,587572,1,0,0:0:0:0:
256,192,587651,1,0,0:0:0:0:
256,192,587809,1,8,0:0:0:0:
256,192,587967,1,0,0:0:0:0:
256,192,588124,1,8,0:0:0:0:
256,192,588204,1,0,0:0:0:0:
256,192,588282,1,8,0:0:0:0:
256,192,588361,1,0,0:0:0:0:
256,192,588440,1,0,0:0:0:0:
256,192,588598,1,8,0:0:0:0:
256,192,588756,1,0,0:0:0:0:
256,192,588914,1,8,0:0:0:0:
256,192,588993,1,8,0:0:0:0:
256,192,589072,1,0,0:0:0:0:
256,192,589151,1,0,0:0:0:0:
256,192,589230,1,8,0:0:0:0:
256,192,589388,1,0,0:0:0:0:
256,192,589546,1,8,0:0:0:0:
256,192,589703,1,0,0:0:0:0:
256,192,589861,1,0,0:0:0:0:
256,192,590019,1,8,0:0:0:0:
256,192,590098,1,8,0:0:0:0:
256,192,590177,1,0,0:0:0:0:
256,192,590335,1,8,0:0:0:0:
256,192,590493,1,0,0:0:0:0:
256,192,590572,1,0,0:0:0:0:
256,96,590650,1,12,0:0:0:0:
256,192,590967,1,8,0:0:0:0:
256,192,591124,1,0,0:0:0:0:
256,192,591204,1,0,0:0:0:0:
256,192,591282,1,8,0:0:0:0:
256,192,591362,1,8,0:0:0:0:
256,192,591440,1,0,0:0:0:0:
256,192,591598,1,8,0:0:0:0:
256,192,591756,1,8,0:0:0:0:
256,192,591835,1,8,0:0:0:0:
256,192,591914,1,0,0:0:0:0:
256,192,592072,1,0,0:0:0:0:
256,192,592230,1,8,0:0:0:0:
256,192,592546,1,8,0:0:0:0:
256,192,592704,1,0,0:0:0:0:
256,192,592862,1,8,0:0:0:0:
256,192,593019,1,0,0:0:0:0:
256,192,593098,1,0,0:0:0:0:
256,192,593177,1,8,0:0:0:0:
256,192,593335,1,0,0:0:0:0:
256,192,593493,1,8,0:0:0:0:
256,192,593651,1,8,0:0:0:0:
256,192,593809,1,0,0:0:0:0:
256,192,593967,1,0,0:0:0:0:
256,192,594125,1,8,0:0:0:0:
256,192,594283,1,8,0:0:0:0:
256,192,594598,1,0,0:0:0:0:
256,192,594756,1,8,0:0:0:0:
256,192,594914,1,0,0:0:0:0:
256,192,595072,1,0,0:0:0:0:
256,192,595230,1,0,0:0:0:0:
256,192,595388,1,8,0:0:0:0:
256,192,595546,1,0,0:0:0:0:
256,96,595704,1,12,0:0:0:0:
256,192,596019,1,8,0:0:0:0:
256,192,596177,1,0,0:0:0:0:
256,192,596335,1,0,0:0:0:0:
256,192,596493,1,8,0:0:0:0:
256,192,596572,1,8,0:0:0:0:
256,192,596651,1,0,0:0:0:0:
256,192,596809,1,8,0:0:0:0:
256,192,596967,1,0,0:0:0:0:
256,192,597125,1,0,0:0:0:0:
256,192,597283,1,0,0:0:0:0:
256,192,597598,1,8,0:0:0:0:
256,192,597914,1,0,0:0:0:0:
256,192,598072,1,0,0:0:0:0:
256,192,598151,1,0,0:0:0:0:
256,96,598230,1,12,0:0:0:0:
256,192,598467,1,0,0:0:0:0:
256,192,598546,1,8,0:0:0:0:
256,192,598783,1,0,0:0:0:0:
256,192,598862,1,8,0:0:0:0:
256,192,599098,1,0,0:0:0:0:
256,192,599177,1,8,0:0:0:0:
256,192,599414,1,0,0:0:0:0:
256,192,599493,1,8,0:0:0:0:
256,192,599730,1,0,0:0:0:0:
256,192,599809,1,8,0:0:0:0:
256,192,599967,1,0,0:0:0:0:
256,192,600125,1,8,0:0:0:0:
256,192,600204,1,8,0:0:0:0:
256,192,600283,1,0,0:0:0:0:
256,192,600440,1,0,0:0:0:0:
256,192,600598,1,8,0:0:0:0:
256,192,600756,1,0,0:0:0:0:
256,192,600914,1,8,0:0:0:0:
256,192,600993,1,0,0:0:0:0:
256,192,601072,1,0,0:0:0:0:
256,192,601230,1,0,0:0:0:0:
256,192,601388,1,8,0:0:0:0:
256,192,601546,1,0,0:0:0:0:
256,192,601704,1,0,0:0:0:0:
256,192,601862,1,8,0:0:0:0:
256,192,601940,1,8,0:0:0:0:
256,192,602019,1,8,0:0:0:0:
256,192,602177,1,0,0:0:0:0:
256,192,602335,1,8,0:0:0:0:
256,192,602414,1,0,0:0:0:0:
256,192,602493,1,8,0:0:0:0:
256,192,602572,1,0,0:0:0:0:
256,192,602651,1,0,0:0:0:0:
256,192,602809,1,0,0:0:0:0:
256,192,602967,1,8,0:0:0:0:
256,192,603125,1,0,0:0:0:0:
256,192,603204,1,0,0:0:0:0:
256,96,603283,1,12,0:0:0:0:
256,192,603519,1,0,0:0:0:0:
256,192,603598,1,8,0:0:0:0:
256,192,603835,1,0,0:0:0:0:
256,192,603914,1,8,0:0:0:0:
256,192,604151,1,0,0:0:0:0:
256,192,604229,1,8,0:0:0:0:
256,192,604467,1,0,0:0:0:0:
256,192,604545,1,8,0:0:0:0:
256,192,604783,1,0,0:0:0:0:
256,192,604861,1,8,0:0:0:0:
256,192,605019,1,0,0:0:0:0:
256,192,605177,1,8,0:0:0:0:
256,192,605256,1,0,0:0:0:0:
256,192,605335,1,8,0:0:0:0:
256,192,605414,1,8,0:0:0:0:
256,192,605492,1,0,0:0:0:0:
256,192,605650,1,0,0:0:0:0:
256,192,605809,1,8,0:0:0:0:
256,192,606125,1,0,0:0:0:0:
256,192,606283,1,0,0:0:0:0:
256,192,606440,1,0,0:0:0:0:
256,192,606519,1,8,0:0:0:0:
256,192,606598,1,8,0:0:0:0:
256,192,606756,1,8,0:0:0:0:
256,192,606914,1,0,0:0:0:0:
256,192,607072,1,0,0:0:0:0:
256,192,607151,1,0,0:0:0:0:
256,192,607230,1,0,0:0:0:0:
256,192,607388,1,8,0:0:0:0:
256,192,607546,1,0,0:0:0:0:
256,192,607704,1,0,0:0:0:0:
256,192,607783,1,8,0:0:0:0:
256,192,607862,1,0,0:0:0:0:
256,192,607940,1,0,0:0:0:0:
256,192,608019,1,8,0:0:0:0:
256,192,608098,1,8,0:0:0:0:
256,192,608177,1,0,0:0:0:0:
256,192,608256,1,0,0:0:0:0:
256,96,608335,1,12,0:0:0:0:
256,192,608651,1,0,0:0:0:0:
256,192,608809,1,8,0:0:0:0:
256,192,608967,1,8,0:0:0:0:
256,192,609124,1,0,0:0:0:0:
256,192,609282,1,8,0:0:0:0:
256,192,609361,1,0,0:0:0:0:
256,192,609440,1,0,0:0:0:0:
256,192,609598,1,8,0:0:0:0:
256,192,609914,1,0,0:0:0:0:
256,192,610072,1,8,0:0:0:0:
256,192,610230,1,0,0:0:0:0:
256,192,610388,1,8,0:0:0:0:
256,192,610467,1,0,0:0:0:0:
256,192,610545,1,0,0:0:0:0:
256,192,610703,1,8,0:0:0:0:
256,192,610862,1,0,0:0:0:0:
256,192,611177,1,0,0:0:0:0:
256,192,611335,1,0,0:0:0:0:
256,192,611493,1,8,0:0:0:0:
256,192,611651,1,0,0:0:0:0:
256,192,611809,1,0,0:0:0:0:
256,192,611967,1,8,0:0:0:0:
256,192,612046,1,8,0:0:0:0:
256,192,612125,1,8,0:0:0:0:
256,192,612283,1,0,0:0:0:0:
256,192,612440,1,0,0:0:0:0:
256,192,612599,1,8,0:0:0:0:
256,192,612914,1,0,0:0:0:0:
256,192,613072,1,8,0:0:0:0:
256,192,613230,1,8,0:0:0:0:
256,192,613388,1,0,0:0:0:0:
256,192,613467,1,0,0:0:0:0:
256,192,613546,1,0,0:0:0:0:
256,192,613625,1,0,0:0:0:0:
256,192,613704,1,8,0:0:0:0:
256,192,613862,1,8,0:0:0:0:
256,192,614020,1,0,0:0:0:0:
256,192,614177,1,0,0:0:0:0:
256,192,614335,1,8,0:0:0:0:
256,192,614414,1,8,0:0:0:0:
256,192,614493,1,0,0:0:0:0:
256,192,614651,1,8,0:0:0:0:
256,192,614966,1,0,0:0:0:0:
256,192,615124,1,8,0:0:0:0:
256,192,615282,1,0,0:0:0:0:
256,192,615440,1,8,0:0:0:0:
256,192,615519,1,0,0:0:0:0:
256,192,615597,1,0,0:0:0:0:
256,192,615755,1,0,0:0:0:0:
256,192,615914,1,8,0:0:0:0:
256,192,616072,1,0,0:0:0:0:
256,192,616230,1,0,0:0:0:0:
256,192,616388,1,8,0:0:0:0:
256,192,616704,1,8,0:0:0:0:
256,192,617019,1,8,0:0:0:0:
256,192,617335,1,0,0:0:0:0:
256,96,617493,1,12,0:0:0:0:
256,192,617967,1,0,0:0:0:0:
256,192,618125,1,8,0:0:0:0:
256,96,618440,1,12,0:0:0:0:
256,192,620335,1,0,0:0:0:0:
256,192,620493,1,0,0:0:0:0:
256,192,620572,1,0,0:0:0:0:
256,192,620651,1,8,0:0:0:0:
256,96,620967,1,12,0:0:0:0:
256,192,627702,5,0,0:0:0:0:
256,192,628010,1,0,0:0:0:0:
256,192,628164,1,0,0:0:0:0:
256,192,628317,1,8,0:0:0:0:
256,192,628625,1,0,0:0:0:0:
256,192,628933,1,8,0:0:0:0:
256,192,629240,1,0,0:0:0:0:
256,192,629394,1,0,0:0:0:0:
256,192,629548,1,8,0:0:0:0:
256,192,629856,1,0,0:0:0:0:
256,192,630010,1,8,0:0:0:0:
256,192,630087,1,0,0:0:0:0:
256,192,630164,1,8,0:0:0:0:
256,192,630240,1,0,0:0:0:0:
256,192,630317,1,8,0:0:0:0:
256,192,630394,1,0,0:0:0:0:
256,192,630471,1,8,0:0:0:0:
256,192,630548,1,0,0:0:0:0:
256,192,630625,1,0,0:0:0:0:
256,192,630702,1,0,0:0:0:0:
256,192,630779,1,8,0:0:0:0:
256,192,630856,1,8,0:0:0:0:
256,192,630933,1,0,0:0:0:0:
256,192,631010,1,0,0:0:0:0:
256,96,631087,1,12,0:0:0:0:
256,192,631394,1,0,0:0:0:0:
256,192,631548,1,0,0:0:0:0:
256,192,631702,1,8,0:0:0:0:
256,192,631856,1,8,0:0:0:0:
256,192,632010,1,0,0:0:0:0:
256,192,632087,1,0,0:0:0:0:
256,192,632164,1,8,0:0:0:0:
256,192,632317,1,0,0:0:0:0:
256,192,632625,1,8,0:0:0:0:
256,192,632779,1,8,0:0:0:0:
256,192,632933,1,0,0:0:0:0:
256,192,633087,1,8,0:0:0:0:
256,192,633164,1,0,0:0:0:0:
256,192,633241,1,8,0:0:0:0:
256,192,633395,1,0,0:0:0:0:
256,192,633548,1,8,0:0:0:0:
256,192,633856,1,8,0:0:0:0:
256,192,634010,1,8,0:0:0:0:
256,192,634164,1,0,0:0:0:0:
256,192,634318,1,0,0:0:0:0:
256,192,634395,1,0,0:0:0:0:
256,192,634472,1,8,0:0:0:0:
256,192,634626,1,8,0:0:0:0:
256,192,634779,1,0,0:0:0:0:
256,96,635087,1,12,0:0:0:0:
256,192,635394,1,8,0:0:0:0:
256,192,635548,1,0,0:0:0:0:
256,192,635625,1,0,0:0:0:0:
256,192,635702,1,0,0:0:0:0:
256,192,635856,1,0,0:0:0:0:
256,96,636010,1,12,0:0:0:0:
256,192,636317,1,8,0:0:0:0:
256,192,636625,1,8,0:0:0:0:
256,192,636933,1,8,0:0:0:0:
256,192,637087,1,0,0:0:0:0:
256,192,637240,1,8,0:0:0:0:
256,192,637548,1,8,0:0:0:0:
256,192,637856,1,8,0:0:0:0:
256,192,638164,1,8,0:0:0:0:
256,192,638317,1,0,0:0:0:0:
256,192,638471,1,8,0:0:0:0:
256,192,638779,1,8,0:0:0:0:
256,192,639087,1,8,0:0:0:0:
256,192,639394,1,8,0:0:0:0:
256,192,639702,1,0,0:0:0:0:
256,96,640933,1,12,0:0:0:0:
256,192,641240,1,0,0:0:0:0:
256,192,641548,1,0,0:0:0:0:
256,192,641702,1,0,0:0:0:0:
256,192,641856,1,8,0:0:0:0:
256,192,641933,1,0,0:0:0:0:
256,192,642010,1,0,0:0:0:0:
256,192,642164,1,8,0:0:0:0:
256,192,642317,1,8,0:0:0:0:
256,192,642471,1,0,0:0:0:0:
256,192,642625,1,0,0:0:0:0:
256,192,642779,1,8,0:0:0:0:
256,192,642856,1,8,0:0:0:0:
256,192,642933,1,0,0:0:0:0:
256,192,643010,1,0,0:0:0:0:
256,192,643087,1,8,0:0:0:0:
256,192,643240,1,8,0:0:0:0:
256,192,643394,1,0,0:0:0:0:
256,192,643702,1,8,0:0:0:0:
256,192,644010,1,0,0:0:0:0:
256,192,644164,1,0,0:0:0:0:
256,192,644317,1,8,0:0:0:0:
256,192,644471,1,8,0:0:0:0:
256,192,644625,1,0,0:0:0:0:
256,192,644933,1,0,0:0:0:0:
256,192,645087,1,0,0:0:0:0:
256,192,645240,1,8,0:0:0:0:
256,192,645317,1,8,0:0:0:0:
256,192,645394,1,0,0:0:0:0:
256,192,645548,1,0,0:0:0:0:
256,192,645702,1,0,0:0:0:0:
256,192,645856,1,8,0:0:0:0:
256,192,646164,1,0,0:0:0:0:
256,192,646317,1,0,0:0:0:0:
256,192,646471,1,8,0:0:0:0:
256,192,646626,1,0,0:0:0:0:
256,192,646780,1,8,0:0:0:0:
256,192,646857,1,0,0:0:0:0:
256,192,646934,1,0,0:0:0:0:
256,192,647010,1,0,0:0:0:0:
256,192,647088,1,8,0:0:0:0:
256,192,647241,1,8,0:0:0:0:
256,192,647395,1,0,0:0:0:0:
256,192,647549,1,0,0:0:0:0:
256,192,647702,1,8,0:0:0:0:
256,192,647779,1,0,0:0:0:0:
256,192,647856,1,8,0:0:0:0:
256,192,647934,1,8,0:0:0:0:
256,192,648010,1,0,0:0:0:0:
256,192,648164,1,8,0:0:0:0:
256,96,648318,1,4,0:0:0:0:
256,192,648779,1,8,0:0:0:0:
256,192,648933,1,0,0:0:0:0:
256,192,649087,1,8,0:0:0:0:
256,192,649240,1,0,0:0:0:0:
256,192,649317,1,0,0:0:0:0:
256,96,649394,1,12,0:0:0:0:
256,192,649702,1,0,0:0:0:0:
256,192,649856,1,8,0:0:0:0:
256,192,650164,1,0,0:0:0:0:
256,192,650240,1,0,0:0:0:0:
256,192,650317,1,8,0:0:0:0:
256,192,650394,1,0,0:0:0:0:
256,192,650471,1,8,0:0:0:0:
256,192,650548,1,8,0:0:0:0:
256,192,650625,1,8,0:0:0:0:
256,192,650702,1,8,0:0:0:0:
256,192,650779,1,0,0:0:0:0:
256,96,651087,1,12,0:0:0:0:
256,192,651394,1,0,0:0:0:0:
256,192,651548,1,0,0:0:0:0:
256,192,651702,1,8,0:0:0:0:
256,192,651779,1,0,0:0:0:0:
256,192,651856,1,0,0:0:0:0:
256,192,652010,1,8,0:0:0:0:
256,192,652163,1,8,0:0:0:0:
256,192,652317,1,0,0:0:0:0:
256,192,652471,1,0,0:0:0:0:
256,192,652625,1,8,0:0:0:0:
256,192,652702,1,8,0:0:0:0:
256,192,652779,1,0,0:0:0:0:
256,192,652856,1,0,0:0:0:0:
256,192,652933,1,8,0:0:0:0:
256,192,653087,1,8,0:0:0:0:
256,192,653240,1,0,0:0:0:0:
256,192,653394,1,0,0:0:0:0:
256,192,653548,1,8,0:0:0:0:
256,192,653625,1,0,0:0:0:0:
256,192,653702,1,0,0:0:0:0:
256,192,653856,1,8,0:0:0:0:
256,192,654010,1,0,0:0:0:0:
256,192,654163,1,8,0:0:0:0:
256,192,654240,1,8,0:0:0:0:
256,192,654317,1,8,0:0:0:0:
256,192,654471,1,0,0:0:0:0:
256,192,654779,1,0,0:0:0:0:
256,192,654933,1,0,0:0:0:0:
256,192,655086,1,8,0:0:0:0:
256,192,655240,1,8,0:0:0:0:
256,192,655394,1,0,0:0:0:0:
256,192,655548,1,0,0:0:0:0:
256,192,655625,1,0,0:0:0:0:
256,96,655702,1,12,0:0:0:0:
256,192,656010,1,0,0:0:0:0:
256,96,656164,1,12,0:0:0:0:
256,192,656471,1,0,0:0:0:0:
256,192,656625,1,8,0:0:0:0:
256,192,656779,1,0,0:0:0:0:
256,192,656856,1,0,0:0:0:0:
256,96,656933,1,12,0:0:0:0:
256,192,657240,1,0,0:0:0:0:
256,96,657394,1,12,0:0:0:0:
256,192,657701,1,0,0:0:0:0:
256,96,657856,1,12,0:0:0:0:
256,192,658164,1,0,0:0:0:0:
256,192,658317,1,0,0:0:0:0:
256,192,658471,1,8,0:0:0:0:
256,192,658625,1,8,0:0:0:0:
256,192,658779,1,0,0:0:0:0:
256,192,658932,1,0,0:0:0:0:
256,192,659086,1,8,0:0:0:0:
256,192,659164,1,0,0:0:0:0:
256,192,659240,1,8,0:0:0:0:
256,192,659394,1,0,0:0:0:0:
256,192,659547,1,0,0:0:0:0:
256,192,659701,1,8,0:0:0:0:
256,192,659855,1,0,0:0:0:0:
256,192,660010,1,0,0:0:0:0:
256,192,660163,1,0,0:0:0:0:
256,192,660317,1,8,0:0:0:0:
256,192,660625,1,8,0:0:0:0:
256,192,660779,1,0,0:0:0:0:
256,192,660933,1,8,0:0:0:0:
256,192,661240,1,8,0:0:0:0:
256,192,661394,1,0,0:0:0:0:
256,192,661548,1,0,0:0:0:0:
256,96,661702,1,12,0:0:0:0:
256,96,662010,1,12,0:0:0:0:
256,96,662317,1,12,0:0:0:0:
256,192,662625,1,0,0:0:0:0:
256,192,662779,1,0,0:0:0:0:
256,96,663087,1,12,0:0:0:0:
256,192,663394,1,0,0:0:0:0:
256,192,663548,1,0,0:0:0:0:
256,192,663856,1,8,0:0:0:0:
256,192,664010,1,0,0:0:0:0:
256,192,664164,1,8,0:0:0:0:
256,192,664240,1,0,0:0:0:0:
256,192,664317,1,8,0:0:0:0:
256,192,664471,1,0,0:0:0:0:
256,192,664625,1,0,0:0:0:0:
256,192,664779,1,8,0:0:0:0:
256,192,664856,1,0,0:0:0:0:
256,192,664933,1,0,0:0:0:0:
256,192,665087,1,8,0:0:0:0:
256,192,665240,1,8,0:0:0:0:
256,192,665548,1,0,0:0:0:0:
256,192,665855,1,0,0:0:0:0:
256,192,666009,1,0,0:0:0:0:
256,192,666317,1,8,0:0:0:0:
256,192,666471,1,0,0:0:0:0:
256,192,666625,1,8,0:0:0:0:
256,192,666702,1,8,0:0:0:0:
256,192,666779,1,0,0:0:0:0:
256,192,666932,1,8,0:0:0:0:
256,192,667086,1,0,0:0:0:0:
256,192,667240,1,8,0:0:0:0:
256,192,667394,1,0,0:0:0:0:
256,192,667471,1,0,0:0:0:0:
256,192,667548,1,8,0:0:0:0:
256,192,667701,1,0,0:0:0:0:
256,192,667856,1,0,0:0:0:0:
256,96,668010,1,12,0:0:0:0:
256,192,668317,1,0,0:0:0:0:
256,192,668471,1,0,0:0:0:0:
256,192,668779,1,8,0:0:0:0:
256,192,668933,1,0,0:0:0:0:
256,192,669087,1,8,0:0:0:0:
256,192,669164,1,0,0:0:0:0:
256,192,669240,1,8,0:0:0:0:
256,192,669394,1,0,0:0:0:0:
256,192,669548,1,0,0:0:0:0:
256,192,669702,1,8,0:0:0:0:
256,192,669779,1,0,0:0:0:0:
256,192,669856,1,0,0:0:0:0:
256,192,670010,1,8,0:0:0:0:
256,192,670163,1,8,0:0:0:0:
256,192,670317,1,0,0:0:0:0:
256,192,670471,1,8,0:0:0:0:
256,192,670779,1,0,0:0:0:0:
256,96,670933,1,12,0:0:0:0:
256,96,671240,1,12,0:0:0:0:
256,96,671548,1,4,0:0:0:0:
256,192,671856,1,0,0:0:0:0:
256,192,672010,1,8,0:0:0:0:
256,192,672164,1,0,0:0:0:0:
256,192,672317,1,0,0:0:0:0:
256,192,672471,1,8,0:0:0:0:
256,192,672625,1,8,0:0:0:0:
256,192,672779,1,0,0:0:0:0:
256,96,672933,1,12,0:0:0:0:
256,192,679480,5,0,0:0:0:0:
256,192,679630,1,8,0:0:0:0:
256,192,679930,1,0,0:0:0:0:
256,192,680080,1,0,0:0:0:0:
256,192,680230,1,8,0:0:0:0:
256,192,680530,1,0,0:0:0:0:
256,192,680830,1,8,0:0:0:0:
256,192,681130,1,0,0:0:0:0:
256,192,681280,1,0,0:0:0:0:
256,192,681430,1,8,0:0:0:0:
256,192,681580,1,0,0:0:0:0:
256,192,681880,1,0,0:0:0:0:
256,192,682030,1,8,0:0:0:0:
256,192,682330,1,0,0:0:0:0:
256,192,682480,1,0,0:0:0:0:
256,192,682630,1,8,0:0:0:0:
256,192,682780,1,0,0:0:0:0:
256,192,682855,1,0,0:0:0:0:
256,192,682930,1,0,0:0:0:0:
256,192,683230,1,8,0:0:0:0:
256,192,683530,1,0,0:0:0:0:
256,192,683680,1,0,0:0:0:0:
256,192,683830,1,8,0:0:0:0:
256,192,683980,1,8,0:0:0:0:
256,192,684280,1,0,0:0:0:0:
256,192,684430,1,8,0:0:0:0:
256,192,684730,1,0,0:0:0:0:
256,192,684880,1,0,0:0:0:0:
256,192,685030,1,8,0:0:0:0:
256,192,685330,1,0,0:0:0:0:
256,192,685480,1,8,0:0:0:0:
256,192,685630,1,0,0:0:0:0:
256,192,685780,1,0,0:0:0:0:
256,192,685930,1,8,0:0:0:0:
256,192,686230,1,0,0:0:0:0:
256,192,686380,1,8,0:0:0:0:
256,192,686530,1,0,0:0:0:0:
256,192,686680,1,0,0:0:0:0:
256,192,686830,1,8,0:0:0:0:
256,192,686980,1,8,0:0:0:0:
256,192,687055,1,0,0:0:0:0:
256,192,687130,1,0,0:0:0:0:
256,192,687280,1,0,0:0:0:0:
256,192,687430,1,8,0:0:0:0:
256,192,687580,1,8,0:0:0:0:
256,96,687730,1,4,0:0:0:0:
256,192,688030,1,0,0:0:0:0:
256,192,688180,1,0,0:0:0:0:
256,192,688330,1,8,0:0:0:0:
256,192,688630,1,8,0:0:0:0:
256,192,688930,1,0,0:0:0:0:
256,192,689080,1,0,0:0:0:0:
256,192,689155,1,0,0:0:0:0:
256,192,689230,1,0,0:0:0:0:
256,192,689380,1,8,0:0:0:0:
256,192,689530,1,0,0:0:0:0:
256,192,689680,1,0,0:0:0:0:
256,192,689830,1,8,0:0:0:0:
256,192,689980,1,8,0:0:0:0:
256,96,690130,1,4,0:0:0:0:
256,192,690430,1,0,0:0:0:0:
256,192,690580,1,0,0:0:0:0:
256,192,690730,1,8,0:0:0:0:
256,192,690880,1,0,0:0:0:0:
256,192,691030,1,8,0:0:0:0:
256,192,691330,1,8,0:0:0:0:
256,192,691480,1,0,0:0:0:0:
256,192,691555,1,0,0:0:0:0:
256,192,691630,1,0,0:0:0:0:
256,192,691780,1,8,0:0:0:0:
256,192,691930,1,0,0:0:0:0:
256,192,692080,1,0,0:0:0:0:
256,192,692230,1,8,0:0:0:0:
256,192,692380,1,8,0:0:0:0:
256,192,692455,1,8,0:0:0:0:
256,96,692530,1,4,0:0:0:0:
256,192,692830,1,0,0:0:0:0:
256,192,692980,1,0,0:0:0:0:
256,192,693130,1,8,0:0:0:0:
256,192,693430,1,8,0:0:0:0:
256,192,693730,1,0,0:0:0:0:
256,192,693880,1,0,0:0:0:0:
256,192,693955,1,0,0:0:0:0:
256,192,694030,1,0,0:0:0:0:
256,192,694180,1,8,0:0:0:0:
256,192,694330,1,0,0:0:0:0:
256,192,694480,1,0,0:0:0:0:
256,192,694630,1,8,0:0:0:0:
256,192,694705,1,0,0:0:0:0:
256,192,694780,1,8,0:0:0:0:
256,192,694855,1,8,0:0:0:0:
256,96,694930,1,4,0:0:0:0:
256,192,695230,1,0,0:0:0:0:
256,192,695380,1,8,0:0:0:0:
256,192,695680,1,8,0:0:0:0:
256,192,695830,1,0,0:0:0:0:
256,96,695980,1,12,0:0:0:0:
256,192,696280,1,0,0:0:0:0:
256,192,696355,1,0,0:0:0:0:
256,192,696430,1,0,0:0:0:0:
256,192,696580,1,8,0:0:0:0:
256,192,696730,1,8,0:0:0:0:
256,192,696880,1,0,0:0:0:0:
256,192,697030,1,0,0:0:0:0:
256,192,697105,1,0,0:0:0:0:
256,192,697180,1,8,0:0:0:0:
256,192,697255,1,8,0:0:0:0:
256,96,697330,1,4,0:0:0:0:
256,96,697630,1,12,0:0:0:0:
256,192,697780,1,0,0:0:0:0:
256,192,697930,1,8,0:0:0:0:
256,192,698080,1,8,0:0:0:0:
256,192,698380,1,8,0:0:0:0:
256,192,698680,1,0,0:0:0:0:
256,192,698830,1,8,0:0:0:0:
256,192,699130,1,0,0:0:0:0:
256,192,699280,1,0,0:0:0:0:
256,192,699430,1,8,0:0:0:0:
256,192,699580,1,8,0:0:0:0:
256,96,699730,1,4,0:0:0:0:
256,96,699880,1,4,0:0:0:0:
256,96,700180,1,4,0:0:0:0:
256,96,700330,1,4,0:0:0:0:
256,96,700630,1,4,0:0:0:0:
256,96,700780,1,4,0:0:0:0:
256,192,701230,8,12,701830,0:0:0:0:
256,96,701980,5,12,0:0:0:0:
256,192,702280,1,8,0:0:0:0:
256,192,702430,1,8,0:0:0:0:
256,192,702505,1,0,0:0:0:0:
256,192,702580,1,8,0:0:0:0:
256,192,702655,1,8,0:0:0:0:
256,192,702730,1,0,0:0:0:0:
256,192,702880,1,0,0:0:0:0:
256,192,703030,1,8,0:0:0:0:
256,192,703180,1,0,0:0:0:0:
256,192,703480,1,8,0:0:0:0:
256,192,703555,1,8,0:0:0:0:
256,192,703630,1,0,0:0:0:0:
256,192,703780,1,0,0:0:0:0:
256,192,703930,1,8,0:0:0:0:
256,192,704005,1,0,0:0:0:0:
256,192,704080,1,8,0:0:0:0:
256,192,704230,1,0,0:0:0:0:
256,96,704380,1,12,0:0:0:0:
256,192,704680,1,8,0:0:0:0:
256,192,704830,1,8,0:0:0:0:
256,192,704980,1,8,0:0:0:0:
256,192,705055,1,8,0:0:0:0:
256,192,705130,1,0,0:0:0:0:
256,192,705205,1,0,0:0:0:0:
256,192,705280,1,0,0:0:0:0:
256,192,705430,1,8,0:0:0:0:
256,192,705580,1,0,0:0:0:0:
256,192,705880,1,8,0:0:0:0:
256,192,706030,1,0,0:0:0:0:
256,192,706180,1,0,0:0:0:0:
256,192,706330,1,8,0:0:0:0:
256,192,706405,1,0,0:0:0:0:
256,192,706480,1,8,0:0:0:0:
256,192,706555,1,0,0:0:0:0:
256,192,706630,1,0,0:0:0:0:
256,96,706780,1,12,0:0:0:0:
256,192,707080,1,0,0:0:0:0:
256,192,707230,1,8,0:0:0:0:
256,192,707380,1,8,0:0:0:0:
256,192,707455,1,8,0:0:0:0:
256,192,707530,1,0,0:0:0:0:
256,192,707680,1,0,0:0:0:0:
256,192,707830,1,8,0:0:0:0:
256,192,707980,1,0,0:0:0:0:
256,192,708280,1,0,0:0:0:0:
256,192,708430,1,0,0:0:0:0:
256,192,708580,1,8,0:0:0:0:
256,192,708655,1,0,0:0:0:0:
256,192,708730,1,8,0:0:0:0:
256,192,708880,1,0,0:0:0:0:
256,192,709030,1,8,0:0:0:0:
256,96,709180,1,4,0:0:0:0:
256,192,709480,1,8,0:0:0:0:
256,192,709555,1,8,0:0:0:0:
256,192,709630,1,8,0:0:0:0:
256,96,709780,1,4,0:0:0:0:
256,192,710080,1,0,0:0:0:0:
256,192,710230,1,0,0:0:0:0:
256,96,710380,1,12,0:0:0:0:
256,192,710680,1,0,0:0:0:0:
256,192,710830,1,8,0:0:0:0:
256,192,710980,1,0,0:0:0:0:
256,192,711130,1,8,0:0:0:0:
256,192,711205,1,0,0:0:0:0:
256,192,711280,1,8,0:0:0:0:
256,192,711355,1,8,0:0:0:0:
256,192,711430,1,0,0:0:0:0:
256,192,711505,1,0,0:0:0:0:
256,96,711580,1,12,0:0:0:0:
256,192,711880,1,8,0:0:0:0:
256,192,712030,1,8,0:0:0:0:
256,192,712105,1,0,0:0:0:0:
256,192,712180,1,8,0:0:0:0:
256,192,712255,1,8,0:0:0:0:
256,192,712330,1,0,0:0:0:0:
256,192,712480,1,0,0:0:0:0:
256,192,712630,1,8,0:0:0:0:
256,192,712780,1,0,0:0:0:0:
256,192,713080,1,8,0:0:0:0:
256,192,713155,1,8,0:0:0:0:
256,192,713230,1,0,0:0:0:0:
256,192,713380,1,0,0:0:0:0:
256,192,713530,1,8,0:0:0:0:
256,192,713605,1,0,0:0:0:0:
256,192,713680,1,8,0:0:0:0:
256,192,713755,1,0,0:0:0:0:
256,192,713830,1,0,0:0:0:0:
256,96,713980,1,12,0:0:0:0:
256,192,714280,1,8,0:0:0:0:
256,192,714430,1,8,0:0:0:0:
256,192,714580,1,8,0:0:0:0:
256,192,714655,1,8,0:0:0:0:
256,192,714730,1,0,0:0:0:0:
256,192,714805,1,0,0:0:0:0:
256,192,714880,1,0,0:0:0:0:
256,192,715030,1,8,0:0:0:0:
256,192,715180,1,0,0:0:0:0:
256,192,715480,1,8,0:0:0:0:
256,192,715630,1,0,0:0:0:0:
256,192,715780,1,0,0:0:0:0:
256,192,715930,1,8,0:0:0:0:
256,192,716005,1,0,0:0:0:0:
256,192,716080,1,8,0:0:0:0:
256,192,716230,1,0,0:0:0:0:
256,96,716380,1,12,0:0:0:0:
256,192,716680,1,0,0:0:0:0:
256,192,716830,1,8,0:0:0:0:
256,192,716980,1,8,0:0:0:0:
256,192,717130,1,0,0:0:0:0:
256,192,717205,1,8,0:0:0:0:
256,192,717280,1,0,0:0:0:0:
256,96,717430,1,8,0:0:0:0:
256,96,717580,1,4,0:0:0:0:
256,192,717880,1,0,0:0:0:0:
256,192,718030,1,0,0:0:0:0:
256,192,718180,1,8,0:0:0:0:
256,192,718330,1,8,0:0:0:0:
256,192,718405,1,0,0:0:0:0:
256,192,718480,1,0,0:0:0:0:
256,192,718630,1,0,0:0:0:0:
256,96,718780,1,12,0:0:0:0:
256,192,719080,1,0,0:0:0:0:
256,192,719230,1,0,0:0:0:0:
256,192,719380,1,8,0:0:0:0:
256,192,719530,1,8,0:0:0:0:
256,192,719605,1,0,0:0:0:0:
256,192,719680,1,0,0:0:0:0:
256,192,719830,1,8,0:0:0:0:
256,192,719980,1,0,0:0:0:0:
256,192,720130,1,8,0:0:0:0:
256,192,720205,1,8,0:0:0:0:
256,192,720280,1,0,0:0:0:0:
256,192,720355,1,0,0:0:0:0:
256,192,720430,1,8,0:0:0:0:
256,192,720505,1,8,0:0:0:0:
256,192,720580,1,0,0:0:0:0:
256,192,720655,1,0,0:0:0:0:
256,192,720730,1,8,0:0:0:0:
256,192,720805,1,0,0:0:0:0:
256,192,720880,1,0,0:0:0:0:
256,192,720955,1,0,0:0:0:0:
256,192,721030,1,8,0:0:0:0:
256,192,721105,1,8,0:0:0:0:
256,96,721180,1,4,0:0:0:0:
256,192,721480,1,0,0:0:0:0:
256,192,721630,1,8,0:0:0:0:
256,192,721780,1,0,0:0:0:0:
256,96,721930,1,4,0:0:0:0:
256,96,722380,1,12,0:0:0:0:
256,192,722680,1,0,0:0:0:0:
256,192,722830,1,8,0:0:0:0:
256,192,723130,1,8,0:0:0:0:
256,192,723280,1,0,0:0:0:0:
256,192,723430,1,8,0:0:0:0:
256,192,723505,1,8,0:0:0:0:
256,192,723580,1,0,0:0:0:0:
256,192,723880,1,0,0:0:0:0:
256,192,724030,1,8,0:0:0:0:
256,192,724105,1,8,0:0:0:0:
256,192,724180,1,0,0:0:0:0:
256,192,724330,1,8,0:0:0:0:
256,192,724480,1,0,0:0:0:0:
256,192,724630,1,8,0:0:0:0:
256,192,724705,1,0,0:0:0:0:
256,192,724780,1,0,0:0:0:0:
256,192,725080,1,0,0:0:0:0:
256,192,725230,1,8,0:0:0:0:
256,192,725305,1,0,0:0:0:0:
256,192,725380,1,0,0:0:0:0:
256,192,725530,1,8,0:0:0:0:
256,192,725680,1,0,0:0:0:0:
256,192,725830,1,0,0:0:0:0:
256,192,725905,1,0,0:0:0:0:
256,192,725980,1,8,0:0:0:0:
256,192,726230,1,0,0:0:0:0:
256,192,726330,1,8,0:0:0:0:
256,192,726430,1,8,0:0:0:0:
256,192,726580,1,0,0:0:0:0:
256,192,726730,1,8,0:0:0:0:
256,192,726805,1,0,0:0:0:0:
256,192,726880,1,8,0:0:0:0:
256,192,726955,1,8,0:0:0:0:
256,192,727030,1,0,0:0:0:0:
256,192,727105,1,0,0:0:0:0:
256,96,727180,1,12,0:0:0:0:
256,192,727480,1,8,0:0:0:0:
256,192,727555,1,8,0:0:0:0:
256,192,727630,1,0,0:0:0:0:
256,192,727780,1,8,0:0:0:0:
256,192,727930,1,0,0:0:0:0:
256,192,728005,1,0,0:0:0:0:
256,192,728080,1,8,0:0:0:0:
256,192,728155,1,0,0:0:0:0:
256,192,728230,1,8,0:0:0:0:
256,192,728380,1,0,0:0:0:0:
256,192,728680,1,0,0:0:0:0:
256,192,728830,1,8,0:0:0:0:
256,192,728905,1,0,0:0:0:0:
256,192,728980,1,0,0:0:0:0:
256,192,729130,1,8,0:0:0:0:
256,192,729205,1,8,0:0:0:0:
256,192,729280,1,0,0:0:0:0:
256,192,729430,1,8,0:0:0:0:
256,192,729580,1,0,0:0:0:0:
256,192,729880,1,0,0:0:0:0:
256,192,730030,1,8,0:0:0:0:
256,192,730180,1,0,0:0:0:0:
256,192,730330,1,8,0:0:0:0:
256,192,730405,1,0,0:0:0:0:
256,192,730480,1,8,0:0:0:0:
256,192,730630,1,0,0:0:0:0:
256,192,730780,1,8,0:0:0:0:
256,192,730930,1,0,0:0:0:0:
256,192,731005,1,0,0:0:0:0:
256,192,731080,1,0,0:0:0:0:
256,192,731155,1,0,0:0:0:0:
256,192,731230,1,8,0:0:0:0:
256,192,731380,1,8,0:0:0:0:
256,192,731530,1,0,0:0:0:0:
256,192,731680,1,0,0:0:0:0:
256,192,731830,1,0,0:0:0:0:
256,96,731980,1,12,0:0:0:0:
256,192,732280,1,0,0:0:0:0:
256,192,732430,1,8,0:0:0:0:
256,192,732730,1,8,0:0:0:0:
256,192,732880,1,0,0:0:0:0:
256,192,733030,1,8,0:0:0:0:
256,192,733105,1,8,0:0:0:0:
256,192,733180,1,0,0:0:0:0:
256,192,733480,1,0,0:0:0:0:
256,192,733630,1,8,0:0:0:0:
256,192,733705,1,8,0:0:0:0:
256,192,733780,1,0,0:0:0:0:
256,192,733930,1,8,0:0:0:0:
256,192,734080,1,0,0:0:0:0:
256,192,734230,1,8,0:0:0:0:
256,192,734305,1,0,0:0:0:0:
256,192,734380,1,0,0:0:0:0:
256,192,734680,1,0,0:0:0:0:
256,192,734830,1,8,0:0:0:0:
256,192,734905,1,0,0:0:0:0:
256,192,734980,1,0,0:0:0:0:
256,192,735130,1,8,0:0:0:0:
256,192,735280,1,8,0:0:0:0:
256,192,735355,1,8,0:0:0:0:
256,192,735430,1,0,0:0:0:0:
256,192,735505,1,0,0:0:0:0:
256,192,735580,1,8,0:0:0:0:
256,192,735880,1,0,0:0:0:0:
256,192,736030,1,8,0:0:0:0:
256,192,736180,1,0,0:0:0:0:
256,192,736330,1,8,0:0:0:0:
256,192,736405,1,0,0:0:0:0:
256,192,736480,1,0,0:0:0:0:
256,192,736630,1,0,0:0:0:0:
256,96,736780,1,12,0:0:0:0:
256,192,737080,1,0,0:0:0:0:
256,192,737230,1,8,0:0:0:0:
256,192,737305,1,0,0:0:0:0:
256,192,737380,1,0,0:0:0:0:
256,192,737530,1,8,0:0:0:0:
256,192,737680,1,0,0:0:0:0:
256,192,737830,1,0,0:0:0:0:
256,192,737905,1,0,0:0:0:0:
256,192,737980,1,8,0:0:0:0:
256,192,738280,1,0,0:0:0:0:
256,192,738430,1,8,0:0:0:0:
256,192,738505,1,8,0:0:0:0:
256,192,738580,1,0,0:0:0:0:
256,192,738730,1,8,0:0:0:0:
256,192,738805,1,0,0:0:0:0:
256,192,738880,1,8,0:0:0:0:
256,192,738955,1,0,0:0:0:0:
256,192,739030,1,8,0:0:0:0:
256,192,739180,1,0,0:0:0:0:
256,192,739480,1,0,0:0:0:0:
256,192,739630,1,8,0:0:0:0:
256,192,739705,1,0,0:0:0:0:
256,192,739780,1,0,0:0:0:0:
256,192,739930,1,0,0:0:0:0:
256,192,740080,1,8,0:0:0:0:
256,192,740230,1,0,0:0:0:0:
256,192,740305,1,0,0:0:0:0:
256,192,740380,1,8,0:0:0:0:
256,192,740680,1,8,0:0:0:0:
256,192,740830,1,0,0:0:0:0:
256,192,740905,1,0,0:0:0:0:
256,192,740980,1,0,0:0:0:0:
256,192,741130,1,8,0:0:0:0:
256,192,741280,1,8,0:0:0:0:
256,192,741430,1,8,0:0:0:0:
256,192,741580,1,8,0:0:0:0:
256,96,741730,1,4,0:0:0:0:
256,192,749373,5,8,0:0:0:0:
256,192,749973,1,8,0:0:0:0:
256,192,750123,1,0,0:0:0:0:
256,192,750423,1,0,0:0:0:0:
256,192,750573,1,8,0:0:0:0:
256,192,751023,1,0,0:0:0:0:
256,192,751173,1,8,0:0:0:0:
256,192,751323,1,8,0:0:0:0:
256,192,751473,1,0,0:0:0:0:
256,192,751623,1,0,0:0:0:0:
256,192,751773,1,8,0:0:0:0:
256,192,752073,1,0,0:0:0:0:
256,192,752223,1,0,0:0:0:0:
256,192,752523,1,8,0:0:0:0:
256,192,752823,1,0,0:0:0:0:
256,192,752973,1,8,0:0:0:0:
256,192,753273,1,0,0:0:0:0:
256,192,753423,1,8,0:0:0:0:
256,192,753573,1,0,0:0:0:0:
256,192,753723,1,0,0:0:0:0:
256,96,753873,1,12,0:0:0:0:
256,192,754173,1,8,0:0:0:0:
256,192,754323,1,0,0:0:0:0:
256,192,754473,1,8,0:0:0:0:
256,192,754773,1,0,0:0:0:0:
256,96,755073,1,12,0:0:0:0:
256,192,755373,1,8,0:0:0:0:
256,192,755523,1,8,0:0:0:0:
256,192,755673,1,0,0:0:0:0:
256,192,755823,1,0,0:0:0:0:
256,192,755973,1,8,0:0:0:0:
256,96,756273,1,12,0:0:0:0:
256,192,756423,1,0,0:0:0:0:
256,192,756498,1,0,0:0:0:0:
256,192,756573,1,0,0:0:0:0:
256,192,756723,1,0,0:0:0:0:
256,192,756798,1,0,0:0:0:0:
256,192,756873,1,8,0:0:0:0:
256,192,756948,1,8,0:0:0:0:
256,192,757023,1,0,0:0:0:0:
256,192,757098,1,0,0:0:0:0:
256,192,757173,1,8,0:0:0:0:
256,192,757248,1,0,0:0:0:0:
256,192,757323,1,8,0:0:0:0:
256,192,757398,1,8,0:0:0:0:
256,96,757473,1,4,0:0:0:0:
256,96,757773,1,4,0:0:0:0:
256,96,758073,1,4,0:0:0:0:
256,96,758673,1,12,0:0:0:0:
256,192,758973,1,0,0:0:0:0:
256,192,759123,1,0,0:0:0:0:
256,192,759273,1,8,0:0:0:0:
256,192,759423,1,0,0:0:0:0:
256,192,759573,1,8,0:0:0:0:
256,192,759648,1,8,0:0:0:0:
256,192,759723,1,8,0:0:0:0:
256,192,759873,1,0,0:0:0:0:
256,192,760023,1,0,0:0:0:0:
256,192,760173,1,8,0:0:0:0:
256,192,760248,1,8,0:0:0:0:
256,192,760323,1,0,0:0:0:0:
256,192,760398,1,0,0:0:0:0:
256,192,760473,1,8,0:0:0:0:
256,192,760623,1,0,0:0:0:0:
256,192,760773,1,8,0:0:0:0:
256,192,760848,1,0,0:0:0:0:
256,192,760923,1,8,0:0:0:0:
256,192,761073,1,0,0:0:0:0:
256,192,761223,1,0,0:0:0:0:
256,192,761298,1,0,0:0:0:0:
256,192,761373,1,8,0:0:0:0:
256,192,761673,1,0,0:0:0:0:
256,192,761823,1,0,0:0:0:0:
256,192,761973,1,8,0:0:0:0:
256,192,762123,1,8,0:0:0:0:
256,192,762273,1,0,0:0:0:0:
256,192,762423,1,0,0:0:0:0:
256,192,762573,1,8,0:0:0:0:
256,192,762648,1,8,0:0:0:0:
256,192,762723,1,0,0:0:0:0:
256,192,762873,1,8,0:0:0:0:
256,192,763023,1,0,0:0:0:0:
256,192,763173,1,8,0:0:0:0:
256,192,763248,1,8,0:0:0:0:
256,192,763323,1,0,0:0:0:0:
256,192,763398,1,0,0:0:0:0:
256,96,763473,1,12,0:0:0:0:
256,192,763773,1,0,0:0:0:0:
256,192,763923,1,0,0:0:0:0:
256,192,764073,1,8,0:0:0:0:
256,192,764223,1,8,0:0:0:0:
256,192,764373,1,0,0:0:0:0:
256,192,764448,1,0,0:0:0:0:
256,192,764523,1,0,0:0:0:0:
256,192,764673,1,8,0:0:0:0:
256,192,764823,1,0,0:0:0:0:
256,192,764973,1,8,0:0:0:0:
256,192,765123,1,8,0:0:0:0:
256,192,765198,1,0,0:0:0:0:
256,192,765273,1,8,0:0:0:0:
256,192,765348,1,8,0:0:0:0:
256,192,765423,1,0,0:0:0:0:
256,192,765573,1,8,0:0:0:0:
256,192,765648,1,0,0:0:0:0:
256,192,765723,1,0,0:0:0:0:
256,192,765873,1,8,0:0:0:0:
256,192,766023,1,0,0:0:0:0:
256,192,766098,1,0,0:0:0:0:
256,192,766173,1,0,0:0:0:0:
256,192,766323,1,0,0:0:0:0:
256,192,766473,1,8,0:0:0:0:
256,192,766623,1,0,0:0:0:0:
256,192,766773,1,0,0:0:0:0:
256,96,766923,1,12,0:0:0:0:
256,192,767223,1,0,0:0:0:0:
256,192,767373,1,8,0:0:0:0:
256,192,767523,1,8,0:0:0:0:
256,192,767673,1,0,0:0:0:0:
256,192,767748,1,8,0:0:0:0:
256,192,767823,1,0,0:0:0:0:
256,192,767898,1,0,0:0:0:0:
256,192,767973,1,8,0:0:0:0:
256,192,768048,1,0,0:0:0:0:
256,192,768123,1,8,0:0:0:0:
256,192,768198,1,8,0:0:0:0:
256,96,768273,1,4,0:0:0:0:
256,96,768573,1,12,0:0:0:0:
256,192,768873,1,0,0:0:0:0:
256,192,769023,1,0,0:0:0:0:
256,192,769173,1,8,0:0:0:0:
256,192,769248,1,8,0:0:0:0:
256,192,769323,1,8,0:0:0:0:
256,192,769473,1,0,0:0:0:0:
256,192,769623,1,0,0:0:0:0:
256,192,769773,1,8,0:0:0:0:
256,192,769848,1,8,0:0:0:0:
256,192,769923,1,0,0:0:0:0:
256,192,770073,1,0,0:0:0:0:
256,192,770148,1,0,0:0:0:0:
256,192,770223,1,8,0:0:0:0:
256,192,770298,1,0,0:0:0:0:
256,192,770373,1,8,0:0:0:0:
256,192,770523,1,8,0:0:0:0:
256,192,770673,1,0,0:0:0:0:
256,192,770823,1,0,0:0:0:0:
256,192,770898,1,0,0:0:0:0:
256,192,770973,1,8,0:0:0:0:
256,192,771123,1,8,0:0:0:0:
256,192,771273,1,0,0:0:0:0:
256,192,771423,1,0,0:0:0:0:
256,192,771573,1,8,0:0:0:0:
256,192,771648,1,8,0:0:0:0:
256,192,771723,1,8,0:0:0:0:
256,192,771798,1,8,0:0:0:0:
256,192,771873,1,0,0:0:0:0:
256,192,772023,1,0,0:0:0:0:
256,192,772173,1,8,0:0:0:0:
256,192,772248,1,8,0:0:0:0:
256,192,772323,1,0,0:0:0:0:
256,192,772473,1,0,0:0:0:0:
256,192,772623,1,0,0:0:0:0:
256,192,772773,1,8,0:0:0:0:
256,192,772848,1,0,0:0:0:0:
256,192,772923,1,8,0:0:0:0:
256,192,772998,1,8,0:0:0:0:
256,96,773073,1,4,0:0:0:0:
256,96,773373,1,12,0:0:0:0:
256,192,773673,1,0,0:0:0:0:
256,192,773823,1,0,0:0:0:0:
256,192,773973,1,8,0:0:0:0:
256,192,774048,1,8,0:0:0:0:
256,192,774123,1,8,0:0:0:0:
256,192,774198,1,8,0:0:0:0:
256,192,774273,1,0,0:0:0:0:
256,192,774423,1,0,0:0:0:0:
256,192,774573,1,8,0:0:0:0:
256,192,774648,1,8,0:0:0:0:
256,192,774723,1,0,0:0:0:0:
256,192,774873,1,0,0:0:0:0:
256,192,775023,1,0,0:0:0:0:
256,192,775098,1,0,0:0:0:0:
256,192,775173,1,8,0:0:0:0:
256,192,775248,1,0,0:0:0:0:
256,192,775323,1,8,0:0:0:0:
256,192,775473,1,0,0:0:0:0:
256,192,775623,1,0,0:0:0:0:
256,192,775698,1,0,0:0:0:0:
256,192,775773,1,8,0:0:0:0:
256,192,775923,1,0,0:0:0:0:
256,192,776073,1,8,0:0:0:0:
256,192,776223,1,0,0:0:0:0:
256,192,776373,1,8,0:0:0:0:
256,192,776523,1,8,0:0:0:0:
256,192,776598,1,8,0:0:0:0:
256,96,776673,1,4,0:0:0:0:
256,96,776973,1,4,0:0:0:0:
256,96,777273,1,4,0:0:0:0:
256,96,777573,1,4,0:0:0:0:
256,192,777723,1,8,0:0:0:0:
256,192,777798,1,8,0:0:0:0:
256,96,777873,1,4,0:0:0:0:
256,96,778173,1,12,0:0:0:0:
256,192,778473,1,0,0:0:0:0:
256,192,778623,1,0,0:0:0:0:
256,192,778773,1,8,0:0:0:0:
256,192,778848,1,0,0:0:0:0:
256,192,778923,1,8,0:0:0:0:
256,192,779073,1,0,0:0:0:0:
256,192,779223,1,0,0:0:0:0:
256,192,779298,1,0,0:0:0:0:
256,192,779373,1,8,0:0:0:0:
256,192,779523,1,0,0:0:0:0:
256,192,779673,1,8,0:0:0:0:
256,192,779823,1,8,0:0:0:0:
256,192,779973,1,0,0:0:0:0:
256,192,780123,1,0,0:0:0:0:
256,192,780198,1,0,0:0:0:0:
256,192,780273,1,8,0:0:0:0:
256,192,780573,1,0,0:0:0:0:
256,192,780723,1,8,0:0:0:0:
256,192,780798,1,0,0:0:0:0:
256,192,780873,1,0,0:0:0:0:
256,192,781023,1,8,0:0:0:0:
256,192,781173,1,0,0:0:0:0:
256,192,781323,1,8,0:0:0:0:
256,192,781398,1,8,0:0:0:0:
256,192,781473,1,0,0:0:0:0:
256,192,781623,1,0,0:0:0:0:
256,192,781773,1,8,0:0:0:0:
256,192,781923,1,0,0:0:0:0:
256,192,782073,1,8,0:0:0:0:
256,192,782223,1,8,0:0:0:0:
256,192,782373,1,0,0:0:0:0:
256,192,782448,1,0,0:0:0:0:
256,192,782523,1,8,0:0:0:0:
256,192,782598,1,8,0:0:0:0:
256,96,782673,1,4,0:0:0:0:
256,96,782973,1,12,0:0:0:0:
256,192,783273,1,0,0:0:0:0:
256,192,783423,1,0,0:0:0:0:
256,192,783573,1,8,0:0:0:0:
256,192,783648,1,0,0:0:0:0:
256,192,783723,1,8,0:0:0:0:
256,192,783873,1,0,0:0:0:0:
256,192,784023,1,0,0:0:0:0:
256,192,784098,1,0,0:0:0:0:
256,192,784173,1,8,0:0:0:0:
256,192,784323,1,0,0:0:0:0:
256,192,784473,1,8,0:0:0:0:
256,192,784623,1,8,0:0:0:0:
256,192,784773,1,0,0:0:0:0:
256,192,784923,1,0,0:0:0:0:
256,192,784998,1,0,0:0:0:0:
256,192,785073,1,8,0:0:0:0:
256,192,785223,1,0,0:0:0:0:
256,192,785373,1,8,0:0:0:0:
256,192,785523,1,0,0:0:0:0:
256,192,785673,1,8,0:0:0:0:
256,192,785973,1,0,0:0:0:0:
256,192,786123,1,8,0:0:0:0:
256,192,786273,1,0,0:0:0:0:
256,192,786423,1,0,0:0:0:0:
256,192,786573,1,8,0:0:0:0:
256,192,786873,1,0,0:0:0:0:
256,192,787023,1,8,0:0:0:0:
256,192,787098,1,8,0:0:0:0:
256,192,787173,1,8,0:0:0:0:
256,192,787323,1,8,0:0:0:0:
256,96,787473,1,4,0:0:0:0:
256,192,795768,5,0,0:0:0:0:
256,192,795910,1,0,0:0:0:0:
256,192,796196,1,0,0:0:0:0:
256,192,796339,1,8,0:0:0:0:
256,192,796625,1,8,0:0:0:0:
256,192,796910,1,8,0:0:0:0:
256,192,797053,1,0,0:0:0:0:
256,192,797339,1,8,0:0:0:0:
256,192,797625,1,8,0:0:0:0:
256,192,797910,1,0,0:0:0:0:
256,192,798053,1,8,0:0:0:0:
256,192,798339,1,0,0:0:0:0:
256,192,798482,1,8,0:0:0:0:
256,192,798768,1,0,0:0:0:0:
256,192,798910,1,0,0:0:0:0:
256,192,799053,1,8,0:0:0:0:
256,96,799339,1,4,0:0:0:0:
256,192,799625,1,8,0:0:0:0:
256,192,799910,1,0,0:0:0:0:
256,192,800053,1,0,0:0:0:0:
256,192,800196,1,8,0:0:0:0:
256,192,800482,1,8,0:0:0:0:
256,192,800625,1,8,0:0:0:0:
256,192,800768,1,0,0:0:0:0:
256,192,801053,1,8,0:0:0:0:
256,192,801196,1,0,0:0:0:0:
256,192,801339,1,8,0:0:0:0:
256,192,801482,1,8,0:0:0:0:
256,96,801625,1,4,0:0:0:0:
256,192,801910,1,8,0:0:0:0:
256,192,802195,1,0,0:0:0:0:
256,192,802338,1,0,0:0:0:0:
256,192,802481,1,8,0:0:0:0:
256,192,802767,1,0,0:0:0:0:
256,192,802910,1,0,0:0:0:0:
256,192,803053,1,8,0:0:0:0:
256,192,803196,1,0,0:0:0:0:
256,192,803482,1,0,0:0:0:0:
256,192,803625,1,8,0:0:0:0:
256,192,803910,5,0,0:0:0:0:
256,96,804053,1,12,0:0:0:0:
256,192,804339,5,0,0:0:0:0:
256,96,804482,1,12,0:0:0:0:
256,192,804768,5,0,0:0:0:0:
256,96,804911,1,12,0:0:0:0:
256,192,805196,5,0,0:0:0:0:
256,96,805339,1,12,0:0:0:0:
256,192,805625,5,8,0:0:0:0:
256,96,805768,1,4,0:0:0:0:
256,192,806053,5,0,0:0:0:0:
256,96,806196,1,12,0:0:0:0:
256,192,807196,1,0,0:0:0:0:
256,192,807339,1,0,0:0:0:0:
256,192,808196,1,8,0:0:0:0:
256,192,808268,1,8,0:0:0:0:
256,192,808339,1,8,0:0:0:0:
256,192,808410,1,8,0:0:0:0:
256,192,808482,1,0,0:0:0:0:
256,96,810768,5,12,0:0:0:0:
256,192,811054,1,8,0:0:0:0:
256,192,811197,1,0,0:0:0:0:
256,192,811339,1,8,0:0:0:0:
256,192,811411,1,0,0:0:0:0:
256,192,811482,1,8,0:0:0:0:
256,192,811625,1,0,0:0:0:0:
256,192,811768,1,8,0:0:0:0:
256,192,811911,1,0,0:0:0:0:
256,192,812125,1,8,0:0:0:0:
256,192,812197,1,0,0:0:0:0:
256,192,812339,1,0,0:0:0:0:
256,192,812482,1,8,0:0:0:0:
256,192,812625,1,0,0:0:0:0:
256,192,812697,1,8,0:0:0:0:
256,192,812768,1,0,0:0:0:0:
256,192,812911,1,8,0:0:0:0:
256,96,813054,1,4,0:0:0:0:
256,96,813339,1,12,0:0:0:0:
256,192,813625,1,8,0:0:0:0:
256,192,813768,1,0,0:0:0:0:
256,192,813839,1,0,0:0:0:0:
256,192,813911,1,8,0:0:0:0:
256,192,814054,1,0,0:0:0:0:
256,192,814197,1,8,0:0:0:0:
256,192,814268,1,8,0:0:0:0:
256,192,814339,1,0,0:0:0:0:
256,192,814411,1,0,0:0:0:0:
256,192,814482,1,8,0:0:0:0:
256,192,814625,1,0,0:0:0:0:
256,192,814768,1,8,0:0:0:0:
256,192,814911,1,0,0:0:0:0:
256,192,814982,1,0,0:0:0:0:
256,192,815054,1,8,0:0:0:0:
256,192,815197,1,8,0:0:0:0:
256,192,815339,1,0,0:0:0:0:
256,192,815482,1,8,0:0:0:0:
256,192,815554,1,8,0:0:0:0:
256,192,815625,1,0,0:0:0:0:
256,192,815768,1,0,0:0:0:0:
256,192,815911,1,8,0:0:0:0:
256,192,815982,1,0,0:0:0:0:
256,192,816054,1,8,0:0:0:0:
256,192,816125,1,8,0:0:0:0:
256,192,816197,1,0,0:0:0:0:
256,192,816268,1,0,0:0:0:0:
256,96,816339,1,12,0:0:0:0:
256,192,816625,1,0,0:0:0:0:
256,192,816696,1,0,0:0:0:0:
256,192,816768,1,0,0:0:0:0:
256,96,816910,1,12,0:0:0:0:
256,192,817197,1,0,0:0:0:0:
256,192,817268,1,0,0:0:0:0:
256,192,817339,1,8,0:0:0:0:
256,192,817482,1,8,0:0:0:0:
256,96,817625,1,4,0:0:0:0:
256,192,817839,1,8,0:0:0:0:
256,192,817910,1,0,0:0:0:0:
256,192,818053,1,0,0:0:0:0:
256,192,818196,1,8,0:0:0:0:
256,192,818268,1,0,0:0:0:0:
256,192,818339,1,0,0:0:0:0:
256,192,818410,1,8,0:0:0:0:
256,192,818481,1,0,0:0:0:0:
256,192,818625,1,8,0:0:0:0:
256,192,818767,1,0,0:0:0:0:
256,192,818911,1,8,0:0:0:0:
256,192,818982,1,8,0:0:0:0:
256,192,819054,1,0,0:0:0:0:
256,192,819197,1,8,0:0:0:0:
256,192,819339,1,0,0:0:0:0:
256,192,819410,1,0,0:0:0:0:
256,192,819481,1,0,0:0:0:0:
256,192,819553,1,0,0:0:0:0:
256,192,819624,1,8,0:0:0:0:
256,192,819767,1,0,0:0:0:0:
256,192,819910,1,8,0:0:0:0:
256,192,820053,1,0,0:0:0:0:
256,192,820124,1,0,0:0:0:0:
256,192,820196,1,8,0:0:0:0:
256,192,820339,1,0,0:0:0:0:
256,192,820481,1,8,0:0:0:0:
256,192,820553,1,8,0:0:0:0:
256,192,820624,1,0,0:0:0:0:
256,192,820697,1,8,0:0:0:0:
256,192,820768,1,0,0:0:0:0:
256,192,820839,1,0,0:0:0:0:
256,192,820910,1,8,0:0:0:0:
256,192,821053,1,0,0:0:0:0:
256,192,821267,1,8,0:0:0:0:
256,192,821339,1,0,0:0:0:0:
256,192,821482,1,0,0:0:0:0:
256,192,821624,1,8,0:0:0:0:
256,192,821768,1,0,0:0:0:0:
256,192,821839,1,0,0:0:0:0:
256,192,821910,1,8,0:0:0:0:
256,192,821982,1,0,0:0:0:0:
256,192,822053,1,0,0:0:0:0:
256,192,822196,1,8,0:0:0:0:
256,192,822410,1,8,0:0:0:0:
256,192,822481,1,0,0:0:0:0:
256,192,822624,1,8,0:0:0:0:
256,192,822696,1,8,0:0:0:0:
256,192,822768,1,0,0:0:0:0:
256,192,822839,1,8,0:0:0:0:
256,192,822911,1,0,0:0:0:0:
256,192,822982,1,0,0:0:0:0:
256,192,823053,1,8,0:0:0:0:
256,192,823196,1,8,0:0:0:0:
256,192,823339,1,0,0:0:0:0:
256,192,823481,1,0,0:0:0:0:
256,192,823554,1,0,0:0:0:0:
256,192,823624,1,8,0:0:0:0:
256,192,823767,1,8,0:0:0:0:
256,192,823911,1,0,0:0:0:0:
256,192,823982,1,0,0:0:0:0:
256,192,824053,1,8,0:0:0:0:
256,192,824124,1,0,0:0:0:0:
256,192,824197,1,8,0:0:0:0:
256,192,824339,1,8,0:0:0:0:
256,192,824481,1,0,0:0:0:0:
256,192,824624,1,8,0:0:0:0:
256,192,824696,1,0,0:0:0:0:
256,192,824767,1,8,0:0:0:0:
256,192,824910,1,8,0:0:0:0:
256,192,825053,1,0,0:0:0:0:
256,192,825124,1,8,0:0:0:0:
256,192,825196,1,0,0:0:0:0:
256,192,825267,1,0,0:0:0:0:
256,192,825339,1,8,0:0:0:0:
256,192,825410,1,8,0:0:0:0:
256,192,825482,1,0,0:0:0:0:
256,192,825625,1,8,0:0:0:0:
256,192,825768,1,0,0:0:0:0:
256,96,825911,1,12,0:0:0:0:
256,192,826197,1,0,0:0:0:0:
256,192,826339,1,0,0:0:0:0:
256,192,826482,1,8,0:0:0:0:
256,192,826554,1,8,0:0:0:0:
256,192,826625,1,8,0:0:0:0:
256,96,826768,1,4,0:0:0:0:
256,192,826982,1,8,0:0:0:0:
256,192,827053,1,0,0:0:0:0:
256,192,827196,1,0,0:0:0:0:
256,192,827339,1,8,0:0:0:0:
256,192,827411,1,0,0:0:0:0:
256,192,827482,1,0,0:0:0:0:
256,192,827553,1,8,0:0:0:0:
256,192,827624,1,0,0:0:0:0:
256,192,827696,1,0,0:0:0:0:
256,192,827768,1,8,0:0:0:0:
256,192,827910,1,0,0:0:0:0:
256,192,828054,1,8,0:0:0:0:
256,192,828125,1,8,0:0:0:0:
256,192,828197,1,0,0:0:0:0:
256,192,828340,1,8,0:0:0:0:
256,192,828482,1,0,0:0:0:0:
256,192,828553,1,0,0:0:0:0:
256,192,828624,1,0,0:0:0:0:
256,192,828767,1,8,0:0:0:0:
256,192,828910,1,0,0:0:0:0:
256,192,829053,1,8,0:0:0:0:
256,192,829196,1,0,0:0:0:0:
256,192,829267,1,0,0:0:0:0:
256,192,829339,1,8,0:0:0:0:
256,192,829410,1,0,0:0:0:0:
256,192,829482,1,0,0:0:0:0:
256,192,829624,1,8,0:0:0:0:
256,192,829767,1,0,0:0:0:0:
256,192,829840,1,8,0:0:0:0:
256,192,829911,1,0,0:0:0:0:
256,192,830053,1,8,0:0:0:0:
256,192,830196,1,0,0:0:0:0:
256,192,830339,1,8,0:0:0:0:
256,192,830410,1,0,0:0:0:0:
256,192,830482,1,0,0:0:0:0:
256,192,830625,1,8,0:0:0:0:
256,192,830768,1,8,0:0:0:0:
256,192,830839,1,8,0:0:0:0:
256,192,830910,1,0,0:0:0:0:
256,192,830982,1,0,0:0:0:0:
256,192,831053,1,8,0:0:0:0:
256,192,831125,1,0,0:0:0:0:
256,192,831196,1,8,0:0:0:0:
256,96,831339,1,4,0:0:0:0:
256,192,831624,1,0,0:0:0:0:
256,192,831767,1,0,0:0:0:0:
256,192,831910,1,8,0:0:0:0:
256,192,831982,1,0,0:0:0:0:
256,192,832053,1,0,0:0:0:0:
256,192,832124,1,8,0:0:0:0:
256,192,832195,1,0,0:0:0:0:
256,192,832339,1,8,0:0:0:0:
256,192,832481,1,0,0:0:0:0:
256,192,832625,1,8,0:0:0:0:
256,192,832696,1,8,0:0:0:0:
256,192,832768,1,0,0:0:0:0:
256,192,832911,1,8,0:0:0:0:
256,192,833053,1,0,0:0:0:0:
256,192,833124,1,0,0:0:0:0:
256,192,833195,1,8,0:0:0:0:
256,192,833268,1,0,0:0:0:0:
256,192,833338,1,8,0:0:0:0:
256,192,833410,1,0,0:0:0:0:
256,192,833481,1,0,0:0:0:0:
256,192,833624,1,8,0:0:0:0:
256,192,833767,1,8,0:0:0:0:
256,192,833839,1,0,0:0:0:0:
256,192,833910,1,0,0:0:0:0:
256,192,834053,1,0,0:0:0:0:
256,192,834195,1,8,0:0:0:0:
256,192,834338,1,0,0:0:0:0:
256,192,834411,1,8,0:0:0:0:
256,192,834482,1,0,0:0:0:0:
256,192,834553,1,0,0:0:0:0:
256,192,834624,1,8,0:0:0:0:
256,192,834767,1,0,0:0:0:0:
256,192,834910,1,8,0:0:0:0:
256,192,834981,1,0,0:0:0:0:
256,192,835053,1,8,0:0:0:0:
256,192,835196,1,0,0:0:0:0:
256,192,835339,1,8,0:0:0:0:
256,192,835410,1,8,0:0:0:0:
256,192,835481,1,8,0:0:0:0:
256,192,835553,1,0,0:0:0:0:
256,192,835624,1,8,0:0:0:0:
256,192,835696,1,0,0:0:0:0:
256,192,835767,1,8,0:0:0:0:
256,192,835839,1,8,0:0:0:0:
256,96,835910,1,4,0:0:0:0:
256,192,836196,1,0,0:0:0:0:
256,192,836339,1,0,0:0:0:0:
256,192,836482,1,8,0:0:0:0:
256,192,836554,1,0,0:0:0:0:
256,192,836625,1,0,0:0:0:0:
256,192,836696,1,8,0:0:0:0:
256,192,836767,1,0,0:0:0:0:
256,192,836911,1,8,0:0:0:0:
256,192,837053,1,0,0:0:0:0:
256,192,837197,1,8,0:0:0:0:
256,192,837268,1,8,0:0:0:0:
256,192,837340,1,0,0:0:0:0:
256,192,837483,1,8,0:0:0:0:
256,192,837625,1,0,0:0:0:0:
256,192,837696,1,0,0:0:0:0:
256,192,837767,1,0,0:0:0:0:
256,192,837910,1,8,0:0:0:0:
256,192,838053,1,0,0:0:0:0:
256,192,838196,1,8,0:0:0:0:
256,192,838511,1,8,0:0:0:0:
256,192,838863,1,0,0:0:0:0:
256,192,839238,1,0,0:0:0:0:
256,192,839666,1,0,0:0:0:0:
256,192,840053,1,0,0:0:0:0:
256,192,840440,1,8,0:0:0:0:
256,192,841448,1,8,0:0:0:0:
256,96,845047,5,12,0:0:0:0:
256,96,846189,5,12,0:0:0:0:
256,96,847332,1,4,0:0:0:0:
256,192,847618,1,0,0:0:0:0:
256,192,847761,1,0,0:0:0:0:
256,192,847904,1,8,0:0:0:0:
256,192,848047,1,0,0:0:0:0:
256,192,848189,1,8,0:0:0:0:
256,192,848332,1,8,0:0:0:0:
256,192,848475,1,0,0:0:0:0:
256,192,848618,1,8,0:0:0:0:
256,192,848761,1,0,0:0:0:0:
256,192,848904,1,8,0:0:0:0:
256,192,848975,1,0,0:0:0:0:
256,192,849047,1,8,0:0:0:0:
256,192,849189,1,8,0:0:0:0:
256,192,849332,1,0,0:0:0:0:
256,192,849475,1,0,0:0:0:0:
256,192,849618,1,8,0:0:0:0:
256,192,849761,1,8,0:0:0:0:
256,192,849904,1,0,0:0:0:0:
256,192,850047,1,0,0:0:0:0:
256,192,850189,1,8,0:0:0:0:
256,192,850332,1,0,0:0:0:0:
256,192,850475,1,8,0:0:0:0:
256,192,850618,1,8,0:0:0:0:
256,192,850689,1,8,0:0:0:0:
256,192,850761,1,0,0:0:0:0:
256,192,850904,1,0,0:0:0:0:
256,192,851047,1,8,0:0:0:0:
256,192,851189,1,8,0:0:0:0:
256,192,851332,1,0,0:0:0:0:
256,192,851475,1,0,0:0:0:0:
256,192,851618,1,8,0:0:0:0:
256,192,851761,1,8,0:0:0:0:
256,96,851904,1,4,0:0:0:0:
256,192,852190,1,0,0:0:0:0:
256,192,852333,1,0,0:0:0:0:
256,192,852476,1,8,0:0:0:0:
256,192,852617,1,0,0:0:0:0:
256,192,852761,1,8,0:0:0:0:
256,192,852904,1,8,0:0:0:0:
256,192,853047,1,0,0:0:0:0:
256,192,853190,1,8,0:0:0:0:
256,192,853333,1,0,0:0:0:0:
256,192,853476,1,8,0:0:0:0:
256,192,853547,1,0,0:0:0:0:
256,192,853617,1,0,0:0:0:0:
256,192,853761,1,8,0:0:0:0:
256,192,853904,1,0,0:0:0:0:
256,192,854047,1,0,0:0:0:0:
256,192,854189,1,8,0:0:0:0:
256,192,854475,1,0,0:0:0:0:
256,192,854618,1,0,0:0:0:0:
256,192,854761,1,8,0:0:0:0:
256,192,855047,1,0,0:0:0:0:
256,192,855189,1,0,0:0:0:0:
256,192,855332,1,8,0:0:0:0:
256,192,855475,1,0,0:0:0:0:
256,192,855618,1,8,0:0:0:0:
256,192,855689,1,8,0:0:0:0:
256,192,855761,1,0,0:0:0:0:
256,96,855904,1,12,0:0:0:0:
256,192,856047,1,0,0:0:0:0:
256,192,856118,1,0,0:0:0:0:
256,192,856189,1,8,0:0:0:0:
256,192,856261,1,0,0:0:0:0:
256,192,856332,1,8,0:0:0:0:
256,96,856475,1,4,0:0:0:0:
256,96,856761,1,12,0:0:0:0:
256,192,857047,1,8,0:0:0:0:
256,192,857189,1,0,0:0:0:0:
256,192,857261,1,8,0:0:0:0:
256,192,857332,1,0,0:0:0:0:
256,192,857475,1,0,0:0:0:0:
256,192,857618,1,8,0:0:0:0:
256,192,857761,1,8,0:0:0:0:
256,192,857832,1,0,0:0:0:0:
256,192,857904,1,8,0:0:0:0:
256,192,857975,1,8,0:0:0:0:
256,192,858047,1,0,0:0:0:0:
256,192,858189,1,0,0:0:0:0:
256,192,858332,1,8,0:0:0:0:
256,192,858475,1,8,0:0:0:0:
256,192,858547,1,8,0:0:0:0:
256,192,858618,1,0,0:0:0:0:
256,192,858761,1,0,0:0:0:0:
256,192,859047,1,8,0:0:0:0:
256,192,859118,1,8,0:0:0:0:
256,192,859189,1,0,0:0:0:0:
256,192,859332,1,8,0:0:0:0:
256,192,859404,1,0,0:0:0:0:
256,192,859475,1,8,0:0:0:0:
256,192,859618,1,0,0:0:0:0:
256,192,859761,1,0,0:0:0:0:
256,192,859904,1,8,0:0:0:0:
256,192,860118,1,0,0:0:0:0:
256,192,860189,1,8,0:0:0:0:
256,192,860332,1,0,0:0:0:0:
256,192,860475,1,8,0:0:0:0:
256,192,860547,1,0,0:0:0:0:
256,192,860618,1,8,0:0:0:0:
256,192,860689,1,8,0:0:0:0:
256,192,860761,1,0,0:0:0:0:
256,192,860904,1,0,0:0:0:0:
256,192,861047,1,8,0:0:0:0:
256,192,861189,1,0,0:0:0:0:
256,96,861332,1,12,0:0:0:0:
256,192,861475,1,8,0:0:0:0:
256,192,861618,1,0,0:0:0:0:
256,192,861689,1,0,0:0:0:0:
256,192,861761,1,8,0:0:0:0:
256,192,861904,1,0,0:0:0:0:
256,192,862047,1,0,0:0:0:0:
256,192,862189,1,8,0:0:0:0:
256,192,862261,1,0,0:0:0:0:
256,192,862332,1,8,0:0:0:0:
256,192,862475,1,0,0:0:0:0:
256,192,862618,1,8,0:0:0:0:
256,192,862761,1,0,0:0:0:0:
256,192,862904,1,0,0:0:0:0:
256,192,862975,1,0,0:0:0:0:
256,192,863047,1,8,0:0:0:0:
256,96,863332,1,12,0:0:0:0:
256,192,863475,1,0,0:0:0:0:
256,192,863618,1,0,0:0:0:0:
256,96,863761,1,12,0:0:0:0:
256,192,863904,1,0,0:0:0:0:
256,96,864189,1,12,0:0:0:0:
256,192,864332,1,0,0:0:0:0:
256,192,864475,1,0,0:0:0:0:
256,96,864618,1,12,0:0:0:0:
256,192,864761,1,0,0:0:0:0:
256,192,864832,1,0,0:0:0:0:
256,192,864904,1,0,0:0:0:0:
256,96,865047,1,12,0:0:0:0:
256,96,865332,1,12,0:0:0:0:
256,96,865618,1,4,0:0:0:0:
256,96,865760,1,4,0:0:0:0:
256,96,866046,1,4,0:0:0:0:
256,96,866189,1,4,0:0:0:0:
256,96,866475,1,4,0:0:0:0:
256,96,866617,1,4,0:0:0:0:
256,192,867260,1,8,0:0:0:0:
256,192,867332,1,8,0:0:0:0:
256,192,867403,1,0,0:0:0:0:
256,192,867475,1,0,0:0:0:0:
256,192,867618,12,0,870189,0:0:0:0:
256,192,873265,5,8,0:0:0:0:
256,192,873402,1,0,0:0:0:0:
256,192,873674,1,0,0:0:0:0:
256,192,873811,1,8,0:0:0:0:
256,192,874220,1,8,0:0:0:0:
256,192,874356,5,0,0:0:0:0:
256,192,874629,1,0,0:0:0:0:
256,192,875038,1,0,0:0:0:0:
256,192,875311,1,8,0:0:0:0:
256,192,875447,1,0,0:0:0:0:
256,192,875993,1,0,0:0:0:0:
256,192,876129,1,0,0:0:0:0:
256,192,876265,1,0,0:0:0:0:
256,96,876538,1,12,0:0:0:0:
256,192,878720,1,0,0:0:0:0:
256,96,878856,1,12,0:0:0:0:
256,192,879129,1,0,0:0:0:0:
256,192,879265,1,0,0:0:0:0:
256,192,879538,1,0,0:0:0:0:
256,192,879674,1,8,0:0:0:0:
256,192,879947,1,0,0:0:0:0:
256,192,880084,1,8,0:0:0:0:
256,192,880220,1,0,0:0:0:0:
256,192,880356,1,8,0:0:0:0:
256,192,880493,1,8,0:0:0:0:
256,192,880629,1,0,0:0:0:0:
256,192,880765,1,0,0:0:0:0:
256,96,880902,1,12,0:0:0:0:
256,192,881447,1,0,0:0:0:0:
256,192,881720,1,0,0:0:0:0:
256,192,881993,1,8,0:0:0:0:
256,192,882674,1,0,0:0:0:0:
256,192,882811,1,8,0:0:0:0:
256,192,882947,1,0,0:0:0:0:
256,192,883084,1,8,0:0:0:0:
256,192,883356,1,8,0:0:0:0:
256,192,883493,1,0,0:0:0:0:
256,192,883765,1,8,0:0:0:0:
256,192,884038,1,8,0:0:0:0:
256,192,884174,1,0,0:0:0:0:
256,192,884720,1,0,0:0:0:0:
256,192,884856,1,0,0:0:0:0:
256,192,884993,1,8,0:0:0:0:
256,192,885129,1,0,0:0:0:0:
256,192,885265,1,8,0:0:0:0:
256,192,885402,1,8,0:0:0:0:
256,192,885538,1,0,0:0:0:0:
256,192,885811,1,8,0:0:0:0:
256,192,886084,1,0,0:0:0:0:
256,192,886220,1,8,0:0:0:0:
256,192,886493,1,8,0:0:0:0:
256,192,886765,1,0,0:0:0:0:
256,96,887447,1,12,0:0:0:0:
256,192,887720,1,0,0:0:0:0:
256,192,887856,1,0,0:0:0:0:
256,192,887993,1,8,0:0:0:0:
256,192,888061,1,8,0:0:0:0:
256,192,888129,1,0,0:0:0:0:
256,192,888197,1,0,0:0:0:0:
256,192,888265,1,8,0:0:0:0:
256,192,888402,1,8,0:0:0:0:
256,192,888538,1,0,0:0:0:0:
256,192,888674,1,0,0:0:0:0:
256,192,888743,1,0,0:0:0:0:
256,192,888811,1,8,0:0:0:0:
256,192,888947,1,0,0:0:0:0:
256,192,889084,1,8,0:0:0:0:
256,192,889152,1,0,0:0:0:0:
256,192,889220,1,0,0:0:0:0:
256,192,889288,1,0,0:0:0:0:
256,192,889356,1,8,0:0:0:0:
256,192,889424,1,8,0:0:0:0:
256,192,889493,1,0,0:0:0:0:
256,192,889561,1,0,0:0:0:0:
256,192,889629,1,8,0:0:0:0:
256,192,889902,1,0,0:0:0:0:
256,192,890174,1,8,0:0:0:0:
256,192,890311,1,0,0:0:0:0:
256,192,890447,1,8,0:0:0:0:
256,192,890720,1,0,0:0:0:0:
256,192,890993,1,8,0:0:0:0:
256,192,891402,1,0,0:0:0:0:
256,192,891538,1,8,0:0:0:0:
256,192,891674,1,0,0:0:0:0:
256,192,891811,1,8,0:0:0:0:
256,192,892084,1,8,0:0:0:0:
256,192,892356,1,0,0:0:0:0:
256,192,892493,1,0,0:0:0:0:
256,192,892629,1,8,0:0:0:0:
256,192,892765,1,0,0:0:0:0:
256,192,893038,1,8,0:0:0:0:
256,192,893174,1,0,0:0:0:0:
256,192,893584,1,0,0:0:0:0:
256,192,893720,1,8,0:0:0:0:
256,192,893856,1,0,0:0:0:0:
256,192,893993,1,8,0:0:0:0:
256,192,894265,1,8,0:0:0:0:
256,192,894402,1,8,0:0:0:0:
256,192,894674,1,0,0:0:0:0:
256,192,894811,1,8,0:0:0:0:
256,192,894947,1,8,0:0:0:0:
256,192,895084,1,0,0:0:0:0:
256,192,895288,1,0,0:0:0:0:
256,192,895356,1,8,0:0:0:0:
256,192,895629,1,0,0:0:0:0:
256,192,895765,1,8,0:0:0:0:
256,192,895834,1,8,0:0:0:0:
256,192,895902,1,0,0:0:0:0:
256,192,895970,1,0,0:0:0:0:
256,192,896038,1,8,0:0:0:0:
256,96,896174,1,4,0:0:0:0:
256,192,896720,1,8,0:0:0:0:
256,192,896856,1,0,0:0:0:0:
256,192,896993,1,0,0:0:0:0:
256,192,897129,1,8,0:0:0:0:
256,192,897265,1,0,0:0:0:0:
256,192,897402,1,0,0:0:0:0:
256,192,897538,1,8,0:0:0:0:
256,192,897606,1,0,0:0:0:0:
256,192,897674,1,0,0:0:0:0:
256,192,897743,1,0,0:0:0:0:
256,192,897811,1,8,0:0:0:0:
256,192,897879,1,8,0:0:0:0:
256,192,897947,1,0,0:0:0:0:
256,192,898015,1,0,0:0:0:0:
256,192,898084,1,8,0:0:0:0:
256,192,898152,1,8,0:0:0:0:
256,192,898220,1,0,0:0:0:0:
256,192,898288,1,0,0:0:0:0:
256,96,898356,1,12,0:0:0:0:
256,192,898629,1,0,0:0:0:0:
256,192,898765,1,0,0:0:0:0:
256,192,898902,1,8,0:0:0:0:
256,192,899038,1,0,0:0:0:0:
256,192,899106,1,0,0:0:0:0:
256,192,899174,1,8,0:0:0:0:
256,192,899243,1,0,0:0:0:0:
256,192,899311,1,8,0:0:0:0:
256,192,899379,1,8,0:0:0:0:
256,192,899447,1,0,0:0:0:0:
256,192,899584,1,8,0:0:0:0:
256,192,899720,1,0,0:0:0:0:
256,192,899856,1,8,0:0:0:0:
256,192,899924,1,8,0:0:0:0:
256,192,899993,1,0,0:0:0:0:
256,192,900129,1,0,0:0:0:0:
256,192,900265,1,8,0:0:0:0:
256,192,900402,1,0,0:0:0:0:
256,192,900538,1,8,0:0:0:0:
256,192,900606,1,0,0:0:0:0:
256,192,900674,1,0,0:0:0:0:
256,192,900811,1,0,0:0:0:0:
256,192,900947,1,8,0:0:0:0:
256,192,901015,1,8,0:0:0:0:
256,192,901084,1,0,0:0:0:0:
256,192,901220,1,8,0:0:0:0:
256,192,901288,1,8,0:0:0:0:
256,192,901356,1,0,0:0:0:0:
256,192,901424,1,0,0:0:0:0:
256,192,901493,1,8,0:0:0:0:
256,192,901629,1,0,0:0:0:0:
256,192,901697,1,0,0:0:0:0:
256,192,901765,1,0,0:0:0:0:
256,192,901902,1,8,0:0:0:0:
256,192,902038,1,0,0:0:0:0:
256,192,902174,1,8,0:0:0:0:
256,192,902243,1,0,0:0:0:0:
256,192,902311,1,8,0:0:0:0:
256,192,902379,1,8,0:0:0:0:
256,192,902447,1,0,0:0:0:0:
256,192,902515,1,0,0:0:0:0:
256,192,902584,1,8,0:0:0:0:
256,192,902652,1,8,0:0:0:0:
256,192,902720,1,0,0:0:0:0:
256,192,902856,1,8,0:0:0:0:
256,192,902924,1,8,0:0:0:0:
256,192,902993,1,0,0:0:0:0:
256,192,903129,1,8,0:0:0:0:
256,192,903265,1,8,0:0:0:0:
256,192,903334,1,0,0:0:0:0:
256,192,903402,1,0,0:0:0:0:
256,192,903538,1,8,0:0:0:0:
256,192,903606,1,0,0:0:0:0:
256,192,903674,1,8,0:0:0:0:
256,192,903811,1,0,0:0:0:0:
256,192,903947,1,8,0:0:0:0:
256,192,904015,1,8,0:0:0:0:
256,192,904084,1,0,0:0:0:0:
256,192,904220,1,0,0:0:0:0:
256,192,904356,1,8,0:0:0:0:
256,192,904424,1,0,0:0:0:0:
256,192,904493,1,8,0:0:0:0:
256,192,904561,1,8,0:0:0:0:
256,192,904629,1,0,0:0:0:0:
256,192,904765,1,0,0:0:0:0:
256,96,904902,1,12,0:0:0:0:
256,192,905174,1,8,0:0:0:0:
256,192,905311,1,0,0:0:0:0:
256,192,905447,1,8,0:0:0:0:
256,192,905515,1,0,0:0:0:0:
256,192,905584,1,0,0:0:0:0:
256,192,905652,1,0,0:0:0:0:
256,192,905720,1,8,0:0:0:0:
256,96,905856,1,4,0:0:0:0:
256,192,906129,1,0,0:0:0:0:
256,192,906265,1,8,0:0:0:0:
256,192,906402,1,0,0:0:0:0:
256,192,906538,1,8,0:0:0:0:
256,192,906674,1,0,0:0:0:0:
256,192,906743,1,0,0:0:0:0:
256,192,906811,1,8,0:0:0:0:
256,192,906879,1,8,0:0:0:0:
256,192,906947,1,0,0:0:0:0:
256,192,907015,1,0,0:0:0:0:
256,96,907084,1,12,0:0:0:0:
256,192,907356,1,8,0:0:0:0:
256,192,907493,1,0,0:0:0:0:
256,192,907629,1,8,0:0:0:0:
256,192,907765,1,0,0:0:0:0:
256,192,907834,1,0,0:0:0:0:
256,192,907902,1,8,0:0:0:0:
256,192,907970,1,0,0:0:0:0:
256,192,908038,1,8,0:0:0:0:
256,192,908106,1,8,0:0:0:0:
256,192,908174,1,0,0:0:0:0:
256,192,908311,1,0,0:0:0:0:
256,192,908447,1,8,0:0:0:0:
256,192,908584,1,0,0:0:0:0:
256,192,908720,1,8,0:0:0:0:
256,192,908788,1,8,0:0:0:0:
256,192,908856,1,0,0:0:0:0:
256,192,908993,1,8,0:0:0:0:
256,192,909061,1,8,0:0:0:0:
256,192,909129,1,0,0:0:0:0:
256,192,909265,1,8,0:0:0:0:
256,192,909402,1,0,0:0:0:0:
256,192,909470,1,0,0:0:0:0:
256,192,909538,1,8,0:0:0:0:
256,192,909674,1,0,0:0:0:0:
256,192,909811,1,8,0:0:0:0:
256,192,909879,1,0,0:0:0:0:
256,192,909947,1,8,0:0:0:0:
256,192,910015,1,0,0:0:0:0:
256,192,910084,1,8,0:0:0:0:
256,192,910220,1,0,0:0:0:0:
256,192,910288,1,0,0:0:0:0:
256,192,910356,1,0,0:0:0:0:
256,192,910493,1,0,0:0:0:0:
256,192,910629,1,8,0:0:0:0:
256,192,910765,1,8,0:0:0:0:
256,192,910902,1,0,0:0:0:0:
256,192,911038,1,0,0:0:0:0:
256,192,911174,1,8,0:0:0:0:
256,192,911243,1,8,0:0:0:0:
256,192,911311,1,0,0:0:0:0:
256,192,911379,1,0,0:0:0:0:
256,96,911447,1,12,0:0:0:0:
256,192,911720,1,0,0:0:0:0:
256,192,911856,1,0,0:0:0:0:
256,192,911924,1,0,0:0:0:0:
256,192,911993,1,8,0:0:0:0:
256,192,912129,1,0,0:0:0:0:
256,192,912265,1,8,0:0:0:0:
256,192,912334,1,8,0:0:0:0:
256,192,912402,1,0,0:0:0:0:
256,96,912538,1,12,0:0:0:0:
256,192,912811,1,0,0:0:0:0:
256,192,912947,1,8,0:0:0:0:
256,192,913015,1,8,0:0:0:0:
256,192,913084,1,0,0:0:0:0:
256,192,913220,1,0,0:0:0:0:
256,192,913356,1,8,0:0:0:0:
256,192,913424,1,0,0:0:0:0:
256,192,913493,1,8,0:0:0:0:
256,192,913629,1,8,0:0:0:0:
256,192,913765,1,0,0:0:0:0:
256,192,913902,1,8,0:0:0:0:
256,192,913970,1,8,0:0:0:0:
256,192,914038,1,0,0:0:0:0:
256,192,914106,1,0,0:0:0:0:
256,192,914174,1,8,0:0:0:0:
256,192,914243,1,8,0:0:0:0:
256,192,914311,1,0,0:0:0:0:
256,96,914584,1,12,0:0:0:0:
256,192,914856,1,0,0:0:0:0:
256,96,914993,1,12,0:0:0:0:
256,192,915265,1,8,0:0:0:0:
256,192,915334,1,0,0:0:0:0:
256,192,915402,1,0,0:0:0:0:
256,192,915470,1,0,0:0:0:0:
256,192,915538,1,8,0:0:0:0:
256,192,915606,1,8,0:0:0:0:
256,192,915674,1,0,0:0:0:0:
256,192,915743,1,0,0:0:0:0:
256,96,915811,1,12,0:0:0:0:
256,192,916084,1,0,0:0:0:0:
256,192,916220,1,8,0:0:0:0:
256,192,916288,1,0,0:0:0:0:
256,192,916356,1,8,0:0:0:0:
256,192,916493,1,0,0:0:0:0:
256,192,916629,1,8,0:0:0:0:
256,192,916697,1,0,0:0:0:0:
256,192,916765,1,8,0:0:0:0:
256,192,916834,1,8,0:0:0:0:
256,192,916902,1,0,0:0:0:0:
256,192,917174,1,8,0:0:0:0:
256,192,917311,1,0,0:0:0:0:
256,192,917379,1,0,0:0:0:0:
256,192,917447,1,8,0:0:0:0:
256,192,917584,1,0,0:0:0:0:
256,192,917720,1,8,0:0:0:0:
256,192,917788,1,8,0:0:0:0:
256,192,917856,1,0,0:0:0:0:
256,192,917924,1,8,0:0:0:0:
256,192,917993,1,0,0:0:0:0:
256,192,918265,1,8,0:0:0:0:
256,192,918402,1,0,0:0:0:0:
256,192,918538,1,8,0:0:0:0:
256,192,918674,1,8,0:0:0:0:
256,192,918811,1,0,0:0:0:0:
256,192,918947,1,0,0:0:0:0:
256,192,919084,1,8,0:0:0:0:
256,192,919152,1,8,0:0:0:0:
256,192,919220,1,0,0:0:0:0:
256,192,919356,1,8,0:0:0:0:
256,192,919493,1,0,0:0:0:0:
256,192,919629,1,8,0:0:0:0:
256,192,919697,1,0,0:0:0:0:
256,192,919765,1,0,0:0:0:0:
256,192,919902,1,8,0:0:0:0:
256,192,919970,1,0,0:0:0:0:
256,192,920038,1,8,0:0:0:0:
256,192,920106,1,8,0:0:0:0:
256,192,920174,1,0,0:0:0:0:
256,192,920447,1,8,0:0:0:0:
256,192,920584,1,0,0:0:0:0:
256,192,920720,1,8,0:0:0:0:
256,192,920788,1,8,0:0:0:0:
256,192,920856,1,0,0:0:0:0:
256,192,920993,1,0,0:0:0:0:
256,192,921129,1,0,0:0:0:0:
256,192,921265,1,8,0:0:0:0:
256,192,921334,1,0,0:0:0:0:
256,192,921402,1,0,0:0:0:0:
256,192,921538,1,8,0:0:0:0:
256,192,921674,1,8,0:0:0:0:
256,192,921743,1,8,0:0:0:0:
256,192,921811,1,8,0:0:0:0:
256,192,921947,1,0,0:0:0:0:
256,192,922084,1,8,0:0:0:0:
256,192,922220,1,8,0:0:0:0:
256,192,922356,1,0,0:0:0:0:
256,192,922629,1,8,0:0:0:0:
256,192,922765,1,0,0:0:0:0:
256,192,922902,1,0,0:0:0:0:
256,192,922970,1,0,0:0:0:0:
256,192,923038,1,0,0:0:0:0:
256,192,923106,1,0,0:0:0:0:
256,192,923174,1,8,0:0:0:0:
256,96,923311,1,4,0:0:0:0:
256,192,923584,1,0,0:0:0:0:
256,96,923720,1,12,0:0:0:0:
256,192,923993,1,0,0:0:0:0:
256,192,924129,1,0,0:0:0:0:
256,192,924265,1,8,0:0:0:0:
256,192,924334,1,0,0:0:0:0:
256,192,924402,1,8,0:0:0:0:
256,192,924470,1,8,0:0:0:0:
256,192,924538,1,0,0:0:0:0:
256,192,924811,1,0,0:0:0:0:
256,192,924947,1,0,0:0:0:0:
256,192,925084,1,8,0:0:0:0:
256,192,925220,1,0,0:0:0:0:
256,192,925356,1,8,0:0:0:0:
256,192,925493,1,0,0:0:0:0:
256,192,925561,1,0,0:0:0:0:
256,192,925629,1,8,0:0:0:0:
256,192,925902,1,8,0:0:0:0:
256,192,926038,1,0,0:0:0:0:
256,192,926311,1,0,0:0:0:0:
256,192,926447,1,8,0:0:0:0:
256,192,926515,1,0,0:0:0:0:
256,192,926584,1,0,0:0:0:0:
256,192,926720,1,8,0:0:0:0:
256,192,926993,1,0,0:0:0:0:
256,192,927129,1,0,0:0:0:0:
256,192,927265,1,8,0:0:0:0:
256,192,927402,1,0,0:0:0:0:
256,192,927538,1,8,0:0:0:0:
256,192,927674,1,8,0:0:0:0:
256,192,927743,1,8,0:0:0:0:
256,192,927811,1,0,0:0:0:0:
256,192,928084,1,8,0:0:0:0:
256,192,928220,1,0,0:0:0:0:
256,192,928493,1,0,0:0:0:0:
256,192,928629,1,8,0:0:0:0:
256,192,928697,1,0,0:0:0:0:
256,192,928765,1,0,0:0:0:0:
256,96,928902,1,8,0:0:0:0:
256,192,929174,1,0,0:0:0:0:
256,192,929311,1,0,0:0:0:0:
256,192,929447,1,8,0:0:0:0:
256,192,929584,1,0,0:0:0:0:
256,192,929720,1,8,0:0:0:0:
256,192,929856,1,0,0:0:0:0:
256,192,929924,1,0,0:0:0:0:
256,192,929993,1,8,0:0:0:0:
256,192,930265,1,8,0:0:0:0:
256,192,930402,1,0,0:0:0:0:
256,192,930674,1,0,0:0:0:0:
256,192,930811,1,8,0:0:0:0:
256,192,930879,1,0,0:0:0:0:
256,192,930947,1,8,0:0:0:0:
256,192,931084,1,0,0:0:0:0:
256,192,931356,1,0,0:0:0:0:
256,192,931493,1,0,0:0:0:0:
256,192,931629,1,8,0:0:0:0:
256,192,931765,1,0,0:0:0:0:
256,192,931902,1,8,0:0:0:0:
256,192,932038,1,0,0:0:0:0:
256,192,932106,1,0,0:0:0:0:
256,192,932174,1,8,0:0:0:0:
256,192,932447,1,8,0:0:0:0:
256,192,932584,1,0,0:0:0:0:
256,192,932720,1,8,0:0:0:0:
256,192,932856,1,0,0:0:0:0:
256,192,932924,1,0,0:0:0:0:
256,192,932993,1,8,0:0:0:0:
256,192,933061,1,0,0:0:0:0:
256,192,933129,1,8,0:0:0:0:
256,192,933197,1,8,0:0:0:0:
256,96,933265,1,4,0:0:0:0:
256,192,933538,1,0,0:0:0:0:
256,192,933674,1,0,0:0:0:0:
256,192,933811,1,8,0:0:0:0:
256,192,933879,1,0,0:0:0:0:
256,192,933947,1,0,0:0:0:0:
256,192,934084,1,8,0:0:0:0:
256,192,934152,1,0,0:0:0:0:
256,192,934220,1,8,0:0:0:0:
256,192,934288,1,8,0:0:0:0:
256,192,934356,1,0,0:0:0:0:
256,192,934493,1,0,0:0:0:0:
256,192,934629,1,8,0:0:0:0:
256,192,934765,1,0,0:0:0:0:
256,192,934902,1,8,0:0:0:0:
256,192,934970,1,8,0:0:0:0:
256,192,935038,1,0,0:0:0:0:
256,192,935174,1,8,0:0:0:0:
256,192,935243,1,0,0:0:0:0:
256,192,935311,1,8,0:0:0:0:
256,192,935379,1,8,0:0:0:0:
256,192,935447,1,0,0:0:0:0:
256,192,935584,1,0,0:0:0:0:
256,192,935720,1,8,0:0:0:0:
256,192,935856,1,0,0:0:0:0:
256,192,935993,1,8,0:0:0:0:
256,192,936061,1,0,0:0:0:0:
256,192,936129,1,0,0:0:0:0:
256,192,936265,1,8,0:0:0:0:
256,192,936334,1,8,0:0:0:0:
256,192,936402,1,0,0:0:0:0:
256,192,936470,1,0,0:0:0:0:
256,192,936538,1,8,0:0:0:0:
256,192,936674,1,0,0:0:0:0:
256,192,936811,1,8,0:0:0:0:
256,192,936947,1,0,0:0:0:0:
256,192,937084,1,8,0:0:0:0:
256,192,937152,1,8,0:0:0:0:
256,192,937220,1,0,0:0:0:0:
256,192,937356,1,8,0:0:0:0:
256,192,937424,1,0,0:0:0:0:
256,192,937493,1,0,0:0:0:0:
256,192,937561,1,0,0:0:0:0:
256,192,937629,1,8,0:0:0:0:
256,192,937902,1,0,0:0:0:0:
256,192,938038,1,0,0:0:0:0:
256,192,938106,1,0,0:0:0:0:
256,192,938174,1,8,0:0:0:0:
256,192,938311,1,0,0:0:0:0:
256,192,938447,1,8,0:0:0:0:
256,192,938515,1,8,0:0:0:0:
256,192,938584,1,0,0:0:0:0:
256,192,938652,1,0,0:0:0:0:
256,192,938720,1,8,0:0:0:0:
256,192,938856,1,0,0:0:0:0:
256,192,938993,1,8,0:0:0:0:
256,192,939129,1,0,0:0:0:0:
256,192,939197,1,8,0:0:0:0:
256,192,939265,1,8,0:0:0:0:
256,192,939402,1,0,0:0:0:0:
256,192,939538,1,8,0:0:0:0:
256,192,939606,1,0,0:0:0:0:
256,192,939674,1,8,0:0:0:0:
256,192,939743,1,8,0:0:0:0:
256,192,939811,1,0,0:0:0:0:
256,192,939947,1,0,0:0:0:0:
256,192,940084,1,8,0:0:0:0:
256,192,940220,1,0,0:0:0:0:
256,192,940288,1,0,0:0:0:0:
256,192,940356,1,8,0:0:0:0:
256,192,940493,1,8,0:0:0:0:
256,192,940629,1,8,0:0:0:0:
256,192,940697,1,0,0:0:0:0:
256,192,940765,1,8,0:0:0:0:
256,192,940834,1,8,0:0:0:0:
256,192,940902,1,0,0:0:0:0:
256,192,941038,1,0,0:0:0:0:
256,192,941174,1,8,0:0:0:0:
256,192,941311,1,0,0:0:0:0:
256,192,941447,1,8,0:0:0:0:
256,192,941515,1,0,0:0:0:0:
256,192,941584,1,8,0:0:0:0:
256,192,941652,1,0,0:0:0:0:
256,192,941720,1,8,0:0:0:0:
256,192,941788,1,0,0:0:0:0:
256,192,941856,1,0,0:0:0:0:
256,192,941924,1,0,0:0:0:0:
256,96,941993,1,12,0:0:0:0:
256,192,942265,1,8,0:0:0:0:
256,192,942402,1,0,0:0:0:0:
256,192,942538,1,8,0:0:0:0:
256,192,942606,1,8,0:0:0:0:
256,192,942674,1,0,0:0:0:0:
256,192,942811,1,8,0:0:0:0:
256,192,942879,1,8,0:0:0:0:
256,192,942947,1,0,0:0:0:0:
256,192,943015,1,0,0:0:0:0:
256,192,943084,1,8,0:0:0:0:
256,192,943220,1,0,0:0:0:0:
256,192,943356,1,8,0:0:0:0:
256,192,943493,1,0,0:0:0:0:
256,192,943629,1,8,0:0:0:0:
256,192,943697,1,8,0:0:0:0:
256,192,943765,1,0,0:0:0:0:
256,192,943902,1,8,0:0:0:0:
256,192,943970,1,8,0:0:0:0:
256,192,944038,1,0,0:0:0:0:
256,192,944106,1,0,0:0:0:0:
256,192,944174,1,8,0:0:0:0:
256,192,944311,1,0,0:0:0:0:
256,192,944447,1,8,0:0:0:0:
256,192,944515,1,0,0:0:0:0:
256,192,944584,1,0,0:0:0:0:
256,192,944720,1,8,0:0:0:0:
256,192,944788,1,8,0:0:0:0:
256,192,944856,1,0,0:0:0:0:
256,192,944993,1,8,0:0:0:0:
256,192,945061,1,8,0:0:0:0:
256,192,945129,1,0,0:0:0:0:
256,192,945197,1,8,0:0:0:0:
256,192,945265,1,0,0:0:0:0:
256,192,945402,1,0,0:0:0:0:
256,192,945538,1,8,0:0:0:0:
256,192,945606,1,0,0:0:0:0:
256,192,945674,1,8,0:0:0:0:
256,192,945743,1,0,0:0:0:0:
256,192,945811,1,8,0:0:0:0:
256,192,945879,1,8,0:0:0:0:
256,192,945947,1,0,0:0:0:0:
256,192,946084,1,8,0:0:0:0:
256,192,946152,1,8,0:0:0:0:
256,192,946220,1,0,0:0:0:0:
256,192,946288,1,0,0:0:0:0:
256,192,946356,1,8,0:0:0:0:
256,192,946493,1,0,0:0:0:0:
256,192,946629,1,8,0:0:0:0:
256,192,946697,1,0,0:0:0:0:
256,192,946765,1,0,0:0:0:0:
256,192,946902,1,8,0:0:0:0:
256,192,947038,1,0,0:0:0:0:
256,192,947106,1,0,0:0:0:0:
256,192,947174,1,8,0:0:0:0:
256,192,947243,1,8,0:0:0:0:
256,192,947311,1,0,0:0:0:0:
256,96,947447,1,12,0:0:0:0:
256,192,948129,1,0,0:0:0:0:
256,192,948265,1,0,0:0:0:0:
256,96,948538,1,12,0:0:0:0:
256,192,948674,1,0,0:0:0:0:
256,192,948811,1,0,0:0:0:0:
256,192,948947,1,8,0:0:0:0:
256,96,949220,1,12,0:0:0:0:
256,192,949356,1,0,0:0:0:0:
256,192,949493,1,0,0:0:0:0:
256,96,949629,1,12,0:0:0:0:
256,96,949902,1,12,0:0:0:0:
256,96,953572,5,12,0:0:0:0:
256,192,954118,1,8,0:0:0:0:
256,192,954663,1,0,0:0:0:0:
256,192,954936,1,8,0:0:0:0:
256,192,955209,1,8,0:0:0:0:
256,192,955481,1,0,0:0:0:0:
256,96,955754,1,12,0:0:0:0:
256,96,956300,1,12,0:0:0:0:
256,96,956845,1,4,0:0:0:0:
256,192,956981,1,0,0:0:0:0:
256,192,957050,1,8,0:0:0:0:
256,192,957118,1,0,0:0:0:0:
256,192,957254,1,8,0:0:0:0:
256,192,957391,1,8,0:0:0:0:
256,192,957527,1,0,0:0:0:0:
256,192,957595,1,0,0:0:0:0:
256,192,957663,1,8,0:0:0:0:
256,192,957800,1,8,0:0:0:0:
256,192,957936,1,0,0:0:0:0:
256,96,958209,1,12,0:0:0:0:
256,192,958345,1,0,0:0:0:0:
256,192,958413,1,0,0:0:0:0:
256,192,958481,1,0,0:0:0:0:
256,192,958618,1,0,0:0:0:0:
256,192,958754,1,8,0:0:0:0:
256,192,958822,1,0,0:0:0:0:
256,192,958891,1,8,0:0:0:0:
256,192,958959,1,8,0:0:0:0:
256,192,959027,1,0,0:0:0:0:
256,192,959163,1,0,0:0:0:0:
256,192,959300,1,8,0:0:0:0:
256,192,959436,1,8,0:0:0:0:
256,192,959572,1,0,0:0:0:0:
256,192,959641,1,0,0:0:0:0:
256,192,959709,1,8,0:0:0:0:
256,192,959777,1,0,0:0:0:0:
256,192,959845,1,8,0:0:0:0:
256,192,959981,1,8,0:0:0:0:
256,192,960118,1,0,0:0:0:0:
256,192,960254,1,8,0:0:0:0:
256,192,960322,1,8,0:0:0:0:
256,192,960391,1,0,0:0:0:0:
256,192,960527,1,0,0:0:0:0:
256,192,960663,1,8,0:0:0:0:
256,192,960731,1,8,0:0:0:0:
256,192,960800,1,0,0:0:0:0:
256,192,960868,1,0,0:0:0:0:
256,192,960936,1,8,0:0:0:0:
256,192,961072,1,8,0:0:0:0:
256,192,961209,1,0,0:0:0:0:
256,192,961345,1,0,0:0:0:0:
256,192,961413,1,0,0:0:0:0:
256,192,961481,1,8,0:0:0:0:
256,192,961618,1,8,0:0:0:0:
256,192,961754,1,0,0:0:0:0:
256,192,961891,1,8,0:0:0:0:
256,192,962027,1,8,0:0:0:0:
256,192,962095,1,8,0:0:0:0:
256,192,962163,1,0,0:0:0:0:
256,192,962231,1,0,0:0:0:0:
256,192,962300,1,8,0:0:0:0:
256,192,962572,1,8,0:0:0:0:
256,192,962709,1,0,0:0:0:0:
256,192,962777,1,0,0:0:0:0:
256,192,962845,1,0,0:0:0:0:
256,192,962981,1,0,0:0:0:0:
256,192,963118,1,8,0:0:0:0:
256,192,963254,1,8,0:0:0:0:
256,192,963322,1,8,0:0:0:0:
256,192,963391,1,0,0:0:0:0:
256,192,963527,1,0,0:0:0:0:
256,192,963663,1,8,0:0:0:0:
256,192,963800,1,0,0:0:0:0:
256,192,963868,1,0,0:0:0:0:
256,192,963936,1,8,0:0:0:0:
256,192,964004,1,0,0:0:0:0:
256,192,964072,1,8,0:0:0:0:
256,192,964141,1,8,0:0:0:0:
256,192,964209,1,0,0:0:0:0:
256,192,964345,1,8,0:0:0:0:
256,192,964481,1,0,0:0:0:0:
256,192,964618,1,0,0:0:0:0:
256,192,964686,1,0,0:0:0:0:
256,192,964754,1,8,0:0:0:0:
256,192,964891,1,8,0:0:0:0:
256,192,964959,1,0,0:0:0:0:
256,192,965027,1,8,0:0:0:0:
256,192,965095,1,8,0:0:0:0:
256,192,965163,1,0,0:0:0:0:
256,192,965231,1,8,0:0:0:0:
256,192,965300,1,0,0:0:0:0:
256,192,965436,1,8,0:0:0:0:
256,192,965572,1,0,0:0:0:0:
256,192,965709,1,8,0:0:0:0:
256,192,965777,1,8,0:0:0:0:
256,192,965845,1,0,0:0:0:0:
256,192,965981,1,0,0:0:0:0:
256,192,966118,1,8,0:0:0:0:
256,192,966254,1,0,0:0:0:0:
256,192,966322,1,0,0:0:0:0:
256,192,966391,1,8,0:0:0:0:
256,192,966459,1,0,0:0:0:0:
256,192,966527,1,8,0:0:0:0:
256,192,966595,1,8,0:0:0:0:
256,192,966663,1,0,0:0:0:0:
256,96,966936,1,12,0:0:0:0:
256,192,967072,1,0,0:0:0:0:
256,192,967141,1,0,0:0:0:0:
256,192,967209,1,0,0:0:0:0:
256,192,967345,1,0,0:0:0:0:
256,192,967481,1,8,0:0:0:0:
256,192,967618,1,8,0:0:0:0:
256,192,967754,1,0,0:0:0:0:
256,192,967891,1,0,0:0:0:0:
256,192,967959,1,0,0:0:0:0:
256,192,968027,1,8,0:0:0:0:
256,192,968095,1,8,0:0:0:0:
256,192,968163,1,8,0:0:0:0:
256,192,968231,1,0,0:0:0:0:
256,192,968300,1,8,0:0:0:0:
256,192,968368,1,8,0:0:0:0:
256,192,968436,1,0,0:0:0:0:
256,192,968504,1,0,0:0:0:0:
256,192,968572,1,8,0:0:0:0:
256,192,968641,1,8,0:0:0:0:
256,192,968709,1,0,0:0:0:0:
256,192,968845,1,0,0:0:0:0:
256,192,969118,1,8,0:0:0:0:
256,192,969254,1,8,0:0:0:0:
256,192,969322,1,8,0:0:0:0:
256,192,969391,1,0,0:0:0:0:
256,192,969527,1,0,0:0:0:0:
256,192,969663,1,8,0:0:0:0:
256,192,969800,1,0,0:0:0:0:
256,192,969868,1,8,0:0:0:0:
256,192,969936,1,8,0:0:0:0:
256,192,970072,1,0,0:0:0:0:
256,192,970141,1,0,0:0:0:0:
256,192,970209,1,8,0:0:0:0:
256,192,970277,1,0,0:0:0:0:
256,192,970345,1,8,0:0:0:0:
256,192,970481,1,0,0:0:0:0:
256,192,970618,1,0,0:0:0:0:
256,192,970686,1,0,0:0:0:0:
256,192,970754,1,8,0:0:0:0:
256,192,970891,1,8,0:0:0:0:
256,192,971027,1,0,0:0:0:0:
256,192,971300,1,8,0:0:0:0:
256,192,971436,1,0,0:0:0:0:
256,192,971504,1,8,0:0:0:0:
256,192,971572,1,0,0:0:0:0:
256,192,971709,1,8,0:0:0:0:
256,192,971845,1,0,0:0:0:0:
256,192,971913,1,0,0:0:0:0:
256,192,971981,1,0,0:0:0:0:
256,192,972118,1,8,0:0:0:0:
256,192,972254,1,8,0:0:0:0:
256,192,972322,1,0,0:0:0:0:
256,192,972391,1,8,0:0:0:0:
256,192,972527,1,0,0:0:0:0:
256,192,972663,1,0,0:0:0:0:
256,192,972731,1,0,0:0:0:0:
256,192,972800,1,8,0:0:0:0:
256,192,972868,1,8,0:0:0:0:
256,192,972936,1,8,0:0:0:0:
256,96,973072,1,4,0:0:0:0:
256,192,973345,1,0,0:0:0:0:
256,192,973481,1,8,0:0:0:0:
256,192,973754,1,8,0:0:0:0:
256,192,974027,1,0,0:0:0:0:
256,192,974300,1,8,0:0:0:0:
256,192,974572,1,0,0:0:0:0:
256,192,974709,1,8,0:0:0:0:
256,192,974845,1,8,0:0:0:0:
256,192,974981,1,8,0:0:0:0:
256,192,975050,1,8,0:0:0:0:
256,192,975118,1,8,0:0:0:0:
256,96,975254,1,4,0:0:0:0:
256,192,975527,1,0,0:0:0:0:
256,192,975595,1,8,0:0:0:0:
256,192,975663,1,8,0:0:0:0:
256,192,975800,1,0,0:0:0:0:
256,192,975936,1,8,0:0:0:0:
256,192,976072,1,0,0:0:0:0:
256,192,976209,1,8,0:0:0:0:
256,192,976345,1,0,0:0:0:0:
256,192,976618,1,0,0:0:0:0:
256,192,976754,1,8,0:0:0:0:
256,192,976891,1,0,0:0:0:0:
256,192,976959,1,8,0:0:0:0:
256,192,977027,1,0,0:0:0:0:
256,192,977095,1,0,0:0:0:0:
256,192,977163,1,8,0:0:0:0:
256,192,977300,1,8,0:0:0:0:
256,96,977436,1,4,0:0:0:0:
256,192,977709,1,0,0:0:0:0:
256,192,977845,1,8,0:0:0:0:
256,192,977913,1,8,0:0:0:0:
256,192,977981,1,0,0:0:0:0:
256,192,978118,1,8,0:0:0:0:
256,192,978254,1,8,0:0:0:0:
256,192,978391,1,8,0:0:0:0:
256,192,978527,1,0,0:0:0:0:
256,192,978595,1,0,0:0:0:0:
256,192,978663,1,8,0:0:0:0:
256,192,978800,1,0,0:0:0:0:
256,192,978936,1,8,0:0:0:0:
256,192,979072,1,0,0:0:0:0:
256,192,979209,1,8,0:0:0:0:
256,192,979277,1,8,0:0:0:0:
256,192,979345,1,0,0:0:0:0:
256,192,979413,1,0,0:0:0:0:
256,192,979481,1,8,0:0:0:0:
256,96,979618,1,4,0:0:0:0:
256,192,979891,1,0,0:0:0:0:
256,192,979959,1,0,0:0:0:0:
256,192,980027,1,8,0:0:0:0:
256,192,980163,1,0,0:0:0:0:
256,192,980300,1,8,0:0:0:0:
256,192,980436,1,8,0:0:0:0:
256,192,980572,1,0,0:0:0:0:
256,192,980641,1,8,0:0:0:0:
256,192,980709,1,8,0:0:0:0:
256,192,980845,1,0,0:0:0:0:
256,192,980981,1,8,0:0:0:0:
256,192,981050,1,0,0:0:0:0:
256,192,981118,1,0,0:0:0:0:
256,192,981254,1,8,0:0:0:0:
256,192,981391,1,8,0:0:0:0:
256,192,981527,1,0,0:0:0:0:
256,192,981663,1,8,0:0:0:0:
256,96,981800,1,4,0:0:0:0:
256,192,982072,1,0,0:0:0:0:
256,192,982209,1,8,0:0:0:0:
256,192,982345,1,8,0:0:0:0:
256,192,982413,1,8,0:0:0:0:
256,192,982481,1,0,0:0:0:0:
256,192,982618,1,0,0:0:0:0:
256,192,982754,1,8,0:0:0:0:
256,192,982891,1,0,0:0:0:0:
256,192,982959,1,0,0:0:0:0:
256,192,983027,1,8,0:0:0:0:
256,192,983163,1,8,0:0:0:0:
256,192,983231,1,8,0:0:0:0:
256,192,983300,1,0,0:0:0:0:
256,192,983436,1,0,0:0:0:0:
256,192,983572,1,8,0:0:0:0:
256,192,983641,1,0,0:0:0:0:
256,192,983709,1,8,0:0:0:0:
256,192,983777,1,8,0:0:0:0:
256,192,983845,1,0,0:0:0:0:
256,96,983981,1,4,0:0:0:0:
256,96,984254,1,4,0:0:0:0:
256,96,984391,1,4,0:0:0:0:
256,192,984663,1,8,0:0:0:0:
256,192,984800,1,0,0:0:0:0:
256,192,984868,1,0,0:0:0:0:
256,192,984936,1,0,0:0:0:0:
256,96,985072,1,12,0:0:0:0:
256,192,985345,1,0,0:0:0:0:
256,192,985481,1,8,0:0:0:0:
256,192,985618,1,0,0:0:0:0:
256,192,985686,1,0,0:0:0:0:
256,192,985754,1,8,0:0:0:0:
256,192,985822,1,0,0:0:0:0:
256,192,985891,1,0,0:0:0:0:
256,192,985959,1,0,0:0:0:0:
256,192,986027,1,8,0:0:0:0:
256,96,986163,1,4,0:0:0:0:
256,192,986436,1,0,0:0:0:0:
256,192,986572,1,8,0:0:0:0:
256,192,986845,1,8,0:0:0:0:
256,192,987118,1,8,0:0:0:0:
256,192,987391,1,8,0:0:0:0:
256,192,987663,1,8,0:0:0:0:
256,192,987936,1,8,0:0:0:0:
256,192,988209,1,0,0:0:0:0:
256,192,988345,1,8,0:0:0:0:
