osu file format v14

[General]
AudioFilename: audio.mp3
AudioLeadIn: 0
PreviewTime: 197117
Countdown: 0
SampleSet: Soft
StackLeniency: 0.7
Mode: 0
LetterboxInBreaks: 0
WidescreenStoryboard: 1

[Editor]
Bookmarks: 30117,63450,84783,106117,128783,150117,150200,150367,150450,150617,150783,150950,151033,151200,151367,151533,151700,151783,151950,152117,152283,152367,152533,152700,152950,153117,153283,153450,153617,153700,153783,153867,153950,154033,154117,154283,154450,154617,154700,154783,154867,154950,155033,155117,155200,155283,155367,155450,155533,155617,155783,155950,156117,156283,156450,156533,156617,156700,156867,157033,157117,157200,157367,157450,157533,157617,157700,157783,157867,157950,158117,158200,158283,158367,158533,158617,158700,158783,158867,159033,159200,159283,159367,159450,159533,159700,159783,159867,159950,160117,160283,160367,160450,160533,160617,160700,160783,160950,161117,161283,161367,161533,161700,161783,161867,161950,162117,162200,162283,162367,162450,162533,162617,162700,162783,162867,162950,163033,163117,163200,163283,163367,163533,163700,163783,163867,163950,164117,164200,164367,164450,164533,164700,164783,164867,164950,165033,165117,165200,165283,165367,165450,165533,165617,165700,165783,165867,165950,166033,166200,166283,166367,166450,166533,166617,166700,166783,166867,166950,167033,167117,167200,167283,167367,167450,167533,167700,167783,167867,167950,168033,168117,168200,168283,168450,168533,168617,168700,168783,168867,168950,169033,169117,169200,169283,169450,169533,169617,169700,169867,169950,170117,170283,170367,170533,170617,170700,170783,170867,170950,171033,171117,171283,171367,171450,198117,222117
DistanceSpacing: 0.5
BeatDivisor: 4
GridSize: 8
TimelineZoom: 1.4

[Metadata]
Title:Shikaki to Coffee
TitleUnicode:詩書きとコーヒー
Artist:Yorushika
ArtistUnicode:ヨルシカ
Creator:Akito
Version:Collab Insane
Source:
Tags:newton- ianos agatsu -akito dakara boku wa ongaku wo yameta japanese rock pop n-buna suis ナブナ スイ だから僕は音楽を辞めた jpop
BeatmapID:2503408
BeatmapSetID:1202029

[Difficulty]
HPDrainRate:6
CircleSize:4
OverallDifficulty:7.5
ApproachRate:9
SliderMultiplier:1.8
SliderTickRate:1

[Events]
//Background and Video events
0,0,"yorushika.jpg",0,0
//Break Periods
2,149983,170683
//Storyboard Layer 0 (Background)
//Storyboard Layer 1 (Fail)
//Storyboard Layer 2 (Pass)
//Storyboard Layer 3 (Foreground)
//Storyboard Layer 4 (Overlay)
//Storyboard Sound Samples

[TimingPoints]
617,333.333333333333,4,2,1,60,1,0
617,-142.857142857143,4,2,1,60,0,0
5616,-125,4,2,2,60,0,0
5950,-142.857142857143,4,2,1,60,0,0
9950,-125,4,2,1,60,0,0
11283,-142.857142857143,4,2,1,60,0,0
16283,-125,4,2,2,60,0,0
16616,-111.111111111111,4,2,1,60,0,0
17783,-100,4,2,1,60,0,0
18616,-100,4,2,2,60,0,0
18783,-200.000000000001,4,2,2,60,0,0
19283,-100,4,2,2,80,0,0
29450,-100,4,2,1,80,0,0
29533,-100,4,2,2,80,0,0
29700,-100,4,2,1,80,0,0
29950,-125,4,2,1,60,0,0
40116,-125,4,2,2,60,0,0
40283,-125,4,2,1,60,0,0
48283,-125,4,2,2,60,0,0
48616,-111.111111111111,4,2,1,70,0,0
48950,-111.111111111111,4,2,2,70,0,0
50283,-111.111111111111,4,2,1,70,0,0
51283,-111.111111111111,4,2,1,60,0,0
61450,-111.111111111111,4,2,2,60,0,0
61783,-111.111111111111,4,2,1,60,0,0
62616,-111.111111111111,4,2,2,60,0,0
62783,-111.111111111111,4,2,1,60,0,0
63283,-100,4,2,2,80,0,0
71450,-100,4,2,1,80,0,0
71783,-100,4,2,2,80,0,0
72283,-100,4,2,1,80,0,0
72450,-100,4,2,2,80,0,0
73783,-100,4,2,1,80,0,0
73950,-100,4,2,2,80,0,0
83783,-125,4,2,2,80,0,0
84116,-200,4,2,2,60,0,0
84616,-100,4,2,2,80,0,0
95116,-125,4,2,2,80,0,0
95283,-125,4,2,1,60,0,0
102950,-125,4,2,2,60,0,0
103116,-125,4,2,1,60,0,0
103283,-125,4,2,2,60,0,0
103450,-125,4,2,1,60,0,0
103783,-125,4,2,2,60,0,0
103950,-125,4,2,1,60,0,0
104450,-125,4,2,1,45,0,0
104616,-125,4,2,1,60,0,0
105366,-125,4,2,2,50,0,0
105783,-125,4,2,1,60,0,0
110950,-125,4,2,2,60,0,0
111116,-125,4,2,1,60,0,0
113950,-111.111111111111,4,2,1,70,0,0
114950,-111.111111111111,4,2,2,70,0,0
115283,-111.111111111111,4,2,1,70,0,0
116616,-125,4,2,1,60,0,0
118950,-125,4,2,2,60,0,0
119033,-125,4,2,1,60,0,0
121950,-111.111111111111,4,2,1,60,0,0
128616,-100,4,2,2,80,0,0
136783,-100,4,2,1,80,0,0
137116,-100,4,2,2,80,0,0
171283,-142.857142857143,4,2,1,50,0,0
173616,-142.857142857143,4,2,2,50,0,0
173950,-142.857142857143,4,2,1,50,0,0
178950,-142.857142857143,4,2,2,50,0,0
179283,-142.857142857143,4,2,1,50,0,0
184283,-142.857142857143,4,2,2,50,0,0
184616,-142.857142857143,4,2,1,50,0,0
187283,-111.111111111111,4,2,1,60,0,0
194783,-111.111111111111,4,2,2,60,0,0
195116,-111.111111111111,4,2,1,60,0,0
197950,-142.857142857143,4,2,2,70,0,0
199116,-100,4,2,2,70,0,0
199450,-142.857142857143,4,2,2,70,0,0
200616,-125,4,2,2,80,0,0
204616,-100,4,2,2,80,0,0
208783,-100,4,2,1,80,0,0
209116,-100,4,2,2,80,0,0
232116,-200,4,2,2,60,0,0
232616,-100,4,2,2,80,0,0

[Colours]
Combo1 : 183,242,241
Combo2 : 202,207,255
Combo3 : 191,248,190
Combo4 : 242,208,251

[HitObjects]
55,268,617,6,0,P|45:313|38:348,2,62.9999980773926,8|0|8,0:1|0:0|0:0,0:0:0:0:
28,131,1116,1,8,0:1:0:0:
28,131,1283,2,0,P|60:130|91:128,1,62.9999980773926,0|8,3:0|0:0,0:0:0:0:
166,121,1616,1,0,0:0:0:0:
349,298,1950,6,0,P|356:328|363:359,2,62.9999980773926,8|0|8,0:1|0:0|0:0,0:0:0:0:
252,245,2450,2,0,P|259:275|266:306,2,62.9999980773926,8|0|8,0:1|3:0|0:0,0:0:0:0:
232,167,2950,1,2,0:0:0:0:
440,53,3283,6,0,P|383:45|365:41,1,62.9999980773926,8|0,0:1|0:0,0:0:0:0:
301,27,3616,1,8,0:0:0:0:
394,129,3783,1,8,0:1:0:0:
394,129,3950,2,0,P|382:178|374:216,1,62.9999980773926,0|8,3:0|0:0,0:0:0:0:
438,305,4283,2,0,P|393:296|339:299,1,94.499997116089,2|0,0:0|0:0,0:0:0:0:
344,298,4616,5,8,0:1:0:0:
282,249,4783,2,0,P|277:211|270:171,1,62.9999980773926,0|8,0:0|0:0,0:0:0:0:
199,232,5116,5,8,0:1:0:0:
141,296,5283,2,0,P|135:327|131:358,1,62.9999980773926,0|8,0:0|0:0,0:0:0:0:
29,180,5616,2,0,P|26:113|13:55,1,108,2|0,0:3|0:0,0:0:0:0:
19,73,5950,6,0,P|68:86|98:86,1,62.9999980773926,8|0,0:1|0:0,0:0:0:0:
148,41,6283,2,0,P|196:27|222:12,1,62.9999980773926,8|8,0:0|0:1,0:0:0:0:
360,92,6616,1,0,3:0:0:0:
280,66,6783,1,8,0:0:0:0:
211,113,6950,2,0,L|204:191,1,62.9999980773926,2|0,0:0|0:0,0:0:0:0:
292,369,7283,6,0,P|347:364|381:367,2,62.9999980773926,8|0|8,0:1|0:0|0:0,0:0:0:0:
387,278,7783,2,0,P|442:273|476:276,2,62.9999980773926,8|0|8,0:1|3:0|0:0,0:0:0:0:
310,284,8283,1,0,0:0:0:0:
78,274,8616,6,0,P|72:326|69:360,1,62.9999980773926,8|0,0:1|0:0,0:0:0:0:
36,192,8950,1,8,0:0:0:0:
36,192,9116,2,0,P|39:160|43:129,1,62.9999980773926,8|0,0:1|0:0,0:0:0:0:
251,218,9450,2,0,P|218:214|176:209,1,62.9999980773926,8|0,0:0|0:0,0:0:0:0:
114,201,9783,1,0,0:0:0:0:
351,127,9950,6,0,P|291:135|267:140,2,72,8|0|8,0:1|0:0|0:0,0:0:0:0:
308,297,10450,2,0,P|343:290|379:286,1,72,8|0,0:1|3:0,0:0:0:0:
435,177,10783,1,8,0:0:0:0:
435,177,10950,2,0,L|440:220,2,36,0|0|2,0:0|0:0|0:0,0:0:0:0:
232,254,11283,6,0,P|224:310|221:338,1,62.9999980773926,8|0,0:1|0:0,0:0:0:0:
143,236,11616,2,0,P|135:292|132:320,1,62.9999980773926,8|8,0:0|0:1,0:0:0:0:
68,185,11950,1,0,3:0:0:0:
68,185,12116,2,0,P|64:154|59:123,1,62.9999980773926,8|0,0:0|0:0,0:0:0:0:
47,45,12450,1,0,0:0:0:0:
206,162,12616,6,0,P|237:164|270:167,2,62.9999980773926,8|0|8,0:1|0:0|0:0,0:0:0:0:
292,87,13116,2,0,P|323:84|356:81,2,62.9999980773926,8|0|8,0:1|3:0|0:0,0:0:0:0:
414,159,13616,2,0,P|382:161|351:163,1,62.9999980773926,0|2,0:0|0:0,0:0:0:0:
445,238,13950,6,0,P|450:271|454:311,1,62.9999980773926,8|0,0:1|0:0,0:0:0:0:
498,168,14283,1,8,0:0:0:0:
498,168,14450,2,0,P|504:134|507:95,1,62.9999980773926,8|0,0:1|0:0,0:0:0:0:
364,240,14783,2,0,P|330:245|291:249,1,62.9999980773926,8|2,0:0|0:0,0:0:0:0:
222,253,15116,1,0,3:0:0:0:
16,246,15283,5,8,0:1:0:0:
88,287,15450,2,0,L|159:281,1,62.9999980773926,0|8,0:0|0:0,0:0:0:0:
146,382,15783,5,8,0:1:0:0:
212,332,15950,2,0,L|275:338,1,62.9999980773926,0|8,3:0|0:0,0:0:0:0:
368,222,16283,2,0,P|435:198|486:196,1,108,2|0,0:3|0:0,0:0:0:0:
471,195,16616,6,0,P|481:253|484:292,1,80.9999975280763,8|0,0:1|0:0,0:0:0:0:
284,256,16950,1,8,0:0:0:0:
290,182,17116,1,8,0:1:0:0:
383,319,17283,2,0,L|295:331,1,80.9999975280763,0|8,3:0|0:0,0:0:0:0:
227,339,17616,1,8,0:1:0:0:
378,165,17783,6,0,B|280:184|317:108|205:127,1,180,4|0,0:0|1:0,0:0:0:0:
38,116,18283,1,8,0:1:0:0:
112,91,18450,1,0,1:0:0:0:
88,221,18616,1,2,3:3:0:0:
161,197,18783,6,0,B|165:219|165:219|161:242,2,45,2|2|2,0:1|0:1|0:2,0:0:0:0:
243,209,19283,6,0,P|311:220|402:210,1,135,4|0,3:1|0:0,0:0:0:0:
377,216,19616,1,8,1:2:0:0:
400,291,19783,1,8,0:2:0:0:
465,98,19950,2,0,P|476:153|484:204,1,90,0|8,3:0|3:2,0:0:0:0:
306,84,20283,1,2,1:2:0:0:
377,65,20450,1,10,3:2:0:0:
228,17,20616,6,0,P|164:26|114:37,1,90,2|8,0:0|3:2,0:0:0:0:
257,159,20950,1,0,1:0:0:0:
257,159,21116,2,0,P|321:168|371:179,1,90,10|0,0:0|3:0,0:0:0:0:
90,139,21450,5,8,3:2:0:0:
162,120,21616,1,0,1:0:0:0:
219,238,21783,2,0,P|209:300|201:354,1,90,10|0,0:0|0:0,0:0:0:0:
109,210,22116,5,8,0:0:0:0:
92,283,22282,1,0,1:0:0:0:
229,222,22449,2,0,P|291:212|345:204,1,90,8|0,3:0|3:0,0:0:0:0:
487,311,22783,1,10,3:2:0:0:
487,311,22866,1,2,3:2:0:0:
487,311,22950,2,0,P|442:317|398:325,1,90,0|8,1:0|3:2,0:0:0:0:
349,137,23283,5,2,0:0:0:0:
422,116,23450,1,8,3:2:0:0:
473,169,23616,1,0,1:0:0:0:
291,47,23783,2,0,P|268:140|261:202,1,135,10|0,0:0|0:0,0:0:0:0:
262,178,24116,6,0,P|185:186|137:183,1,90,10|4,3:1|1:2,0:0:0:0:
99,184,24450,1,10,0:1:0:0:
18,49,24616,6,0,P|10:115|20:200,1,135,4|0,3:1|0:0,0:0:0:0:
17,183,24950,1,0,1:0:0:0:
1,259,25116,1,10,0:0:0:0:
128,354,25283,2,0,P|121:285|115:243,1,90,0|8,3:2|0:0,0:0:0:0:
293,310,25616,1,2,1:2:0:0:
216,321,25783,1,10,0:0:0:0:
282,222,25950,6,0,P|346:228|396:236,1,90,2|8,0:0|3:2,0:0:0:0:
451,350,26283,1,0,1:0:0:0:
451,350,26450,2,0,P|387:356|337:364,1,90,10|0,0:0|3:0,0:0:0:0:
467,180,26783,5,8,3:2:0:0:
456,253,26950,1,0,1:0:0:0:
336,147,27116,2,0,P|324:83|320:54,1,90,10|0,0:0|3:0,0:0:0:0:
171,0,27450,5,10,0:1:0:0:
111,106,27616,1,0,1:0:0:0:
107,129,27700,1,2,0:0:0:0:
113,153,27783,1,10,0:0:0:0:
220,114,27950,1,2,3:1:0:0:
202,246,28116,2,0,L|208:197,1,45,10|2,3:2|0:0,0:0:0:0:
221,101,28283,1,0,1:0:0:0:
107,243,28450,6,0,B|218:232|172:300|286:288,1,180,14|8,3:1|3:2,0:0:0:0:
422,382,28950,2,0,P|378:373|334:368,1,90,2|10,1:1|0:1,0:0:0:0:
120,331,29283,5,8,0:3:0:0:
94,331,29366,1,8,0:3:0:0:
69,330,29449,1,0,1:0:0:0:
45,328,29532,1,0,1:0:0:0:
21,324,29616,1,0,1:0:0:0:
113,188,29950,6,0,P|145:137|123:53,1,144,8|8,0:1|0:0,0:0:0:0:
262,12,30450,2,0,P|250:52|244:91,1,72,8|0,0:1|3:0,0:0:0:0:
299,155,30783,2,0,P|287:195|281:234,1,72,8|2,0:0|0:0,0:0:0:0:
425,365,31283,6,0,P|388:356|338:347,1,72,8|0,0:1|0:0,0:0:0:0:
281,335,31616,1,8,0:0:0:0:
221,233,31783,6,0,P|185:239|150:248,1,72,8|0,0:1|3:0,0:0:0:0:
78,271,32116,1,8,0:0:0:0:
4,144,32283,6,0,P|59:107|124:125,1,108,2|0,0:0|0:0,0:0:0:0:
99,111,32616,2,0,P|136:100|173:93,1,72,8|2,0:1|0:0,0:0:0:0:
239,125,32950,1,8,0:0:0:0:
337,19,33116,5,8,0:1:0:0:
395,74,33283,1,0,3:0:0:0:
395,74,33450,2,0,P|386:113|379:172,1,72,8|2,0:0|0:0,0:0:0:0:
477,275,33950,6,0,P|407:256|334:243,1,144,8|8,0:1|0:0,0:0:0:0:
255,308,34450,1,8,0:1:0:0:
255,308,34616,2,0,P|220:299|184:292,1,72,0|8,0:0|0:0,0:0:0:0:
344,131,35116,1,0,0:0:0:0:
251,102,35283,6,0,P|241:140|234:189,1,72,8|0,0:1|0:0,0:0:0:0:
157,33,35616,2,0,P|147:61|135:110,1,72,8|8,0:0|0:1,0:0:0:0:
21,216,35950,5,0,3:0:0:0:
21,216,36116,2,0,P|93:207|154:257,1,144,8|0,0:0|0:0,0:0:0:0:
262,341,36616,6,0,P|253:301|246:251,1,72,8|0,0:1|0:0,0:0:0:0:
248,270,36866,1,2,0:0:0:0:
248,270,36950,1,8,0:0:0:0:
287,138,37116,2,0,P|254:146|203:153,1,72,8|0,0:1|3:0,0:0:0:0:
352,188,37450,2,0,P|385:180|436:173,1,72,8|0,0:0|0:0,0:0:0:0:
512,281,37950,6,0,B|421:292|469:323|360:336,1,144,8|8,0:1|0:0,0:0:0:0:
220,161,38450,1,8,0:1:0:0:
284,109,38616,1,0,0:0:0:0:
331,177,38783,2,0,P|323:213|319:267,1,72,8|0,0:0|0:0,0:0:0:0:
46,262,39283,6,0,P|81:253|134:246,1,72,8|2,0:1|0:0,0:0:0:0:
116,247,39533,1,2,0:0:0:0:
116,247,39616,1,8,0:0:0:0:
245,331,39783,2,0,P|193:338|125:355,1,108,8|0,0:1|0:0,0:0:0:0:
138,350,40116,1,2,3:3:0:0:
260,225,40283,2,0,P|295:232|330:238,1,72,0|2,1:0|0:0,0:0:0:0:
512,316,40616,6,0,P|446:300|385:368,1,144,12|0,0:1|1:0,0:0:0:0:
430,196,41116,2,0,P|449:127|463:53,1,144,8|0,0:1|0:0,0:0:0:0:
399,13,41616,1,0,1:0:0:0:
378,84,41783,1,0,0:0:0:0:
250,158,41950,5,8,0:1:0:0:
250,158,42116,2,0,P|291:167|326:181,1,72,0|0,3:0|1:0,0:0:0:0:
384,213,42450,1,8,0:1:0:0:
277,62,42616,6,0,P|243:49|208:42,1,72,0|0,0:0|3:0,0:0:0:0:
137,27,42950,1,0,1:0:0:0:
137,27,43116,1,0,0:0:0:0:
117,209,43283,6,0,P|132:170|146:111,1,72,8|0,0:1|0:0,0:0:0:0:
40,236,43616,2,0,P|25:275|11:334,1,72,0|8,1:0|0:1,0:0:0:0:
57,366,43950,1,0,0:0:0:0:
171,312,44116,1,0,0:0:0:0:
130,376,44283,1,0,1:0:0:0:
310,315,44450,6,0,P|293:270|273:178,1,108
278,212,44783,2,0,P|244:207|189:193,1,72,0|0,3:0|1:0,0:0:0:0:
144,72,45116,2,0,P|212:93|282:109,1,144,8|0,0:1|3:0,0:0:0:0:
416,31,45616,2,0,P|402:70|393:104,1,72,0|0,1:0|0:0,0:0:0:0:
469,251,45950,6,0,P|481:177|501:93,1,144,8|0,0:1|1:0,0:0:0:0:
352,204,46450,2,0,P|271:205|227:251,1,144,8|2,0:1|0:0,0:0:0:0:
121,345,46950,1,0,1:0:0:0:
99,272,47116,1,0,0:0:0:0:
186,135,47283,6,0,P|200:209|229:301,1,144,8|2,0:1|1:2,0:0:0:0:
83,159,47783,1,8,0:1:0:0:
83,159,47950,2,0,P|75:124|70:89,1,72,2|8,0:0|0:1,0:0:0:0:
310,20,48283,2,0,P|275:14|212:-4,1,72,2|0,1:3|0:0,0:0:0:0:
340,208,48616,5,12,0:1:0:0:
340,208,48783,2,0,P|348:170|361:129,1,80.9999975280763,0|8,0:0|1:2,0:0:0:0:
399,62,49116,1,0,3:0:0:0:
454,219,49283,2,0,P|441:257|432:296,1,80.9999975280763,10|0,3:2|0:0,0:0:0:0:
414,369,49616,1,8,1:2:0:0:
223,285,49783,6,0,P|270:298|319:317,1,80.9999975280763,2|8,3:2|0:2,0:0:0:0:
261,187,50116,1,0,3:0:0:0:
107,238,50283,5,4,1:1:0:0:
46,108,50450,1,0,1:0:0:0:
188,41,50616,1,8,0:1:0:0:
249,171,50783,1,8,0:1:0:0:
149,138,50950,5,2,0:0:0:0:
149,138,51116,1,0,1:0:0:0:
300,67,51283,6,0,B|393:74|357:114|449:129,1,161.999995056153,4|2,0:0|0:3,0:0:0:0:
316,215,51783,2,0,P|226:219|182:294,1,161.999995056153,8|0,0:1|0:0,0:0:0:0:
355,310,52283,1,10,0:3:0:0:
426,291,52450,1,8,0:3:0:0:
331,200,52616,6,0,P|310:121|295:30,1,161.999995056153,8|2,0:1|0:3,0:0:0:0:
181,8,53116,2,0,P|192:51|201:108,1,80.9999975280763,8|0,0:1|0:0,0:0:0:0:
151,149,53450,1,0,3:0:0:0:
82,116,53616,1,6,0:3:0:0:
27,167,53783,1,8,0:3:0:0:
103,269,53950,6,0,P|205:263|293:269,1,161.999995056153,8|2,0:1|0:3,0:0:0:0:
356,156,54450,2,0,P|312:156|261:199,1,80.9999975280763,8|0,0:1|0:0,0:0:0:0:
384,251,54783,2,0,P|427:238|472:229,1,80.9999975280763,0|10,3:0|0:3,0:0:0:0:
512,174,55116,1,8,0:3:0:0:
450,341,55283,6,0,P|376:357|281:387,1,161.999995056153,8|2,0:1|0:3,0:0:0:0:
243,192,55783,1,8,0:1:0:0:
243,192,55950,2,0,P|263:237|279:281,1,80.9999975280763,2|0,0:0|0:0,0:0:0:0:
310,111,56283,1,2,1:3:0:0:
347,175,56450,1,0,1:0:0:0:
182,102,56616,6,0,P|116:99|67:179,1,161.999995056153,12|2,0:1|1:3,0:0:0:0:
95,244,57116,1,0,0:0:0:0:
226,345,57283,1,10,0:1:0:0:
226,345,57450,2,0,P|213:307|202:254,1,80.9999975280763,8|2,0:1|1:3,0:0:0:0:
187,192,57783,1,0,0:0:0:0:
312,233,57950,6,0,P|301:192|294:138,1,80.9999975280763,10|8,0:1|0:1,0:0:0:0:
283,81,58283,1,2,1:3:0:0:
381,0,58450,2,0,P|392:81|409:169,1,161.999995056153,0|0,0:0|1:0,0:0:0:0:
438,231,58950,1,0,1:0:0:0:
334,347,59116,6,0,B|233:330|288:291|179:285,1,161.999995056153,4|8,0:0|0:1,0:0:0:0:
64,244,59616,2,0,P|74:281|84:334,1,80.9999975280763,2|0,1:3|0:0,0:0:0:0:
220,166,59950,1,10,0:1:0:0:
148,190,60116,1,8,0:1:0:0:
22,118,60283,2,0,P|61:105|100:88,1,80.9999975280763,2|0,1:3|0:0,0:0:0:0:
310,19,60616,6,0,P|327:61|329:118,1,80.9999975280763,10|8,0:1|0:1,0:0:0:0:
330,172,60950,1,4,1:1:0:0:
503,160,61116,5,8,0:1:0:0:
440,116,61283,1,0,1:0:0:0:
433,189,61450,2,0,P|423:232|414:289,1,80.9999975280763,8|4,0:1|0:3,0:0:0:0:
291,344,61783,6,0,P|303:270|324:185,1,161.999995056153,12|8,0:1|0:1,0:0:0:0:
97,111,62283,1,0,1:0:0:0:
136,49,62450,1,8,0:1:0:0:
196,91,62616,2,0,P|206:131|219:175,1,80.9999975280763,2|0,3:3|0:0,0:0:0:0:
148,298,62950,2,0,P|138:258|125:214,1,80.9999975280763,2|2,0:0|0:0,0:0:0:0:
331,105,63283,6,0,P|302:217|289:307,1,180,4|8,3:1|1:2,0:0:0:0:
340,365,63783,1,2,0:0:0:0:
488,202,63950,2,2,P|438:208|392:216,1,90,10|0,3:1|3:0,0:1:0:0:
511,112,64283,2,2,P|461:118|412:126,1,90,10|0,1:1|0:0,0:1:0:0:
185,128,64616,5,8,3:2:0:0:
260,150,64783,1,0,0:0:0:0:
373,39,64950,5,8,1:2:0:0:
303,16,65117,1,2,3:1:0:0:
245,61,65283,2,0,P|259:141|263:189,1,90,8|2,0:0|3:1,0:0:0:0:
97,117,65616,2,0,P|103:67|113:20,1,90,8|0,1:2|0:0,0:0:0:0:
0,198,65950,6,0,B|110:176|74:255|176:228,1,180,12|8,3:2|1:2,0:0:0:0:
142,308,66450,1,2,0:0:0:0:
241,245,66616,2,0,P|325:218|354:215,1,90,10|0,3:1|3:0,0:0:0:0:
468,125,66950,2,0,P|427:143|383:152,1,90,10|0,1:1|0:0,0:0:0:0:
300,26,67283,5,8,3:2:0:0:
375,48,67450,1,0,0:0:0:0:
252,151,67616,5,8,1:2:0:0:
232,76,67783,1,2,3:2:0:0:
190,201,67950,2,0,B|206:247|206:247|188:310,1,90,10|2,0:1|3:2,0:0:0:0:
45,267,68283,1,10,1:1:0:0:
123,251,68450,1,2,0:0:0:0:
267,371,68616,6,0,P|359:358|380:262,2,180,4|8|8,3:1|1:2|3:2,0:0:0:0:
279,226,69450,1,2,3:2:0:0:
313,155,69616,2,0,P|305:106|300:59,1,90,10|2,1:2|0:0,0:0:0:0:
455,50,69950,5,10,3:1:0:0:
411,120,70116,1,2,0:1:0:0:
449,193,70283,1,8,1:2:0:0:
375,274,70450,2,0,P|391:176|401:77,1,180,2|0,3:2|3:0,0:0:0:0:
312,16,70950,1,10,1:1:0:0:
312,16,71116,1,0,0:0:0:0:
135,152,71283,5,4,3:1:0:0:
294,100,71450,1,0,1:0:0:0:
291,124,71533,1,0,1:0:0:0:
289,148,71616,1,0,1:0:0:0:
64,104,71783,2,2,P|56:43|51:-10,1,90,4|0,3:2|0:0,0:1:0:0:
4,200,72116,1,2,3:1:0:0:
81,216,72283,1,0,1:0:0:0:
189,60,72450,6,2,P|170:174|169:268,1,180,6|0,3:1|3:0,0:1:0:0:
210,301,72950,1,0,1:0:0:0:
30,297,73116,5,2,0:0:0:0:
167,238,73283,1,6,3:1:0:0:
55,134,73450,1,0,1:0:0:0:
79,133,73533,1,0,1:0:0:0:
104,134,73616,1,2,3:2:0:0:
129,136,73699,1,0,3:0:0:0:
153,139,73783,1,0,1:0:0:0:
178,142,73866,1,0,1:0:0:0:
202,146,73950,6,0,B|305:161|270:88|386:102,1,180,4|8,3:1|1:2,0:1:0:0:
436,145,74450,1,2,0:0:0:0:
294,0,74616,2,0,P|288:49|282:95,1,90,10|0,3:1|3:0,0:0:0:0:
366,277,74950,2,0,P|361:227|356:180,1,90,10|0,1:1|0:0,0:0:0:0:
237,335,75283,5,8,3:2:0:0:
314,351,75450,1,0,0:0:0:0:
207,252,75616,5,8,1:2:0:0:
131,267,75783,1,2,3:1:0:0:
235,173,75950,2,0,P|314:184|358:193,1,90,8|2,0:2|3:1,0:0:0:0:
237,335,76283,2,0,P|158:346|113:359,1,90,8|2,1:2|0:0,0:0:0:0:
25,180,76616,6,0,P|41:288|50:377,1,180,4|0,3:2|1:0,0:0:0:0:
132,384,77116,1,2,0:0:0:0:
207,252,77283,2,0,B|196:203|196:203|209:152,1,90,10|2,3:1|3:2,0:0:0:0:
144,3,77616,2,0,B|155:52|155:52|144:98,1,90,10|2,1:1|0:0,0:0:0:0:
281,204,77950,6,0,P|366:195|389:85,1,180,14|8,3:1|1:2,0:0:0:0:
461,57,78450,1,0,3:2:0:0:
485,184,78616,2,0,P|433:180|376:169,1,90,10|0,0:0|3:0,0:0:0:0:
219,137,78950,2,0,P|268:129|315:126,1,90,10|0,1:1|0:0,0:0:0:0:
251,321,79283,5,4,3:1:0:0:
152,307,79450,1,0,0:0:0:0:
166,208,79616,1,8,1:2:0:0:
264,222,79783,1,2,0:0:0:0:
141,315,79950,1,8,3:2:0:0:
276,214,80116,1,0,3:0:0:0:
43,341,80283,2,0,P|64:269|67:185,1,135,8|0,1:0|0:0,0:0:0:0:
66,187,80616,5,6,3:1:0:0:
147,208,80783,1,2,0:0:0:0:
205,148,80950,1,10,1:0:0:0:
182,68,81116,2,0,P|173:138|170:193,1,90,0|10,3:0|0:0,0:0:0:0:
368,219,81450,5,2,3:1:0:0:
238,240,81616,1,8,1:0:0:0:
378,237,81783,1,6,0:1:0:0:
230,211,81950,6,0,B|336:199|305:273|420:259,1,180,0|8,0:0|1:0,0:0:0:0:
510,122,82450,1,8,0:0:0:0:
505,146,82533,1,2,0:0:0:0:
505,170,82616,2,0,P|500:235|500:287,1,90,8|0,3:2|3:0,0:0:0:0:
469,349,82950,1,2,1:0:0:0:
262,295,83116,6,0,P|262:196|254:102,1,180,4|0,3:1|3:0,0:0:0:0:
180,9,83616,1,2,1:0:0:0:
180,9,83783,2,0,P|171:73|170:98,1,72,2|0,3:3|0:0,0:0:0:0:
161,165,84116,6,0,B|135:162|135:162|99:168,2,45,2|2|2,0:1|0:1|0:2,0:0:0:0:
212,233,84616,6,0,B|331:241|273:286|383:296,1,180,4|0,3:1|1:0,0:0:0:0:
410,114,85116,1,8,0:2:0:0:
410,114,85283,2,0,P|387:163|370:215,1,90,0|0,3:0|3:0,0:0:0:0:
272,117,85616,1,2,1:2:0:0:
272,117,85783,1,8,3:2:0:0:
257,0,85950,6,0,P|298:18|341:33,1,90,2|8,0:2|3:2,0:0:0:0:
413,62,86283,1,2,1:2:0:0:
272,117,86450,2,0,P|204:110|143:202,1,180,10|8,0:2|0:2,0:0:0:0:
309,303,86950,1,0,1:0:0:0:
204,343,87116,6,0,P|215:299|225:245,1,90,2|0,0:2|0:0,0:0:0:0:
118,151,87450,1,2,0:0:0:0:
118,151,87616,1,0,1:0:0:0:
233,233,87783,2,0,P|144:246|57:266,1,180,8|8,0:2|3:2,0:0:0:0:
197,82,88283,6,0,P|267:74|322:117,1,135,2|0,1:2|0:0,0:0:0:0:
317,109,88616,1,2,0:0:0:0:
305,184,88783,1,8,3:2:0:0:
381,205,88950,1,0,1:0:0:0:
468,69,89116,2,0,P|464:121|467:163,1,90,10|0,0:0|0:0,0:0:0:0:
370,316,89450,1,10,3:1:0:0:
370,316,89616,2,0,P|414:300|464:287,1,90,8|10,1:2|0:1,0:0:0:0:
237,270,89950,6,0,P|148:256|96:353,1,180,4|0,3:1|1:1,0:0:0:0:
138,159,90450,1,10,0:0:0:0:
96,320,90616,2,0,P|79:273|59:226,1,90,0|8,3:0|3:2,0:0:0:0:
96,57,90950,2,0,P|114:98|129:140,1,90,0|10,1:0|3:2,0:0:0:0:
389,80,91283,6,0,P|339:71|280:65,1,90,2|10,0:0|0:0,0:0:0:0:
225,59,91616,1,0,1:0:0:0:
317,183,91783,2,0,P|232:168|138:159,1,180,8|10,0:0|3:2,0:0:0:0:
31,21,92283,1,0,1:0:0:0:
8,129,92450,1,10,0:0:0:0:
128,55,92616,6,0,P|172:61|224:63,1,90,0|10,1:0|0:1,0:0:0:0:
344,36,92950,1,2,1:2:0:0:
340,54,93033,1,2,0:0:0:0:
335,73,93116,1,10,0:0:0:0:
316,148,93283,1,2,3:1:0:0:
414,195,93450,1,0,3:0:0:0:
419,176,93533,1,2,0:0:0:0:
423,158,93616,1,2,1:2:0:0:
442,311,93783,6,0,P|406:300|354:291,1,90,6|2,3:1|0:1,0:0:0:0:
282,292,94116,1,2,3:2:0:0:
282,292,94200,1,2,0:0:0:0:
282,292,94283,1,4,1:1:0:0:
221,153,94450,2,0,P|256:163|309:173,1,90,10|8,0:1|0:3,0:0:0:0:
143,233,94783,1,2,1:2:0:0:
143,233,94866,1,0,1:0:0:0:
143,233,94950,2,0,L|80:253,2,45,0|0|0,1:2|1:0|1:0,0:0:0:0:
29,112,95283,6,0,P|82:66|151:75,1,144,4|0,3:1|1:0,0:0:0:0:
292,181,95783,1,8,0:1:0:0:
292,181,95950,2,0,P|277:116|265:37,1,144,0|0,0:0|1:0,0:0:0:0:
383,71,96450,1,0,0:0:0:0:
383,71,96533,1,0,0:0:0:0:
383,71,96616,6,0,P|393:142|409:212,1,144,8|0,0:1|1:0,0:0:0:0:
279,341,97116,2,0,P|313:329|353:322,1,72,8|0,0:1|0:0,0:0:0:0:
421,309,97450,1,2,0:0:0:0:
293,237,97616,2,0,P|257:243|223:254,1,72,0|0,1:0|0:0,0:0:0:0:
24,317,97950,6,0,P|78:303|152:366,1,144,8|0,0:1|1:0,0:0:0:0:
135,209,98450,1,8,0:1:0:0:
135,209,98616,2,0,P|125:175|113:123,1,72,2|0,0:0|0:0,0:0:0:0:
0,81,98950,2,0,P|8:115|18:150,1,72,0|0,1:0|0:0,0:0:0:0:
176,49,99283,6,0,B|268:55|233:98|328:102,1,144,8|0,0:1|1:0,0:0:0:0:
459,139,99783,2,0,P|414:83|425:10,1,144,8|0,0:1|0:0,0:0:0:0:
362,193,100283,2,0,P|374:229|385:277,1,72,0|0,1:0|0:0,0:0:0:0:
248,173,100616,6,0,P|266:240|281:313,1,144,8|0,0:1|1:0,0:0:0:0:
295,384,101116,1,8,0:1:0:0:
172,286,101283,2,0,P|164:250|154:216,1,72,2|0,0:0|0:0,0:0:0:0:
0,99,101616,1,0,1:0:0:0:
20,172,101783,1,0,0:0:0:0:
116,99,101950,6,0,P|199:84|271:68,1,144,8|0,0:1|1:0,0:0:0:0:
448,145,102450,5,8,0:1:0:0:
383,107,102616,1,0,0:0:0:0:
333,162,102783,1,8,0:1:0:0:
396,205,102950,2,0,P|404:248|416:286,1,72,2|8,1:3|0:1,0:0:0:0:
222,364,103283,6,0,P|214:321|202:283,1,72,2|8,1:3|0:1,0:0:0:0:
181,224,103616,1,8,0:1:0:0:
109,315,103783,5,8,0:3:0:0:
285,236,103950,1,8,0:1:0:0:
115,151,104116,1,8,0:1:0:0:
301,246,104283,2,0,P|335:237|376:231,1,72,0|8,1:0|0:3,0:0:0:0:
202,24,104616,6,0,P|210:58|216:99,1,72,2|8,0:2|0:1,0:0:0:0:
341,130,104950,1,4,1:2:0:0:
320,57,105116,1,0,0:0:0:0:
210,197,105283,1,0,1:0:0:0:
179,190,105366,1,4,0:3:0:0:
148,184,105449,1,0,3:0:0:0:
116,180,105532,1,4,0:3:0:0:
85,177,105616,1,12,0:3:0:0:
150,90,105783,1,8,0:1:0:0:
298,208,105950,6,0,P|288:285|282:361,1,144,12|0,0:1|1:0,0:0:0:0:
413,272,106450,1,8,0:1:0:0:
413,272,106616,2,0,P|472:260|516:248,1,72,2|0,0:0|0:0,0:0:0:0:
393,112,106950,1,0,1:0:0:0:
381,186,107116,1,0,0:0:0:0:
498,55,107283,6,0,P|439:43|395:31,1,72,8|0,0:1|0:0,0:0:0:0:
312,122,107616,1,0,1:0:0:0:
312,122,107783,2,0,P|236:137|157:139,1,144,8|0,0:1|0:0,0:0:0:0:
109,15,108283,2,0,P|102:73|98:120,1,72,0|0,1:0|0:0,0:0:0:0:
26,216,108616,6,0,P|22:152|20:127,1,72,8|0,0:1|0:0,0:0:0:0:
14,69,108950,1,0,1:0:0:0:
74,276,109283,6,0,P|71:311|69:347,1,72
154,206,109616,1,0,1:0:0:0:
148,280,109783,1,0,0:0:0:0:
309,215,109950,5,8,0:1:0:0:
215,113,110116,1,2,0:0:0:0:
196,114,110200,1,2,0:0:0:0:
178,117,110283,2,0,P|108:128|42:144,1,108,0|0,1:2|0:0,0:0:0:0:
55,143,110616,1,0,0:0:0:0:
147,45,110783,1,8,0:1:0:0:
238,190,110950,2,0,P|231:248|228:290,1,72,2|0,1:3|0:0,0:0:0:0:
348,63,111283,5,4,0:1:0:0:
348,63,111450,2,0,P|294:68|249:74,1,72,0|2,0:0|0:3,0:0:0:0:
441,139,111783,1,8,0:1:0:0:
441,139,111950,2,0,P|495:144|540:150,1,72,2|0,1:0|0:0,0:0:0:0:
309,215,112283,2,0,P|314:161|320:116,1,72,2|8,0:1|0:1,0:0:0:0:
410,12,112616,5,2,0:3:0:0:
169,125,112950,5,2,0:0:0:0:
316,143,113116,1,2,0:0:0:0:
207,243,113283,5,2,0:0:0:0:
236,176,113449,1,2,0:0:0:0:
285,336,113616,1,0,0:0:0:0:
285,336,113783,1,2,0:0:0:0:
133,237,113950,6,0,P|129:180|125:145,1,80.9999975280763,12|0,0:2|0:0,0:0:0:0:
114,84,114283,1,8,0:1:0:0:
292,190,114450,5,12,0:1:0:0:
249,250,114617,1,8,0:1:0:0:
289,315,114783,1,8,0:1:0:0:
364,207,114950,6,0,P|264:222|197:247,1,161.999995056153,4|0,0:1|0:0,0:0:0:0:
269,118,115450,1,0,1:0:0:0:
416,154,115616,1,8,0:1:0:0:
374,289,115783,1,8,0:1:0:0:
374,289,115866,1,0,1:0:0:0:
374,289,115950,1,0,1:0:0:0:
350,106,116116,6,0,P|356:55|360:20,1,80.9999975280763,0|8,1:0|0:1,0:0:0:0:
359,25,116450,1,0,0:0:0:0:
210,73,116616,6,0,P|130:102|55:103,1,144,14|0,0:1|0:0,0:0:0:0:
152,175,117116,1,8,0:1:0:0:
152,175,117283,2,0,P|168:236|172:264,1,72,2|0,0:3|0:0,0:0:0:0:
76,347,117616,1,8,0:3:0:0:
92,237,117783,1,8,0:3:0:0:
225,308,117950,6,0,P|285:300|303:299,1,72,2|8,1:0|0:3,0:0:0:0:
381,353,118283,1,0,0:1:0:0:
381,353,118450,2,0,P|454:317|481:241,1,144,8|8,0:1|0:1,0:0:0:0:
431,124,118950,2,0,P|418:77|416:66,2,36,8|8|8,0:3|0:1|0:3,0:0:0:0:
347,224,119283,6,0,P|355:165|356:133,1,72,8|0,0:1|0:0,0:0:0:0:
346,70,119616,1,0,0:0:0:0:
218,0,119783,2,0,P|209:91|201:176,1,144,8|0,0:1|0:0,0:0:0:0:
133,90,120283,1,8,0:3:0:0:
279,144,120450,1,8,0:3:0:0:
148,242,120616,5,10,0:1:0:0:
148,242,120783,1,0,0:0:0:0:
72,197,120950,2,0,P|66:149|59:102,1,72,0|8,0:3|0:1,0:0:0:0:
24,262,121283,2,0,P|18:310|9:356,1,72,10|8,0:3|0:1,0:0:0:0:
143,163,121616,2,0,P|191:157|239:148,1,72,8|2,0:3|0:0,0:0:0:0:
22,43,121950,6,0,P|122:50|207:62,1,161.999995056153,10|10,0:1|0:3,0:0:0:0:
301,182,122450,1,8,0:1:0:0:
301,182,122616,2,0,P|297:141|293:101,1,80.9999975280763,10|8,0:1|0:1,0:0:0:0:
464,121,122950,1,10,0:3:0:0:
369,76,123116,1,0,0:0:0:0:
484,113,123283,5,10,0:1:0:0:
437,212,123450,1,8,0:1:0:0:
474,333,123616,2,0,B|394:337|426:268|333:271,1,161.999995056153,10|10,0:1|0:1,0:0:0:0:
212,350,124116,1,8,0:3:0:0:
287,208,124283,1,8,0:3:0:0:
113,224,124450,6,0,P|100:323|94:416,1,161.999995056153,4|0,1:2|0:0,0:0:0:0:
15,155,124950,2,0,P|66:148|107:144,1,80.9999975280763,10|2,0:3|0:0,0:0:0:0:
161,0,125283,1,10,0:1:0:0:
171,72,125450,1,8,0:1:0:0:
295,131,125616,2,0,P|290:90|284:50,1,80.9999975280763,10|0,0:3|0:0,0:0:0:0:
203,198,125950,6,0,P|194:239|189:279,1,80.9999975280763,10|8,0:1|0:1,0:0:0:0:
188,353,126283,1,14,1:3:0:0:
357,184,126616,5,10,0:3:0:0:
427,157,126783,1,8,0:3:0:0:
416,232,126950,1,2,0:1:0:0:
475,13,127116,6,0,P|498:104|512:186,1,161.999995056153,12|8,0:1|0:1,0:0:0:0:
356,306,127616,2,0,P|420:314|458:319,1,80.9999975280763,10|2,0:3|0:0,0:0:0:0:
510,326,127950,1,10,0:1:0:0:
273,351,128116,1,0,1:0:0:0:
271,330,128199,1,0,1:0:0:0:
269,310,128282,1,2,3:2:0:0:
267,290,128365,1,0,1:0:0:0:
264,270,128449,1,0,1:0:0:0:
261,250,128532,1,0,1:0:0:0:
258,228,128616,6,0,P|171:242|63:269,1,180,4|0,3:1|1:0,0:0:0:0:
6,285,129116,1,2,0:1:0:0:
78,76,129283,2,0,P|91:122|100:178,1,90,8|2,3:1|3:1,0:0:0:0:
265,208,129616,2,0,P|251:161|243:106,1,90,8|0,1:1|0:0,0:0:0:0:
504,213,129950,6,0,P|437:194|355:276,1,180,10|8,3:2|1:2,0:0:0:0:
283,359,130450,1,0,3:0:0:0:
140,304,130616,1,10,0:1:0:0:
251,204,130783,1,0,3:0:0:0:
251,204,130950,2,0,P|237:160|227:115,1,90,10|0,1:1|0:0,0:0:0:0:
373,238,131283,6,0,P|348:158|323:51,1,180,14|0,3:2|1:0,0:0:0:0:
512,70,131783,1,2,0:0:0:0:
512,70,131950,2,0,P|469:85|400:101,1,90,10|0,3:1|3:0,0:0:0:0:
230,14,132283,2,0,P|187:29|118:45,1,90,10|0,1:1|0:0,0:0:0:0:
6,191,132616,6,0,P|72:172|152:250,1,180,8|8,3:2|1:2,0:0:0:0:
137,312,133116,1,0,3:0:0:0:
105,148,133283,1,10,0:1:0:0:
278,283,133450,1,0,3:0:0:0:
246,119,133616,2,0,P|227:175|214:230,1,90,10|0,1:1|0:0,0:0:0:0:
368,362,133950,6,0,P|392:271|427:174,1,180,4|8,3:1|1:2,0:0:0:0:
360,52,134450,2,0,P|407:71|473:90,1,90,10|10,0:2|3:2,0:0:0:0:
237,97,134783,1,0,3:0:0:0:
282,242,134950,2,0,P|295:199|316:152,1,90,10|2,1:1|0:0,0:0:0:0:
169,178,135283,5,10,3:1:0:0:
62,219,135450,1,2,0:0:0:0:
163,300,135616,1,10,1:1:0:0:
276,260,135783,2,0,B|389:279|326:321|453:339,1,180,6|0,3:2|3:0,0:0:0:0:
455,140,136283,1,8,1:2:0:0:
381,157,136450,1,2,0:0:0:0:
398,63,136616,5,6,3:1:0:0:
442,236,136783,1,2,1:2:0:0:
398,63,136950,1,10,1:2:0:0:
267,238,137116,6,0,P|229:186|261:88,1,135,14|0,3:1|0:0,0:0:0:0:
236,118,137450,2,0,P|193:131|143:142,1,90,2|8,3:2|0:3,0:0:0:0:
0,71,137783,6,0,P|88:57|176:35,1,180,14|0,3:2|3:0,0:0:0:0:
382,181,138283,2,0,P|339:194|281:216,1,90,4|2,1:2|0:0,0:0:0:0:
230,241,138616,1,10,3:1:0:0:
132,313,138783,1,0,3:0:0:0:
129,291,138867,1,0,3:0:0:0:
124,269,138950,1,2,3:2:0:0:
119,247,139033,1,0,3:0:0:0:
112,226,139117,1,0,3:0:0:0:
105,205,139200,1,0,3:0:0:0:
95,182,139283,6,0,P|125:147|219:147,1,135,4|0,3:1|0:0,0:0:0:0:
209,141,139616,2,0,P|196:102|187:54,1,90,8|2,1:2|0:0,0:0:0:0:
317,108,139950,1,10,3:1:0:0:
343,177,140116,1,0,3:0:0:0:
412,32,140283,2,0,P|425:74|441:117,1,90,10|0,1:1|0:0,0:0:0:0:
473,253,140616,6,0,B|353:259|419:310|286:318,1,180,10|8,3:2|1:2,0:0:0:0:
159,236,141116,1,0,3:0:0:0:
159,236,141283,2,0,P|206:222|257:212,1,90,10|0,3:1|3:0,0:0:0:0:
81,345,141616,2,0,P|66:288|37:207,1,135,10|0,1:1|0:0,0:0:0:0:
40,216,141950,6,0,P|54:171|77:116,1,90,12|0,3:2|0:0,0:0:0:0:
106,64,142283,1,8,1:2:0:0:
252,135,142450,5,2,0:2:0:0:
305,82,142616,1,10,3:1:0:0:
374,116,142783,1,0,3:0:0:0:
477,4,142950,2,0,P|432:12|388:19,1,90,10|0,1:1|0:0,0:0:0:0:
469,146,143283,6,0,P|487:243|513:333,1,180,4|8,3:2|1:2,0:0:0:0:
370,218,143783,1,0,3:0:0:0:
418,377,143950,2,0,P|403:335|389:273,1,90,10|0,0:1|3:0,0:0:0:0:
222,347,144283,1,10,1:1:0:0:
295,328,144450,1,0,0:0:0:0:
271,224,144616,6,0,P|203:242|140:254,1,135,6|0,3:1|0:0,0:0:0:0:
139,254,144950,1,8,1:2:0:0:
123,185,145116,1,0,3:0:0:0:
7,151,145283,6,0,P|21:196|33:250,1,90,8|0,3:2|3:0,0:0:0:0:
185,61,145616,2,0,P|143:74|91:86,1,90,8|2,1:2|0:0,0:0:0:0:
285,150,145950,5,4,3:1:0:0:
465,201,146116,1,0,0:0:0:0:
354,91,146283,1,8,1:2:0:0:
296,240,146450,2,0,P|242:256|193:276,1,90,2|0,3:1|0:0,0:0:0:0:
143,302,146783,1,2,3:1:0:0:
38,217,146950,2,0,P|79:200|123:188,1,90,8|2,1:2|0:0,0:0:0:0:
212,3,147283,6,0,P|190:77|265:143,1,180,14|8,3:2|1:2,0:0:0:0:
407,77,147783,1,2,0:0:0:0:
389,72,147866,1,2,0:0:0:0:
372,69,147950,1,10,3:2:0:0:
350,184,148116,2,0,P|402:196|443:208,1,90,2|4,3:2|0:3,0:0:0:0:
512,230,148450,1,4,3:1:0:0:
360,296,148616,6,0,P|315:304|273:318,1,90,0|0,0:0|3:0,0:0:0:0:
92,239,148950,1,2,1:2:0:0:
228,142,149116,1,0,1:0:0:0:
149,328,149283,1,2,1:2:0:0:
193,235,149450,5,2,3:2:0:0:
317,279,149616,1,2,3:2:0:0:
372,159,149783,1,2,3:2:0:0:
474,38,171283,6,0,P|465:129|462:179,1,125.999996154785,2|0,0:0|0:0,0:0:0:0:
461,238,171783,1,8,0:1:0:0:
225,33,172283,2,0,P|229:91|231:117,1,62.9999980773926,8|8,0:0|0:0,0:0:0:0:
377,212,172616,5,8,0:1:0:0:
318,167,172783,1,0,0:0:0:0:
267,220,172950,2,0,P|231:225|177:227,1,62.9999980773926,0|8,0:0|0:1,0:0:0:0:
58,79,173616,1,4,0:3:0:0:
126,286,173950,6,0,P|123:239|119:204,1,62.9999980773926,8|0,0:1|0:0,0:0:0:0:
111,143,174283,1,0,0:0:0:0:
234,25,174450,2,0,P|231:56|229:87,1,62.9999980773926,8|0,0:1|0:0,0:0:0:0:
262,157,174783,2,0,P|264:188|266:219,1,62.9999980773926,2|8,0:0|0:0,0:0:0:0:
276,296,175116,1,8,0:0:0:0:
489,261,175283,6,0,P|447:207|386:194,1,125.999996154785,8|0,0:1|0:0,0:0:0:0:
340,247,175783,1,8,0:1:0:0:
145,338,176116,1,2,0:0:0:0:
145,338,176200,1,2,0:0:0:0:
145,338,176283,2,0,P|86:343|23:351,1,94.499997116089,8|0,0:3|0:0,0:0:0:0:
50,347,176616,6,0,P|59:259|66:200,1,125.999996154785,8|0,0:1|0:0,0:0:0:0:
71,149,177116,1,8,0:1:0:0:
271,27,177616,2,0,P|231:24|201:20,1,62.9999980773926,8|8,0:0|0:0,0:0:0:0:
338,190,177950,5,8,0:1:0:0:
285,137,178116,1,0,0:0:0:0:
329,76,178283,2,0,P|369:73|399:69,1,62.9999980773926,0|8,0:0|0:1,0:0:0:0:
491,301,178950,1,4,0:3:0:0:
419,149,179283,6,0,P|414:202|411:229,1,62.9999980773926,8|0,0:1|0:0,0:0:0:0:
408,284,179616,1,0,0:0:0:0:
221,236,179783,2,0,P|137:251|76:253,1,125.999996154785,8|0,0:1|0:0,0:0:0:0:
24,227,180283,1,8,0:0:0:0:
24,227,180450,1,8,0:0:0:0:
96,68,180616,6,0,P|162:69|201:129,1,125.999996154785,8|8,0:1|0:0,0:0:0:0:
166,185,181116,1,8,0:1:0:0:
166,185,181200,1,8,0:1:0:0:
166,185,181283,2,0,P|173:241|175:265,1,62.9999980773926,2|0,0:3|0:0,0:0:0:0:
189,372,181616,1,0,1:0:0:0:
96,253,181783,1,8,0:1:0:0:
263,241,181950,6,0,P|271:153|281:96,1,125.999996154785,8|0,0:1|0:0,0:0:0:0:
286,43,182450,1,8,0:1:0:0:
481,264,182950,1,0,1:0:0:0:
337,250,183116,1,0,1:0:0:0:
390,139,183283,6,0,P|398:193|400:224,1,62.9999980773926,8|0,0:1|0:0,0:0:0:0:
462,66,183616,2,0,P|470:120|472:151,1,62.9999980773926,0|8,0:0|0:1,0:0:0:0:
366,337,184116,1,0,0:0:0:0:
366,337,184283,2,0,P|284:326|249:323,1,94.499997116089,4|0,0:3|0:0,0:0:0:0:
272,324,184616,6,0,P|219:331|194:335,1,62.9999980773926,8|0,0:1|0:0,0:0:0:0:
44,262,184950,2,0,P|97:269|122:273,1,62.9999980773926,0|8,0:0|0:1,0:0:0:0:
255,179,185283,1,2,0:0:0:0:
186,191,185450,1,0,0:0:0:0:
257,102,185616,1,0,1:0:0:0:
232,250,185783,1,0,1:0:0:0:
170,44,185950,6,0,P|175:91|177:127,1,62.9999980773926,8|0,0:1|0:0,0:0:0:0:
341,146,186283,2,0,P|336:193|334:229,1,62.9999980773926,0|8,0:0|0:1,0:0:0:0:
334,208,186533,2,0,P|390:212|450:225,1,94.499997116089,0|2,0:0|0:0,0:0:0:0:
494,350,186950,1,0,1:0:0:0:
422,342,187116,1,2,0:0:0:0:
499,174,187283,6,0,P|486:87|470:2,1,161.999995056153,12|0,0:1|0:1,0:0:0:0:
282,92,187783,1,2,0:0:0:0:
282,92,187950,2,0,P|223:98|190:102,1,80.9999975280763,8|8,0:1|0:1,0:0:0:0:
126,110,188283,1,2,1:2:0:0:
358,25,188450,6,0,P|231:12|166:13,1,161.999995056153,4|8,0:2|0:1,0:0:0:0:
4,30,188950,1,2,1:3:0:0:
58,147,189116,2,0,P|65:207|67:246,1,80.9999975280763,2|8,0:0|0:1,0:0:0:0:
211,178,189450,1,8,0:1:0:0:
138,186,189616,1,2,1:0:0:0:
29,337,189783,1,8,0:1:0:0:
29,337,189866,1,8,0:1:0:0:
29,337,189950,6,0,P|100:320|134:315,1,80.9999975280763,12|0,0:2|0:0,0:0:0:0:
181,305,190283,1,2,1:2:0:0:
285,205,190450,2,0,P|268:276|263:310,1,80.9999975280763,2|8,0:0|0:1,0:0:0:0:
251,355,190783,1,8,0:1:0:0:
366,240,190950,1,0,1:0:0:0:
273,128,191116,6,0,P|364:117|444:113,1,161.999995056153,12|8,0:1|0:1,0:0:0:0:
511,107,191616,1,0,1:0:0:0:
364,39,191783,1,2,0:0:0:0:
480,187,191950,1,8,0:1:0:0:
408,193,192116,1,10,0:1:0:0:
338,202,192283,1,2,1:2:0:0:
311,346,192450,5,8,0:1:0:0:
311,346,192533,1,8,0:1:0:0:
311,346,192616,2,0,P|245:349|213:351,1,80.9999975280763,12|2,0:2|0:0,0:0:0:0:
154,354,192950,1,0,1:0:0:0:
150,152,193283,5,8,0:1:0:0:
25,287,193450,2,0,P|30:229|33:185,1,80.9999975280763,8|2,0:1|0:3,0:0:0:0:
38,128,193783,1,8,0:1:0:0:
166,231,193950,2,0,P|224:236|268:239,1,80.9999975280763,2|8,0:0|0:1,0:0:0:0:
312,320,194283,1,2,1:3:0:0:
388,307,194450,1,0,0:0:0:0:
247,238,194616,5,0,1:0:0:0:
382,155,194783,1,4,0:3:0:0:
398,323,194950,1,2,0:0:0:0:
340,239,195116,6,0,P|349:145|357:73,1,161.999995056153,12|8,0:1|0:1,0:0:0:0:
497,21,195616,2,0,P|488:75|483:111,1,80.9999975280763,0|2,1:0|0:0,0:0:0:0:
477,174,195950,1,4,3:0:0:0:
398,323,196116,1,8,3:0:0:0:
475,332,196283,1,8,3:0:0:0:
445,264,196450,5,10,0:1:0:0:
254,294,196783,5,10,0:1:0:0:
63,324,197116,5,8,0:1:0:0:
63,324,197283,2,0,P|56:264|43:160,1,161.999995056153,2|0,1:2|0:0,0:0:0:0:
57,65,197950,6,0,P|65:128|75:213,1,125.999996154785,4|0,3:1|0:0,0:0:0:0:
148,229,198450,1,0,3:0:0:0:
148,229,198533,1,0,3:0:0:0:
148,229,198616,1,0,1:0:0:0:
196,165,198783,1,8,0:3:0:0:
72,189,198950,1,0,3:0:0:0:
197,62,199116,6,0,P|250:55|309:41,1,90,6|0,3:2|0:0,3:0:0:0:
391,174,199450,1,0,3:0:0:0:
391,174,199616,2,0,P|382:147|372:102,1,62.9999980773926,0|0,1:0|3:0,0:0:0:0:
281,175,199950,1,4,1:2:0:0:
281,175,200116,1,0,0:0:0:0:
281,175,200283,1,0,0:0:0:0:
281,175,200450,1,0,0:0:0:0:
199,292,200616,6,0,P|181:243|156:134,1,144,6|0,3:1|0:0,0:0:0:0:
139,81,201116,1,0,3:0:0:0:
70,49,201283,1,10,1:1:0:0:
73,126,201450,1,0,1:0:0:0:
205,18,201616,2,0,P|240:9|297:-8,1,72,0|0,0:0|3:0,0:0:0:0:
451,118,201950,5,10,0:1:0:0:
312,168,202116,2,0,P|347:159|404:142,1,72,0|0,1:0|0:0,0:0:0:0:
385,250,202450,1,2,3:1:0:0:
285,298,202616,5,0,1:0:0:0:
285,298,202700,1,0,3:0:0:0:
285,298,202783,2,0,L|274:244,1,36,2|0,3:1|3:0,0:0:0:0:
183,130,202950,1,0,1:0:0:0:
181,150,203033,1,0,3:0:0:0:
178,169,203116,1,0,3:0:0:0:
175,187,203200,1,0,3:0:0:0:
173,205,203283,6,0,P|164:250|158:302,1,72,2|0,3:2|3:0,0:0:0:0:
153,352,203616,1,6,1:2:0:0:
153,352,203783,1,0,0:0:0:0:
77,134,203950,6,0,P|67:181|62:235,1,72,2|0,3:1|3:0,0:0:0:0:
54,278,204283,1,2,1:0:0:0:
178,169,204450,1,4,3:2:0:0:
372,302,204616,6,0,P|286:280|171:262,1,180,0|8,0:0|1:2,0:0:0:0:
229,89,205116,1,2,0:0:0:0:
385,318,205283,5,2,3:1:0:0:
378,296,205366,1,0,3:0:0:0:
372,274,205449,1,0,3:0:0:0:
367,252,205533,1,0,3:0:0:0:
362,230,205616,1,2,1:0:0:0:
358,208,205699,1,0,3:0:0:0:
354,186,205783,1,0,3:0:0:0:
352,164,205866,1,0,3:0:0:0:
351,140,205950,6,0,P|454:126|499:185,1,180,4|8,3:1|1:2,0:0:0:0:
290,47,206450,1,2,0:0:0:0:
290,47,206616,2,0,P|247:60|206:78,1,90,8|0,3:2|3:0,0:0:0:0:
241,263,206950,2,0,P|225:225|194:168,1,90,0|2,1:0|0:0,0:0:0:0:
0,95,207283,5,10,1:0:0:0:
90,54,207450,1,2,0:0:0:0:
129,147,207616,1,2,1:0:0:0:
37,186,207783,2,0,P|60:235|79:297,1,90,0|8,3:0|0:2,0:0:0:0:
282,301,208116,5,0,3:2:0:0:
235,361,208283,1,0,1:0:0:0:
162,337,208450,1,2,0:0:0:0:
181,172,208616,5,10,3:1:0:0:
204,240,208783,1,0,1:0:0:0:
181,172,208950,1,0,1:0:0:0:
389,280,209116,6,0,P|360:198|335:104,1,180,6|0,3:1|3:0,0:0:0:0:
320,35,209616,1,8,1:2:0:0:
89,141,209783,6,0,P|177:123|235:188,1,180,6|0,3:1|3:0,0:0:0:0:
87,330,210283,2,0,P|78:289|60:233,1,90,8|0,1:2|1:0,1:0:0:0:
228,110,210616,1,2,3:1:0:0:
337,244,210783,5,0,1:0:0:0:
308,234,210866,1,0,3:0:0:0:
279,227,210949,1,2,1:0:0:0:
250,220,211033,1,0,3:0:0:0:
220,215,211116,1,0,3:0:0:0:
190,211,211199,1,0,3:0:0:0:
163,209,211283,6,0,P|117:180|137:64,1,180,12|0,3:1|1:0,0:0:0:0:
287,0,211783,1,0,0:0:0:0:
327,111,211950,2,0,P|285:102|220:94,1,90,10|0,3:1|3:0,0:0:0:0:
457,12,212283,2,0,P|441:59|431:110,1,90,2|2,1:0|0:0,0:0:0:0:
509,254,212616,6,0,B|392:244|445:306|331:310,1,180,8|0,3:2|1:0,0:0:0:0:
271,300,213116,1,0,3:0:0:0:
331,95,213283,5,10,0:1:0:0:
198,194,213450,1,0,3:0:0:0:
359,206,213616,2,0,P|373:255|384:318,1,90,2|0,1:0|0:0,0:0:0:0:
210,98,213950,6,0,P|236:190|257:302,1,180,12|0,3:2|1:0,0:0:0:0:
260,347,214450,1,2,0:0:0:0:
0,325,214616,5,10,3:1:0:0:
62,165,214783,1,0,3:0:0:0:
197,268,214950,1,2,1:0:0:0:
93,267,215116,1,2,0:0:0:0:
230,111,215283,6,0,B|355:115|288:163|411:172,1,180,2|0,0:0|1:0,0:0:0:0:
328,31,215783,1,0,3:0:0:0:
471,0,215950,2,0,P|453:46|438:109,1,90,10|0,0:1|3:0,0:0:0:0:
279,264,216283,2,0,P|290:220|307:178,1,90,2|0,1:0|0:0,0:0:0:0:
415,367,216616,6,0,P|442:273|483:170,1,180,12|0,3:1|1:0,0:0:0:0:
507,130,217116,1,2,0:0:0:0:
301,34,217283,5,8,0:2:0:0:
369,68,217450,1,0,3:0:0:0:
351,142,217616,1,2,1:0:0:0:
279,109,217783,1,0,3:0:0:0:
133,215,217950,5,10,3:1:0:0:
188,102,218116,1,2,0:0:0:0:
269,199,218283,1,0,1:0:0:0:
197,175,218450,2,0,P|111:189|14:215,1,180,6|0,3:2|3:0,0:0:0:0:
153,304,218950,1,8,1:2:0:0:
71,384,219116,6,0,P|59:334|41:281,1,90,2|8,0:1|3:2,0:0:0:0:
67,80,219450,1,0,0:0:0:0:
67,80,219616,2,0,P|84:128|94:165,1,90,0|0,1:0|3:0,0:0:0:0:
94,165,219866,1,0,3:0:0:0:
94,165,219950,1,8,1:2:0:0:
297,222,220116,5,2,3:1:0:0:
271,154,220283,1,0,1:0:0:0:
223,211,220450,1,4,3:1:0:0:
358,52,220616,5,0,0:0:0:0:
380,127,220783,1,0,3:0:0:0:
512,173,220950,2,0,P|497:134|487:86,1,90,10|2,1:0|0:0,0:0:0:0:
472,16,221283,1,8,3:2:0:0:
419,223,221450,1,0,1:0:0:0:
389,226,221533,1,0,1:0:0:0:
359,231,221616,1,0,1:0:0:0:
330,237,221700,1,0,3:0:0:0:
300,243,221783,1,0,1:0:0:0:
271,250,221866,1,0,3:0:0:0:
242,257,221950,6,0,B|143:246|183:315|72:298,1,180,4|0,3:1|1:0,0:0:0:0:
9,253,222450,1,2,0:0:0:0:
129,165,222616,2,0,P|185:170|229:174,1,90,2|0,3:1|3:0,0:0:0:0:
89,63,222950,2,0,P|33:68|-11:72,1,90,2|0,1:1|0:0,0:0:0:0:
305,105,223283,5,0,3:0:0:0:
293,29,223450,1,0,0:0:0:0:
305,105,223616,2,0,P|300:161|296:205,1,90,8|2,1:2|0:0,0:0:0:0:
447,131,223950,2,0,P|442:86|439:42,1,90,0|0,3:0|3:0,0:0:0:0:
383,205,224283,1,12,1:2:0:0:
461,213,224450,1,0,0:0:0:0:
355,325,224616,6,0,P|249:313|167:306,1,180,0|8,3:0|1:2,0:0:0:0:
100,297,225116,1,2,0:0:0:0:
137,163,225283,1,8,3:2:0:0:
2,206,225450,1,0,3:0:0:0:
81,219,225616,2,0,P|91:146|100:102,1,90,0|0,1:2|0:0,0:0:0:0:
192,52,225950,5,8,3:1:0:0:
270,64,226116,1,0,3:0:0:0:
192,52,226283,2,0,P|119:40|73:37,1,90,0|0,1:0|0:0,0:0:0:0:
233,153,226616,2,0,P|277:144|321:139,1,90,10|0,3:1|3:0,0:0:0:0:
310,296,226950,1,2,1:1:0:0:
296,220,227116,1,2,0:0:0:0:
409,85,227283,6,0,P|404:177|400:281,2,180,4|0|0,3:1|1:0|3:0,0:0:0:0:
415,8,228116,1,0,3:0:0:0:
511,143,228283,2,0,P|508:200|507:250,1,90,0|0,1:0|1:0,1:0:0:0:
421,353,228616,5,8,3:2:0:0:
500,339,228783,1,0,3:0:0:0:
421,353,228950,2,0,P|360:360|312:367,1,90,0|2,1:0|0:0,0:0:0:0:
157,335,229283,1,8,3:2:0:0:
140,259,229450,1,0,3:0:0:0:
216,242,229616,1,0,1:0:0:0:
233,318,229783,1,2,0:0:0:0:
82,195,229950,6,0,P|88:126|91:52,1,135,12|0,3:2|0:0,0:0:0:0:
90,60,230283,1,0,1:0:0:0:
263,114,230450,1,2,0:0:0:0:
240,110,230533,1,2,0:0:0:0:
217,112,230616,1,10,3:2:0:0:
167,173,230783,1,0,3:0:0:0:
243,25,230950,5,0,1:0:0:0:
337,151,231116,2,0,P|350:252|357:344,1,180,0|0,3:0|3:0,0:0:0:0:
468,187,231616,1,0,1:0:0:0:
478,110,231783,2,0,P|484:41|488:9,1,90,8|0,1:0|0:0,0:0:0:0:
385,34,232116,6,0,B|398:58|398:58|400:90,2,45,2|2|2,0:1|0:1|0:1,0:0:0:0:
306,56,232616,6,0,P|211:45|137:46,1,135,4|0,3:1|0:0,0:0:0:0:
171,44,232950,1,0,1:0:0:0:
185,126,233116,1,10,0:2:0:0:
52,88,233283,2,0,P|45:38|37:-4,1,90,0|8,3:0|0:2,0:0:0:0:
35,191,233616,1,0,1:0:0:0:
111,178,233783,1,0,3:0:0:0:
163,305,233950,6,0,P|87:297|57:294,1,90,2|8,0:0|3:2,0:0:0:0:
201,213,234283,1,0,1:0:0:0:
201,213,234450,2,0,P|277:205|307:202,1,90,2|0,0:0|3:0,0:0:0:0:
262,368,234783,5,8,3:2:0:0:
247,291,234950,1,0,1:0:0:0:
380,216,235116,2,0,P|371:277|364:326,1,90,0|0,0:0|1:0,0:0:0:0:
352,129,235450,5,8,0:2:0:0:
435,141,235616,1,0,1:0:0:0:
365,13,235783,2,0,P|304:4|255:-3,1,90,8|0,0:2|3:0,0:0:0:0:
190,145,236116,1,0,3:0:0:0:
190,145,236200,1,0,3:0:0:0:
190,145,236283,2,0,P|234:151|279:158,1,90,0|0,1:0|3:0,0:0:0:0:
114,21,236616,5,2,0:0:0:0:
119,94,236783,1,0,3:0:0:0:
114,21,236950,1,0,1:0:0:0:
17,140,237116,2,0,P|4:203|0:285,1,135,8|0,0:2|0:0,0:0:0:0:
0,273,237450,6,0,P|49:269|94:266,1,90,2|2,3:1|1:0,0:0:0:0:
167,257,237783,1,8,3:2:0:0:
47,368,237950,6,0,P|129:361|201:357,1,135,6|0,3:1|0:0,0:0:0:0:
181,357,238283,1,0,1:0:0:0:
263,354,238450,1,8,0:2:0:0:
351,205,238616,2,0,P|345:270|342:319,1,90,0|0,3:0|3:0,0:0:0:0:
311,81,238950,1,0,1:0:0:0:
389,88,239116,1,8,3:2:0:0:
235,167,239283,6,0,P|230:113|224:60,1,90,2|0,0:0|3:0,0:0:0:0:
141,190,239616,1,0,1:0:0:0:
141,190,239783,2,0,P|136:234|132:279,1,90,8|0,0:2|3:0,0:0:0:0:
25,150,240116,5,0,3:0:0:0:
97,120,240283,1,0,1:0:0:0:
220,254,240450,2,0,P|288:246|333:244,1,90,8|0,0:2|3:0,0:0:0:0:
294,49,240783,5,2,0:1:0:0:
226,115,240950,1,0,1:0:0:0:
223,138,241033,1,0,1:0:0:0:
225,161,241116,1,8,3:2:0:0:
382,103,241283,2,0,P|385:135|389:166,1,45,2|0,3:1|0:0,0:0:0:0:
395,231,241450,1,8,3:2:0:0:
379,90,241616,1,0,1:0:0:0:
477,250,241783,6,0,B|367:223|409:300|297:274,1,180,6|0,3:1|3:0,0:0:0:0:
140,366,242283,2,0,P|45:340|31:325,1,90,4|2,3:2|0:1,0:0:0:0:
85,209,242616,1,0,1:0:0:0:
107,207,242699,1,0,3:0:0:0:
129,209,242782,1,0,3:0:0:0:
151,216,242866,1,0,3:0:0:0:
170,227,242949,1,0,3:0:0:0:
222,312,243116,1,4,1:0:0:0:
