osu file format v14

[General]
AudioFilename: audio.mp3
AudioLeadIn: 0
PreviewTime: 62350
Countdown: 0
SampleSet: Soft
StackLeniency: 0.4
Mode: 0
LetterboxInBreaks: 0
EpilepsyWarning: 1
WidescreenStoryboard: 1

[Editor]
Bookmarks: 19266,29933,48599,63266,73933,84599,95266,113933,128599,139266,149933,160599,171266,187266,200599,211266,232599,243099
DistanceSpacing: 1.5
BeatDivisor: 4
GridSize: 4
TimelineZoom: 2.1

[Metadata]
Title:Shikaki to Coffee
TitleUnicode:詩書きとコーヒー
Artist:Yorushika
ArtistUnicode:ヨルシカ
Creator:Airiesu
Version:Mono's Hard
Source:
Tags:Mujina Mononymous Pile Writing and AyameMyMommy Koohii n-buna nabuna ナブナ suis スイ japanese rock jpop jrock だから僕は音楽を辞めた dakara boku wa ongaku wo o yameta thats that's why i gave up on music
BeatmapID:3144946
BeatmapSetID:1532422

[Difficulty]
HPDrainRate:4.2
CircleSize:3.5
OverallDifficulty:6.2
ApproachRate:8
SliderMultiplier:1.4
SliderTickRate:1

[Events]
//Background and Video events
0,0,"bg2.jpg",0,0
//Break Periods
2,30153,39369
2,150153,159869
//Storyboard Layer 0 (Background)
Sprite,Background,TopLeft,"bg2.jpg",0,0
Sprite,Background,Centre,"sb\monobgblur.jpg",320,240 F,0,453,620,0,1 M,0,620,,320,240 S,0,620,,0.3425453 F,0,620,18619,1 F,0,18619,18786,1,0 F,0,29953,30286,0,1 F,0,30286,62619,1 F,0,62619,62953,1,0 F,0,95286,95619,0,1 F,0,112619,112952,1,0 F,0,113953,127953,1 F,0,127953,128619,1,0 F,0,160619,160953,0,1 F,0,160953,197286,1 F,0,197286,197619,1,0
Sprite,Background,Centre,"sb\kogechamonobg.jpg",320,240 S,0,19286,,0.6509092 M,0,19286,29953,646.4,319.7091,646.4,237.0909 F,0,29619,29953,1,0 S,0,84619,,0.7498182 M,0,84619,94953,41.30911,213.8182,42.45454,137.7066 F,0,84619,94953,1 M,0,94953,95286,42.45454,137.7066,41.8909,135.8546 F,0,94953,95286,1,0 S,0,232619,,0.6509092 F,0,232619,242952,1 M,0,232619,243286,646.4,319.7091,646.4,237.0909 F,0,243119,,0
Sprite,Background,Centre,"sb\kogechamonobg.jpg",320,240 M,0,63286,,320,240 S,0,63286,64619,0.3774545,0.3425454 R,0,63286,64619,0.05818176,-7.629394E-08 F,0,63286,83786,1 F,0,83786,84119,1,0 S,0,128619,129953,0.3774545,0.3425454 R,0,128619,129953,0.05818176,-7.629394E-08 F,0,128619,148619,1 F,0,148619,149953,1,0 F,0,197953,199953,1 F,0,199953,200119,1,0 S,0,200619,201953,0.3774545,0.3425454 R,0,200619,201953,0.05818176,-7.629394E-08 F,0,200619,231786,1 F,0,231786,232119,1,0
Sprite,Background,Centre,"sb\glow.png",0,0 L,63266,3 F,1,0,1111,0,0.4977359 M,0,0,5555,207.5992,178.1573,473.7619,-245.1127 F,2,4444,5555,0.4977359,0 S,0,63266,,0.5 R,0,63266,,5.273734 C,0,63266,,200,195,11
Sprite,Background,Centre,"sb\glow.png",0,0 L,63960,3 F,1,0,1111,0,0.4977359 M,0,0,5555,-63.48038,376.0912,-123.8836,-120.2469 F,2,4444,5555,0.4977359,0 S,0,63960,,0.5 R,0,63960,,4.591287 C,0,63960,,228,222,0
Sprite,Background,Centre,"sb\glow.png",0,0 L,64654,3 F,1,0,1111,0,0.4977359 M,0,0,5555,191.9475,737.6158,329.0873,256.7908 F,2,4444,5555,0.4977359,0 S,0,64654,,0.5 R,0,64654,,4.99023 C,0,64654,,248,245,161
Sprite,Background,Centre,"sb\glow.png",0,0 L,65349,3 F,1,0,1111,0,0.4977359 M,0,0,5555,584.2432,563.4005,1014.799,309.1926 F,2,4444,5555,0.4977359,0 S,0,65349,,0.5 R,0,65349,,5.749841 C,0,65349,,229,223,9
Sprite,Background,Centre,"sb\glow.png",0,0 L,66043,3 F,1,0,1111,0,0.4977359 M,0,0,5555,391.3015,197.3434,820.012,-59.96432 F,2,4444,5555,0.4977359,0 S,0,66043,,0.5 R,0,66043,,5.742626 C,0,66043,,234,230,103
Sprite,Background,Centre,"sb\glow.png",0,0 L,66738,3 F,1,0,1111,0,0.4977359 M,0,0,5555,-87.18689,442.8024,104.2712,-19.0892 F,2,4444,5555,0.4977359,0 S,0,66738,,0.5 R,0,66738,,5.10534 C,0,66738,,169,165,10
Sprite,Background,Centre,"sb\glow.png",0,0 L,67432,3 F,1,0,1111,0,0.4977359 M,0,0,5555,349.2853,723.7165,143.2149,268.1563 F,2,4444,5555,0.4977359,0 S,0,67432,,0.5 R,0,67432,,4.287587 C,0,67432,,254,249,68
Sprite,Background,Centre,"sb\glow.png",0,0 L,68127,3 F,1,0,1111,0,0.4977359 M,0,0,5555,261.1065,437.4458,137.7806,-47.10629 F,2,4444,5555,0.4977359,0 S,0,68127,,0.5 R,0,68127,,4.463165 C,0,68127,,246,243,157
Sprite,Background,Centre,"sb\glow.png",0,0 L,63266,3 F,1,0,1111,0,0.5015067 M,0,0,5555,127.1166,475.8783,520.4495,167.1886 F,2,4444,5555,0.5015067,0 S,0,63266,,0.25 R,0,63266,,5.617778 C,0,63266,,194,255,253
Sprite,Background,Centre,"sb\glow.png",0,0 L,64654,3 F,1,0,1111,0,0.5015067 M,0,0,5555,227.9389,263.9075,587.0678,-83.98102 F,2,4444,5555,0.5015067,0 S,0,64654,,0.25 R,0,64654,,5.513684 C,0,64654,,194,255,253
Sprite,Background,Centre,"sb\glow.png",0,0 L,66043,3 F,1,0,1111,0,0.5015067 M,0,0,5555,164.6275,384.8462,549.611,65.80429 F,2,4444,5555,0.5015067,0 S,0,66043,,0.25 R,0,66043,,5.591178 C,0,66043,,194,255,253
Sprite,Background,Centre,"sb\glow.png",0,0 L,128600,3 F,1,0,1111,0,0.4941176 M,0,0,5555,207.5992,178.1573,473.7619,-245.1127 F,2,4444,5555,0.4941176,0 S,0,128600,,0.5 R,0,128600,,5.273734 C,0,128600,,199,193,11
Sprite,Background,Centre,"sb\glow.png",0,0 L,129294,3 F,1,0,1111,0,0.4941176 M,0,0,5555,-63.48038,376.0912,-123.8836,-120.2469 F,2,4444,5555,0.4941176,0 S,0,129294,,0.5 R,0,129294,,4.591287 C,0,129294,,227,220,0
Sprite,Background,Centre,"sb\glow.png",0,0 L,129988,3 F,1,0,1111,0,0.4941176 M,0,0,5555,191.9475,737.6158,329.0873,256.7908 F,2,4444,5555,0.4941176,0 S,0,129988,,0.5 R,0,129988,,4.99023 C,0,129988,,248,245,160
Sprite,Background,Centre,"sb\glow.png",0,0 L,130683,3 F,1,0,1111,0,0.4941176 M,0,0,5555,584.2432,563.4005,1014.799,309.1926 F,2,4444,5555,0.4941176,0 S,0,130683,,0.5 R,0,130683,,5.749841 C,0,130683,,229,222,9
Sprite,Background,Centre,"sb\glow.png",0,0 L,131377,3 F,1,0,1111,0,0.4941176 M,0,0,5555,391.3015,197.3434,820.012,-59.96432 F,2,4444,5555,0.4941176,0 S,0,131377,,0.5 R,0,131377,,5.742626 C,0,131377,,234,229,102
Sprite,Background,Centre,"sb\glow.png",0,0 L,132072,3 F,1,0,1111,0,0.4941176 M,0,0,5555,-87.18689,442.8024,104.2712,-19.0892 F,2,4444,5555,0.4941176,0 S,0,132072,,0.5 R,0,132072,,5.10534 C,0,132072,,169,164,10
Sprite,Background,Centre,"sb\glow.png",0,0 L,132766,3 F,1,0,1111,0,0.4941176 M,0,0,5555,349.2853,723.7165,143.2149,268.1563 F,2,4444,5555,0.4941176,0 S,0,132766,,0.5 R,0,132766,,4.287587 C,0,132766,,254,248,67
Sprite,Background,Centre,"sb\glow.png",0,0 L,133460,3 F,1,0,1111,0,0.4941176 M,0,0,5555,261.1065,437.4458,137.7806,-47.10629 F,2,4444,5555,0.4941176,0 S,0,133460,,0.5 R,0,133460,,4.463165 C,0,133460,,246,243,156
Sprite,Background,Centre,"sb\glow.png",0,0 L,128600,3 F,1,0,1111,0,0.4980392 M,0,0,5555,127.1166,475.8783,520.4495,167.1886 F,2,4444,5555,0.4980392,0 S,0,128600,,0.25 R,0,128600,,5.617778 C,0,128600,,194,255,253
Sprite,Background,Centre,"sb\glow.png",0,0 L,129988,3 F,1,0,1111,0,0.4980392 M,0,0,5555,227.9389,263.9075,587.0678,-83.98102 F,2,4444,5555,0.4980392,0 S,0,129988,,0.25 R,0,129988,,5.513684 C,0,129988,,194,255,253
Sprite,Background,Centre,"sb\glow.png",0,0 L,131377,3 F,1,0,1111,0,0.4980392 M,0,0,5555,164.6275,384.8462,549.611,65.80429 F,2,4444,5555,0.4980392,0 S,0,131377,,0.25 R,0,131377,,5.591178 C,0,131377,,194,255,253
Sprite,Background,Centre,"sb\glow.png",0,0 L,200600,5 F,1,0,1093,0,0.4941176 M,0,0,5466,207.5992,178.1573,473.7619,-245.1127 F,2,4373,5466,0.4941176,0 S,0,200600,,0.5 R,0,200600,,5.273734 C,0,200600,,199,193,11
Sprite,Background,Centre,"sb\glow.png",0,0 L,201283,5 F,1,0,1093,0,0.4941176 M,0,0,5466,-63.48038,376.0912,-123.8836,-120.2469 F,2,4373,5466,0.4941176,0 S,0,201283,,0.5 R,0,201283,,4.591287 C,0,201283,,227,220,0
Sprite,Background,Centre,"sb\glow.png",0,0 L,201966,5 F,1,0,1093,0,0.4941176 M,0,0,5466,191.9475,737.6158,329.0873,256.7908 F,2,4373,5466,0.4941176,0 S,0,201966,,0.5 R,0,201966,,4.99023 C,0,201966,,248,245,160
Sprite,Background,Centre,"sb\glow.png",0,0 L,202649,5 F,1,0,1093,0,0.4941176 M,0,0,5466,584.2432,563.4005,1014.799,309.1926 F,2,4373,5466,0.4941176,0 S,0,202649,,0.5 R,0,202649,,5.749841 C,0,202649,,229,222,9
Sprite,Background,Centre,"sb\glow.png",0,0 L,203333,5 F,1,0,1093,0,0.4941176 M,0,0,5466,391.3015,197.3434,820.012,-59.96432 F,2,4373,5466,0.4941176,0 S,0,203333,,0.5 R,0,203333,,5.742626 C,0,203333,,234,229,102
Sprite,Background,Centre,"sb\glow.png",0,0 L,204016,5 F,1,0,1093,0,0.4941176 M,0,0,5466,-87.18689,442.8024,104.2712,-19.0892 F,2,4373,5466,0.4941176,0 S,0,204016,,0.5 R,0,204016,,5.10534 C,0,204016,,169,164,10
Sprite,Background,Centre,"sb\glow.png",0,0 L,204699,5 F,1,0,1093,0,0.4941176 M,0,0,5466,349.2853,723.7165,143.2149,268.1563 F,2,4373,5466,0.4941176,0 S,0,204699,,0.5 R,0,204699,,4.287587 C,0,204699,,254,248,67
Sprite,Background,Centre,"sb\glow.png",0,0 L,205383,5 F,1,0,1093,0,0.4941176 M,0,0,5466,261.1065,437.4458,137.7806,-47.10629 F,2,4373,5466,0.4941176,0 S,0,205383,,0.5 R,0,205383,,4.463165 C,0,205383,,246,243,156
Sprite,Background,Centre,"sb\glow.png",0,0 L,200600,5 F,1,0,1093,0,0.4980392 M,0,0,5466,127.1166,475.8783,520.4495,167.1886 F,2,4373,5466,0.4980392,0 S,0,200600,,0.25 R,0,200600,,5.617778 C,0,200600,,194,255,253
Sprite,Background,Centre,"sb\glow.png",0,0 L,201966,5 F,1,0,1093,0,0.4980392 M,0,0,5466,227.9389,263.9075,587.0678,-83.98102 F,2,4373,5466,0.4980392,0 S,0,201966,,0.25 R,0,201966,,5.513684 C,0,201966,,194,255,253
Sprite,Background,Centre,"sb\glow.png",0,0 L,203333,5 F,1,0,1093,0,0.4980392 M,0,0,5466,164.6275,384.8462,549.611,65.80429 F,2,4373,5466,0.4980392,0 S,0,203333,,0.25 R,0,203333,,5.591178 C,0,203333,,194,255,253
Sprite,Background,Centre,"sb\glow.png",0,0 L,19266,1 F,1,0,1133,0,0.4980392 M,0,0,5667,207.5992,178.1573,473.7619,-245.1127 F,2,4533,5667,0.4980392,0 S,0,19266,,0.5 R,0,19266,,5.273734 C,0,19266,,199,193,11
Sprite,Background,Centre,"sb\glow.png",0,0 L,19974,1 F,1,0,1133,0,0.4980392 M,0,0,5667,-63.48038,376.0912,-123.8836,-120.2469 F,2,4533,5667,0.4980392,0 S,0,19974,,0.5 R,0,19974,,4.591287 C,0,19974,,227,220,0
Sprite,Background,Centre,"sb\glow.png",0,0 L,20682,1 F,1,0,1133,0,0.4980392 M,0,0,5667,191.9475,737.6158,329.0873,256.7908 F,2,4533,5667,0.4980392,0 S,0,20682,,0.5 R,0,20682,,4.99023 C,0,20682,,248,245,160
Sprite,Background,Centre,"sb\glow.png",0,0 L,21391,1 F,1,0,1133,0,0.4980392 M,0,0,5667,584.2432,563.4005,1014.799,309.1926 F,2,4533,5667,0.4980392,0 S,0,21391,,0.5 R,0,21391,,5.749841 C,0,21391,,229,222,9
Sprite,Background,Centre,"sb\glow.png",0,0 L,22099,1 F,1,0,1133,0,0.4980392 M,0,0,5667,391.3015,197.3434,820.012,-59.96432 F,2,4533,5667,0.4980392,0 S,0,22099,,0.5 R,0,22099,,5.742626 C,0,22099,,234,229,102
Sprite,Background,Centre,"sb\glow.png",0,0 L,22807,1 F,1,0,1133,0,0.4980392 M,0,0,5667,-87.18689,442.8024,104.2712,-19.0892 F,2,4533,5667,0.4980392,0 S,0,22807,,0.5 R,0,22807,,5.10534 C,0,22807,,169,164,10
Sprite,Background,Centre,"sb\glow.png",0,0 L,23516,1 F,1,0,1133,0,0.4980392 M,0,0,5667,349.2853,723.7165,143.2149,268.1563 F,2,4533,5667,0.4980392,0 S,0,23516,,0.5 R,0,23516,,4.287587 C,0,23516,,254,248,67
Sprite,Background,Centre,"sb\glow.png",0,0 L,24224,1 F,1,0,1133,0,0.4980392 M,0,0,5667,261.1065,437.4458,137.7806,-47.10629 F,2,4533,5667,0.4980392,0 S,0,24224,,0.5 R,0,24224,,4.463165 C,0,24224,,246,243,156
Sprite,Background,Centre,"sb\glow.png",0,0 L,84599,1 F,1,0,1133,0,0.4980392 M,0,0,5667,207.5992,178.1573,473.7619,-245.1127 F,2,4533,5667,0.4980392,0 S,0,84599,,0.5 R,0,84599,,5.273734 C,0,84599,,199,193,11
Sprite,Background,Centre,"sb\glow.png",0,0 L,85307,1 F,1,0,1133,0,0.4980392 M,0,0,5667,-63.48038,376.0912,-123.8836,-120.2469 F,2,4533,5667,0.4980392,0 S,0,85307,,0.5 R,0,85307,,4.591287 C,0,85307,,227,220,0
Sprite,Background,Centre,"sb\glow.png",0,0 L,86015,1 F,1,0,1133,0,0.4980392 M,0,0,5667,191.9475,737.6158,329.0873,256.7908 F,2,4533,5667,0.4980392,0 S,0,86015,,0.5 R,0,86015,,4.99023 C,0,86015,,248,245,160
Sprite,Background,Centre,"sb\glow.png",0,0 L,86724,1 F,1,0,1133,0,0.4980392 M,0,0,5667,584.2432,563.4005,1014.799,309.1926 F,2,4533,5667,0.4980392,0 S,0,86724,,0.5 R,0,86724,,5.749841 C,0,86724,,229,222,9
Sprite,Background,Centre,"sb\glow.png",0,0 L,87432,1 F,1,0,1133,0,0.4980392 M,0,0,5667,391.3015,197.3434,820.012,-59.96432 F,2,4533,5667,0.4980392,0 S,0,87432,,0.5 R,0,87432,,5.742626 C,0,87432,,234,229,102
Sprite,Background,Centre,"sb\glow.png",0,0 L,88140,1 F,1,0,1133,0,0.4980392 M,0,0,5667,-87.18689,442.8024,104.2712,-19.0892 F,2,4533,5667,0.4980392,0 S,0,88140,,0.5 R,0,88140,,5.10534 C,0,88140,,169,164,10
Sprite,Background,Centre,"sb\glow.png",0,0 L,88849,1 F,1,0,1133,0,0.4980392 M,0,0,5667,349.2853,723.7165,143.2149,268.1563 F,2,4533,5667,0.4980392,0 S,0,88849,,0.5 R,0,88849,,4.287587 C,0,88849,,254,248,67
Sprite,Background,Centre,"sb\glow.png",0,0 L,89557,1 F,1,0,1133,0,0.4980392 M,0,0,5667,261.1065,437.4458,137.7806,-47.10629 F,2,4533,5667,0.4980392,0 S,0,89557,,0.5 R,0,89557,,4.463165 C,0,89557,,246,243,156
Sprite,Background,Centre,"sb\glow.png",0,0 L,232600,1 F,1,0,1133,0,0.4980392 M,0,0,5666,207.5992,178.1573,473.7619,-245.1127 F,2,4532,5666,0.4980392,0 S,0,232600,,0.5 R,0,232600,,5.273734 C,0,232600,,199,193,11
Sprite,Background,Centre,"sb\glow.png",0,0 L,233308,1 F,1,0,1133,0,0.4980392 M,0,0,5666,-63.48038,376.0912,-123.8836,-120.2469 F,2,4532,5666,0.4980392,0 S,0,233308,,0.5 R,0,233308,,4.591287 C,0,233308,,227,220,0
Sprite,Background,Centre,"sb\glow.png",0,0 L,234016,1 F,1,0,1133,0,0.4980392 M,0,0,5666,191.9475,737.6158,329.0873,256.7908 F,2,4532,5666,0.4980392,0 S,0,234016,,0.5 R,0,234016,,4.99023 C,0,234016,,248,245,160
Sprite,Background,Centre,"sb\glow.png",0,0 L,234724,1 F,1,0,1133,0,0.4980392 M,0,0,5666,584.2432,563.4005,1014.799,309.1926 F,2,4532,5666,0.4980392,0 S,0,234724,,0.5 R,0,234724,,5.749841 C,0,234724,,229,222,9
Sprite,Background,Centre,"sb\glow.png",0,0 L,235433,1 F,1,0,1133,0,0.4980392 M,0,0,5666,391.3015,197.3434,820.012,-59.96432 F,2,4532,5666,0.4980392,0 S,0,235433,,0.5 R,0,235433,,5.742626 C,0,235433,,234,229,102
Sprite,Background,Centre,"sb\glow.png",0,0 L,236141,1 F,1,0,1133,0,0.4980392 M,0,0,5666,-87.18689,442.8024,104.2712,-19.0892 F,2,4532,5666,0.4980392,0 S,0,236141,,0.5 R,0,236141,,5.10534 C,0,236141,,169,164,10
Sprite,Background,Centre,"sb\glow.png",0,0 L,236849,1 F,1,0,1133,0,0.4980392 M,0,0,5666,349.2853,723.7165,143.2149,268.1563 F,2,4532,5666,0.4980392,0 S,0,236849,,0.5 R,0,236849,,4.287587 C,0,236849,,254,248,67
Sprite,Background,Centre,"sb\glow.png",0,0 L,237557,1 F,1,0,1133,0,0.4980392 M,0,0,5666,261.1065,437.4458,137.7806,-47.10629 F,2,4532,5666,0.4980392,0 S,0,237557,,0.5 R,0,237557,,4.463165 C,0,237557,,246,243,156
//Storyboard Layer 1 (Fail)
//Storyboard Layer 2 (Pass)
//Storyboard Layer 3 (Foreground)
Sprite,Foreground,Centre,"sb\monobgtransparent.png",320,240 M,0,63286,,320,240 S,0,63286,64619,0.3774545,0.3425454 R,0,63286,64619,0.05818176,-7.629394E-08 F,0,63286,83786,1 F,0,83786,128619,0 S,0,128619,129953,0.3774545,0.3425454 R,0,128619,129953,0.05818176,-7.629394E-08 F,0,128619,148619,1 F,0,148619,200619,0 S,0,200619,201953,0.3774545,0.3425454 R,0,200619,201953,0.05818176,-7.629394E-08 F,0,200619,231786,1
Sprite,Foreground,Centre,"sb\flash.png",320,240 M,0,17786,,320,240 S,0,17786,,0.4589092 F,0,17786,18119,1,0 F,0,24619,24953,1,0 F,0,28453,28786,1,0 F,0,28953,29286,1,0 F,0,40619,40953,1,0 F,0,48286,48619,1,0 F,0,48619,48953,1,0 F,0,50286,50619,1,0 F,0,51286,51619,1,0 F,0,56619,56953,1,0 F,0,59119,59453,1,0 F,0,60953,61286,1,0 F,0,61786,62119,1,0 F,0,68619,68953,1,0 F,0,71286,71619,1,0 F,0,71786,72119,1,0 F,0,72453,72786,1,0 F,0,72953,73286,1,0 F,0,73286,73619,1,0 F,0,73953,74286,1,0 F,0,79286,79619,1,0 F,0,83119,83453,1,0 F,0,89953,90286,1,0 F,0,93786,94119,1,0 F,0,94286,94619,1,0 F,0,102953,103286,1,0 F,0,103286,103619,1,0 F,0,104953,105286,1,0 F,0,105953,106286,1,0 F,0,110953,111286,1,0 F,0,111286,111619,1,0 F,0,114453,114786,1,0 F,0,114953,115286,1,0 F,0,116619,116953,1,0 F,0,121953,122286,1,0 F,0,124453,124786,1,0 F,0,126286,126619,1,0 F,0,127119,127453,1,0 F,0,133953,134286,1,0 F,0,136619,136953,1,0 F,0,137119,137453,1,0 F,0,137786,138119,1,0 F,0,138286,138619,1,0 F,0,138619,138953,1,0 F,0,139286,139619,1,0 F,0,144619,144953,1,0 F,0,148453,148786,1,0 F,0,160619,160953,1,0 F,0,169286,169619,1,0 F,0,170286,170619,1,0 F,0,171286,171619,1,0 F,0,181953,182286,1,0 F,0,187286,187619,1,0 F,0,188453,188786,1,0 F,0,189953,190286,1,0 F,0,191119,191453,1,0 F,0,192619,192953,1,0 F,0,195119,195453,1,0 F,0,196453,196786,1,0 F,0,196786,197119,1,0 F,0,197119,197286,1,0 F,0,199119,199453,1,0 F,0,199953,200119,1,0 F,0,203619,203953,1,0 F,0,204453,204786,1,0 F,0,204953,205286,1,0 F,0,205286,205619,1,0 F,0,205953,206286,1,0 F,0,208619,208953,1,0 F,0,209119,209453,1,0 F,0,209786,210119,1,0 F,0,210286,210619,1,0 F,0,210619,210953,1,0 F,0,211286,211619,1,0 F,0,216619,216953,1,0 F,0,220453,220786,1,0 F,0,220953,221286,1,0 F,0,221286,221619,1,0 F,0,221953,222286,1,0 F,0,222286,222619,1,0 F,0,227286,227619,1,0 F,0,231119,231453,1,0 F,0,237953,238286,1,0 F,0,241786,242119,1,0 F,0,242286,242619,1,0
Sprite,Foreground,Centre,"sb\bar.png",320,240 S,0,19286,,50 F,0,19286,19619,1,0 F,0,63286,63619,1,0 F,0,84619,84953,1,0 F,0,95286,95619,1,0 F,0,113953,114286,1,0 F,0,128619,128953,1,0 F,0,197953,198286,1,0 F,0,200619,200953,1,0 F,0,232619,232953,1,0
Sprite,Foreground,Centre,"sb\v.png",320,240 F,0,286,620,1 M,0,620,,320,239.4182 S,0,620,,0.4589091 F,0,620,18786,1 F,0,18786,29953,0 F,0,29953,40119,1 F,0,40119,40286,1,0 F,0,160619,186953,1 F,0,186953,187286,1,0
Sprite,Foreground,Centre,"lyrics\verse1\line1.png",320,240 M,0,620,,320,261.5273 S,0,620,,0.2087273 F,0,5119,,1
Sprite,Foreground,Centre,"lyrics\verse1\line2.png",320,240 M,0,5953,,320,261.5273 S,0,5953,,0.2087273 F,0,10452,,1
Sprite,Foreground,Centre,"lyrics\verse1\line3.png",320,240 M,0,11119,,320,261.5273 S,0,11119,,0.2087273 F,0,15786,,1
Sprite,Foreground,Centre,"lyrics\verse1\line4.png",320,240 M,0,16453,,320,261.5273 S,0,16453,,0.2087273 F,0,19286,,1
Sprite,Foreground,Centre,"lyrics\verse1\line1.png",320,240 M,0,29953,,320,261.5273 S,0,29953,,0.2087273 F,0,34452,,1
Sprite,Foreground,Centre,"lyrics\verse2\line2.png",320,240 M,0,35119,,320,261.5273 S,0,35119,,0.2087273 F,0,39786,,1
Sprite,Foreground,Centre,"lyrics\verse2\line3.png",320,240 M,0,40453,,320,261.5273 S,0,40453,,0.2087273 F,0,42786,,1
Sprite,Foreground,Centre,"lyrics\verse2\line4.png",320,240 M,0,42786,,320,261.5273 S,0,42786,,0.2087273 F,0,45119,,1
Sprite,Foreground,Centre,"lyrics\verse2\line5.png",320,240 M,0,45786,,320,261.5273 S,0,45786,,0.2087273 F,0,48619,,1
Sprite,Foreground,Centre,"lyrics\pre chorus1\line1.png",320,240 M,0,50953,,320,261.5273 S,0,50953,,0.2087273 F,0,55453,,1
Sprite,Foreground,Centre,"lyrics\pre chorus1\line2.png",320,240 M,0,56286,,320,261.5273 S,0,56286,,0.2087273 F,0,60786,,1
Sprite,Foreground,Centre,"lyrics\pre chorus1\line3.png",320,240 M,0,62453,,320,261.5273 S,0,62453,,0.2087273 F,0,63286,,1
Sprite,Foreground,Centre,"lyrics\chorus1\line1.png",320,240 M,0,63786,,320,261.5273 S,0,63786,,0.2087273 F,0,68953,,1
Sprite,Foreground,Centre,"lyrics\chorus1\line3.png",320,240 M,0,69453,,320,261.5273 S,0,69453,,0.2087273 F,0,73119,,1
Sprite,Foreground,Centre,"lyrics\chorus1\line1.png",320,240 M,0,73119,,320,261.5273 S,0,73119,,0.2087273 F,0,78453,,1
Sprite,Foreground,Centre,"lyrics\chorus1\line6.png",320,240 M,0,78453,,320,261.5273 S,0,78453,,0.2087273 F,0,79619,,1
Sprite,Foreground,Centre,"lyrics\chorus1\line7.png",320,240 M,0,80286,,320,261.5273 S,0,80286,,0.2087273 F,0,82953,,1
Sprite,Foreground,Centre,"lyrics\chorus1\line8.png",320,240 M,0,82953,,320,261.5273 S,0,82953,,0.2087273 F,0,84619,,1
Sprite,Foreground,Centre,"lyrics\verse3\line1.png",320,240 M,0,95286,,320,261.5273 S,0,95286,,0.2087273 F,0,99785,,1
Sprite,Foreground,Centre,"lyrics\verse3\line2.png",320,240 M,0,100453,,320,261.5273 S,0,100453,,0.2087273 F,0,105119,,1
Sprite,Foreground,Centre,"lyrics\verse3\line3.png",320,240 M,0,105786,,320,261.5273 S,0,105786,,0.2087273 F,0,108119,,1
Sprite,Foreground,Centre,"lyrics\verse3\line4.png",320,240 M,0,108119,,320,261.5273 S,0,108119,,0.2087273 F,0,110452,,1
Sprite,Foreground,Centre,"lyrics\verse3\line5.png",320,240 M,0,111119,,320,261.5273 S,0,111119,,0.2087273 F,0,113953,,1
Sprite,Foreground,Centre,"lyrics\pre chorus2\line1.png",320,240 M,0,116286,,320,261.5273 S,0,116286,,0.2087273 F,0,120786,,1
Sprite,Foreground,Centre,"lyrics\pre chorus2\line2.png",320,240 M,0,121619,,320,261.5273 S,0,121619,,0.2087273 F,0,126119,,1
Sprite,Foreground,Centre,"lyrics\pre chorus2\line3.png",320,240 M,0,127786,,320,261.5273 S,0,127786,,0.2087273 F,0,128619,,1
Sprite,Foreground,Centre,"lyrics\chorus1\line1.png",320,240 M,0,129119,,320,261.5273 S,0,129119,,0.2087273 F,0,134286,,1
Sprite,Foreground,Centre,"lyrics\chorus2\line3.png",320,240 M,0,134786,,320,261.5273 S,0,134786,,0.2087273 F,0,138452,,1
Sprite,Foreground,Centre,"lyrics\chorus1\line1.png",320,240 M,0,138453,,320,261.5273 S,0,138453,,0.2087273 F,0,143787,,1
Sprite,Foreground,Centre,"lyrics\chorus1\line6.png",320,240 M,0,143786,,320,261.5273 S,0,143786,,0.2087273 F,0,144952,,1
Sprite,Foreground,Centre,"lyrics\chorus2\line7.png",320,240 M,0,145453,,320,261.5273 S,0,145453,,0.2087273 F,0,147619,,1
Sprite,Foreground,Centre,"lyrics\chorus2\line8.png",320,240 M,0,148119,,320,261.5273 S,0,148119,,0.2087273 F,0,149953,,1
Sprite,Foreground,Centre,"lyrics\pre chorus3\line1.png",320,240 M,0,170953,,320,261.5273 S,0,170953,,0.2087273 F,0,175453,,1
Sprite,Foreground,Centre,"lyrics\pre chorus3\line2.png",320,240 M,0,176286,,320,261.5273 S,0,176286,,0.2087273 F,0,180786,,1
Sprite,Foreground,Centre,"lyrics\pre chorus3\line3.png",320,240 M,0,181619,,320,261.5273 S,0,181619,,0.2087273 F,0,188119,,1
Sprite,Foreground,Centre,"lyrics\pre chorus3\line4.png",320,240 M,0,189619,,320,261.5273 S,0,189619,,0.2087273 F,0,192786,,1
Sprite,Foreground,Centre,"lyrics\pre chorus3\line5.png",320,240 M,0,197119,,320,261.5273 S,0,197119,,0.2087273 F,0,197952,,1
Sprite,Foreground,Centre,"lyrics\pre chorus3\line6.png",320,240 M,0,198786,,320,261.5273 S,0,198786,,0.2087273 F,0,201119,,1
Sprite,Foreground,Centre,"lyrics\chorus1\line1.png",320,240 M,0,201119,,320,261.5273 S,0,201119,,0.2087273 F,0,206286,,1
Sprite,Foreground,Centre,"lyrics\chorus3\line3.png",320,240 M,0,206786,,320,261.5273 S,0,206786,,0.2087273 F,0,210452,,1
Sprite,Foreground,Centre,"lyrics\chorus1\line1.png",320,240 M,0,210453,,320,261.5273 S,0,210453,,0.2087273 F,0,215787,,1
Sprite,Foreground,Centre,"lyrics\chorus3\line6.png",320,240 M,0,215786,,320,261.5273 S,0,215786,,0.2087273 F,0,216952,,1
Sprite,Foreground,Centre,"lyrics\chorus3\line7.png",320,240 M,0,217453,,320,261.5273 S,0,217453,,0.2087273 F,0,219619,,1
Sprite,Foreground,Centre,"lyrics\chorus3\line8.png",320,240 M,0,220119,,320,261.5273 S,0,220119,,0.2087273 F,0,222119,,1
Sprite,Foreground,Centre,"lyrics\chorus3\line9.png",320,240 M,0,222453,,320,261.5273 S,0,222453,,0.2087273 F,0,223619,,1
Sprite,Foreground,Centre,"lyrics\chorus3\line10.png",320,240 M,0,226453,,320,261.5273 S,0,226453,,0.2087273 F,0,227619,,1
//Storyboard Layer 4 (Overlay)
//Storyboard Sound Samples

[TimingPoints]
620,333.333333333333,4,2,1,40,1,0
620,-125,4,2,1,40,0,0
17786,-111.111111111111,4,2,1,50,0,0
19286,-100,4,2,1,70,0,0
29953,-100,4,2,1,40,0,0
30286,-125,4,2,1,40,0,0
40286,-111.111111111111,4,2,1,50,0,0
41870,-111.111111111111,4,2,1,30,0,0
41953,-111.111111111111,4,2,1,50,0,0
47203,-111.111111111111,4,2,1,30,0,0
47286,-111.111111111111,4,2,1,50,0,0
48619,-111.111111111111,4,2,1,60,0,0
51286,-117.647058823529,4,2,1,55,0,0
56619,-111.111111111111,4,2,1,65,0,0
61119,-111.111111111111,4,2,1,35,0,0
61286,-111.111111111111,4,2,1,65,0,0
61786,-111.111111111111,4,2,1,70,0,0
63286,-90.9090909090909,4,2,1,80,0,1
83786,-90.9090909090909,4,2,1,80,0,0
84119,-111.111111111111,4,2,1,50,0,0
84619,-100,4,2,1,70,0,0
95286,-111.111111111111,4,2,1,45,0,0
96536,-111.111111111111,4,2,1,30,0,0
96620,-111.111111111111,4,2,1,45,0,0
102953,-100,4,2,1,50,0,0
105786,-100,4,2,1,50,0,0
105953,-111.111111111111,4,2,1,50,0,0
111286,-111.111111111111,4,2,1,60,0,0
112952,-111.111111111111,4,2,1,5,0,0
113953,-100,4,2,1,60,0,0
116619,-117.647058823529,4,2,1,55,0,0
121953,-100,4,2,1,65,0,0
127119,-100,4,2,1,70,0,0
127953,-100,4,2,1,60,0,0
128119,-100,4,2,1,65,0,0
128286,-100,4,2,1,70,0,0
128452,-100,4,2,1,75,0,0
128619,-90.9090909090909,4,2,1,80,0,1
148785,-90.9090909090909,4,2,1,75,0,1
148953,-90.9090909090909,4,2,1,70,0,1
149119,-90.9090909090909,4,2,1,65,0,1
149286,-90.9090909090909,4,2,1,60,0,1
149452,-90.9090909090909,4,2,1,55,0,1
149619,-90.9090909090909,4,2,1,50,0,1
149785,-90.9090909090909,4,2,1,45,0,1
149953,-90.9090909090909,4,2,1,40,0,0
160619,-117.647058823529,4,2,1,40,0,0
181619,-117.647058823529,4,2,1,20,0,0
181953,-117.647058823529,4,2,1,40,0,0
182952,-117.647058823529,4,2,1,30,0,0
183286,-117.647058823529,4,2,1,40,0,0
184119,-117.647058823529,4,2,1,30,0,0
184286,-117.647058823529,4,2,1,40,0,0
185619,-117.647058823529,4,2,1,30,0,0
185953,-117.647058823529,4,2,1,40,0,0
186953,-117.647058823529,4,2,1,50,0,0
187119,-117.647058823529,4,2,1,30,0,0
187286,-100,4,2,1,65,0,0
194453,-100,4,2,1,35,0,0
194619,-100,4,2,1,65,0,0
195119,-100,4,2,1,70,0,0
196453,-100,4,2,1,75,0,0
197953,-100,4,2,1,80,0,0
198453,-100,4,2,1,30,0,0
198619,-100,4,2,1,70,0,0
200619,-95.2380952380952,4,2,1,80,0,1
203286,-90.9090909090909,4,2,1,80,0,0
203619,-90.9090909090909,4,2,1,80,0,1
231786,-100,4,2,1,80,0,0
232119,-100,4,2,1,50,0,0
232619,-100,4,2,1,70,0,0

[Colours]
Combo1 : 231,40,22
Combo2 : 231,150,146
Combo3 : 85,205,224
Combo4 : 252,212,103

[HitObjects]
73,83,620,6,0,P|123:110|178:77,1,112,2|2,3:2|1:2,0:0:0:0:
237,38,1119,1,0,3:2:0:0:
237,38,1286,2,0,L|349:23,1,112,2|2,0:0|0:0,0:0:0:0:
394,108,1786,2,0,P|391:144|378:168,1,56,2|0,0:0|3:2,0:0:0:0:
289,200,2119,1,2,0:0:0:0:
360,352,2453,6,0,P|324:369|258:314,1,112,2|0,3:2|1:2,0:0:0:0:
226,261,2953,1,2,0:0:0:0:
155,303,3119,1,2,0:0:0:0:
155,303,3286,2,0,L|76:288,2,56,2|2|2,3:2|0:0|1:2,0:0:0:0:
226,261,3786,1,2,3:2:0:0:
195,182,3953,2,0,P|227:168|259:166,2,56,2|2|2,0:0|1:2|2:0,0:0:0:0:
121,223,4453,6,0,P|99:164|103:98,1,112,2|2,0:0|0:0,0:0:0:0:
165,64,4953,1,0,1:2:0:0:
13,136,5286,2,0,P|15:163|19:191,2,56,0|0|0,0:0|1:2|2:0,0:0:0:0:
71,293,5953,6,0,L|50:355,2,56,2|2|2,3:2|0:0|1:2,0:0:0:0:
128,232,6453,1,2,3:2:0:0:
128,232,6619,2,0,P|156:222|192:236,1,56,2|2,0:0|1:2,0:0:0:0:
241,286,6953,2,0,P|268:294|303:275,1,56,2|2,0:0|0:0,0:0:0:0:
341,216,7286,1,2,3:2:0:0:
455,339,7619,2,0,L|486:231,1,112,2|0,1:2|0:0,0:0:0:0:
509,150,8119,1,0,1:2:0:0:
349,195,8453,5,2,0:0:0:0:
349,195,8619,2,0,P|306:179|278:167,2,56,2|2|2,3:2|0:0|1:2,0:0:0:0:
421,151,9119,1,2,3:2:0:0:
476,310,9453,2,0,P|484:352|471:383,2,56,2|0|2,1:2|0:0|0:0,0:0:0:0:
401,282,9953,1,2,3:2:0:0:
401,282,10119,2,0,L|268:311,1,112,2|2,0:0|3:2,0:0:0:0:
148,217,10786,1,2,1:2:0:0:
209,63,11119,5,2,1:2:0:0:
209,63,11286,2,0,L|277:38,2,56,2|2|2,3:2|0:0|1:2,0:0:0:0:
139,108,11786,1,2,3:2:0:0:
139,108,11953,2,0,L|72:93,2,56,2|2|2,0:0|1:2|0:0,0:0:0:0:
194,171,12453,2,0,P|139:164|106:226,1,112,2|2,0:0|0:0,0:0:0:0:
68,281,12953,1,0,1:2:0:0:
68,281,13119,1,2,3:2:0:0:
224,356,13453,5,2,1:2:0:0:
224,356,13619,2,0,P|251:346|283:334,1,56,2|2,0:0|0:0,0:0:0:0:
338,278,13953,2,0,P|354:241|353:210,2,56,2|2|2,3:2|0:0|1:2,0:0:0:0:
265,235,14453,2,0,L|131:269,1,112,2|2,3:2|1:2,0:0:0:0:
82,298,14953,1,2,0:0:0:0:
82,298,15119,2,0,P|105:245|124:177,1,112,2|2,0:0|0:0,0:0:0:0:
182,135,15619,1,2,1:2:0:0:
182,135,15786,2,0,P|230:125|212:59,1,112,0|2,3:2|1:2,0:0:0:0:
152,35,16286,2,0,P|121:44|91:54,1,56,0|2,2:0|0:0,0:0:0:0:
35,107,16619,6,0,P|44:136|54:167,2,56,2|2|2,3:2|0:0|1:2,0:0:0:0:
97,52,17119,1,2,3:2:0:0:
97,52,17286,2,0,P|129:108|189:104,1,112,2|2,0:0|0:0,0:0:0:0:
264,83,17786,1,6,2:0:0:0:
264,83,17953,2,0,L|395:106,1,126,2|4,0:0|2:3,0:0:0:0:
440,190,18453,5,8,2:0:0:0:
440,190,18619,1,0,3:2:0:0:
357,235,18786,2,0,P|327:223|298:212,2,63.0000000000001,2|2|2,2:1|2:1|2:1,0:0:0:0:
321,333,19286,6,0,P|260:311|189:286,1,140,6|10,3:2|2:0,0:0:0:0:
161,189,19786,1,2,2:0:0:0:
161,189,19953,2,0,P|226:212|292:235,1,140,2|10,3:2|2:0,0:0:0:0:
399,216,20453,1,2,3:2:0:0:
399,216,20619,2,0,P|420:176|430:141,2,70,2|2|10,2:0|3:2|2:0,0:0:0:0:
314,153,21119,2,0,P|271:134|222:203,1,140,2|2,2:0|3:2,0:0:0:0:
120,165,21619,5,10,2:0:0:0:
120,165,21786,2,0,P|135:228|143:322,1,140,2|2,2:0|2:0,0:0:0:0:
238,345,22286,1,10,2:0:0:0:
337,311,22453,2,0,P|362:247|337:183,1,140,2|2,2:0|3:2,0:0:0:0:
252,120,22953,2,0,P|284:112|319:96,1,70,10|2,2:0|3:2,0:0:0:0:
419,62,23286,5,2,2:0:0:0:
419,62,23453,2,0,P|446:106|444:136,1,70,2|10,3:2|2:0,0:0:0:0:
484,248,23786,2,0,P|416:251|374:199,1,140,2|2,2:0|2:0,0:0:0:0:
334,106,24286,1,10,2:0:0:0:
334,106,24453,1,2,2:0:0:0:
229,106,24619,6,0,P|176:87|122:70,1,105,6|0,3:2|0:0,0:0:0:0:
87,39,24953,1,10,2:0:0:0:
20,102,25119,1,2,2:0:0:0:
111,154,25286,2,0,P|131:197|74:265,1,140,2|10,3:2|2:0,0:0:0:0:
31,357,25786,5,2,3:2:0:0:
31,357,25953,2,0,P|17:317|1:292,2,70,2|2|10,2:0|3:2|2:0,0:0:0:0:
134,376,26453,2,0,P|198:362|273:345,1,140,2|2,2:0|3:2,0:0:0:0:
336,264,26953,5,10,2:0:0:0:
336,264,27119,2,0,P|315:200|249:191,1,140,2|2,2:0|2:0,0:0:0:0:
155,221,27619,1,10,2:0:0:0:
155,221,27703,1,2,2:0:0:0:
155,220,27786,2,0,P|160:186|164:151,1,70,2|2,2:0|3:2,0:0:0:0:
241,79,28119,1,2,3:2:0:0:
241,79,28203,1,2,2:0:0:0:
241,79,28286,1,10,2:0:0:0:
339,116,28453,6,0,P|410:118|442:47,1,140,6|2,3:2|3:2,0:0:0:0:
497,158,28953,2,0,P|472:193|453:223,1,70,10|2,2:0|2:0,0:0:0:0:
421,314,29286,1,0,3:2:0:0:
334,274,29453,1,8,2:0:0:0:
334,274,29536,1,8,2:0:0:0:
334,274,29619,2,0,P|295:315|246:307,1,105,0|0,3:2|0:0,0:0:0:0:
216,279,29953,1,2,3:2:0:0:
381,99,40119,5,2,3:2:0:0:
381,99,40286,2,0,P|325:74|281:62,1,94.5000000000001,8|0,2:0|0:0,0:0:0:0:
250,83,40619,6,0,L|272:150,2,63.0000000000001,6|2|10,3:2|2:0|2:0,0:0:0:0:
194,13,41119,1,2,3:2:0:0:
194,13,41286,2,0,P|165:39|138:47,1,63.0000000000001,2|2,2:0|2:0,0:0:0:0:
62,31,41619,1,10,2:0:0:0:
62,31,41786,1,2,2:0:0:0:
86,127,41953,5,2,3:2:0:0:
86,127,42119,2,0,P|51:175|17:234,2,126,2|2|2,2:0|3:2|2:0,0:0:0:0:
152,58,42953,2,0,P|187:68|211:88,1,63.0000000000001,10|2,2:0|2:0,0:0:0:0:
293,123,43286,6,0,P|328:110|362:101,2,63.0000000000001,2|2|10,3:2|2:0|2:0,0:0:0:0:
226,189,43786,1,2,3:2:0:0:
226,189,43953,2,0,P|261:221|264:295,1,126,2|10,2:0|2:0,0:0:0:0:
188,353,44453,6,0,P|158:343|128:333,1,63.0000000000001,2|0,2:0|3:2,0:0:0:0:
52,275,44786,2,0,P|81:265|111:255,1,63.0000000000001,2|8,2:0|2:0,0:0:0:0:
170,180,45119,2,0,P|186:123|145:79,1,126,0|0,3:2|0:0,0:0:0:0:
61,43,45619,1,8,2:0:0:0:
61,43,45786,1,2,2:0:0:0:
4,119,45953,6,0,P|49:137|71:149,1,63.0000000000001,2|2,3:2|2:0,0:0:0:0:
149,190,46286,1,10,2:0:0:0:
149,190,46453,2,0,P|200:176|231:165,2,63.0000000000001,0|2|2,3:2|2:0|2:0,0:0:0:0:
84,258,46953,2,0,P|105:293|109:323,1,63.0000000000001,10|2,2:0|2:0,0:0:0:0:
193,357,47286,6,0,P|210:310|292:293,1,126,2|10,3:2|2:0,0:0:0:0:
368,329,47786,1,2,3:2:0:0:
368,329,47953,2,0,L|435:313,2,63.0000000000001,2|2|10,2:0|2:0|2:0,0:0:0:0:
249,182,48619,6,0,P|255:146|345:134,1,126,6|8,3:2|2:0,0:0:0:0:
423,161,49119,1,2,3:2:0:0:
423,161,49286,2,0,P|409:125|392:36,1,126,2|8,3:2|2:0,0:0:0:0:
301,11,49786,2,0,P|262:49|181:60,1,126,2|2,3:2|3:2,0:0:0:0:
112,24,50286,1,14,2:0:0:0:
112,24,50453,1,8,2:0:0:0:
52,96,50619,2,0,P|72:124|88:161,1,63.0000000000001,8|8,2:3|2:3,0:0:0:0:
146,221,50953,6,0,P|159:192|178:167,1,63.0000000000001,4|4,2:3|2:3,0:0:0:0:
259,130,51286,2,0,L|377:167,1,119,6|0,3:2|0:0,0:0:0:0:
442,229,51786,1,2,3:2:0:0:
442,229,51953,2,0,L|324:266,1,119,0|10,0:0|2:0,0:0:0:0:
259,320,52453,1,10,2:0:0:0:
259,320,52619,2,0,P|216:299|200:297,2,59.5000000000002,2|0|2,3:2|0:0|2:0,0:0:0:0:
330,360,53119,1,0,3:2:0:0:
125,312,53453,6,0,P|129:267|140:247,1,59.5000000000002,10|2,2:0|3:2,0:0:0:0:
180,179,53786,1,10,2:0:0:0:
180,179,53953,2,0,P|127:207|76:169,1,119,2|2,3:2|2:0,0:0:0:0:
16,116,54453,1,2,3:2:0:0:
164,54,54786,6,0,P|186:87|206:98,1,59.5000000000002,2|8,2:0|2:0,0:0:0:0:
286,126,55119,2,0,L|351:109,2,59.5000000000002,10|2|10,2:0|3:2|2:0,0:0:0:0:
224,190,55619,1,2,2:0:0:0:
224,190,55786,1,2,3:2:0:0:
280,259,55953,2,0,P|336:270|379:232,1,119,2|10,2:0|2:0,0:0:0:0:
439,165,56453,1,10,2:0:0:0:
507,229,56619,6,0,P|482:278|448:352,1,126,6|8,3:2|2:0,0:0:0:0:
361,349,57119,1,2,2:0:0:0:
361,349,57286,2,0,P|386:300|423:214,1,126,2|10,3:2|2:0,0:0:0:0:
352,171,57786,1,0,0:0:0:0:
352,171,57953,2,0,P|324:185|292:186,1,63.0000000000001,2|0,3:2|3:2,0:0:0:0:
213,134,58286,6,0,P|154:135|144:193,1,126,10|0,2:0|3:2,0:0:0:0:
199,267,58786,1,10,2:0:0:0:
107,291,58953,1,10,2:0:0:0:
52,221,59119,1,6,3:2:0:0:
52,221,59286,2,0,P|38:179|18:157,2,63.0000000000001,2|2|10,2:0|3:2|2:0,0:0:0:0:
107,291,59786,2,0,P|142:340|225:335,1,126,2|2,2:0|3:2,0:0:0:0:
279,289,60286,5,10,2:0:0:0:
279,289,60453,2,0,P|339:305|401:328,1,126,2|0,2:0|3:2,0:0:0:0:
481,281,60953,2,0,P|500:245|500:216,2,63.0000000000001,14|8|8,2:0|2:0|2:0,0:0:0:0:
405,223,61453,1,4,2:3:0:0:
480,49,61786,6,0,P|436:68|357:77,1,126,6|2,3:2|3:2,0:0:0:0:
283,20,62286,1,10,2:0:0:0:
194,53,62453,1,2,3:2:0:0:
233,138,62619,1,10,2:0:0:0:
49,336,63286,6,0,B|19:296|19:296|36:186,1,154,6|8,3:2|2:0,0:0:0:0:
122,117,63786,1,2,2:0:0:0:
122,117,63953,2,0,P|163:118|192:139,1,77,2|0,3:2|3:2,0:0:0:0:
303,167,64286,2,0,P|291:206|263:228,1,77,10|0,2:0|0:0,0:0:0:0:
195,321,64619,6,0,B|234:348|234:348|339:336,1,154,2|8,3:2|2:0,0:0:0:0:
423,256,65119,1,2,3:2:0:0:
423,256,65286,2,0,P|422:215|401:186,1,77,2|0,2:0|3:2,0:0:0:0:
366,76,65619,2,0,P|326:87|304:115,1,77,10|0,2:0|0:0,0:0:0:0:
290,229,65953,6,0,B|251:256|251:256|146:244,1,154,2|8,3:2|2:0,0:0:0:0:
48,190,66453,1,2,2:0:0:0:
48,190,66619,2,0,P|49:149|70:120,1,77,2|0,3:2|3:2,0:0:0:0:
104,10,66953,2,0,P|143:21|165:49,1,77,10|0,2:0|0:0,0:0:0:0:
240,136,67286,6,0,B|279:109|279:109|384:121,1,154,2|8,3:2|2:0,0:0:0:0:
488,183,67786,1,2,3:2:0:0:
488,183,67953,2,0,P|487:224|466:253,1,77,2|0,2:0|3:2,0:0:0:0:
425,360,68286,2,0,P|385:348|363:320,1,77,10|0,2:0|0:0,0:0:0:0:
266,258,68619,6,0,P|195:245|154:309,1,154,6|10,3:2|2:0,0:0:0:0:
47,350,69119,2,0,P|68:277|67:200,1,154,2|2,2:0|3:2,0:0:0:0:
16,95,69619,1,10,2:0:0:0:
107,24,69786,1,2,2:0:0:0:
214,67,69953,2,0,P|257:48|295:45,2,77,2|2|10,3:2|2:0|2:0,0:0:0:0:
168,173,70453,6,0,P|204:216|235:316,1,154,2|2,3:2|3:2,0:0:0:0:
130,359,70953,1,10,2:0:0:0:
130,359,71119,1,2,2:0:0:0:
44,280,71286,2,0,P|56:236|71:200,1,77,6|10,3:2|2:0,0:0:0:0:
156,132,71619,1,10,2:0:0:0:
156,132,71786,2,0,P|203:120|218:209,1,154,6|2,3:2|3:2,0:0:0:0:
296,293,72286,5,10,2:0:0:0:
296,293,72453,2,0,L|453:263,1,154,6|0,3:2|3:2,0:0:0:0:
506,164,72953,1,14,2:0:0:0:
437,71,73119,2,0,P|388:96|357:94,1,77,2|6,2:0|3:2,0:0:0:0:
265,39,73453,1,8,2:0:0:0:
265,39,73536,1,8,2:0:0:0:
265,39,73619,2,0,L|223:54,3,38.5,10|8|8|8,2:0|2:0|2:0|2:0,0:0:0:0:
174,75,73953,6,0,P|227:126|214:199,1,154,6|8,3:2|2:0,0:0:0:0:
121,269,74453,1,2,2:0:0:0:
121,269,74619,2,0,P|160:271|194:288,1,77.0000023498536,2|0,3:2|3:2,0:0:0:0:
294,348,74953,2,0,P|332:346|366:329,1,77.0000023498536,10|0,2:0|0:0,0:0:0:0:
426,230,75286,6,0,P|375:177|302:190,1,154,2|8,3:2|2:0,0:0:0:0:
231,282,75786,1,2,3:2:0:0:
231,282,75952,2,0,P|229:243|212:209,1,77.0000023498536,2|0,2:0|3:2,0:0:0:0:
153,110,76286,2,0,P|154:71|171:37,1,77.0000023498536,10|0,2:0|0:0,0:0:0:0:
285,17,76619,6,0,P|338:68|325:141,1,154,2|8,3:2|2:0,0:0:0:0:
260,238,77119,1,2,2:0:0:0:
260,238,77286,2,0,P|221:236|187:219,1,77.0000023498536,2|0,3:2|3:2,0:0:0:0:
88,160,77619,2,0,P|49:161|15:178,1,77.0000023498536,10|0,2:0|0:0,0:0:0:0:
67,282,77953,6,0,P|118:335|191:322,1,154,2|8,3:2|2:0,0:0:0:0:
288,257,78453,1,2,3:2:0:0:
288,257,78619,2,0,P|286:218|269:184,1,77.0000023498536,2|0,2:0|3:2,0:0:0:0:
196,94,78953,2,0,P|197:55|214:21,1,77.0000023498536,10|0,2:0|0:0,0:0:0:0:
328,2,79286,6,0,P|376:10|342:89,1,154,6|10,3:2|2:0,0:0:0:0:
260,159,79786,2,0,L|296:325,1,154.000004699707,2|0,2:0|3:2,0:0:0:0:
399,352,80286,1,10,2:0:0:0:
442,247,80453,1,2,2:0:0:0:
442,247,80619,2,0,P|481:269|525:276,2,77,2|2|10,3:2|2:0|2:0,0:0:0:0:
352,173,81119,2,0,L|186:213,1,154,2|2,3:2|3:2,0:0:0:0:
100,264,81619,1,10,2:0:0:0:
38,166,81786,1,2,2:0:0:0:
139,109,81953,6,0,P|163:63|264:51,1,154,2|10,3:2|2:0,0:0:0:0:
354,118,82453,1,0,0:0:0:0:
354,118,82619,2,0,P|333:165|294:264,1,154,2|10,3:2|2:0,0:0:0:0:
192,312,83119,1,6,3:2:0:0:
113,227,83286,1,2,2:0:0:0:
176,130,83453,1,2,3:2:0:0:
291,162,83619,1,10,2:0:0:0:
291,162,83786,1,2,3:2:0:0:
415,303,84119,6,0,P|397:334|388:363,2,63.0000000000001,2|2|2,2:1|2:1|2:1,0:0:0:0:
342,226,84619,2,0,P|282:204|207:178,1,140,6|10,3:2|2:0,0:0:0:0:
126,241,85119,1,2,2:0:0:0:
126,241,85286,2,0,P|185:261|262:291,1,140,2|10,3:2|2:0,0:0:0:0:
344,348,85786,1,2,3:2:0:0:
368,245,85953,6,0,P|370:199|351:175,2,70,2|2|10,2:0|3:2|2:0,0:0:0:0:
274,197,86453,2,0,P|277:141|348:91,1,140,2|2,2:0|3:2,0:0:0:0:
438,51,86953,1,10,2:0:0:0:
438,51,87119,2,0,P|421:119|402:201,1,140,2|2,2:0|2:0,0:0:0:0:
479,268,87619,5,10,2:0:0:0:
479,268,87786,2,0,P|496:200|515:118,1,140,2|2,2:0|3:2,0:0:0:0:
438,51,88286,2,0,P|397:70|368:66,1,70,10|2,2:0|3:2,0:0:0:0:
278,33,88619,1,2,2:0:0:0:
278,33,88786,2,0,P|243:32|213:49,1,70,2|10,3:2|2:0,0:0:0:0:
111,74,89119,6,0,P|101:137|163:152,1,140,2|2,2:0|2:0,0:0:0:0:
256,199,89619,2,0,P|286:237|293:275,1,70,10|2,2:0|2:0,0:0:0:0:
213,328,89953,2,0,P|146:345|98:360,1,105,6|0,3:2|0:0,0:0:0:0:
58,356,90286,1,10,2:0:0:0:
96,266,90453,5,2,2:0:0:0:
96,266,90619,2,0,P|161:242|229:224,1,140,2|10,3:2|2:0,0:0:0:0:
326,265,91119,1,2,3:2:0:0:
424,229,91286,2,0,P|436:194|426:162,2,70,2|2|10,2:0|3:2|2:0,0:0:0:0:
326,265,91786,6,0,P|268:246|268:164,1,140,2|2,2:0|3:2,0:0:0:0:
325,92,92286,1,10,2:0:0:0:
259,9,92453,2,0,P|192:29|124:49,1,140,2|2,2:0|2:0,0:0:0:0:
28,39,92953,5,10,2:0:0:0:
28,39,93036,1,2,2:0:0:0:
28,39,93119,2,0,P|46:70|50:104,1,70,2|2,2:0|3:2,0:0:0:0:
12,206,93453,1,2,3:2:0:0:
12,206,93536,1,2,2:0:0:0:
12,206,93619,1,10,2:0:0:0:
109,246,93786,6,0,P|175:224|244:211,1,140,6|2,3:2|3:2,0:0:0:0:
323,268,94286,2,0,P|335:216|351:194,1,70,14|2,2:0|2:0,0:0:0:0:
396,111,94619,1,0,3:2:0:0:
294,121,94786,1,8,2:0:0:0:
294,121,94869,1,8,2:0:0:0:
294,121,94953,2,0,P|243:97|216:93,1,70,8|4,3:2|2:3,0:0:0:0:
137,122,95286,6,0,P|152:166|176:261,1,125.999996154785,6|10,3:2|2:0,0:0:0:0:
107,311,95786,1,0,3:2:0:0:
107,311,95953,2,0,P|160:344|232:324,1,125.999996154785,2|10,2:0|2:0,0:0:0:0:
293,272,96453,1,2,2:0:0:0:
293,272,96536,1,8,2:0:0:0:
293,272,96619,1,0,3:2:0:0:
230,200,96786,6,0,L|154:216,1,62.9999980773926,2|8,2:0|2:0,0:0:0:0:
80,177,97119,1,2,3:2:0:0:
235,69,97453,2,0,P|211:36|207:12,2,62.9999980773926,2|10|2,2:0|2:0|2:0,0:0:0:0:
310,126,97953,2,0,L|380:113,2,62.9999980773926,2|0|10,3:2|0:0|2:0,0:0:0:0:
230,177,98453,5,2,3:2:0:0:
230,177,98619,2,0,P|242:228|304:268,1,125.999996154785,2|10,2:0|2:0,0:0:0:0:
377,322,99119,1,2,2:0:0:0:
377,322,99286,2,0,P|398:268|428:186,1,125.999996154785,2|8,3:2|2:0,0:0:0:0:
354,136,99786,2,0,P|333:190|303:272,1,125.999996154785,2|0,3:2|0:0,0:0:0:0:
224,294,100286,1,10,2:0:0:0:
155,245,100453,5,2,2:0:0:0:
155,245,100536,1,2,0:0:0:0:
155,245,100619,2,0,P|120:271|56:228,1,125.999996154785,2|10,3:2|2:0,0:0:0:0:
73,142,101119,1,2,3:2:0:0:
73,142,101286,2,0,P|26:156|8:154,2,62.9999980773926,2|2|10,2:0|2:0|2:0,0:0:0:0:
151,89,101786,6,0,L|225:105,1,62.9999980773926,2|0,2:0|3:2,0:0:0:0:
274,181,102119,1,2,2:0:0:0:
274,181,102286,2,0,L|200:197,1,62.9999980773926,10|2,2:0|3:2,0:0:0:0:
133,246,102619,2,0,P|132:306|162:347,1,94.499997116089,2|0,2:0|0:0,0:0:0:0:
193,349,102953,5,10,2:0:0:0:
290,311,103119,1,2,3:2:0:0:
290,311,103286,2,0,B|316:338|316:338|361:334,2,70,10|2|2,2:0|3:2|3:2,0:0:0:0:
244,216,103786,1,10,2:0:0:0:
244,216,103953,2,0,P|268:178|280:150,1,70,2|2,3:2|3:2,0:0:0:0:
239,57,104286,5,10,2:0:0:0:
239,57,104453,2,0,L|312:45,1,70,2|0,2:0|3:2,0:0:0:0:
410,23,104786,1,2,3:2:0:0:
410,23,104869,1,2,0:0:0:0:
410,23,104953,2,0,L|399:63,3,35,14|2|2|2,2:0|2:0|2:0|2:0,0:0:0:0:
359,89,105286,2,0,L|368:122,3,35,8|4|4|4,2:0|2:3|2:3|2:3,0:0:0:0:
397,166,105619,1,4,2:3:0:0:
496,132,105786,5,4,2:3:0:0:
496,132,105953,2,0,P|480:185|498:258,1,126,6|10,3:2|2:0,0:0:0:0:
442,332,106453,1,2,3:2:0:0:
442,332,106619,2,0,L|375:314,1,63.0000000000001,2|2,2:0|2:0,0:0:0:0:
307,255,106953,2,0,L|240:273,1,63.0000000000001,10|2,2:0|2:0,0:0:0:0:
170,328,107286,6,0,P|132:335|114:360,2,63.0000000000001,2|2|10,3:2|2:0|2:0,0:0:0:0:
246,271,107786,2,0,P|233:226|210:141,1,126,2|2,3:2|2:0,0:0:0:0:
181,65,108286,1,10,2:0:0:0:
181,65,108453,1,2,2:0:0:0:
86,64,108619,2,0,P|49:52|29:28,2,63.0000000000001,2|2|10,3:2|2:0|2:0,0:0:0:0:
190,217,109286,5,2,2:0:0:0:
190,217,109453,2,0,P|216:198|247:197,1,63.0000000000001,2|10,2:0|2:0,0:0:0:0:
333,233,109786,2,0,P|393:221|419:166,1,126,2|2,2:0|2:0,0:0:0:0:
460,80,110286,1,10,2:0:0:0:
460,80,110453,2,0,P|430:68|401:56,1,63.0000000000001,0|2,3:2|2:0,0:0:0:0:
322,14,110786,1,0,3:2:0:0:
322,14,110953,2,0,P|292:25|263:37,1,63.0000000000001,10|2,2:0|2:0,0:0:0:0:
168,22,111286,6,0,P|212:69|210:139,1,126,6|2,3:2|2:0,0:0:0:0:
146,194,111786,1,2,3:2:0:0:
146,194,111953,2,0,P|170:238|203:309,1,126,10|2,2:0|2:0,0:0:0:0:
286,348,112453,1,10,2:0:0:0:
286,348,112619,2,0,P|316:331|350:329,2,63.0000000000001,2|0|0,3:2|0:0|2:0,2:0:0:0:
75,149,113953,6,0,P|44:176|14:185,2,70,6|8|8,3:2|2:0|2:0,0:0:0:0:
137,64,114453,1,6,3:2:0:0:
137,64,114619,2,0,P|182:72|212:79,1,70,8|10,2:0|2:0,0:0:0:0:
304,40,114953,6,0,P|318:80|281:169,1,140,6|0,3:2|0:0,0:0:0:0:
192,219,115453,2,0,P|202:259|209:294,1,70,8|0,2:0|3:2,0:0:0:0:
293,348,115786,1,8,2:0:0:0:
293,348,115869,1,8,2:0:0:0:
293,348,115953,1,8,2:0:0:0:
384,298,116119,1,8,2:3:0:0:
347,199,116286,2,0,P|397:191|419:195,1,70,2|2,3:2|2:0,0:0:0:0:
496,231,116619,6,0,P|469:178|496:123,1,119,6|0,3:2|0:0,0:0:0:0:
440,53,117119,1,2,3:2:0:0:
440,53,117286,2,0,P|379:76|319:96,1,119,0|10,0:0|2:0,0:0:0:0:
247,67,117786,1,10,2:0:0:0:
247,67,117953,2,0,P|217:37|212:21,2,59.5000000000002,2|10|2,3:2|2:0|2:0,0:0:0:0:
322,114,118453,1,0,3:2:0:0:
302,291,118786,6,0,P|267:311|239:320,1,59.5000000000002,10|2,2:0|3:2,0:0:0:0:
182,266,119119,1,10,2:0:0:0:
182,266,119286,2,0,P|129:272|115:340,1,119,2|2,3:2|2:0,0:0:0:0:
186,374,119786,1,2,3:2:0:0:
331,268,120119,1,2,2:0:0:0:
331,268,120286,2,0,P|341:241|337:212,1,59.5000000000002,8|10,2:0|2:0,0:0:0:0:
296,131,120619,6,0,P|292:101|302:74,2,59.5000000000002,2|10|2,3:2|2:0|2:0,0:0:0:0:
216,172,121119,1,10,2:0:0:0:
216,172,121286,2,0,L|156:156,1,59.5000000000002,2|0,2:0|3:2,0:0:0:0:
108,82,121619,2,0,L|48:98,1,59.5000000000002,10|10,2:0|2:0,0:0:0:0:
7,194,121953,6,0,P|50:201|66:291,1,140,6|8,3:2|2:0,0:0:0:0:
9,370,122453,1,2,2:0:0:0:
9,370,122619,2,0,L|152:328,1,140,2|10,3:2|2:0,0:0:0:0:
252,332,123119,5,2,2:0:0:0:
252,332,123286,2,0,P|241:293|248:265,1,70,2|2,3:2|3:2,0:0:0:0:
321,189,123619,2,0,P|299:128|234:133,1,140,10|0,2:0|3:2,0:0:0:0:
141,183,124119,1,10,2:0:0:0:
45,139,124286,1,10,2:0:0:0:
70,36,124453,1,6,3:2:0:0:
174,27,124619,6,0,P|224:37|326:36,1,140,2|10,2:0|2:0,0:0:0:0:
418,76,125119,2,0,P|432:108|426:143,1,70,2|0,2:0|3:2,0:0:0:0:
347,213,125453,1,2,3:2:0:0:
347,213,125619,1,8,2:0:0:0:
419,289,125786,6,0,P|379:327|293:314,1,140,2|0,2:0|3:2,0:0:0:0:
216,254,126286,2,0,P|159:252|128:330,1,140,14|0,2:0|3:2,0:0:0:0:
38,378,126786,1,8,2:0:0:0:
20,167,127119,6,0,P|42:101|76:40,1,140,6|2,3:2|3:2,0:0:0:0:
180,24,127619,1,10,2:0:0:0:
233,114,127786,1,2,3:2:0:0:
162,192,127953,1,10,2:0:0:0:
162,192,128036,1,8,2:0:0:0:
162,192,128119,2,0,L|171:232,1,35,8|8,2:0|2:0,0:0:0:0:
201,268,128286,2,0,L|192:308,3,35,10|8|8|8,2:0|2:0|2:0|2:0,0:0:0:0:
161,349,128619,6,0,P|224:311|293:337,1,154,6|8,3:2|2:0,0:0:0:0:
392,275,129119,1,2,2:0:0:0:
392,275,129286,2,0,P|400:237|407:199,1,77,2|0,3:2|3:2,0:0:0:0:
330,113,129619,2,0,P|321:150|314:188,1,77,10|0,2:0|0:0,0:0:0:0:
254,288,129953,6,0,P|190:249|121:275,1,154,2|8,3:2|2:0,0:0:0:0:
23,213,130453,1,2,3:2:0:0:
23,213,130619,2,0,P|14:175|7:137,1,77,2|0,2:0|3:2,0:0:0:0:
85,51,130953,2,0,P|93:88|100:126,1,77,10|0,2:0|0:0,0:0:0:0:
215,138,131286,6,0,P|278:176|347:150,1,154,2|8,3:2|2:0,0:0:0:0:
446,213,131786,1,2,2:0:0:0:
446,213,131953,2,0,P|454:250|461:288,1,77,2|0,3:2|3:2,0:0:0:0:
384,375,132286,2,0,P|375:337|368:299,1,77,10|0,2:0|0:0,0:0:0:0:
267,243,132619,6,0,P|203:204|134:230,1,154,2|8,3:2|2:0,0:0:0:0:
36,168,133119,1,2,3:2:0:0:
36,168,133286,2,0,P|27:130|20:92,1,77,2|0,2:0|3:2,0:0:0:0:
98,7,133619,2,0,P|106:44|113:82,1,77,10|0,2:0|0:0,0:0:0:0:
226,111,133953,6,0,P|257:69|362:99,1,154,6|10,3:2|2:0,0:0:0:0:
462,57,134453,2,0,B|431:107|431:107|445:202,1,154,2|2,2:0|3:2,0:0:0:0:
504,300,134953,1,10,2:0:0:0:
411,368,135119,1,2,2:0:0:0:
310,311,135286,2,0,P|310:268|332:230,1,77,2|2,3:2|2:0,0:0:0:0:
392,143,135619,5,10,2:0:0:0:
392,143,135786,2,0,P|347:183|254:179,1,154,2|2,3:2|3:2,0:0:0:0:
173,100,136286,1,10,2:0:0:0:
173,100,136453,1,2,2:0:0:0:
87,176,136619,2,0,P|110:219|123:259,2,77,6|10|10,3:2|2:0|2:0,0:0:0:0:
9,89,137119,6,0,P|71:89|102:8,1,154,6|2,3:2|3:2,0:0:0:0:
222,25,137619,1,10,2:0:0:0:
222,25,137786,2,0,P|294:50|366:79,1,154,6|0,3:2|3:2,0:0:0:0:
476,44,138286,5,10,2:0:0:0:
476,44,138453,2,0,P|482:90|472:121,1,77,2|2,2:0|3:2,0:0:0:0:
383,191,138786,1,8,2:0:0:0:
383,191,138869,1,8,2:0:0:0:
383,191,138953,2,0,L|341:180,3,38.5,10|8|8|8,2:0|2:0|2:0|2:0,0:0:0:0:
296,151,139286,6,0,P|238:195|160:185,1,154,6|8,3:2|2:0,0:0:0:0:
76,106,139786,1,2,2:0:0:0:
76,106,139953,2,0,L|68:191,1,77,2|0,3:2|3:2,0:0:0:0:
161,251,140286,2,0,L|153:166,1,77,10|0,2:0|0:0,0:0:0:0:
244,102,140619,6,0,P|302:58|380:68,1,154,2|8,3:2|2:0,0:0:0:0:
464,147,141119,1,2,3:2:0:0:
464,147,141286,2,0,L|472:62,1,77,2|0,2:0|3:2,0:0:0:0:
379,2,141619,2,0,L|387:87,1,77,10|0,2:0|0:0,0:0:0:0:
379,194,141953,6,0,P|321:150|243:160,1,154,2|8,3:2|2:0,0:0:0:0:
159,239,142453,1,2,2:0:0:0:
159,239,142619,2,0,L|151:154,1,77,2|0,3:2|3:2,0:0:0:0:
244,94,142953,2,0,L|236:179,1,77,10|0,2:0|0:0,0:0:0:0:
273,280,143286,6,0,P|331:324|409:314,1,154,2|8,3:2|2:0,0:0:0:0:
493,235,143786,1,2,3:2:0:0:
493,235,143953,2,0,L|501:320,1,77,2|0,2:0|3:2,0:0:0:0:
407,380,144286,2,0,L|415:295,1,77,10|0,2:0|0:0,0:0:0:0:
377,193,144619,6,0,P|327:169|298:248,1,154,6|10,3:2|2:0,0:0:0:0:
212,325,145119,2,0,P|211:286|201:249,1,77,2|2,2:0|3:2,0:0:0:0:
138,152,145453,1,0,3:2:0:0:
25,177,145619,1,10,2:0:0:0:
30,296,145786,1,2,2:0:0:0:
30,296,145953,2,0,P|45:344|33:382,2,77,2|2|10,3:2|2:0|2:0,0:0:0:0:
131,240,146453,6,0,P|189:258|277:295,1,154,2|2,3:2|3:2,0:0:0:0:
381,338,146953,1,10,2:0:0:0:
381,338,147119,1,2,2:0:0:0:
461,254,147286,6,0,P|461:207|370:178,1,154,2|10,3:2|2:0,0:0:0:0:
264,218,147786,1,2,0:0:0:0:
264,218,147953,2,0,P|208:200|174:189,2,77,2|2|10,3:2|3:2|2:0,0:0:0:0:
321,119,148453,5,6,3:2:0:0:
321,119,148619,2,0,P|300:72|272:52,1,77,2|8,2:0|2:0,0:0:0:0:
166,77,148953,1,8,2:3:0:0:
62,39,149119,1,8,2:3:0:0:
62,39,149203,1,8,0:3:0:0:
61,38,149286,2,0,P|72:75|80:113,1,77,8|4,2:3|2:3,0:0:0:0:
172,183,149619,2,0,P|179:145|190:108,1,77,4|4,2:3|2:3,0:0:0:0:
257,66,149953,1,6,3:2:0:0:
408,237,160619,6,0,P|439:288|455:345,2,119,6|2|10,3:2|2:0|2:0,0:0:0:0:
246,160,161619,5,2,3:2:0:0:
161,189,161786,1,8,2:0:0:0:
161,189,161869,1,8,2:0:0:0:
161,189,161953,2,0,P|132:185|104:175,2,59.5000000000002,2|8|2,3:2|2:0|3:2,0:0:0:0:
230,255,162453,1,0,0:0:0:0:
230,255,162619,2,0,P|210:284|194:365,1,119,10|2,2:0|3:2,0:0:0:0:
115,334,163119,5,8,2:0:0:0:
115,334,163203,1,8,2:0:0:0:
115,333,163286,2,0,P|61:345|46:293,1,119,2|2,3:2|3:2,0:0:0:0:
98,223,163786,1,0,0:0:0:0:
98,223,163953,2,0,P|97:163|81:106,1,119,10|2,2:0|3:2,0:0:0:0:
136,36,164453,5,8,2:0:0:0:
136,36,164536,1,8,2:0:0:0:
136,36,164619,2,0,P|170:40|198:33,1,59.5000000000002,2|8,3:2|2:0,0:0:0:0:
281,14,164953,2,0,L|262:88,1,59.5000000000002,2|0,3:2|0:0,0:0:0:0:
205,136,165286,2,0,L|224:210,1,59.5000000000002,10|0,2:0|0:0,0:0:0:0:
287,252,165619,2,0,L|324:242,3,29.7500000000001,10|8|8|8,2:0|2:0|2:0|2:0,0:0:0:0:
359,255,165953,6,0,P|343:212|379:146,1,119,2|2,3:2|3:2,0:0:0:0:
453,109,166453,1,0,0:0:0:0:
453,109,166619,2,0,P|487:102|517:98,2,59.5000000000002,10|0|2,2:0|0:0|3:2,0:0:0:0:
379,58,167119,1,8,2:0:0:0:
379,58,167286,2,0,P|351:47|322:38,2,59.5000000000002,2|8|2,3:2|2:0|3:2,0:0:0:0:
373,149,167786,1,0,0:0:0:0:
373,149,167953,2,0,P|341:171|260:160,1,119,10|2,2:0|3:2,0:0:0:0:
206,95,168453,5,2,2:0:0:0:
206,95,168619,2,0,P|167:85|144:93,1,59.5000000000002,2|8,3:2|0:0,0:0:0:0:
80,148,168953,2,0,P|108:190|139:259,1,119,2|14,3:2|2:0,0:0:0:0:
201,312,169453,1,0,0:0:0:0:
201,312,169619,2,0,P|226:297|255:295,1,59.5000000000002,0|8,3:2|2:0,0:0:0:0:
330,344,169953,6,0,P|359:341|384:326,1,59.5000000000002,0|0,3:2|3:2,0:0:0:0:
450,265,170286,2,0,P|433:227|410:142,1,119,12|8,2:0|2:3,0:0:0:0:
438,67,170786,1,8,2:3:0:0:
438,67,170953,1,4,2:3:0:0:
356,30,171119,5,4,2:3:0:0:
356,30,171286,2,0,P|297:41|240:58,1,119,6|0,3:2|0:0,0:0:0:0:
188,130,171786,2,0,P|247:141|304:158,1,119,2|0,3:2|0:0,0:0:0:0:
370,216,172286,6,0,P|381:266|374:284,1,59.5000011348725,2|2,1:2|1:2,0:0:0:0:
285,302,172619,2,0,P|292:338|306:364,2,59.5000000000002,2|2|2,3:2|0:0|0:0,0:0:0:0:
222,237,173119,1,0,3:2:0:0:
85,351,173453,1,0,0:0:0:0:
85,351,173619,2,0,L|17:331,1,59.5000011348725,4|0,3:0|0:0,0:0:0:0:
12,244,173953,5,2,3:2:0:0:
12,244,174119,2,0,P|36:228|53:204,1,59.5000011348725,2|2,0:0|0:0,0:0:0:0:
68,115,174453,2,0,B|107:138|107:138|179:124,1,119.000002269745,2|2,3:2|0:0,0:0:0:0:
250,69,174953,1,0,1:2:0:0:
250,69,175119,2,0,P|297:76|323:142,1,119,2|0,1:2|0:0,0:0:0:0:
473,234,175786,2,0,L|443:360,1,119.000002269745,2|2,3:2|2:0,0:0:0:0:
362,373,176286,1,8,3:0:0:0:
362,373,176453,1,0,0:0:0:0:
282,332,176619,6,0,P|236:327|225:256,1,119,2|0,3:2|0:0,0:0:0:0:
260,184,177119,1,2,3:2:0:0:
103,108,177453,1,0,0:0:0:0:
103,108,177619,2,0,P|126:73|136:43,1,59.5000011348725,2|2,1:2|1:2,0:0:0:0:
204,3,177953,2,0,L|272:22,2,59.5000011348725,0|2|2,3:2|0:0|0:0,0:0:0:0:
132,56,178453,1,2,3:2:0:0:
169,230,178786,6,0,P|158:258|144:284,2,59.5000000000002,2|4|2,0:0|3:0|0:0,0:0:0:0:
111,161,179286,2,0,L|53:187,2,59.5000000000002,2|2|2,3:2|0:0|0:0,0:0:0:0:
133,74,179786,1,2,3:2:0:0:
273,183,180119,2,0,P|311:166|332:166,1,59.5000011348725,2|0,0:0|1:2,0:0:0:0:
408,206,180453,2,0,L|380:323,1,119.000002269745,2|0,1:2|0:0,0:0:0:0:
292,340,180953,1,0,0:0:0:0:
210,305,181119,2,0,L|175:315,2,29.7500005674362,2|2|2,3:2|2:0|2:0,0:0:0:0:
310,162,181619,6,0,P|297:136|291:107,1,59.5000000000002,10|10,2:0|2:0,0:0:0:0:
210,65,181953,2,0,P|153:62|123:110,1,119,6|0,3:2|0:0,0:0:0:0:
133,202,182453,1,2,3:2:0:0:
133,202,182619,2,0,P|115:258|98:315,1,119,0|10,0:0|2:0,0:0:0:0:
12,326,183119,1,10,2:0:0:0:
12,326,183286,2,0,P|20:297|29:269,1,59.5000000000002,2|2,3:2|0:0,0:0:0:0:
15,180,183619,6,0,P|42:232|98:242,1,119,2|0,0:0|0:0,0:0:0:0:
190,238,184119,1,10,2:0:0:0:
190,238,184286,2,0,P|219:243|242:261,1,59.5000000000002,4|2,3:0|0:0,0:0:0:0:
302,327,184619,2,0,P|279:366|261:377,2,59.5000000000002,2|2|2,3:2|0:0|0:0,0:0:0:0:
380,282,185119,1,2,3:2:0:0:
380,282,185286,2,0,P|357:243|339:232,2,59.5000000000002,2|2|10,0:0|0:0|2:0,0:0:0:0:
455,327,185786,5,10,2:0:0:0:
455,327,185953,2,0,L|480:273,1,59.5000000000002,2|2,3:2|0:0,0:0:0:0:
449,189,186286,1,2,0:0:0:0:
449,189,186453,2,0,P|412:198|370:134,1,119,2|2,3:2|2:0,0:0:0:0:
417,65,186953,1,8,2:0:0:0:
344,13,187119,1,8,2:0:0:0:
252,64,187286,6,0,P|199:95|131:58,1,140,6|10,3:2|2:0,0:0:0:0:
32,32,187786,2,0,P|51:82|74:166,1,140,2|2,2:0|3:2,0:0:0:0:
38,264,188286,1,10,2:0:0:0:
38,264,188453,2,0,P|83:246|122:317,1,140,6|2,3:2|3:2,0:0:0:0:
214,365,188953,6,0,L|244:284,1,70,10|2,2:0|2:0,0:0:0:0:
313,225,189286,2,0,L|343:306,1,70,0|0,3:2|3:2,0:0:0:0:
426,346,189619,1,10,2:0:0:0:
507,278,189786,1,10,2:0:0:0:
507,278,189869,1,8,0:0:0:0:
507,278,189953,2,0,P|507:229|436:183,1,140,6|10,3:2|2:0,0:0:0:0:
338,221,190453,2,0,P|278:208|280:138,1,140,2|2,2:0|3:2,0:0:0:0:
336,52,190953,5,10,2:0:0:0:
235,24,191119,1,6,3:2:0:0:
235,24,191286,2,0,L|130:51,1,105,2|0,2:0|0:0,0:0:0:0:
81,44,191619,1,10,2:0:0:0:
27,134,191786,2,0,P|7:199|50:265,1,140,2|0,2:0|3:2,0:0:0:0:
133,307,192286,1,10,2:0:0:0:
222,253,192453,5,2,3:2:0:0:
222,253,192536,1,0,3:2:0:0:
222,253,192619,2,0,P|256:261|290:271,1,70,6|2,3:2|2:0,0:0:0:0:
387,229,192953,2,0,P|409:183|394:133,1,105,10|0,2:0|0:0,0:0:0:0:
352,102,193286,1,2,3:2:0:0:
251,133,193453,2,0,P|217:124|183:114,1,70,2|8,3:2|2:0,0:0:0:0:
101,48,193786,5,2,3:2:0:0:
101,48,193953,2,0,P|67:57|33:67,2,70,2|0|10,2:0|3:2|2:0,0:0:0:0:
183,114,194453,2,0,P|181:154|163:183,1,70,10|8,2:0|2:0,0:0:0:0:
82,243,194786,1,2,3:2:0:0:
82,243,194953,1,2,2:0:0:0:
160,311,195119,6,0,B|196:294|196:294|260:305,1,105,6|0,3:2|0:0,0:0:0:0:
311,319,195453,1,2,3:2:0:0:
395,258,195619,2,0,P|405:191|355:144,1,140,10|2,2:0|3:2,0:0:0:0:
253,166,196119,1,10,2:0:0:0:
161,113,196286,1,10,2:0:0:0:
179,9,196453,1,2,3:1:0:0:
29,156,196786,6,0,P|54:198|74:259,1,105,2|0,3:1|0:0,0:0:0:0:
65,303,197119,1,2,3:1:0:0:
147,368,197286,2,0,P|185:328|265:363,1,140,8|0,2:0|0:0,0:0:0:0:
468,338,197953,6,0,B|494:300|494:300|481:200,1,140,6|0,3:2|0:0,0:0:0:0:
396,145,198453,1,8,2:0:0:0:
396,145,198536,1,8,2:0:0:0:
396,145,198619,2,0,P|355:159|319:168,2,70,8|8|0,2:0|2:3|3:2,0:0:0:0:
446,52,199119,5,6,3:2:0:0:
446,52,199286,2,0,P|479:61|512:72,2,70,0|0|8,0:0|3:2|2:0,0:0:0:0:
351,6,199786,1,0,3:2:0:0:
351,6,199953,2,0,P|296:39|276:38,1,70,12|2,2:0|2:1,0:0:0:0:
192,23,200286,1,2,2:1:0:0:
192,23,200453,1,2,2:1:0:0:
68,102,200619,6,0,P|110:163|137:231,1,147,6|0,3:2|0:0,0:0:0:0:
206,308,201119,1,2,3:2:0:0:
302,254,201286,2,0,P|293:218|295:181,1,73.5,10|8,2:0|2:0,0:0:0:0:
389,124,201619,2,0,P|397:159|395:196,1,73.5,2|0,2:0|3:2,0:0:0:0:
469,279,201953,6,0,P|449:326|357:343,1,147,2|2,2:0|2:0,0:0:0:0:
276,275,202453,1,2,3:2:0:0:
183,326,202619,1,10,2:0:0:0:
183,326,202703,1,8,2:0:0:0:
183,326,202786,1,0,3:2:0:0:
109,243,202953,2,0,L|124:198,3,36.75,10|8|8|8,2:0|2:0|2:0|2:0,0:0:0:0:
154,160,203286,2,0,L|133:79,1,77,2|0,3:2|3:2,0:0:0:0:
228,18,203619,5,12,2:0:0:0:
330,72,203786,1,2,2:0:0:0:
330,72,203953,2,0,P|341:108|330:144,1,77,2|0,3:2|3:2,0:0:0:0:
237,212,204286,2,0,P|225:175|236:139,1,77,10|6,2:0|3:2,0:0:0:0:
330,72,204619,2,0,P|393:87|468:146,1,154,2|12,2:0|2:0,0:0:0:0:
369,207,205119,1,2,2:0:0:0:
369,207,205286,2,0,L|383:255,3,38.5,6|8|8|8,3:2|2:0|2:0|2:0,0:0:0:0:
414,290,205619,2,0,L|400:338,3,38.5,10|8|8|8,2:0|2:0|2:0|2:0,0:0:0:0:
347,346,205953,6,0,P|290:305|212:324,1,154,6|10,3:2|2:0,0:0:0:0:
103,350,206453,1,2,2:0:0:0:
103,350,206619,2,0,P|115:303|126:275,1,77,2|2,3:2|3:2,0:0:0:0:
194,183,206953,1,10,2:0:0:0:
129,87,207119,1,2,2:0:0:0:
19,125,207286,6,0,P|37:176|57:194,1,77,2|2,3:2|2:0,0:0:0:0:
134,273,207619,1,10,2:0:0:0:
134,273,207786,2,0,P|189:246|250:237,1,115.5,2|0,3:2|0:0,0:0:0:0:
293,262,208119,1,2,3:2:0:0:
382,188,208286,1,10,2:0:0:0:
340,79,208453,1,2,2:0:0:0:
226,94,208619,6,0,P|172:90|147:71,2,77,6|10|10,3:2|2:0|2:0,0:0:0:0:
340,79,209119,2,0,P|400:95|490:139,1,154,6|2,3:2|3:2,0:0:0:0:
512,250,209619,1,10,2:0:0:0:
512,250,209786,2,0,P|452:266|362:310,1,154,6|0,3:2|3:2,0:0:0:0:
264,355,210286,1,14,2:0:0:0:
264,355,210453,1,2,2:0:0:0:
178,278,210619,2,0,P|192:231|218:199,1,77,6|8,3:2|2:0,0:0:0:0:
256,175,210869,1,8,2:0:0:0:
256,175,210953,2,0,L|309:189,3,38.5,10|8|8|8,2:0|2:0|2:0|2:0,0:0:0:0:
344,210,211286,6,0,P|360:139|306:90,1,154,6|8,3:2|2:0,0:0:0:0:
199,46,211786,1,2,2:0:0:0:
199,46,211953,2,0,P|163:59|127:73,1,77,2|0,3:2|3:2,0:0:0:0:
30,137,212286,2,0,P|65:150|101:164,1,77,10|0,2:0|0:0,0:0:0:0:
165,259,212619,6,0,P|149:188|203:139,1,154,2|8,3:2|2:0,0:0:0:0:
311,95,213119,1,2,3:2:0:0:
311,95,213286,2,0,P|346:108|382:122,1,77,2|0,2:0|3:2,0:0:0:0:
480,186,213619,2,0,P|444:199|408:213,1,77,10|0,2:0|0:0,0:0:0:0:
351,315,213953,6,0,P|279:331|230:277,1,154,2|8,3:2|2:0,0:0:0:0:
186,170,214453,1,2,2:0:0:0:
186,170,214619,2,0,P|199:134|213:98,1,77,2|0,3:2|3:2,0:0:0:0:
277,5,214953,2,0,P|290:40|304:76,1,77,10|0,2:0|0:0,0:0:0:0:
382,162,215286,6,0,P|398:233|344:282,1,154,2|8,3:2|2:0,0:0:0:0:
237,327,215786,1,2,3:2:0:0:
237,327,215953,2,0,P|201:313|165:299,1,77,2|0,2:0|3:2,0:0:0:0:
68,236,216286,2,0,P|103:222|139:208,1,77,10|0,2:0|0:0,0:0:0:0:
211,117,216619,6,0,B|160:61|160:61|78:73,1,154,6|10,3:2|2:0,0:0:0:0:
21,19,217119,2,0,P|42:82|21:172,1,154,2|2,2:0|3:2,0:0:0:0:
93,258,217619,1,10,2:0:0:0:
201,218,217786,1,2,2:0:0:0:
297,279,217953,2,0,P|331:260|369:253,2,77,2|2|10,3:2|2:0|2:0,0:0:0:0:
201,218,218453,2,0,P|215:154|245:65,1,154,2|2,3:2|3:2,0:0:0:0:
346,17,218953,1,10,2:0:0:0:
440,82,219119,5,2,2:0:0:0:
440,82,219286,2,0,P|413:126|312:130,1,154,0|8,3:2|2:0,0:0:0:0:
223,67,219786,1,2,0:0:0:0:
118,116,219953,1,2,3:2:0:0:
118,116,220119,2,0,P|74:103|38:90,2,77,2|10|6,3:2|2:0|3:2,0:0:0:0:
223,67,220619,6,0,P|259:54|296:43,2,77,2|2|14,2:0|3:2|2:0,0:0:0:0:
180,174,221119,2,0,P|206:223|209:256,1,77,2|4,2:0|3:2,0:0:0:0:
132,331,221453,1,10,2:0:0:0:
132,331,221536,1,8,2:0:0:0:
132,331,221619,2,0,L|87:349,3,38.5,10|8|4|4,2:0|2:0|2:3|2:3,0:0:0:0:
42,367,221953,6,0,P|58:324|6:223,1,154,6|14,3:2|2:0,0:0:0:0:
71,128,222453,1,2,2:0:0:0:
71,128,222619,2,0,P|109:133|135:160,1,77,2|0,3:2|3:2,0:0:0:0:
228,230,222953,2,0,P|265:224|291:197,1,77,10|0,2:0|0:0,0:0:0:0:
367,110,223286,6,0,P|437:110|445:180,1,154,2|10,3:2|2:0,0:0:0:0:
511,281,223786,1,2,2:0:0:0:
511,281,223953,2,0,P|474:293|437:304,1,77,2|2,3:2|3:2,0:0:0:0:
373,366,224286,2,0,P|336:353|299:342,1,77,10|2,2:0|2:0,0:0:0:0:
197,288,224619,6,0,P|182:245|251:167,1,154,2|10,3:2|2:0,0:0:0:0:
332,93,225119,1,2,2:0:0:0:
332,93,225286,2,0,P|287:77|180:50,1,154,2|10,3:2|2:0,0:0:0:0:
72,81,225786,5,2,2:0:0:0:
72,81,225953,2,0,P|44:48|39:9,2,77,2|2|10,3:2|3:2|2:0,0:0:0:0:
139,181,226453,1,2,2:0:0:0:
139,181,226619,2,0,P|176:175|202:148,1,77,2|0,3:2|3:2,0:0:0:0:
295,79,226953,2,0,P|332:84|358:111,1,77,10|0,2:0|0:0,0:0:0:0:
434,199,227286,6,0,P|474:161|496:51,1,154,6|10,3:2|2:0,0:0:0:0:
397,12,227786,1,2,2:0:0:0:
397,12,227953,2,0,L|312:27,2,77,2|2|10,3:2|3:2|2:0,0:0:0:0:
498,67,228453,5,2,2:0:0:0:
498,67,228619,2,0,P|485:112|461:137,1,77,2|2,3:2|3:2,0:0:0:0:
364,191,228953,1,10,2:0:0:0:
267,128,229119,1,2,2:0:0:0:
267,128,229286,2,0,L|301:47,2,77,2|2|10,3:2|3:2|2:0,0:0:0:0:
180,204,229786,5,2,2:0:0:0:
180,204,229953,2,0,P|233:212|264:309,1,154,2|10,3:2|2:0,0:0:0:0:
363,363,230453,1,2,2:0:0:0:
363,363,230536,1,2,2:0:0:0:
363,363,230619,2,0,P|409:349|451:340,2,77,0|2|10,3:2|3:2|2:0,0:0:0:0:
268,297,231119,5,6,3:2:0:0:
268,297,231286,2,0,P|230:289|192:281,1,77,0|0,0:0|3:2,0:0:0:0:
83,319,231619,1,10,2:0:0:0:
14,237,231786,2,0,P|4:177|56:114,1,140,6|2,3:2|2:1,0:0:0:0:
140,66,232286,1,2,2:1:0:0:
140,66,232453,1,2,2:1:0:0:
228,119,232619,6,0,P|296:125|338:73,1,140,6|10,3:2|2:0,0:0:0:0:
437,33,233119,1,2,2:0:0:0:
437,33,233286,2,0,P|422:92|403:179,1,140,2|10,3:2|2:0,0:0:0:0:
452,268,233786,5,2,3:2:0:0:
452,268,233953,2,0,P|487:236|516:228,2,70,2|2|10,2:0|3:2|2:0,0:0:0:0:
361,323,234453,2,0,P|294:320|254:265,1,140,2|2,2:0|3:2,0:0:0:0:
165,210,234953,5,10,2:0:0:0:
165,210,235119,2,0,P|97:226|28:242,1,140,2|2,2:0|2:0,0:0:0:0:
51,142,235619,1,10,2:0:0:0:
51,142,235786,2,0,P|118:125|187:109,1,140,2|2,2:0|3:2,0:0:0:0:
287,143,236286,1,10,2:0:0:0:
363,70,236453,5,2,3:2:0:0:
363,70,236619,2,0,P|414:80|430:96,2,70,2|2|10,2:0|3:2|2:0,0:0:0:0:
274,12,237119,2,0,P|222:58|137:58,1,140,2|2,2:0|2:0,0:0:0:0:
56,24,237619,1,10,2:0:0:0:
56,24,237786,1,2,2:0:0:0:
9,118,237953,6,0,P|38:162|69:248,1,140,6|10,3:2|2:0,0:0:0:0:
155,310,238453,1,2,2:0:0:0:
155,310,238619,2,0,P|172:246|237:240,1,140,2|10,3:2|2:0,0:0:0:0:
340,265,239119,5,2,3:2:0:0:
340,265,239286,2,0,L|356:197,2,70,2|2|10,2:0|3:2|2:0,0:0:0:0:
414,338,239786,2,0,P|476:335|487:265,1,140,2|2,2:0|3:2,0:0:0:0:
447,171,240286,1,10,2:0:0:0:
447,171,240453,2,0,P|447:127|464:88,1,70,2|0,2:0|3:2,0:0:0:0:
387,22,240786,5,2,2:0:0:0:
294,72,240953,1,10,2:0:0:0:
294,72,241036,1,2,2:0:0:0:
294,72,241119,2,0,P|252:58|226:47,1,70,2|2,2:0|3:2,0:0:0:0:
141,108,241453,1,2,3:2:0:0:
141,108,241536,1,2,2:0:0:0:
141,108,241619,1,10,2:0:0:0:
216,181,241786,6,0,P|226:217|219:253,2,70,6|2|2,3:2|2:0|3:2,0:0:0:0:
115,213,242286,1,10,2:0:0:0:
115,213,242453,2,0,P|51:215|30:138,1,140,2|8,2:0|2:3,0:0:0:0:
61,56,242953,1,4,2:3:0:0:
61,56,243119,1,12,3:2:0:0:
