osu file format v14

[General]
AudioFilename: audio.mp3
AudioLeadIn: 0
PreviewTime: 62350
Countdown: 0
SampleSet: Soft
StackLeniency: 0.8
Mode: 0
LetterboxInBreaks: 0
EpilepsyWarning: 1
WidescreenStoryboard: 1

[Editor]
Bookmarks: 29933,63266,95266,128599,160599,187266,211266,243099
DistanceSpacing: 1.5
BeatDivisor: 4
GridSize: 32
TimelineZoom: 1.5

[Metadata]
Title:Shikaki to Coffee
TitleUnicode:詩書きとコーヒー
Artist:Yorushika
ArtistUnicode:ヨルシカ
Creator:Airiesu
Version:Collab Normal
Source:
Tags:Mujina Mononymous Pile Writing and AyameMyMommy Koohii n-buna nabuna ナブナ suis スイ japanese rock jpop jrock だから僕は音楽を辞めた dakara boku wa ongaku wo o yameta thats that's why i gave up on music
BeatmapID:3154330
BeatmapSetID:1532422

[Difficulty]
HPDrainRate:3.4
CircleSize:3.2
OverallDifficulty:4.4
ApproachRate:5.2
SliderMultiplier:1.02
SliderTickRate:1

[Events]
//Background and Video events
0,0,"bg1.jpg",0,0
//Break Periods
2,149986,159449
//Storyboard Layer 0 (Background)
Sprite,Background,TopLeft,"bg1.jpg",0,0
Sprite,Background,Centre,"sb\reinablur.jpg",320,240 F,0,453,620,0,1 M,0,620,,320,240 S,0,620,,0.3425453 F,0,620,18619,1 F,0,18619,18786,1,0 F,0,29953,30286,0,1 F,0,30286,62619,1 F,0,62619,62953,1,0 F,0,95286,95619,0,1 F,0,112619,112952,1,0 F,0,113953,127953,1 F,0,127953,128619,1,0 F,0,160619,160953,0,1 F,0,160953,197286,1 F,0,197286,197619,1,0
Sprite,Background,Centre,"sb\bg long.jpg",320,240 S,0,19286,,0.4996364 F,0,19286,29619,1 M,0,19286,29953,461.3818,-403.7818,461.3818,-300.8 F,0,29619,29953,1,0 F,0,84619,94952,1 M,0,84619,95286,461.3818,-403.7818,461.3818,-300.8 F,0,94952,95286,1,0 F,0,232619,242952,1 M,0,232619,243286,461.3818,-403.7818,461.3818,-300.8 F,0,242952,243119,1 F,0,243119,,0
Sprite,Background,Centre,"sb\hitenreinabg.jpg",320,240 M,0,63286,,320,240 S,0,63286,64619,0.3774545,0.3425454 R,0,63286,64619,0.05818176,-7.629394E-08 F,0,63286,83786,1 F,0,83786,84119,1,0 S,0,128619,129953,0.3774545,0.3425454 R,0,128619,129953,0.05818176,-7.629394E-08 F,0,128619,148619,1 F,0,148619,149953,1,0 F,0,197953,199953,1 F,0,199953,200119,1,0 S,0,200619,201953,0.3774545,0.3425454 R,0,200619,201953,0.05818176,-7.629394E-08 F,0,200619,231786,1 F,0,231786,232119,1,0
Sprite,Background,Centre,"sb\glow.png",0,0 L,63266,3 F,1,0,1111,0,0.4977359 M,0,0,5555,207.5992,178.1573,473.7619,-245.1127 F,2,4444,5555,0.4977359,0 S,0,63266,,0.5 R,0,63266,,5.273734 C,0,63266,,200,195,11
Sprite,Background,Centre,"sb\glow.png",0,0 L,63960,3 F,1,0,1111,0,0.4977359 M,0,0,5555,-63.48038,376.0912,-123.8836,-120.2469 F,2,4444,5555,0.4977359,0 S,0,63960,,0.5 R,0,63960,,4.591287 C,0,63960,,228,222,0
Sprite,Background,Centre,"sb\glow.png",0,0 L,64654,3 F,1,0,1111,0,0.4977359 M,0,0,5555,191.9475,737.6158,329.0873,256.7908 F,2,4444,5555,0.4977359,0 S,0,64654,,0.5 R,0,64654,,4.99023 C,0,64654,,248,245,161
Sprite,Background,Centre,"sb\glow.png",0,0 L,65349,3 F,1,0,1111,0,0.4977359 M,0,0,5555,584.2432,563.4005,1014.799,309.1926 F,2,4444,5555,0.4977359,0 S,0,65349,,0.5 R,0,65349,,5.749841 C,0,65349,,229,223,9
Sprite,Background,Centre,"sb\glow.png",0,0 L,66043,3 F,1,0,1111,0,0.4977359 M,0,0,5555,391.3015,197.3434,820.012,-59.96432 F,2,4444,5555,0.4977359,0 S,0,66043,,0.5 R,0,66043,,5.742626 C,0,66043,,234,230,103
Sprite,Background,Centre,"sb\glow.png",0,0 L,66738,3 F,1,0,1111,0,0.4977359 M,0,0,5555,-87.18689,442.8024,104.2712,-19.0892 F,2,4444,5555,0.4977359,0 S,0,66738,,0.5 R,0,66738,,5.10534 C,0,66738,,169,165,10
Sprite,Background,Centre,"sb\glow.png",0,0 L,67432,3 F,1,0,1111,0,0.4977359 M,0,0,5555,349.2853,723.7165,143.2149,268.1563 F,2,4444,5555,0.4977359,0 S,0,67432,,0.5 R,0,67432,,4.287587 C,0,67432,,254,249,68
Sprite,Background,Centre,"sb\glow.png",0,0 L,68127,3 F,1,0,1111,0,0.4977359 M,0,0,5555,261.1065,437.4458,137.7806,-47.10629 F,2,4444,5555,0.4977359,0 S,0,68127,,0.5 R,0,68127,,4.463165 C,0,68127,,246,243,157
Sprite,Background,Centre,"sb\glow.png",0,0 L,63266,3 F,1,0,1111,0,0.5015067 M,0,0,5555,127.1166,475.8783,520.4495,167.1886 F,2,4444,5555,0.5015067,0 S,0,63266,,0.25 R,0,63266,,5.617778 C,0,63266,,194,255,253
Sprite,Background,Centre,"sb\glow.png",0,0 L,64654,3 F,1,0,1111,0,0.5015067 M,0,0,5555,227.9389,263.9075,587.0678,-83.98102 F,2,4444,5555,0.5015067,0 S,0,64654,,0.25 R,0,64654,,5.513684 C,0,64654,,194,255,253
Sprite,Background,Centre,"sb\glow.png",0,0 L,66043,3 F,1,0,1111,0,0.5015067 M,0,0,5555,164.6275,384.8462,549.611,65.80429 F,2,4444,5555,0.5015067,0 S,0,66043,,0.25 R,0,66043,,5.591178 C,0,66043,,194,255,253
Sprite,Background,Centre,"sb\glow.png",0,0 L,128600,3 F,1,0,1111,0,0.4941176 M,0,0,5555,207.5992,178.1573,473.7619,-245.1127 F,2,4444,5555,0.4941176,0 S,0,128600,,0.5 R,0,128600,,5.273734 C,0,128600,,199,193,11
Sprite,Background,Centre,"sb\glow.png",0,0 L,129294,3 F,1,0,1111,0,0.4941176 M,0,0,5555,-63.48038,376.0912,-123.8836,-120.2469 F,2,4444,5555,0.4941176,0 S,0,129294,,0.5 R,0,129294,,4.591287 C,0,129294,,227,220,0
Sprite,Background,Centre,"sb\glow.png",0,0 L,129988,3 F,1,0,1111,0,0.4941176 M,0,0,5555,191.9475,737.6158,329.0873,256.7908 F,2,4444,5555,0.4941176,0 S,0,129988,,0.5 R,0,129988,,4.99023 C,0,129988,,248,245,160
Sprite,Background,Centre,"sb\glow.png",0,0 L,130683,3 F,1,0,1111,0,0.4941176 M,0,0,5555,584.2432,563.4005,1014.799,309.1926 F,2,4444,5555,0.4941176,0 S,0,130683,,0.5 R,0,130683,,5.749841 C,0,130683,,229,222,9
Sprite,Background,Centre,"sb\glow.png",0,0 L,131377,3 F,1,0,1111,0,0.4941176 M,0,0,5555,391.3015,197.3434,820.012,-59.96432 F,2,4444,5555,0.4941176,0 S,0,131377,,0.5 R,0,131377,,5.742626 C,0,131377,,234,229,102
Sprite,Background,Centre,"sb\glow.png",0,0 L,132072,3 F,1,0,1111,0,0.4941176 M,0,0,5555,-87.18689,442.8024,104.2712,-19.0892 F,2,4444,5555,0.4941176,0 S,0,132072,,0.5 R,0,132072,,5.10534 C,0,132072,,169,164,10
Sprite,Background,Centre,"sb\glow.png",0,0 L,132766,3 F,1,0,1111,0,0.4941176 M,0,0,5555,349.2853,723.7165,143.2149,268.1563 F,2,4444,5555,0.4941176,0 S,0,132766,,0.5 R,0,132766,,4.287587 C,0,132766,,254,248,67
Sprite,Background,Centre,"sb\glow.png",0,0 L,133460,3 F,1,0,1111,0,0.4941176 M,0,0,5555,261.1065,437.4458,137.7806,-47.10629 F,2,4444,5555,0.4941176,0 S,0,133460,,0.5 R,0,133460,,4.463165 C,0,133460,,246,243,156
Sprite,Background,Centre,"sb\glow.png",0,0 L,128600,3 F,1,0,1111,0,0.4980392 M,0,0,5555,127.1166,475.8783,520.4495,167.1886 F,2,4444,5555,0.4980392,0 S,0,128600,,0.25 R,0,128600,,5.617778 C,0,128600,,194,255,253
Sprite,Background,Centre,"sb\glow.png",0,0 L,129988,3 F,1,0,1111,0,0.4980392 M,0,0,5555,227.9389,263.9075,587.0678,-83.98102 F,2,4444,5555,0.4980392,0 S,0,129988,,0.25 R,0,129988,,5.513684 C,0,129988,,194,255,253
Sprite,Background,Centre,"sb\glow.png",0,0 L,131377,3 F,1,0,1111,0,0.4980392 M,0,0,5555,164.6275,384.8462,549.611,65.80429 F,2,4444,5555,0.4980392,0 S,0,131377,,0.25 R,0,131377,,5.591178 C,0,131377,,194,255,253
Sprite,Background,Centre,"sb\glow.png",0,0 L,200600,5 F,1,0,1093,0,0.4941176 M,0,0,5466,207.5992,178.1573,473.7619,-245.1127 F,2,4373,5466,0.4941176,0 S,0,200600,,0.5 R,0,200600,,5.273734 C,0,200600,,199,193,11
Sprite,Background,Centre,"sb\glow.png",0,0 L,201283,5 F,1,0,1093,0,0.4941176 M,0,0,5466,-63.48038,376.0912,-123.8836,-120.2469 F,2,4373,5466,0.4941176,0 S,0,201283,,0.5 R,0,201283,,4.591287 C,0,201283,,227,220,0
Sprite,Background,Centre,"sb\glow.png",0,0 L,201966,5 F,1,0,1093,0,0.4941176 M,0,0,5466,191.9475,737.6158,329.0873,256.7908 F,2,4373,5466,0.4941176,0 S,0,201966,,0.5 R,0,201966,,4.99023 C,0,201966,,248,245,160
Sprite,Background,Centre,"sb\glow.png",0,0 L,202649,5 F,1,0,1093,0,0.4941176 M,0,0,5466,584.2432,563.4005,1014.799,309.1926 F,2,4373,5466,0.4941176,0 S,0,202649,,0.5 R,0,202649,,5.749841 C,0,202649,,229,222,9
Sprite,Background,Centre,"sb\glow.png",0,0 L,203333,5 F,1,0,1093,0,0.4941176 M,0,0,5466,391.3015,197.3434,820.012,-59.96432 F,2,4373,5466,0.4941176,0 S,0,203333,,0.5 R,0,203333,,5.742626 C,0,203333,,234,229,102
Sprite,Background,Centre,"sb\glow.png",0,0 L,204016,5 F,1,0,1093,0,0.4941176 M,0,0,5466,-87.18689,442.8024,104.2712,-19.0892 F,2,4373,5466,0.4941176,0 S,0,204016,,0.5 R,0,204016,,5.10534 C,0,204016,,169,164,10
Sprite,Background,Centre,"sb\glow.png",0,0 L,204699,5 F,1,0,1093,0,0.4941176 M,0,0,5466,349.2853,723.7165,143.2149,268.1563 F,2,4373,5466,0.4941176,0 S,0,204699,,0.5 R,0,204699,,4.287587 C,0,204699,,254,248,67
Sprite,Background,Centre,"sb\glow.png",0,0 L,205383,5 F,1,0,1093,0,0.4941176 M,0,0,5466,261.1065,437.4458,137.7806,-47.10629 F,2,4373,5466,0.4941176,0 S,0,205383,,0.5 R,0,205383,,4.463165 C,0,205383,,246,243,156
Sprite,Background,Centre,"sb\glow.png",0,0 L,200600,5 F,1,0,1093,0,0.4980392 M,0,0,5466,127.1166,475.8783,520.4495,167.1886 F,2,4373,5466,0.4980392,0 S,0,200600,,0.25 R,0,200600,,5.617778 C,0,200600,,194,255,253
Sprite,Background,Centre,"sb\glow.png",0,0 L,201966,5 F,1,0,1093,0,0.4980392 M,0,0,5466,227.9389,263.9075,587.0678,-83.98102 F,2,4373,5466,0.4980392,0 S,0,201966,,0.25 R,0,201966,,5.513684 C,0,201966,,194,255,253
Sprite,Background,Centre,"sb\glow.png",0,0 L,203333,5 F,1,0,1093,0,0.4980392 M,0,0,5466,164.6275,384.8462,549.611,65.80429 F,2,4373,5466,0.4980392,0 S,0,203333,,0.25 R,0,203333,,5.591178 C,0,203333,,194,255,253
Sprite,Background,Centre,"sb\glow.png",0,0 L,19266,1 F,1,0,1133,0,0.4980392 M,0,0,5667,207.5992,178.1573,473.7619,-245.1127 F,2,4533,5667,0.4980392,0 S,0,19266,,0.5 R,0,19266,,5.273734 C,0,19266,,199,193,11
Sprite,Background,Centre,"sb\glow.png",0,0 L,19974,1 F,1,0,1133,0,0.4980392 M,0,0,5667,-63.48038,376.0912,-123.8836,-120.2469 F,2,4533,5667,0.4980392,0 S,0,19974,,0.5 R,0,19974,,4.591287 C,0,19974,,227,220,0
Sprite,Background,Centre,"sb\glow.png",0,0 L,20682,1 F,1,0,1133,0,0.4980392 M,0,0,5667,191.9475,737.6158,329.0873,256.7908 F,2,4533,5667,0.4980392,0 S,0,20682,,0.5 R,0,20682,,4.99023 C,0,20682,,248,245,160
Sprite,Background,Centre,"sb\glow.png",0,0 L,21391,1 F,1,0,1133,0,0.4980392 M,0,0,5667,584.2432,563.4005,1014.799,309.1926 F,2,4533,5667,0.4980392,0 S,0,21391,,0.5 R,0,21391,,5.749841 C,0,21391,,229,222,9
Sprite,Background,Centre,"sb\glow.png",0,0 L,22099,1 F,1,0,1133,0,0.4980392 M,0,0,5667,391.3015,197.3434,820.012,-59.96432 F,2,4533,5667,0.4980392,0 S,0,22099,,0.5 R,0,22099,,5.742626 C,0,22099,,234,229,102
Sprite,Background,Centre,"sb\glow.png",0,0 L,22807,1 F,1,0,1133,0,0.4980392 M,0,0,5667,-87.18689,442.8024,104.2712,-19.0892 F,2,4533,5667,0.4980392,0 S,0,22807,,0.5 R,0,22807,,5.10534 C,0,22807,,169,164,10
Sprite,Background,Centre,"sb\glow.png",0,0 L,23516,1 F,1,0,1133,0,0.4980392 M,0,0,5667,349.2853,723.7165,143.2149,268.1563 F,2,4533,5667,0.4980392,0 S,0,23516,,0.5 R,0,23516,,4.287587 C,0,23516,,254,248,67
Sprite,Background,Centre,"sb\glow.png",0,0 L,24224,1 F,1,0,1133,0,0.4980392 M,0,0,5667,261.1065,437.4458,137.7806,-47.10629 F,2,4533,5667,0.4980392,0 S,0,24224,,0.5 R,0,24224,,4.463165 C,0,24224,,246,243,156
Sprite,Background,Centre,"sb\glow.png",0,0 L,84599,1 F,1,0,1133,0,0.4980392 M,0,0,5667,207.5992,178.1573,473.7619,-245.1127 F,2,4533,5667,0.4980392,0 S,0,84599,,0.5 R,0,84599,,5.273734 C,0,84599,,199,193,11
Sprite,Background,Centre,"sb\glow.png",0,0 L,85307,1 F,1,0,1133,0,0.4980392 M,0,0,5667,-63.48038,376.0912,-123.8836,-120.2469 F,2,4533,5667,0.4980392,0 S,0,85307,,0.5 R,0,85307,,4.591287 C,0,85307,,227,220,0
Sprite,Background,Centre,"sb\glow.png",0,0 L,86015,1 F,1,0,1133,0,0.4980392 M,0,0,5667,191.9475,737.6158,329.0873,256.7908 F,2,4533,5667,0.4980392,0 S,0,86015,,0.5 R,0,86015,,4.99023 C,0,86015,,248,245,160
Sprite,Background,Centre,"sb\glow.png",0,0 L,86724,1 F,1,0,1133,0,0.4980392 M,0,0,5667,584.2432,563.4005,1014.799,309.1926 F,2,4533,5667,0.4980392,0 S,0,86724,,0.5 R,0,86724,,5.749841 C,0,86724,,229,222,9
Sprite,Background,Centre,"sb\glow.png",0,0 L,87432,1 F,1,0,1133,0,0.4980392 M,0,0,5667,391.3015,197.3434,820.012,-59.96432 F,2,4533,5667,0.4980392,0 S,0,87432,,0.5 R,0,87432,,5.742626 C,0,87432,,234,229,102
Sprite,Background,Centre,"sb\glow.png",0,0 L,88140,1 F,1,0,1133,0,0.4980392 M,0,0,5667,-87.18689,442.8024,104.2712,-19.0892 F,2,4533,5667,0.4980392,0 S,0,88140,,0.5 R,0,88140,,5.10534 C,0,88140,,169,164,10
Sprite,Background,Centre,"sb\glow.png",0,0 L,88849,1 F,1,0,1133,0,0.4980392 M,0,0,5667,349.2853,723.7165,143.2149,268.1563 F,2,4533,5667,0.4980392,0 S,0,88849,,0.5 R,0,88849,,4.287587 C,0,88849,,254,248,67
Sprite,Background,Centre,"sb\glow.png",0,0 L,89557,1 F,1,0,1133,0,0.4980392 M,0,0,5667,261.1065,437.4458,137.7806,-47.10629 F,2,4533,5667,0.4980392,0 S,0,89557,,0.5 R,0,89557,,4.463165 C,0,89557,,246,243,156
Sprite,Background,Centre,"sb\glow.png",0,0 L,232600,1 F,1,0,1133,0,0.4980392 M,0,0,5666,207.5992,178.1573,473.7619,-245.1127 F,2,4532,5666,0.4980392,0 S,0,232600,,0.5 R,0,232600,,5.273734 C,0,232600,,199,193,11
Sprite,Background,Centre,"sb\glow.png",0,0 L,233308,1 F,1,0,1133,0,0.4980392 M,0,0,5666,-63.48038,376.0912,-123.8836,-120.2469 F,2,4532,5666,0.4980392,0 S,0,233308,,0.5 R,0,233308,,4.591287 C,0,233308,,227,220,0
Sprite,Background,Centre,"sb\glow.png",0,0 L,234016,1 F,1,0,1133,0,0.4980392 M,0,0,5666,191.9475,737.6158,329.0873,256.7908 F,2,4532,5666,0.4980392,0 S,0,234016,,0.5 R,0,234016,,4.99023 C,0,234016,,248,245,160
Sprite,Background,Centre,"sb\glow.png",0,0 L,234724,1 F,1,0,1133,0,0.4980392 M,0,0,5666,584.2432,563.4005,1014.799,309.1926 F,2,4532,5666,0.4980392,0 S,0,234724,,0.5 R,0,234724,,5.749841 C,0,234724,,229,222,9
Sprite,Background,Centre,"sb\glow.png",0,0 L,235433,1 F,1,0,1133,0,0.4980392 M,0,0,5666,391.3015,197.3434,820.012,-59.96432 F,2,4532,5666,0.4980392,0 S,0,235433,,0.5 R,0,235433,,5.742626 C,0,235433,,234,229,102
Sprite,Background,Centre,"sb\glow.png",0,0 L,236141,1 F,1,0,1133,0,0.4980392 M,0,0,5666,-87.18689,442.8024,104.2712,-19.0892 F,2,4532,5666,0.4980392,0 S,0,236141,,0.5 R,0,236141,,5.10534 C,0,236141,,169,164,10
Sprite,Background,Centre,"sb\glow.png",0,0 L,236849,1 F,1,0,1133,0,0.4980392 M,0,0,5666,349.2853,723.7165,143.2149,268.1563 F,2,4532,5666,0.4980392,0 S,0,236849,,0.5 R,0,236849,,4.287587 C,0,236849,,254,248,67
Sprite,Background,Centre,"sb\glow.png",0,0 L,237557,1 F,1,0,1133,0,0.4980392 M,0,0,5666,261.1065,437.4458,137.7806,-47.10629 F,2,4532,5666,0.4980392,0 S,0,237557,,0.5 R,0,237557,,4.463165 C,0,237557,,246,243,156
//Storyboard Layer 1 (Fail)
//Storyboard Layer 2 (Pass)
//Storyboard Layer 3 (Foreground)
Sprite,Foreground,Centre,"sb\reinatransparent.png",320,240 M,0,63286,,320,240 S,0,63286,64619,0.3774545,0.3425454 R,0,63286,64619,0.05818176,-7.629394E-08 F,0,63286,83786,1 F,0,83786,128619,0 S,0,128619,129953,0.3774545,0.3425454 R,0,128619,129953,0.05818176,-7.629394E-08 F,0,128619,148619,1 F,0,148619,200619,0 S,0,200619,201953,0.3774545,0.3425454 R,0,200619,201953,0.05818176,-7.629394E-08 F,0,200619,231786,1
Sprite,Foreground,Centre,"sb\flash.png",320,240 M,0,17786,,320,240 S,0,17786,,0.4589092 F,0,17786,18119,1,0 F,0,24619,24953,1,0 F,0,28453,28786,1,0 F,0,28953,29286,1,0 F,0,40619,40953,1,0 F,0,48286,48619,1,0 F,0,48619,48953,1,0 F,0,50286,50619,1,0 F,0,51286,51619,1,0 F,0,56619,56953,1,0 F,0,59119,59453,1,0 F,0,60953,61286,1,0 F,0,61786,62119,1,0 F,0,68619,68953,1,0 F,0,71286,71619,1,0 F,0,71786,72119,1,0 F,0,72453,72786,1,0 F,0,72953,73286,1,0 F,0,73286,73619,1,0 F,0,73953,74286,1,0 F,0,79286,79619,1,0 F,0,83119,83453,1,0 F,0,89953,90286,1,0 F,0,93786,94119,1,0 F,0,94286,94619,1,0 F,0,102953,103286,1,0 F,0,103286,103619,1,0 F,0,104953,105286,1,0 F,0,105953,106286,1,0 F,0,110953,111286,1,0 F,0,111286,111619,1,0 F,0,114453,114786,1,0 F,0,114953,115286,1,0 F,0,116619,116953,1,0 F,0,121953,122286,1,0 F,0,124453,124786,1,0 F,0,126286,126619,1,0 F,0,127119,127453,1,0 F,0,133953,134286,1,0 F,0,136619,136953,1,0 F,0,137119,137453,1,0 F,0,137786,138119,1,0 F,0,138286,138619,1,0 F,0,138619,138953,1,0 F,0,139286,139619,1,0 F,0,144619,144953,1,0 F,0,148453,148786,1,0 F,0,160619,160953,1,0 F,0,169286,169619,1,0 F,0,170286,170619,1,0 F,0,171286,171619,1,0 F,0,181953,182286,1,0 F,0,187286,187619,1,0 F,0,188453,188786,1,0 F,0,189953,190286,1,0 F,0,191119,191453,1,0 F,0,192619,192953,1,0 F,0,195119,195453,1,0 F,0,196453,196786,1,0 F,0,196786,197119,1,0 F,0,197119,197286,1,0 F,0,199119,199453,1,0 F,0,199953,200119,1,0 F,0,203619,203953,1,0 F,0,204453,204786,1,0 F,0,204953,205286,1,0 F,0,205286,205619,1,0 F,0,205953,206286,1,0 F,0,208619,208953,1,0 F,0,209119,209453,1,0 F,0,209786,210119,1,0 F,0,210286,210619,1,0 F,0,210619,210953,1,0 F,0,211286,211619,1,0 F,0,216619,216953,1,0 F,0,220453,220786,1,0 F,0,220953,221286,1,0 F,0,221286,221619,1,0 F,0,221953,222286,1,0 F,0,222286,222619,1,0 F,0,227286,227619,1,0 F,0,231119,231453,1,0 F,0,237953,238286,1,0 F,0,241786,242119,1,0 F,0,242286,242619,1,0
Sprite,Foreground,Centre,"sb\bar.png",320,240 S,0,19286,,50 F,0,19286,19619,1,0 F,0,63286,63619,1,0 F,0,84619,84953,1,0 F,0,95286,95619,1,0 F,0,113953,114286,1,0 F,0,128619,128953,1,0 F,0,197953,198286,1,0 F,0,200619,200953,1,0 F,0,232619,232953,1,0
Sprite,Foreground,Centre,"sb\v.png",320,240 F,0,286,620,1 M,0,620,,320,239.4182 S,0,620,,0.4589091 F,0,620,18786,1 F,0,18786,29953,0 F,0,29953,40119,1 F,0,40119,40286,1,0 F,0,160619,186953,1 F,0,186953,187286,1,0
Sprite,Foreground,Centre,"lyrics\verse1\line1.png",320,240 M,0,620,,36.07275,261.5273 S,0,620,,0.2087273 F,0,5119,,1
Sprite,Foreground,Centre,"lyrics\verse1\line2.png",320,240 M,0,5953,,36.07275,261.5273 S,0,5953,,0.2087273 F,0,10452,,1
Sprite,Foreground,Centre,"lyrics\verse1\line3.png",320,240 M,0,11119,,36.07275,261.5273 S,0,11119,,0.2087273 F,0,15786,,1
Sprite,Foreground,Centre,"lyrics\verse1\line4.png",320,240 M,0,16453,,36.07275,261.5273 S,0,16453,,0.2087273 F,0,19286,,1
Sprite,Foreground,Centre,"lyrics\verse1\line1.png",320,240 M,0,29953,,36.07275,261.5273 S,0,29953,,0.2087273 F,0,34452,,1
Sprite,Foreground,Centre,"lyrics\verse2\line2.png",320,240 M,0,35119,,36.07275,261.5273 S,0,35119,,0.2087273 F,0,39786,,1
Sprite,Foreground,Centre,"lyrics\verse2\line3.png",320,240 M,0,40453,,36.07275,261.5273 S,0,40453,,0.2087273 F,0,42786,,1
Sprite,Foreground,Centre,"lyrics\verse2\line4.png",320,240 M,0,42786,,36.07275,261.5273 S,0,42786,,0.2087273 F,0,45119,,1
Sprite,Foreground,Centre,"lyrics\verse2\line5.png",320,240 M,0,45786,,36.07275,261.5273 S,0,45786,,0.2087273 F,0,48619,,1
Sprite,Foreground,Centre,"lyrics\pre chorus1\line1.png",320,240 M,0,50953,,36.07275,261.5273 S,0,50953,,0.2087273 F,0,55453,,1
Sprite,Foreground,Centre,"lyrics\pre chorus1\line2.png",320,240 M,0,56286,,36.07275,261.5273 S,0,56286,,0.2087273 F,0,60786,,1
Sprite,Foreground,Centre,"lyrics\pre chorus1\line3.png",320,240 M,0,62453,,36.07275,261.5273 S,0,62453,,0.2087273 F,0,63286,,1
Sprite,Foreground,Centre,"lyrics\chorus1\line1.png",320,240 M,0,63786,,36.07275,261.5273 S,0,63786,,0.2087273 F,0,68953,,1
Sprite,Foreground,Centre,"lyrics\chorus1\line3.png",320,240 M,0,69453,,36.07275,261.5273 S,0,69453,,0.2087273 F,0,73119,,1
Sprite,Foreground,Centre,"lyrics\chorus1\line1.png",320,240 M,0,73119,,36.07275,261.5273 S,0,73119,,0.2087273 F,0,78453,,1
Sprite,Foreground,Centre,"lyrics\chorus1\line6.png",320,240 M,0,78453,,36.07275,261.5273 S,0,78453,,0.2087273 F,0,79619,,1
Sprite,Foreground,Centre,"lyrics\chorus1\line7.png",320,240 M,0,80286,,36.07275,261.5273 S,0,80286,,0.2087273 F,0,82953,,1
Sprite,Foreground,Centre,"lyrics\chorus1\line8.png",320,240 M,0,82953,,36.07275,261.5273 S,0,82953,,0.2087273 F,0,84619,,1
Sprite,Foreground,Centre,"lyrics\verse3\line1.png",320,240 M,0,95286,,36.07275,261.5273 S,0,95286,,0.2087273 F,0,99785,,1
Sprite,Foreground,Centre,"lyrics\verse3\line2.png",320,240 M,0,100453,,36.07275,261.5273 S,0,100453,,0.2087273 F,0,105119,,1
Sprite,Foreground,Centre,"lyrics\verse3\line3.png",320,240 M,0,105786,,36.07275,261.5273 S,0,105786,,0.2087273 F,0,108119,,1
Sprite,Foreground,Centre,"lyrics\verse3\line4.png",320,240 M,0,108119,,36.07275,261.5273 S,0,108119,,0.2087273 F,0,110452,,1
Sprite,Foreground,Centre,"lyrics\verse3\line5.png",320,240 M,0,111119,,36.07275,261.5273 S,0,111119,,0.2087273 F,0,113953,,1
Sprite,Foreground,Centre,"lyrics\pre chorus2\line1.png",320,240 M,0,116286,,36.07275,261.5273 S,0,116286,,0.2087273 F,0,120786,,1
Sprite,Foreground,Centre,"lyrics\pre chorus2\line2.png",320,240 M,0,121619,,36.07275,261.5273 S,0,121619,,0.2087273 F,0,126119,,1
Sprite,Foreground,Centre,"lyrics\pre chorus2\line3.png",320,240 M,0,127786,,36.07275,261.5273 S,0,127786,,0.2087273 F,0,128619,,1
Sprite,Foreground,Centre,"lyrics\chorus1\line1.png",320,240 M,0,129119,,36.07275,261.5273 S,0,129119,,0.2087273 F,0,134286,,1
Sprite,Foreground,Centre,"lyrics\chorus2\line3.png",320,240 M,0,134786,,36.07275,261.5273 S,0,134786,,0.2087273 F,0,138452,,1
Sprite,Foreground,Centre,"lyrics\chorus1\line1.png",320,240 M,0,138453,,36.07275,261.5273 S,0,138453,,0.2087273 F,0,143787,,1
Sprite,Foreground,Centre,"lyrics\chorus1\line6.png",320,240 M,0,143786,,36.07275,261.5273 S,0,143786,,0.2087273 F,0,144952,,1
Sprite,Foreground,Centre,"lyrics\chorus2\line7.png",320,240 M,0,145453,,36.07275,261.5273 S,0,145453,,0.2087273 F,0,147619,,1
Sprite,Foreground,Centre,"lyrics\chorus2\line8.png",320,240 M,0,148119,,36.07275,261.5273 S,0,148119,,0.2087273 F,0,149953,,1
Sprite,Foreground,Centre,"lyrics\pre chorus3\line1.png",320,240 M,0,170953,,36.07275,261.5273 S,0,170953,,0.2087273 F,0,175453,,1
Sprite,Foreground,Centre,"lyrics\pre chorus3\line2.png",320,240 M,0,176286,,36.07275,261.5273 S,0,176286,,0.2087273 F,0,180786,,1
Sprite,Foreground,Centre,"lyrics\pre chorus3\line3.png",320,240 M,0,181619,,36.07275,261.5273 S,0,181619,,0.2087273 F,0,188119,,1
Sprite,Foreground,Centre,"lyrics\pre chorus3\line4.png",320,240 M,0,189619,,36.07275,261.5273 S,0,189619,,0.2087273 F,0,192786,,1
Sprite,Foreground,Centre,"lyrics\pre chorus3\line5.png",320,240 M,0,197119,,36.07275,261.5273 S,0,197119,,0.2087273 F,0,197952,,1
Sprite,Foreground,Centre,"lyrics\pre chorus3\line6.png",320,240 M,0,198786,,36.07275,261.5273 S,0,198786,,0.2087273 F,0,201119,,1
Sprite,Foreground,Centre,"lyrics\chorus1\line1.png",320,240 M,0,201119,,36.07275,261.5273 S,0,201119,,0.2087273 F,0,206286,,1
Sprite,Foreground,Centre,"lyrics\chorus3\line3.png",320,240 M,0,206786,,36.07275,261.5273 S,0,206786,,0.2087273 F,0,210452,,1
Sprite,Foreground,Centre,"lyrics\chorus1\line1.png",320,240 M,0,210453,,36.07275,261.5273 S,0,210453,,0.2087273 F,0,215787,,1
Sprite,Foreground,Centre,"lyrics\chorus3\line6.png",320,240 M,0,215786,,36.07275,261.5273 S,0,215786,,0.2087273 F,0,216952,,1
Sprite,Foreground,Centre,"lyrics\chorus3\line7.png",320,240 M,0,217453,,36.07275,261.5273 S,0,217453,,0.2087273 F,0,219619,,1
Sprite,Foreground,Centre,"lyrics\chorus3\line8.png",320,240 M,0,220119,,36.07275,261.5273 S,0,220119,,0.2087273 F,0,222119,,1
Sprite,Foreground,Centre,"lyrics\chorus3\line9.png",320,240 M,0,222453,,36.07275,261.5273 S,0,222453,,0.2087273 F,0,223619,,1
Sprite,Foreground,Centre,"lyrics\chorus3\line10.png",320,240 M,0,226453,,36.07275,261.5273 S,0,226453,,0.2087273 F,0,227619,,1
//Storyboard Layer 4 (Overlay)
//Storyboard Sound Samples

[TimingPoints]
620,333.333333333333,4,2,1,40,1,0
620,-111.111111111111,4,2,1,40,0,0
17786,-111.111111111111,4,2,1,50,0,0
19286,-100,4,2,1,70,0,0
29953,-111.111111111111,4,2,1,40,0,0
40286,-111.111111111111,4,2,1,50,0,0
40619,-105.263157894737,4,2,1,50,0,0
41870,-105.263157894737,4,2,1,30,0,0
41953,-105.263157894737,4,2,1,50,0,0
47203,-105.263157894737,4,2,1,30,0,0
47286,-105.263157894737,4,2,1,50,0,0
48620,-105.263157894737,4,2,1,60,0,0
51286,-111.111111111111,4,2,1,55,0,0
56619,-100,4,2,1,65,0,0
61120,-100,4,2,1,35,0,0
61286,-100,4,2,1,65,0,0
61786,-100,4,2,1,70,0,0
63286,-90.9090909090909,4,2,1,80,0,1
83786,-90.9090909090909,4,2,1,80,0,0
84120,-90.9090909090909,4,2,1,50,0,0
84619,-100,4,2,1,70,0,0
95286,-111.111111111111,4,2,1,45,0,0
96536,-111.111111111111,4,2,1,30,0,0
96620,-111.111111111111,4,2,1,45,0,0
102953,-111.111111111111,4,2,1,50,0,0
111286,-111.111111111111,4,2,1,60,0,0
112953,-111.111111111111,4,2,1,5,0,0
113953,-111.111111111111,4,2,1,60,0,0
116619,-111.111111111111,4,2,1,55,0,0
121953,-100,4,2,1,65,0,0
127120,-100,4,2,1,70,0,0
127953,-100,4,2,1,60,0,0
128120,-100,4,2,1,65,0,0
128286,-100,4,2,1,70,0,0
128453,-100,4,2,1,75,0,0
128619,-90.9090909090909,4,2,1,80,0,1
148786,-90.9090909090909,4,2,1,75,0,1
148953,-90.9090909090909,4,2,1,70,0,1
149120,-90.9090909090909,4,2,1,65,0,1
149286,-90.9090909090909,4,2,1,60,0,1
149453,-90.9090909090909,4,2,1,55,0,1
149620,-90.9090909090909,4,2,1,50,0,1
149786,-90.9090909090909,4,2,1,45,0,1
149953,-90.9090909090909,4,2,1,40,0,0
160619,-105.263157894737,4,2,1,40,0,0
171286,-111.111111111111,4,2,1,40,0,0
181620,-111.111111111111,4,2,1,20,0,0
181953,-111.111111111111,4,2,1,40,0,0
182953,-111.111111111111,4,2,1,30,0,0
183286,-111.111111111111,4,2,1,40,0,0
184120,-111.111111111111,4,2,1,30,0,0
184286,-111.111111111111,4,2,1,40,0,0
185620,-111.111111111111,4,2,1,30,0,0
185953,-111.111111111111,4,2,1,40,0,0
186953,-111.111111111111,4,2,1,50,0,0
187120,-111.111111111111,4,2,1,30,0,0
187286,-105.263157894737,4,2,1,65,0,0
194453,-105.263157894737,4,2,1,35,0,0
194620,-105.263157894737,4,2,1,65,0,0
195120,-105.263157894737,4,2,1,70,0,0
196453,-105.263157894737,4,2,1,75,0,0
197953,-100,4,2,1,80,0,0
198453,-100,4,2,1,30,0,0
198620,-100,4,2,1,70,0,0
200620,-100,4,2,1,80,0,1
203286,-100,4,2,1,80,0,0
203619,-100,4,2,1,80,0,1
205953,-90.9090909090909,4,2,1,80,0,1
231786,-90.9090909090909,4,2,1,80,0,0
232120,-90.9090909090909,4,2,1,50,0,0
232619,-100,4,2,1,70,0,0

[Colours]
Combo1 : 206,150,197
Combo2 : 231,150,146
Combo3 : 85,205,224
Combo4 : 252,212,103

[HitObjects]
35,93,620,6,0,L|22:30,2,45.8999985992432,2|0|0,3:2|0:0|1:2,0:0:0:0:
58,132,1119,2,0,P|110:134|143:95,1,91.7999971984864,2|0,3:2|1:2,0:0:0:0:
246,24,1953,2,0,L|257:69,1,45.8999985992432,2|0,3:2|0:0,0:0:0:0:
286,116,2286,1,0,1:2:0:0:
286,116,2453,2,0,P|278:164|269:226,1,91.7999971984864,2|0,3:2|1:2,0:0:0:0:
333,329,3286,6,0,P|390:311|423:308,1,91.7999971984864,2|0,3:2|1:2,0:0:0:0:
465,321,3786,2,0,P|488:279|475:236,1,91.7999971984864,2|0,3:2|1:2,0:0:0:0:
453,199,4286,1,2,2:0:0:0:
414,115,4619,2,0,L|425:53,1,45.8999985992432,2|0,3:2|0:0,0:0:0:0:
414,28,4953,1,0,1:2:0:0:
414,28,5119,2,0,P|365:9|319:27,1,91.7999971984864,2|0,3:2|1:2,0:0:0:0:
288,41,5619,1,2,2:0:0:0:
217,99,5953,6,0,L|204:202,1,91.7999971984864,2|0,3:2|1:2,0:0:0:0:
185,231,6453,2,0,L|197:290,2,45.8999985992432,2|0|0,3:2|0:0|1:2,0:0:0:0:
50,200,7286,2,0,P|21:248|35:297,1,91.7999971984864,2|0,3:2|1:2,0:0:0:0:
24,327,7786,2,0,L|86:346,1,45.8999985992432,2|0,3:2|0:0,0:0:0:0:
103,369,8119,1,0,1:2:0:0:
218,294,8619,6,0,L|211:231,2,45.8999985992432,2|0|0,3:2|0:0|1:2,0:0:0:0:
252,324,9119,2,0,L|245:387,2,45.8999985992432,2|0|0,3:2|0:0|1:2,0:0:0:0:
343,220,9953,2,0,L|354:157,1,45.8999985992432,2|0,3:2|0:0,0:0:0:0:
382,142,10286,1,0,1:2:0:0:
382,142,10453,2,0,P|435:141|461:178,1,91.7999971984864,2|0,3:2|1:2,0:0:0:0:
500,255,11119,1,8,2:1:0:0:
500,255,11286,6,0,P|486:306|477:360,1,91.7999971984864,2|0,3:2|1:2,0:0:0:0:
438,366,11786,2,0,P|405:375|378:368,1,45.8999985992432,2|0,3:2|0:0,0:0:0:0:
356,346,12119,1,0,1:2:0:0:
258,248,12619,2,0,P|247:211|287:144,1,91.7999971984864,2|0,3:2|1:2,0:0:0:0:
274,117,13119,2,0,P|217:107|155:79,1,91.7999971984864,2|0,3:2|1:2,0:0:0:0:
53,53,13953,6,0,L|41:2,2,45.8999985992432,2|0|0,3:2|0:0|1:2,0:0:0:0:
75,92,14453,2,0,L|61:201,1,91.7999971984864,2|0,3:2|1:2,0:0:0:0:
82,319,15286,2,0,L|147:306,1,45.8999985992432,2|0,3:2|0:0,0:0:0:0:
169,299,15619,1,0,1:2:0:0:
169,299,15786,2,0,P|233:299|263:361,1,137.69999579773,2|2,3:2|2:0,0:0:0:0:
346,320,16619,6,0,P|355:256|375:201,1,91.7999971984864,2|0,3:2|1:2,0:0:0:0:
388,186,17119,1,2,3:2:0:0:
342,106,17453,1,0,1:2:0:0:
252,127,17786,2,0,P|192:121|164:80,1,91.7999971984864,4|8,2:0|2:0,0:0:0:0:
133,75,18286,2,0,L|66:91,1,45.8999985992432,4|8,2:3|2:0,0:0:0:0:
48,109,18619,1,0,3:2:0:0:
28,312,19286,6,0,P|105:288|158:281,1,102,6|10,3:2|2:0,0:0:0:0:
169,321,19786,1,2,2:0:0:0:
169,321,19953,1,2,3:2:0:0:
256,269,20286,2,0,L|247:214,1,51,10|2,2:0|3:2,0:0:0:0:
222,174,20619,2,0,P|208:131|259:78,1,102,2|10,2:0|2:0,0:0:0:0:
276,53,21119,1,2,2:0:0:0:
368,96,21453,2,0,L|379:156,1,51,2|10,3:2|2:0,0:0:0:0:
410,184,21786,6,0,L|389:298,1,102,2|2,2:0|2:0,0:0:0:0:
392,339,22286,1,10,2:0:0:0:
392,339,22453,2,0,P|349:352|291:317,1,102,2|2,2:0|3:2,0:0:0:0:
254,304,22953,1,10,2:0:0:0:
164,351,23286,2,0,L|153:282,1,51,2|2,2:0|3:2,0:0:0:0:
129,263,23619,1,10,2:0:0:0:
129,263,23786,1,2,2:0:0:0:
173,171,24119,2,0,L|235:185,2,51,2|10|2,2:0|2:0|2:0,0:0:0:0:
134,137,24619,6,0,P|126:85|158:45,1,102,6|10,3:2|2:0,0:0:0:0:
192,13,25119,1,2,2:0:0:0:
192,13,25286,1,2,3:2:0:0:
268,80,25619,2,0,L|329:64,1,51,10|2,2:0|3:2,0:0:0:0:
358,36,25953,2,0,L|475:66,1,102,2|10,2:0|2:0,0:0:0:0:
493,96,26453,1,2,2:0:0:0:
432,177,26786,2,0,L|446:247,1,51,2|10,3:2|2:0,0:0:0:0:
452,276,27119,1,2,2:0:0:0:
405,368,27453,5,2,2:0:0:0:
405,368,27619,2,0,P|328:345|297:345,1,102,10|2,2:0|3:2,0:0:0:0:
263,370,28119,1,2,3:2:0:0:
160,348,28453,2,0,P|131:308|148:238,1,102,6|2,3:2|3:2,0:0:0:0:
98,230,28953,1,10,2:0:0:0:
98,230,29119,2,0,P|113:181|120:131,1,102,2|8,2:0|2:0,0:0:0:0:
100,84,29619,1,0,3:2:0:0:
170,24,29953,6,0,P|229:24|255:55,1,91.7999971984864,2|0,3:2|1:2,0:0:0:0:
277,84,30453,1,0,3:2:0:0:
318,166,30786,1,0,1:2:0:0:
206,246,31286,2,0,P|195:303|190:342,1,91.7999971984864,2|0,3:2|1:2,0:0:0:0:
229,360,31786,2,0,P|274:366|319:375,1,91.7999971984864,0|0,3:2|1:2,0:0:0:0:
436,302,32619,6,0,P|434:250|452:196,1,91.7999971984864,2|0,3:2|1:2,0:0:0:0:
421,172,33119,2,0,P|375:174|330:163,1,91.7999971984864,0|0,3:2|1:2,0:0:0:0:
250,50,33953,2,0,P|198:52|144:34,1,91.7999971984864,2|0,3:2|1:2,0:0:0:0:
114,47,34453,2,0,P|116:92|105:137,1,91.7999971984864,0|0,3:2|1:2,0:0:0:0:
40,258,35286,6,0,P|88:284|138:272,1,91.7999971984864,2|0,3:2|1:2,0:0:0:0:
164,299,35786,1,0,3:2:0:0:
234,240,36119,2,0,L|235:181,2,45.8999985992432,0|0|0,1:2|0:0|0:0,0:0:0:0:
271,266,36619,2,0,P|333:255|378:251,1,91.7999971984864,2|0,3:2|1:2,0:0:0:0:
407,252,37119,2,0,P|401:206|393:161,1,91.7999971984864,0|0,3:2|1:2,0:0:0:0:
364,26,37953,6,0,P|309:53|265:48,1,91.7999971984864,2|0,3:2|1:2,0:0:0:0:
234,45,38453,2,0,P|195:21|149:18,1,91.7999971984864,0|0,3:2|1:2,0:0:0:0:
12,54,39286,2,0,P|24:104|39:160,1,91.7999971984864,2|0,3:2|1:2,0:0:0:0:
67,174,39786,2,0,P|55:224|40:280,1,91.7999971984864,0|2,3:2|3:2,0:0:0:0:
55,307,40286,1,8,2:0:0:0:
150,319,40619,6,0,P|193:301|253:294,1,96.8999974124909,6|10,3:2|2:0,0:0:0:0:
287,323,41119,1,2,3:2:0:0:
287,323,41286,2,0,L|282:380,2,48.4499987062455,2|2|10,2:0|2:0|2:0,0:0:0:0:
363,263,41953,6,0,P|385:209|376:154,1,96.8999974124909,2|8,3:2|2:0,0:0:0:0:
412,133,42453,2,0,P|372:118|306:101,1,96.8999974124909,2|2,3:2|2:0,0:0:0:0:
290,65,42953,1,10,2:0:0:0:
194,52,43286,6,0,L|184:-2,2,48.4499987062455,2|2|10,3:2|2:0|2:0,0:0:0:0:
174,101,43786,1,2,3:2:0:0:
174,101,43953,2,0,P|159:142|161:209,1,96.8999974124909,2|10,2:0|2:0,0:0:0:0:
147,242,44453,1,2,2:0:0:0:
206,318,44786,2,0,P|247:329|266:332,1,48.4499987062455,2|8,2:0|2:0,0:0:0:0:
300,321,45119,2,0,P|336:279|329:233,1,96.8999974124909,0|0,3:2|0:0,0:0:0:0:
304,200,45619,1,8,2:0:0:0:
213,164,45953,6,0,P|152:184|98:194,1,96.8999974124909,2|10,3:2|2:0,0:0:0:0:
75,209,46453,2,0,P|95:270|105:324,1,96.8999974124909,0|2,3:2|2:0,0:0:0:0:
92,349,46953,1,10,2:0:0:0:
188,351,47286,6,0,P|232:364|270:335,1,96.8999974124909,2|10,3:2|2:0,0:0:0:0:
307,304,47786,2,0,L|289:251,2,48.4499987062455,2|2|2,3:2|2:0|2:0,0:0:0:0:
347,330,48286,1,10,2:0:0:0:
443,324,48619,6,0,P|477:277|468:227,1,96.8999974124909,6|8,3:2|2:0,0:0:0:0:
455,201,49119,1,2,3:2:0:0:
455,201,49286,2,0,P|459:135|472:93,1,96.8999974124909,2|8,3:2|2:0,0:0:0:0:
481,59,49786,1,2,3:2:0:0:
397,20,50119,1,2,3:2:0:0:
397,20,50286,2,0,P|331:63|301:63,1,96.8999974124909,14|8,2:0|2:3,0:0:0:0:
220,43,50953,2,0,L|209:118,1,48.4499987062455,4|4,2:3|2:3,0:0:0:0:
190,131,51286,6,0,P|135:151|90:160,1,91.7999971984864,6|0,3:2|0:0,0:0:0:0:
66,187,51786,1,2,3:2:0:0:
32,320,52286,2,0,P|45:358|56:373,1,45.8999985992432,10|10,2:0|2:0,0:0:0:0:
92,374,52619,2,0,P|141:356|194:345,1,91.7999971984864,2|2,3:2|2:0,0:0:0:0:
224,358,53119,1,0,3:2:0:0:
288,292,53453,2,0,P|283:266|280:245,2,45.8999985992432,10|2|10,2:0|3:2|2:0,0:0:0:0:
326,316,53953,6,0,P|366:323|424:340,1,91.7999971984864,2|2,3:2|2:0,0:0:0:0:
458,353,54453,1,2,3:2:0:0:
490,269,54786,1,2,2:0:0:0:
490,269,54953,2,0,P|481:227|486:204,1,45.8999985992432,8|10,2:0|2:0,0:0:0:0:
490,179,55286,2,0,P|454:145|402:131,1,91.7999971984864,2|2,3:2|2:0,0:0:0:0:
372,138,55786,1,2,3:2:0:0:
372,138,55953,1,2,2:0:0:0:
285,107,56286,2,0,P|278:67|279:49,1,45.8999985992432,10|10,2:0|2:0,0:0:0:0:
249,19,56619,6,0,P|164:37|134:46,1,102,6|8,3:2|2:0,0:0:0:0:
61,93,57286,2,0,P|74:126|77:143,1,51,2|2,3:2|3:2,0:0:0:0:
107,182,57619,1,10,2:0:0:0:
64,275,57953,2,0,P|94:326|144:333,1,102,2|10,3:2|2:0,0:0:0:0:
183,328,58453,1,0,0:0:0:0:
269,274,58786,2,0,P|313:273|341:270,1,51,10|10,2:0|2:0,0:0:0:0:
371,271,59119,6,0,P|384:207|392:163,1,102,6|2,3:2|3:2,0:0:0:0:
419,130,59619,1,10,2:0:0:0:
419,130,59786,1,2,2:0:0:0:
336,69,60119,1,2,3:2:0:0:
245,21,60453,2,0,P|224:81|258:129,1,102,2|0,2:0|3:2,0:0:0:0:
261,159,60953,5,14,2:0:0:0:
179,219,61286,1,8,2:0:0:0:
179,219,61453,1,4,2:3:0:0:
82,185,61786,2,0,B|58:145|58:145|86:81,1,102,6|2,3:2|3:2,0:0:0:0:
101,47,62286,2,0,P|137:52|167:51,1,51,10|2,2:0|3:2,0:0:0:0:
196,27,62619,1,10,2:0:0:0:
249,114,62953,1,0,0:0:0:0:
347,60,63286,6,0,P|407:66|435:108,1,112.200003424072,6|8,3:2|2:0,0:0:0:0:
461,160,63786,1,2,2:0:0:0:
461,160,63953,2,0,L|447:222,1,56.1000017120362,2|0,3:2|3:2,0:0:0:0:
464,268,64286,1,10,2:0:0:0:
380,343,64619,2,0,P|323:363|279:338,1,112.200003424072,2|8,3:2|2:0,0:0:0:0:
231,324,65119,1,2,3:2:0:0:
231,324,65286,2,0,L|221:261,1,56.1000017120362,2|0,2:0|3:2,0:0:0:0:
193,220,65619,1,10,2:0:0:0:
184,107,65953,6,0,P|123:101|88:137,1,112.200003424072,2|8,3:2|2:0,0:0:0:0:
43,164,66453,1,2,2:0:0:0:
43,164,66620,2,0,L|49:227,1,56.1000017120362,2|0,3:2|3:2,0:0:0:0:
30,272,66953,1,10,2:0:0:0:
105,354,67286,2,0,P|163:369|204:340,1,112.200003424072,2|8,3:2|2:0,0:0:0:0:
258,322,67786,1,2,3:2:0:0:
258,322,67953,2,0,L|268:259,1,56.1000017120362,2|0,2:0|3:2,0:0:0:0:
248,213,68286,1,10,2:0:0:0:
308,118,68619,6,0,P|252:109|197:98,2,112.200003424072,6|10|2,3:2|2:0|3:2,0:0:0:0:
362,96,69453,1,2,3:2:0:0:
362,96,69619,1,10,2:0:0:0:
463,144,69953,2,0,P|480:108|475:78,2,56.1000017120362,2|2|10,3:2|2:0|2:0,0:0:0:0:
438,194,70453,2,0,P|449:243|457:313,1,112.200003424072,2|2,3:2|3:2,0:0:0:0:
434,356,70953,1,10,2:0:0:0:
333,307,71286,6,0,L|263:319,1,56.1000017120362,6|10,3:2|2:0,0:0:0:0:
234,350,71619,1,10,2:0:0:0:
234,350,71786,2,0,P|171:345|141:297,1,112.200003424072,6|2,3:2|3:2,0:0:0:0:
60,232,72453,2,0,P|68:182|75:118,1,112.200003424072,6|0,3:2|3:2,0:0:0:0:
107,75,72953,1,14,2:0:0:0:
217,113,73286,2,0,L|287:99,1,56.1000017120362,6|8,3:2|2:0,0:0:0:0:
311,62,73619,2,0,L|381:48,1,56.1000017120362,10|8,2:0|2:0,0:0:0:0:
419,33,73953,6,0,P|408:84|401:155,1,112.200003424072,6|8,3:2|2:0,0:0:0:0:
424,200,74453,1,2,2:0:0:0:
424,200,74619,2,0,P|388:220|363:220,1,56.1000017120362,2|0,3:2|3:2,0:0:0:0:
321,243,74953,1,10,2:0:0:0:
222,296,75286,2,0,P|216:240|204:185,1,112.200003424072,2|8,3:2|2:0,0:0:0:0:
182,139,75786,1,2,3:2:0:0:
182,139,75952,2,0,P|218:119|243:119,1,56.1000017120362,2|0,2:0|3:2,0:0:0:0:
281,89,76286,1,10,2:0:0:0:
197,14,76619,6,0,P|125:30|69:34,1,112.200003424072,2|8,3:2|2:0,0:0:0:0:
39,60,77119,1,2,2:0:0:0:
39,60,77286,2,0,P|24:92|34:127,1,56.1000017120362,2|0,3:2|3:2,0:0:0:0:
45,164,77619,1,10,2:0:0:0:
3,268,77953,2,0,P|58:273|124:295,1,112.200003424072,2|8,3:2|2:0,0:0:0:0:
154,334,78453,1,2,3:2:0:0:
154,334,78619,2,0,L|227:315,1,56.1000017120362,2|0,2:0|3:2,0:0:0:0:
259,296,78953,1,10,2:0:0:0:
346,365,79286,6,0,P|382:324|377:270,1,112.200003424072,6|10,3:2|2:0,0:0:0:0:
344,223,79786,1,2,2:0:0:0:
344,223,79953,2,0,L|333:166,1,56.1000017120362,2|0,3:2|3:2,0:0:0:0:
312,115,80286,1,10,2:0:0:0:
395,40,80619,6,0,P|448:68|446:130,1,112.200003424072,2|10,3:2|2:0,0:0:0:0:
449,171,81119,1,2,3:2:0:0:
505,274,81453,1,2,3:2:0:0:
505,274,81619,2,0,L|443:294,1,56.1000017120362,10|2,2:0|2:0,0:0:0:0:
407,326,81953,6,0,P|344:309|283:299,1,112.200003424072,2|10,3:2|2:0,0:0:0:0:
201,243,82619,2,0,L|190:304,1,56.1000017120362,2|2,3:2|3:2,0:0:0:0:
178,356,82953,1,10,2:0:0:0:
178,356,83119,2,0,P|132:379|69:359,1,112.200003424072,6|2,3:2|3:2,0:0:0:0:
16,344,83619,2,0,P|10:314|6:281,1,56.1000017120362,10|2,2:0|3:2,0:0:0:0:
53,30,84619,6,0,P|130:54|183:61,1,102,6|10,3:2|2:0,0:0:0:0:
202,42,85119,1,2,2:0:0:0:
202,42,85286,1,2,3:2:0:0:
274,113,85619,2,0,L|265:168,1,51,10|2,2:0|3:2,0:0:0:0:
238,206,85952,2,0,P|224:249|275:302,1,102,2|10,2:0|2:0,0:0:0:0:
290,328,86452,1,2,2:0:0:0:
382,283,86786,2,0,L|393:223,1,51,2|10,3:2|2:0,0:0:0:0:
425,195,87119,6,0,L|404:81,1,102,2|2,2:0|2:0,0:0:0:0:
398,48,87619,1,10,2:0:0:0:
398,48,87786,2,0,P|355:35|297:70,1,102,2|2,2:0|3:2,0:0:0:0:
256,73,88286,1,10,2:0:0:0:
161,36,88619,2,0,L|150:105,1,51,2|2,2:0|3:2,0:0:0:0:
124,129,88952,1,10,2:0:0:0:
124,129,89119,1,2,2:0:0:0:
176,216,89452,2,0,L|238:202,2,51,2|10|2,2:0|2:0|2:0,0:0:0:0:
134,246,89952,6,0,P|126:298|158:338,1,102,6|10,3:2|2:0,0:0:0:0:
195,374,90452,1,2,2:0:0:0:
195,374,90619,1,2,3:2:0:0:
272,307,90952,2,0,L|333:323,1,51,10|2,2:0|3:2,0:0:0:0:
362,351,91286,2,0,L|479:321,1,102,2|10,2:0|2:0,0:0:0:0:
497,289,91786,1,2,2:0:0:0:
436,207,92119,2,0,L|450:137,1,51,2|10,3:2|2:0,0:0:0:0:
457,107,92452,1,2,2:0:0:0:
389,37,92786,5,2,2:0:0:0:
389,37,92952,2,0,P|312:60|281:60,1,102,10|2,2:0|3:2,0:0:0:0:
243,41,93452,1,2,3:2:0:0:
151,86,93786,2,0,P|122:126|139:196,1,102,6|2,3:2|3:2,0:0:0:0:
149,227,94286,1,14,2:0:0:0:
149,227,94452,2,0,P|199:235|248:249,1,102,2|8,2:0|2:0,0:0:0:0:
278,290,94952,1,8,3:2:0:0:
371,243,95286,6,0,P|424:228|475:224,2,91.7999971984864,6|10|2,3:2|2:0|2:0,0:0:0:0:
307,179,96286,1,10,2:0:0:0:
307,179,96453,2,0,P|254:164|203:160,1,91.7999971984864,2|2,2:0|2:0,0:0:0:0:
144,215,97119,2,0,P|91:230|40:234,1,91.7999971984864,2|2,3:2|2:0,0:0:0:0:
20,203,97619,1,10,2:0:0:0:
5,112,97953,6,0,P|40:80|96:88,1,91.7999971984864,2|10,3:2|2:0,0:0:0:0:
131,91,98453,1,2,3:2:0:0:
131,91,98619,1,2,2:0:0:0:
204,35,98953,1,10,2:0:0:0:
293,54,99286,2,0,P|287:125|289:154,1,91.7999971984864,2|8,3:2|2:0,0:0:0:0:
325,172,99786,2,0,P|330:217|329:263,1,91.7999971984864,2|0,3:2|0:0,0:0:0:0:
346,306,100286,1,10,2:0:0:0:
268,354,100619,6,0,P|216:333|175:333,1,91.7999971984864,2|10,3:2|2:0,0:0:0:0:
139,345,101119,1,2,3:2:0:0:
139,345,101286,2,0,P|130:272|128:244,1,91.7999971984864,2|10,2:0|2:0,0:0:0:0:
63,189,101953,2,0,P|72:116|74:88,1,91.7999971984864,0|10,3:2|2:0,0:0:0:0:
75,51,102453,2,0,P|123:37|164:61,1,91.7999971984864,2|0,3:2|3:2,0:0:0:0:
190,87,102953,1,10,2:0:0:0:
252,154,103286,6,0,P|290:143|357:134,1,91.7999971984864,10|2,2:0|3:2,0:0:0:0:
375,103,103786,2,0,P|420:109|464:122,1,91.7999971984864,10|2,2:0|3:2,0:0:0:0:
492,158,104286,1,10,2:0:0:0:
427,240,104619,2,0,P|438:259|447:280,1,45.8999985992432,0|2,3:2|3:2,0:0:0:0:
462,324,104953,1,14,2:0:0:0:
377,359,105286,2,0,P|354:355|331:352,1,45.8999985992432,8|4,2:0|2:3,0:0:0:0:
289,370,105619,1,4,2:3:0:0:
200,344,105953,6,0,P|194:281|184:247,1,91.7999971984864,6|10,3:2|2:0,0:0:0:0:
155,227,106453,1,2,3:2:0:0:
155,227,106619,2,0,P|121:220|103:222,2,45.8999985992432,2|2|10,2:0|2:0|2:0,0:0:0:0:
191,142,107286,2,0,P|230:117|304:120,1,91.7999971984864,2|10,3:2|2:0,0:0:0:0:
319,118,107786,1,2,3:2:0:0:
392,173,108119,2,0,P|428:185|452:190,2,45.8999985992432,2|10|2,2:0|2:0|2:0,0:0:0:0:
358,204,108619,6,0,P|305:226|267:242,1,91.7999971984864,2|10,3:2|2:0,0:0:0:0:
240,270,109119,1,0,3:2:0:0:
240,270,109286,2,0,P|222:312|204:354,1,91.7999971984864,2|10,2:0|2:0,0:0:0:0:
119,318,109953,2,0,P|74:296|22:305,1,91.7999971984864,2|10,3:2|2:0,0:0:0:0:
13,210,110619,2,0,P|26:168|31:155,1,45.8999985992432,2|0,2:0|3:2,0:0:0:0:
52,127,110953,1,10,2:0:0:0:
117,63,111286,6,0,P|180:50|223:49,1,91.7999971984864,6|2,3:2|2:0,0:0:0:0:
255,66,111786,1,2,3:2:0:0:
255,66,111953,1,10,2:0:0:0:
350,6,112286,2,0,L|368:81,1,45.8999985992432,2|10,2:0|2:0,0:0:0:0:
382,90,112619,1,2,3:2:0:0:
461,310,113953,6,0,P|413:278|362:288,1,91.7999971984864,6|8,3:2|2:0,0:0:0:0:
337,264,114453,2,0,P|289:296|238:286,1,91.7999971984864,6|10,3:2|2:0,0:0:0:0:
221,264,114953,1,6,3:2:0:0:
104,335,115453,1,8,2:0:0:0:
104,335,115619,2,0,P|91:287|86:275,1,45.8999985992432,0|8,3:2|2:0,0:0:0:0:
64,253,115953,2,0,P|37:265|17:272,2,45.8999985992432,8|8|2,2:0|2:3|3:2,0:0:0:0:
120,180,116619,6,0,P|134:124|120:67,1,91.7999971984864,6|0,3:2|0:0,0:0:0:0:
114,47,117119,1,2,3:2:0:0:
250,61,117619,2,0,L|314:47,1,45.8999985992432,10|10,2:0|2:0,0:0:0:0:
336,31,117953,2,0,P|370:70|359:127,1,91.7999971984864,2|2,3:2|2:0,0:0:0:0:
348,148,118453,1,0,3:2:0:0:
411,217,118786,2,0,P|433:211|455:206,2,45.8999985992432,10|2|10,2:0|3:2|2:0,0:0:0:0:
371,239,119286,6,0,P|354:288|377:332,1,91.7999971984864,2|2,3:2|2:0,0:0:0:0:
377,368,119786,1,2,3:2:0:0:
289,381,120119,1,2,2:0:0:0:
289,381,120286,2,0,L|232:364,1,45.8999985992432,8|10,2:0|2:0,0:0:0:0:
213,334,120619,2,0,P|169:344|105:353,1,91.7999971984864,2|2,3:2|2:0,0:0:0:0:
78,363,121119,1,10,2:0:0:0:
17,301,121453,1,0,3:2:0:0:
17,301,121619,2,0,L|31:235,1,45.8999985992432,10|10,2:0|2:0,0:0:0:0:
57,215,121953,6,0,P|79:168|63:122,1,102,6|8,3:2|2:0,0:0:0:0:
110,32,122619,1,2,3:2:0:0:
194,88,122953,2,0,L|248:76,1,51,10|2,2:0|2:0,0:0:0:0:
292,92,123286,2,0,P|343:75|365:18,1,102,2|10,3:2|2:0,0:0:0:0:
411,14,123786,1,0,0:0:0:0:
478,90,124119,2,0,L|461:173,1,51,10|10,2:0|2:0,0:0:0:0:
459,190,124453,6,0,P|404:226|366:210,1,102,6|0,3:2|3:2,0:0:0:0:
331,199,124953,1,10,2:0:0:0:
331,199,125119,1,2,2:0:0:0:
243,251,125453,1,2,3:2:0:0:
153,300,125786,2,0,P|141:233|120:178,1,102,2|0,2:0|3:2,0:0:0:0:
94,164,126286,5,14,2:0:0:0:
47,79,126619,1,0,3:2:0:0:
47,79,126786,1,8,2:0:0:0:
136,29,127119,2,0,B|189:43|189:43|273:21,1,102,6|2,3:2|3:2,0:0:0:0:
284,18,127619,2,0,L|298:74,1,51,10|2,2:0|3:2,0:0:0:0:
323,111,127953,1,10,2:0:0:0:
404,172,128286,1,10,2:0:0:0:
355,273,128619,6,0,P|294:268|256:324,1,112.200003424072,6|8,3:2|2:0,0:0:0:0:
230,348,129119,1,2,2:0:0:0:
230,348,129286,2,0,L|154:334,1,56.1000017120362,2|0,3:2|3:2,0:0:0:0:
122,357,129619,1,10,2:0:0:0:
16,317,129953,2,0,P|11:256|67:218,1,112.200003424072,2|8,3:2|2:0,0:0:0:0:
91,192,130453,1,2,3:2:0:0:
91,192,130620,2,0,L|77:116,1,56.1000017120362,2|0,2:0|3:2,0:0:0:0:
100,84,130953,1,10,2:0:0:0:
188,15,131286,6,0,P|249:10|287:66,1,112.200003424072,2|8,3:2|2:0,0:0:0:0:
313,90,131786,1,2,2:0:0:0:
313,90,131953,2,0,L|389:76,1,56.1000017120362,2|0,3:2|3:2,0:0:0:0:
417,53,132286,1,10,2:0:0:0:
496,131,132619,2,0,P|501:192|445:230,1,112.200003424072,2|8,3:2|2:0,0:0:0:0:
421,256,133119,1,2,3:2:0:0:
421,256,133286,2,0,L|435:332,1,56.1000017120362,2|0,2:0|3:2,0:0:0:0:
412,364,133619,1,10,2:0:0:0:
304,331,133953,6,0,P|231:343|169:365,1,112.200003424072,6|10,3:2|2:0,0:0:0:0:
85,327,134619,2,0,P|72:291|92:245,1,56.1000017120362,2|2,3:2|3:2,0:0:0:0:
97,222,134953,1,10,2:0:0:0:
161,130,135286,2,0,L|149:71,2,56.1000017120362,2|2|10,3:2|2:0|2:0,0:0:0:0:
201,168,135786,2,0,P|260:170|308:117,1,112.200003424072,2|2,3:2|3:2,0:0:0:0:
332,92,136286,1,10,2:0:0:0:
417,19,136619,6,0,L|485:40,1,56.1000017120362,6|10,3:2|2:0,0:0:0:0:
504,87,136953,1,10,2:0:0:0:
504,87,137119,2,0,P|490:146|486:211,1,112.200003424072,6|2,3:2|3:2,0:0:0:0:
451,304,137786,2,0,P|386:295|351:357,1,112.200003424072,6|0,3:2|3:2,0:0:0:0:
316,364,138286,1,10,2:0:0:0:
214,315,138619,2,0,P|205:285|215:253,1,56.1000017120362,2|8,3:2|2:0,0:0:0:0:
244,216,138953,2,0,P|249:188|240:162,1,56.1000017120362,10|8,2:0|2:0,0:0:0:0:
203,119,139286,6,0,P|141:111|83:97,1,112.200003424072,6|8,3:2|2:0,0:0:0:0:
40,121,139786,1,2,2:0:0:0:
40,121,139953,2,0,L|26:187,1,56.1000017120362,2|0,3:2|3:2,0:0:0:0:
31,230,140286,1,10,2:0:0:0:
59,338,140619,2,0,P|121:346|179:360,1,112.200003424072,2|8,3:2|2:0,0:0:0:0:
222,336,141119,1,2,3:2:0:0:
222,336,141286,2,0,L|236:270,1,56.1000017120362,2|0,2:0|3:2,0:0:0:0:
231,227,141619,1,10,2:0:0:0:
340,201,141953,6,0,P|332:139|318:81,1,112.200003424072,2|8,3:2|2:0,0:0:0:0:
345,42,142453,1,2,2:0:0:0:
345,42,142620,2,0,P|375:30|411:35,1,56.1000017120362,2|0,3:2|3:2,0:0:0:0:
450,52,142953,1,10,2:0:0:0:
493,155,143286,2,0,P|501:217|515:275,1,112.200003424072,2|8,3:2|2:0,0:0:0:0:
482,314,143786,1,2,3:2:0:0:
482,314,143953,2,0,L|416:328,1,56.1000017120362,2|0,2:0|3:2,0:0:0:0:
381,358,144286,1,10,2:0:0:0:
275,319,144619,6,0,P|256:274|314:202,1,112.200003424072,6|10,3:2|2:0,0:0:0:0:
356,136,145286,2,0,L|345:66,1,56.1000017120362,2|0,3:2|3:2,0:0:0:0:
343,24,145619,1,10,2:0:0:0:
230,14,145953,2,0,P|165:32|93:28,1,112.200003424072,2|10,3:2|2:0,0:0:0:0:
70,57,146453,1,2,3:2:0:0:
19,155,146786,1,2,3:2:0:0:
19,155,146953,2,0,L|32:227,1,56.1000017120362,10|2,2:0|2:0,0:0:0:0:
72,245,147286,6,0,P|131:237|165:292,1,112.200003424072,2|10,3:2|2:0,0:0:0:0:
237,357,147953,2,0,L|311:341,1,56.1000017120362,2|2,3:2|3:2,0:0:0:0:
346,357,148286,1,10,2:0:0:0:
346,357,148453,2,0,P|378:310|360:248,1,112.200003424072,6|8,3:2|2:0,0:0:0:0:
339,210,148953,1,8,2:3:0:0:
339,210,149119,1,8,2:3:0:0:
411,124,149453,2,0,L|422:63,2,56.1000017120362,4|4|4,2:3|2:3|2:3,0:0:0:0:
368,49,160619,6,0,P|414:36|462:28,2,96.8999974124909,6|2|10,3:2|2:0|2:0,0:0:0:0:
279,89,161619,2,0,P|244:84|222:85,1,48.4499987062455,2|8,3:2|2:0,0:0:0:0:
182,77,161953,2,0,P|184:33|187:21,2,48.4499987062455,2|8|2,3:2|2:0|3:2,0:0:0:0:
116,148,162619,1,10,2:0:0:0:
117,245,162953,2,0,P|113:285|107:304,1,48.4499987062455,2|8,3:2|2:0,0:0:0:0:
102,340,163286,6,0,P|56:322|9:314,2,96.8999974124909,2|2|10,3:2|3:2|2:0,0:0:0:0:
193,307,164286,1,2,3:2:0:0:
289,316,164619,2,0,P|289:356|285:375,2,48.4499987062455,2|8|2,3:2|2:0|3:2,0:0:0:0:
270,220,165286,2,0,P|266:174|301:132,1,96.8999974124909,10|10,2:0|2:0,0:0:0:0:
356,59,165953,6,0,P|428:87|461:96,2,96.8999974124909,2|2|10,3:2|3:2|2:0,0:0:0:0:
259,54,166953,2,0,P|223:59|205:63,1,48.4499987062455,2|8,3:2|2:0,0:0:0:0:
177,96,167286,2,0,P|181:119|184:143,2,48.4499987062455,2|8|2,3:2|2:0|3:2,0:0:0:0:
92,48,167953,1,10,2:0:0:0:
32,124,168286,2,0,P|41:164|45:182,1,48.4499987062455,2|2,3:2|2:0,0:0:0:0:
68,212,168619,6,0,P|54:276|50:321,1,96.8999974124909,2|2,3:2|3:2,0:0:0:0:
146,324,169286,2,0,P|157:276|163:228,1,96.8999974124909,14|0,2:0|3:2,0:0:0:0:
174,181,169786,1,8,2:0:0:0:
174,181,169953,2,0,P|210:188|233:197,1,48.4499987062455,0|0,3:2|3:2,0:0:0:0:
267,176,170286,1,12,2:0:0:0:
338,241,170619,2,0,P|372:251|393:253,1,48.4499987062455,8|8,2:3|2:3,0:0:0:0:
422,222,170953,2,0,P|445:218|468:210,1,48.4499987062455,4|4,2:3|2:3,0:0:0:0:
490,169,171286,6,0,P|500:104|484:67,1,91.7999971984864,6|0,3:2|0:0,0:0:0:0:
454,54,171786,1,2,3:2:0:0:
318,26,172286,2,0,P|281:28|261:33,1,45.8999985992432,0|0,1:2|1:2,0:0:0:0:
235,57,172619,2,0,P|228:117|226:178,1,91.7999971984864,0|0,3:2|0:0,0:0:0:0:
233,193,173119,1,2,3:2:0:0:
270,277,173453,2,0,P|303:289|322:297,2,45.8999985992432,0|4|0,0:0|3:0|0:0,0:0:0:0:
227,295,173953,6,0,P|176:333|143:330,1,91.7999971984864,2|0,3:2|0:0,0:0:0:0:
109,311,174453,1,2,3:2:0:0:
35,194,174953,2,0,P|29:157|27:140,1,45.8999985992432,0|0,1:2|1:2,0:0:0:0:
26,102,175286,2,0,P|76:92|121:85,1,91.7999971984864,2|0,3:2|0:0,0:0:0:0:
157,65,175786,1,2,3:2:0:0:
279,127,176286,2,0,P|320:139|335:145,1,45.8999985992432,8|0,3:0|0:0,0:0:0:0:
365,156,176619,6,0,P|417:135|488:139,1,91.7999971984864,2|0,3:2|0:0,0:0:0:0:
488,161,177119,1,2,3:2:0:0:
486,298,177619,2,0,P|476:337|470:349,1,45.8999985992432,0|0,1:2|1:2,0:0:0:0:
431,361,177953,2,0,P|367:344|336:338,1,91.7999971984864,2|0,3:2|0:0,0:0:0:0:
304,312,178453,1,2,3:2:0:0:
174,358,178953,2,0,P|165:321|161:307,1,45.8999985992432,4|0,3:0|0:0,0:0:0:0:
169,267,179286,6,0,P|106:276|63:289,1,91.7999971984864,2|0,3:2|0:0,0:0:0:0:
34,294,179786,1,2,3:2:0:0:
17,157,180286,2,0,P|17:134|23:111,1,45.8999985992432,0|0,1:2|1:2,0:0:0:0:
28,66,180619,1,2,3:2:0:0:
156,16,181119,2,0,P|219:30|268:35,1,91.7999971984864,2|0,3:2|0:0,0:0:0:0:
291,39,181619,2,0,P|293:77|297:97,1,45.8999985992432,8|8,2:0|2:0,0:0:0:0:
315,126,181953,6,0,P|360:119|405:108,1,91.7999971984864,6|0,3:2|0:0,0:0:0:0:
450,102,182453,1,2,3:2:0:0:
501,229,182953,2,0,P|494:268|491:284,1,45.8999985992432,8|8,2:0|2:0,0:0:0:0:
479,318,183286,2,0,P|416:324|360:336,1,91.7999971984864,2|0,3:2|0:0,0:0:0:0:
348,351,183786,1,2,3:2:0:0:
284,284,184119,2,0,P|295:254|300:237,2,45.8999985992432,8|4|0,2:0|3:0|0:0,0:0:0:0:
240,299,184619,6,0,P|187:309|128:327,1,91.7999971984864,2|0,3:2|0:0,0:0:0:0:
104,313,185119,1,2,3:2:0:0:
14,208,185619,2,0,P|24:166|27:148,1,45.8999985992432,8|8,2:0|2:0,0:0:0:0:
38,119,185953,2,0,P|95:127|151:137,1,91.7999971984864,2|0,3:2|0:0,0:0:0:0:
174,137,186453,1,2,3:2:0:0:
256,93,186786,1,2,2:0:0:0:
256,93,186953,2,0,P|300:84|336:78,1,45.8999985992432,8|8,2:0|2:0,0:0:0:0:
347,68,187286,6,0,P|378:112|363:162,1,96.8999974124909,6|10,3:2|2:0,0:0:0:0:
429,228,187953,2,0,L|494:213,2,48.4499987062455,2|2|10,3:2|3:2|2:0,0:0:0:0:
398,265,188453,2,0,P|341:277|267:318,1,96.8999974124909,6|2,3:2|3:2,0:0:0:0:
277,331,188953,1,10,2:0:0:0:
186,295,189286,2,0,L|176:227,1,48.4499987062455,0|0,3:2|3:2,0:0:0:0:
207,209,189619,1,10,2:0:0:0:
207,209,189786,6,0,P|196:145|185:81,1,96.8999974124909,10|2,2:0|2:0,0:0:0:0:
204,67,190286,1,10,2:0:0:0:
119,19,190619,2,0,L|68:37,1,48.4499987062455,0|2,3:2|3:2,0:0:0:0:
36,67,190953,1,10,2:0:0:0:
36,67,191119,2,0,P|25:124|64:162,1,96.8999974124909,6|0,3:2|3:2,0:0:0:0:
78,188,191619,1,10,2:0:0:0:
154,247,191953,2,0,P|169:224|169:190,2,48.4499987062455,0|0|10,3:2|3:2|2:0,0:0:0:0:
133,296,192453,6,0,P|201:308|261:339,1,96.8999974124909,2|2,3:2|2:0,0:0:0:0:
265,347,192953,1,10,2:0:0:0:
342,288,193286,1,2,3:2:0:0:
342,288,193453,1,2,3:2:0:0:
418,347,193786,1,2,3:2:0:0:
418,347,193953,2,0,P|451:302|438:241,1,96.8999974124909,2|10,2:0|2:0,0:0:0:0:
468,218,194453,1,10,2:0:0:0:
405,158,194786,2,0,L|416:96,1,48.4499987062455,2|2,3:2|2:0,0:0:0:0:
438,68,195119,6,0,P|362:56|323:44,1,96.8999974124909,6|2,3:2|3:2,0:0:0:0:
303,22,195619,1,10,2:0:0:0:
216,67,195953,2,0,L|231:137,2,48.4499987062455,2|10|10,3:2|2:0|2:0,0:0:0:0:
185,29,196453,1,2,3:1:0:0:
103,81,196786,1,2,3:1:0:0:
27,140,197119,1,2,3:1:0:0:
27,140,197286,1,8,2:0:0:0:
102,201,197619,1,0,0:0:0:0:
50,289,197953,6,0,B|163:303|129:339|259:363,1,204,6|8,3:2|2:0,0:0:0:0:
285,336,198786,1,8,2:3:0:0:
351,259,199119,2,0,P|344:201|331:131,1,102,6|0,3:2|3:2,0:0:0:0:
352,112,199619,1,8,2:0:0:0:
352,112,199786,1,0,3:2:0:0:
433,51,200119,2,0,L|418:-13,2,51,2|2|2,2:1|2:1|2:1,0:0:0:0:
473,82,200619,6,0,P|506:133|467:227,1,153,6|2,3:2|3:2,0:0:0:0:
444,252,201286,1,10,2:0:0:0:
486,344,201619,1,2,2:0:0:0:
391,376,201953,1,2,2:0:0:0:
391,376,202119,2,0,P|321:350|261:345,1,102,8|2,2:0|3:2,0:0:0:0:
251,317,202619,1,10,2:0:0:0:
166,373,202953,1,10,2:0:0:0:
101,293,203286,2,0,L|92:233,1,51,2|0,3:2|3:2,0:0:0:0:
67,198,203619,6,0,P|136:185|211:163,1,102,12|2,2:0|3:2,0:0:0:0:
206,144,204119,2,0,L|276:161,1,51,0|10,3:2|2:0,0:0:0:0:
302,135,204453,2,0,P|333:91|307:29,1,102,6|0,3:2|3:2,0:0:0:0:
290,8,204953,1,12,2:0:0:0:
196,48,205286,2,0,L|125:40,1,51,6|8,3:2|2:0,0:0:0:0:
98,62,205619,1,10,2:0:0:0:
31,136,205953,6,0,P|-4:93|1:34,2,112.200003424072,6|10|2,3:2|2:0|3:2,0:0:0:0:
72,173,206786,1,2,3:2:0:0:
72,173,206953,1,10,2:0:0:0:
150,252,207286,2,0,L|138:315,2,56.1000017120362,2|2|10,3:2|2:0|2:0,0:0:0:0:
190,212,207786,2,0,P|251:202|290:261,1,112.200003424072,2|2,3:2|3:2,0:0:0:0:
323,274,208286,1,10,2:0:0:0:
412,341,208619,6,0,P|429:308|429:273,1,56.1000017120362,6|10,3:2|2:0,0:0:0:0:
469,248,208953,1,10,2:0:0:0:
469,248,209119,2,0,P|447:176|447:112,1,112.200003424072,6|2,3:2|3:2,0:0:0:0:
403,35,209786,2,0,P|347:24|305:60,1,112.200003424072,6|0,3:2|3:2,0:0:0:0:
271,100,210286,1,14,2:0:0:0:
174,157,210619,2,0,P|158:133|158:104,1,56.1000017120362,6|8,3:2|2:0,0:0:0:0:
131,54,210953,2,0,P|87:70|54:78,1,56.1000017120362,10|8,2:0|2:0,0:0:0:0:
31,104,211286,6,0,P|29:163|12:237,1,112.200003424072,6|8,3:2|2:0,0:0:0:0:
50,268,211786,1,2,2:0:0:0:
50,268,211953,2,0,P|40:305|38:346,1,56.1000017120362,2|0,3:2|3:2,0:0:0:0:
64,372,212286,1,10,2:0:0:0:
153,304,212619,2,0,P|212:306|286:323,1,112.200003424072,2|8,3:2|2:0,0:0:0:0:
308,281,213119,1,2,3:2:0:0:
308,281,213286,2,0,P|345:291|386:293,1,56.1000017120362,2|0,2:0|3:2,0:0:0:0:
408,324,213619,1,10,2:0:0:0:
497,255,213953,6,0,P|499:196|516:122,1,112.200003424072,2|8,3:2|2:0,0:0:0:0:
498,93,214453,1,2,2:0:0:0:
498,93,214619,2,0,P|465:80|437:83,1,56.1000017120362,2|0,3:2|3:2,0:0:0:0:
398,112,214953,1,10,2:0:0:0:
357,216,215286,2,0,P|274:197|205:193,1,112.200003424072,2|8,3:2|2:0,0:0:0:0:
204,160,215786,1,2,3:2:0:0:
204,160,215953,2,0,P|164:153|133:142,1,56.1000017120362,2|0,2:0|3:2,0:0:0:0:
96,166,216286,1,10,2:0:0:0:
17,85,216619,6,0,P|5:138|-3:213,2,112.200003424072,6|10|2,3:2|2:0|3:2,0:0:0:0:
66,55,217453,1,2,3:2:0:0:
66,55,217619,1,10,2:0:0:0:
169,99,217953,2,0,P|180:69|168:28,2,56.1000017120362,2|2|10,3:2|2:0|2:0,0:0:0:0:
147,150,218453,2,0,P|170:212|185:294,1,112.200003424072,2|2,3:2|3:2,0:0:0:0:
177,312,218953,1,10,2:0:0:0:
271,371,219286,6,0,P|338:357|412:348,1,112.200003424072,0|8,3:2|2:0,0:0:0:0:
454,265,219953,2,0,P|485:275|520:279,2,56.1000017120362,2|2|10,3:2|3:2|2:0,0:0:0:0:
415,224,220453,1,6,3:2:0:0:
357,134,220786,1,2,3:2:0:0:
357,134,220953,2,0,P|330:143|301:153,1,56.1000017120362,14|2,2:0|2:0,0:0:0:0:
251,172,221286,1,4,3:2:0:0:
143,205,221619,2,0,P|136:166|130:132,1,56.1000017120362,10|4,2:0|2:3,0:0:0:0:
99,104,221953,6,0,P|142:56|202:62,1,112.200003424072,6|14,3:2|2:0,0:0:0:0:
237,77,222453,1,2,2:0:0:0:
237,77,222619,2,0,P|275:69|306:63,1,56.1000017120362,2|0,3:2|3:2,0:0:0:0:
347,56,222953,1,10,2:0:0:0:
441,116,223286,2,0,P|432:187|433:245,1,112.200003424072,2|10,3:2|2:0,0:0:0:0:
430,283,223786,1,2,2:0:0:0:
430,283,223953,2,0,P|462:296|491:308,2,56.1000017120362,2|2|10,3:2|3:2|2:0,0:0:0:0:
323,319,224619,6,0,P|268:338|208:323,1,112.200003424072,2|10,3:2|2:0,0:0:0:0:
134,250,225286,2,0,P|113:257|76:269,1,56.1000017120362,2|2,3:2|3:2,0:0:0:0:
27,286,225619,1,10,2:0:0:0:
30,173,225953,2,0,P|46:91|60:47,1,112.200003424072,2|10,3:2|2:0,0:0:0:0:
77,14,226453,1,2,2:0:0:0:
77,14,226619,2,0,P|112:22|160:30,1,56.1000017120362,2|0,3:2|3:2,0:0:0:0:
185,42,226953,2,0,P|212:36|239:30,1,56.1000017120362,10|0,2:0|0:0,0:0:0:0:
294,17,227286,6,0,P|310:71|326:123,1,112.200003424072,6|10,3:2|2:0,0:0:0:0:
348,234,227953,2,0,P|387:220|429:210,1,56.1000017120362,2|2,3:2|3:2,0:0:0:0:
455,203,228286,1,10,2:0:0:0:
461,314,228619,2,0,P|404:355|341:341,1,112.200003424072,2|10,3:2|2:0,0:0:0:0:
316,324,229119,1,2,2:0:0:0:
316,324,229286,2,0,P|276:332|235:341,2,56.1000017120362,2|2|10,3:2|3:2|2:0,0:0:0:0:
351,217,229953,6,0,P|321:165|247:161,1,112.200003424072,2|10,3:2|2:0,0:0:0:0:
162,170,230619,2,0,P|151:117|143:95,1,56.1000017120362,0|2,3:2|3:2,0:0:0:0:
139,64,230953,1,10,2:0:0:0:
139,64,231119,2,0,P|195:22|252:28,1,112.200003424072,6|0,3:2|3:2,0:0:0:0:
287,53,231619,1,10,2:0:0:0:
287,53,231786,1,6,3:2:0:0:
67,182,232619,6,0,P|46:131|70:79,1,102,6|10,3:2|2:0,0:0:0:0:
103,59,233119,1,2,2:0:0:0:
103,59,233286,1,2,3:2:0:0:
179,125,233619,2,0,P|222:133|254:139,1,51,10|2,2:0|3:2,0:0:0:0:
280,139,233953,2,0,P|306:193|275:253,1,102,2|10,2:0|2:0,0:0:0:0:
266,273,234453,1,2,2:0:0:0:
188,339,234786,2,0,P|153:331|127:326,1,51,2|10,3:2|2:0,0:0:0:0:
87,333,235119,6,0,P|62:263|79:216,1,102,2|2,2:0|2:0,0:0:0:0:
53,194,235619,1,10,2:0:0:0:
53,194,235786,2,0,P|113:184|177:174,1,102,2|2,2:0|3:2,0:0:0:0:
203,168,236286,1,10,2:0:0:0:
302,147,236619,2,0,P|299:115|296:91,1,51,2|2,2:0|3:2,0:0:0:0:
293,49,236953,1,10,2:0:0:0:
293,49,237119,1,2,2:0:0:0:
395,53,237453,2,0,P|412:24|416:-3,2,51,2|10|2,2:0|2:0|2:0,0:0:0:0:
394,104,237953,6,0,P|400:154|404:205,1,102,6|10,3:2|2:0,0:0:0:0:
407,260,238453,1,2,2:0:0:0:
407,260,238619,1,2,3:2:0:0:
339,336,238953,2,0,P|302:345|273:352,1,51,10|2,2:0|3:2,0:0:0:0:
248,378,239286,2,0,P|211:328|244:266,1,102,2|10,2:0|2:0,0:0:0:0:
250,253,239786,1,2,2:0:0:0:
190,170,240119,2,0,P|142:157|112:150,1,51,2|10,3:2|2:0,0:0:0:0:
91,143,240453,1,2,2:0:0:0:
82,45,240786,5,2,2:0:0:0:
82,45,240953,2,0,P|164:29|206:16,1,102,10|2,2:0|3:2,0:0:0:0:
231,11,241453,1,2,3:2:0:0:
303,82,241786,2,0,P|368:105|417:88,1,102,6|2,3:2|3:2,0:0:0:0:
444,73,242286,1,10,2:0:0:0:
444,73,242453,2,0,P|435:120|424:192,1,102,2|8,2:0|2:3,0:0:0:0:
420,227,242953,1,4,2:3:0:0:
420,227,243119,1,12,3:2:0:0:
