osu file format v14

[General]
AudioFilename: audio.mp3
AudioLeadIn: 0
PreviewTime: 59047
Countdown: 0
SampleSet: Soft
StackLeniency: 0.7
Mode: 0
LetterboxInBreaks: 0
WidescreenStoryboard: 1

[Editor]
DistanceSpacing: 1.4
BeatDivisor: 4
GridSize: 32
TimelineZoom: 1.9

[Metadata]
Title:Shayou (TV Size)
TitleUnicode:斜陽 (TV Size)
Artist:Yorushika
ArtistUnicode:ヨルシカ
Creator:alevi
Version:Pepekcz's Hard
Source:僕の心のヤバイやつ
Tags:japanese pop jpop j-pop female vocalist n-buna ナブナ suis スイ anime opening op Boku no kokoro yabai yatsu bokuyaba the dangers in my heart shayo setting sun 山田杏奈 Anna Yamada UP1AS-01882 vocal vocals [_lost_] conner c_o_n_n_e_r Sarawatlism pepekcz freezinganimenz
BeatmapID:4091756
BeatmapSetID:1969268

[Difficulty]
HPDrainRate:4.5
CircleSize:3.8
OverallDifficulty:6
ApproachRate:7.5
SliderMultiplier:1.6
SliderTickRate:0.5

[Events]
//Background and Video events
0,0,"99034643_p0.jpg",0,0
Video,0,"VD.mp4"
//Break Periods
//Storyboard Layer 0 (Background)
//Storyboard Layer 1 (Fail)
//Storyboard Layer 2 (Pass)
//Storyboard Layer 3 (Foreground)
//Storyboard Layer 4 (Overlay)
//Storyboard Sound Samples

[TimingPoints]
1043,483.870967741935,4,2,1,50,1,0
1043,-125,4,2,1,50,0,0
15317,-111.111111111111,4,2,1,60,0,0
16526,-100,4,2,1,65,0,0
32010,-125,4,2,1,50,0,0
47494,-111.111111111111,4,2,1,65,0,0
48220,-111.111111111111,4,2,1,55,0,0
48946,-111.111111111111,4,2,1,45,0,0
51365,-111.111111111111,4,2,1,55,0,0
52091,-111.111111111111,4,2,1,45,0,0
52817,-111.111111111111,4,2,1,35,0,0
53784,-111.111111111111,4,2,2,35,0,0
54994,-111.111111111111,4,2,1,60,0,0
57172,-100,4,2,1,70,0,0
57897,-100,4,2,1,70,0,0
59107,-90.9090909090909,4,2,1,80,0,1
74591,-100,4,2,1,65,0,0

[Colours]
Combo1 : 241,148,103
Combo2 : 157,157,247

[HitObjects]
22,374,1043,6,0,P|101:376|126:309,1,160,2|0,0:0|0:0,0:0:0:0:
118,303,1768,2,0,P|104:204|65:42,1,256,2|0,0:0|0:0,0:0:0:0:
151,21,2978,6,0,B|200:5|246:42|219:64|254:103|312:95,1,192,2|2,0:0|0:0,0:0:0:0:
312,95,4913,6,0,L|300:24,2,64,2|0|0,0:0|0:0|0:0,0:0:0:0:
388,143,5639,1,2,0:0:0:0:
228,221,6123,1,0,0:0:0:0:
228,221,6365,2,0,L|236:299,1,64,2|0,0:0|0:0,0:0:0:0:
289,355,6849,6,0,P|323:316|406:322,1,128,2|0,0:0|0:0,0:0:0:0:
474,357,7575,2,0,P|441:332|459:253,1,128,2|0,0:0|0:0,0:0:0:0:
512,186,8301,1,2,0:0:0:0:
512,186,8542,1,0,0:0:0:0:
466,105,8784,6,0,P|409:119|313:154,1,160,2|0,0:0|0:0,0:0:0:0:
309,161,9510,2,0,B|245:195|181:141|214:113|157:57|89:83,1,256,2|0,0:0|0:0,0:0:0:0:
21,142,10720,6,0,P|45:218|60:333,1,192,2|2,0:0|0:0,0:0:0:0:
59,329,12655,6,0,P|28:330|-5:309,2,64,2|0|0,0:0|0:0|0:0,0:0:0:0:
135,281,13381,1,2,0:0:0:0:
300,361,13865,1,0,0:0:0:0:
300,361,14107,2,0,P|329:362|362:345,1,64,2|0,0:0|0:0,0:0:0:0:
419,279,14591,6,0,P|431:224|376:166,1,128,2|0,0:0|1:0,0:0:0:0:
276,158,15317,2,0,B|214:157|223:199|180:198,1,107.999996704102,2|8,1:2|0:0,0:0:0:0:
169,191,15801,1,0,1:0:0:0:
72,164,16042,2,0,L|66:212,2,35.9999989013672,8|0|8,0:0|1:0|0:0,0:0:0:0:
70,150,16405,1,8,0:0:0:0:
68,136,16526,5,4,1:2:0:0:
86,25,16768,2,0,P|126:33|170:44,1,80,0|10,0:0|0:0,0:0:0:0:
251,112,17252,2,0,P|288:102|329:92,1,80,0|0,1:0|0:0,0:0:0:0:
412,17,17736,1,0,1:0:0:0:
510,69,17978,1,10,0:0:0:0:
435,152,18220,6,0,L|445:233,1,80,0|0,1:0|1:2,0:0:0:0:
511,322,18704,1,0,1:0:0:0:
401,344,18946,2,0,L|406:389,2,40,10|0|0,0:0|0:0|1:0,0:0:0:0:
405,328,19309,2,0,P|359:304|288:313,1,120,10|0,0:0|1:0,0:0:0:0:
190,334,19913,2,0,L|195:381,2,40,10|0|0,0:0|0:0|1:0,0:0:0:0:
187,317,20276,1,8,0:0:0:0:
185,301,20397,5,0,1:2:0:0:
274,233,20639,2,0,P|280:193|292:136,1,80,0|10,0:0|0:0,0:0:0:0:
394,118,21123,2,0,P|388:78|377:26,1,80,0|0,1:0|0:0,0:0:0:0:
270,14,21607,1,0,1:0:0:0:
167,58,21849,1,10,0:0:0:0:
58,19,22091,6,0,L|46:112,1,80,0|0,1:0|1:2,0:0:0:0:
4,204,22575,1,0,1:0:0:0:
4,204,22817,1,10,0:0:0:0:
87,278,23059,1,0,1:0:0:0:
101,276,23180,2,0,L|182:260,1,80,10|8,0:0|0:0,0:0:0:0:
195,257,23542,1,0,1:0:0:0:
290,316,23784,1,8,0:0:0:0:
301,319,23905,1,8,0:0:0:0:
315,324,24026,1,8,0:3:0:0:
329,328,24147,1,4,0:3:0:0:
343,332,24268,5,4,1:2:0:0:
434,266,24510,2,0,L|419:186,1,80,0|10,0:0|0:0,0:0:0:0:
499,108,24994,2,0,L|513:27,1,80,0|0,1:0|0:0,0:0:0:0:
401,11,25478,1,0,1:0:0:0:
301,62,25720,1,10,0:0:0:0:
193,30,25962,6,0,P|179:72|188:115,1,80,0|0,1:0|1:0,0:0:0:0:
256,192,26446,1,0,1:0:0:0:
236,302,26688,2,0,L|279:311,2,40,10|0|0,0:0|0:0|1:0,0:0:0:0:
221,297,27051,2,0,L|91:323,1,120,10|0,0:0|1:0,0:0:0:0:
7,261,27655,2,0,L|-3:309,2,40,10|0|0,0:0|0:0|1:0,0:0:0:0:
10,246,28018,1,8,0:0:0:0:
14,231,28139,5,0,1:0:0:0:
124,210,28381,2,0,L|109:128,1,80,0|10,0:0|0:0,0:0:0:0:
76,23,28865,2,0,L|162:6,1,80,0|0,1:0|0:0,0:0:0:0:
238,81,29349,1,0,1:0:0:0:
333,22,29591,1,10,0:0:0:0:
439,57,29833,5,0,1:0:0:0:
441,72,29954,1,8,0:0:0:0:
442,86,30075,2,0,L|450:173,1,80,0|0,1:0|1:0,0:0:0:0:
510,259,30559,1,10,0:0:0:0:
421,327,30801,1,0,1:0:0:0:
316,289,31042,1,8,0:0:0:0:
301,285,31163,1,8,0:3:0:0:
286,282,31284,1,4,0:3:0:0:
271,279,31405,1,0,1:0:0:0:
256,274,31526,2,0,L|167:296,1,80,10|0,0:0|0:0,0:0:0:0:
86,246,32010,6,0,L|64:378,2,128,2|8|2,1:2|0:0|1:2,0:0:0:0:
235,145,33462,1,8,0:0:0:0:
292,214,33704,2,0,P|346:199|427:187,1,128,2|0,1:2|0:0,0:0:0:0:
496,240,34430,1,8,0:0:0:0:
496,240,34672,1,2,0:0:0:0:
510,61,35155,1,0,0:0:0:0:
430,18,35397,2,0,L|359:32,1,64,8|0,0:0|1:0,0:0:0:0:
297,86,35881,5,2,1:2:0:0:
297,86,36123,1,0,0:0:0:0:
220,39,36365,1,8,0:0:0:0:
150,89,36607,2,0,L|142:167,1,64,0|2,0:0|1:2,0:0:0:0:
68,201,37091,2,0,L|77:279,1,64,0|8,0:0|0:0,0:0:0:0:
51,351,37575,6,0,P|117:293|210:318,1,192,2|8,1:2|0:0,0:0:0:0:
286,365,38542,1,2,0:0:0:0:
394,223,39026,1,0,0:0:0:0:
394,223,39268,2,0,L|405:157,1,64,10|0,0:0|0:0,0:0:0:0:
466,95,39752,6,0,P|458:61|364:50,2,128,2|8|2,1:2|0:0|1:2,0:0:0:0:
404,159,40962,1,0,0:0:0:0:
404,159,41204,1,8,0:0:0:0:
480,209,41446,2,0,P|472:263|463:339,1,128,2|0,1:2|0:0,0:0:0:0:
382,370,42172,1,8,0:0:0:0:
382,370,42413,1,2,0:0:0:0:
241,267,42897,1,0,0:0:0:0:
241,267,43139,2,0,P|207:252|175:252,1,64,8|0,0:0|1:0,0:0:0:0:
146,335,43623,6,0,P|112:350|78:348,1,64,2|0,1:2|0:0,0:0:0:0:
7,305,44107,1,8,0:0:0:0:
60,233,44349,2,0,P|55:199|47:156,1,64,0|2,0:0|1:2,0:0:0:0:
138,157,44833,2,0,P|134:123|127:80,1,64,0|8,0:0|0:0,0:0:0:0:
124,3,45317,6,0,B|170:-12|219:30|195:45|234:86|291:68,1,192,2|8,1:2|0:0,0:0:0:0:
375,41,46284,1,2,0:0:0:0:
508,160,46768,2,0,L|515:111,2,32,0|8|10,1:0|0:0|1:2,0:0:0:0:
497,165,47131,2,0,L|506:242,1,64,8|0,0:0|0:0,0:0:0:0:
494,252,47494,6,0,P|419:230|376:295,1,143.999995605469,2|0,1:2|0:0,0:0:0:0:
314,368,48220,2,0,P|273:374|234:290,1,143.999995605469,2|0,1:2|0:0,0:0:0:0:
245,179,48946,2,0,P|204:173|152:256,1,143.999995605469,2|0,1:2|0:0,0:0:0:0:
150,247,50881,1,0,0:0:0:0:
0,380,51365,6,0,P|52:334|41:263,1,143.999995605469,2|0,1:2|0:0,0:0:0:0:
150,247,52091,2,0,P|141:177|81:132,1,143.999995605469,2|0,1:2|0:0,0:0:0:0:
0,123,52817,6,0,P|90:98|219:87,1,215.999993408203,6|0,1:2|0:0,0:0:0:0:
180,6,53784,2,0,P|280:15|397:47,1,215.999993408203,2|0,0:0|0:0,0:0:0:0:
472,75,54752,1,2,0:0:0:0:
512,183,54994,6,0,P|456:187|443:269,1,143.999995605469,4|0,1:2|0:0,0:0:0:0:
502,338,55720,1,8,0:0:0:0:
502,338,55962,1,0,0:0:0:0:
415,373,56204,2,0,L|336:359,1,71.9999978027344,0|0,1:0|1:0,0:0:0:0:
272,298,56688,2,0,L|283:222,1,71.9999978027344,8|0,0:0|1:0,0:0:0:0:
381,171,57172,5,10,0:0:0:0:
418,66,57413,1,8,0:3:0:0:
316,18,57655,1,4,0:3:0:0:
258,113,57897,1,2,1:2:0:0:
258,113,59107,6,0,L|126:86,1,132.00000402832,6|0,1:2|0:0,0:0:0:0:
111,82,59591,1,8,0:0:0:0:
9,134,59833,1,0,1:0:0:0:
12,151,59954,1,10,0:0:0:0:
15,167,60075,1,0,0:0:0:0:
108,233,60317,1,0,1:2:0:0:
32,318,60559,1,10,0:0:0:0:
127,380,60801,1,0,1:0:0:0:
189,284,61042,6,0,P|226:249|304:260,1,132.00000402832,2|0,1:2|0:0,0:0:0:0:
314,271,61526,1,8,0:0:0:0:
393,353,61768,1,0,1:2:0:0:
409,350,61889,1,10,0:0:0:0:
424,348,62010,2,0,L|436:257,1,88.000002685547,0|0,0:0|1:0,0:0:0:0:
495,174,62494,2,0,P|436:173|432:107,1,132.00000402832,10|0,0:0|0:0,0:0:0:0:
437,96,62978,5,2,1:2:0:0:
340,34,63220,1,0,1:0:0:0:
247,101,63462,1,8,0:0:0:0:
139,62,63704,2,0,L|131:8,2,44.0000013427735,2|8|0,1:2|0:0|0:0,0:0:0:0:
76,158,64188,1,0,1:0:0:0:
176,213,64430,1,10,0:0:0:0:
174,229,64551,1,0,0:0:0:0:
172,245,64672,1,8,0:3:0:0:
117,345,64913,6,0,P|55:349|31:324,1,88.000002685547,2|0,1:2|1:0,0:0:0:0:
4,224,65397,1,8,0:0:0:0:
44,116,65639,1,2,1:2:0:0:
42,100,65760,1,8,0:0:0:0:
39,83,65881,2,0,P|75:64|123:74,1,88.000002685547,0|0,0:0|1:0,0:0:0:0:
206,148,66365,1,10,0:0:0:0:
223,166,66486,1,8,0:0:0:0:
247,169,66607,1,8,0:3:0:0:
270,158,66728,1,4,0:3:0:0:
287,138,66849,6,0,P|350:120|478:110,1,176.000005371094,6|8,1:2|0:0,0:0:0:0:
506,214,67575,1,0,1:0:0:0:
503,230,67696,1,10,0:0:0:0:
499,246,67817,1,0,0:0:0:0:
481,359,68059,1,0,1:0:0:0:
385,295,68301,1,10,0:0:0:0:
284,349,68542,1,0,1:0:0:0:
188,285,68784,6,0,P|146:242|179:164,1,132.00000402832,2|0,1:2|0:0,0:0:0:0:
175,167,69268,1,8,0:0:0:0:
289,176,69510,1,0,1:2:0:0:
291,159,69631,1,10,0:0:0:0:
293,142,69752,2,0,L|277:46,1,88.000002685547,0|0,0:0|1:0,0:0:0:0:
170,17,70236,2,0,P|109:26|36:45,1,132.00000402832,10|8,0:0|0:0,0:0:0:0:
25,51,70720,5,2,1:2:0:0:
86,147,70962,1,0,1:0:0:0:
33,248,71204,1,8,0:0:0:0:
121,321,71446,2,0,P|159:310|208:301,1,88.000002685547,2|0,1:2|1:0,0:0:0:0:
291,222,71930,1,8,0:0:0:0:
293,238,72051,1,8,0:0:0:0:
295,254,72172,1,10,0:0:0:0:
404,335,72413,6,0,P|484:339|487:255,1,176.000005371094,4|8,1:2|0:3,0:0:0:0:
417,171,73139,1,4,0:3:0:0:
474,52,73381,2,0,P|443:24|356:31,1,132.00000402832,6|8,1:2|0:0,0:0:0:0:
345,42,73865,1,0,1:0:0:0:
240,87,74107,2,0,L|230:26,2,44.0000013427735,8|0|8,0:0|1:0|0:0,0:0:0:0:
243,103,74470,1,8,0:0:0:0:
248,118,74591,5,4,1:2:0:0:
312,209,74833,2,0,L|395:193,1,80,0|10,0:0|0:0,0:0:0:0:
494,235,75317,2,0,L|509:315,1,80,0|0,1:0|0:0,0:0:0:0:
413,374,75801,1,0,1:0:0:0:
321,310,76042,1,10,0:0:0:0:
225,367,76284,6,0,P|180:374|140:351,1,80,0|0,1:0|1:0,0:0:0:0:
109,254,76768,1,0,1:0:0:0:
10,307,77010,2,0,L|6:356,2,40,10|0|0,0:0|0:0|1:0,0:0:0:0:
3,293,77373,2,0,L|16:165,1,120,10|0,0:0|1:0,0:0:0:0:
67,74,77978,2,0,L|7:61,2,40,10|0|0,0:0|0:0|1:0,0:0:0:0:
80,81,78341,1,8,0:0:0:0:
93,86,78462,6,0,L|186:69,1,80,0|0,1:2|0:0,0:0:0:0:
266,131,78946,1,10,0:0:0:0:
351,203,79188,1,0,1:0:0:0:
365,207,79309,1,10,0:0:0:0:
379,213,79430,1,0,0:0:0:0:
494,204,79672,1,0,1:0:0:0:
494,204,79913,2,0,P|470:172|477:130,1,80,10|0,0:0|1:0,0:0:0:0:
507,29,80397,5,0,1:0:0:0:
507,29,80639,1,0,1:0:0:0:
398,58,80881,1,10,0:0:0:0:
290,25,81123,2,0,P|228:35|125:63,1,160,0|0,1:0|1:0,0:0:0:0:
29,19,81849,1,8,0:0:0:0:
23,32,81970,1,8,0:0:0:0:
19,46,82091,1,8,0:3:0:0:
19,60,82212,1,4,0:3:0:0:
24,75,82333,5,4,1:2:0:0:
100,156,82575,2,0,L|88:243,1,80,0|10,1:0|0:0,0:0:0:0:
141,334,83059,2,0,L|225:321,1,80,0|0,1:0|0:0,0:0:0:0:
329,296,83542,1,0,1:0:0:0:
427,349,83784,1,10,0:0:0:0:
502,265,84026,6,0,L|489:184,1,80,0|0,1:0|1:0,0:0:0:0:
388,136,84510,1,0,1:0:0:0:
284,179,84752,2,0,L|290:229,2,40,10|0|0,0:0|0:0|1:0,0:0:0:0:
278,165,85115,2,0,L|149:181,1,120,10|0,0:0|1:0,0:0:0:0:
79,258,85720,1,10,0:0:0:0:
65,255,85841,1,8,0:0:0:0:
50,252,85962,1,0,1:0:0:0:
3,159,86204,5,2,1:2:0:0:
