osu file format v14

[General]
AudioFilename: audio.mp3
AudioLeadIn: 0
PreviewTime: 56809
Countdown: 0
SampleSet: Normal
StackLeniency: 0.7
Mode: 1
LetterboxInBreaks: 0
WidescreenStoryboard: 1

[Editor]
Bookmarks: 16526,24268,32010,59107,66849
DistanceSpacing: 2.1
BeatDivisor: 4
GridSize: 32
TimelineZoom: 1.4

[Metadata]
Title:Shayou (TV Size)
TitleUnicode:斜陽 (TV Size)
Artist:Yorushika
ArtistUnicode:ヨルシカ
Creator:Ryxliee
Version:Futsuu
Source:僕の心のヤバイやつ
Tags:僕ヤバ japanese rock jrock j-rock pop jpop j-pop female vocalist n-buna ナブナ suis スイ anime opening op Boku no kokoro yabai yatsu bokuyaba the dangers in my heart shayo setting sun 山田杏奈 Anna Yamada UP1AS-01882 vocal vocals stompy_ tachibana_
BeatmapID:4199396
BeatmapSetID:2016209

[Difficulty]
HPDrainRate:7.5
CircleSize:2
OverallDifficulty:3.5
ApproachRate:9
SliderMultiplier:1.4
SliderTickRate:1

[Events]
//Background and Video events
0,0,"108657923_p0.jpg",0,70
Video,0,"shayou.mp4"
//Break Periods
//Storyboard Layer 0 (Background)
//Storyboard Layer 1 (Fail)
//Storyboard Layer 2 (Pass)
//Storyboard Layer 3 (Foreground)
//Storyboard Layer 4 (Overlay)
//Storyboard Sound Samples

[TimingPoints]
1046,483.870967741935,4,1,0,40,1,0
1046,-100,4,1,0,40,0,0
15320,-100,4,1,0,70,0,0
16166,-100,4,1,0,70,0,0
16287,-100,4,1,0,70,0,0
16408,-100,4,1,0,70,0,0
16529,-100,4,1,0,70,0,0
32013,-100,4,1,0,50,0,0
47497,-100,4,1,0,60,0,0
54997,-100,4,1,0,60,0,0
57054,-100,4,1,0,60,0,0
57175,-100,4,1,0,60,0,0
57416,-100,4,1,0,60,0,0
57658,-100,4,1,0,60,0,0
57900,-100,4,1,0,60,0,0
59110,-100,4,1,0,75,0,1
74231,-100,4,1,0,75,0,1
74352,-100,4,1,0,75,0,1
74473,-100,4,1,0,75,0,1
74594,-100,4,1,0,70,0,0
86207,-100,4,1,0,40,0,0

[HitObjects]
256,192,1046,5,0,0:0:0:0:
256,192,1771,1,0,0:0:0:0:
256,192,2981,1,8,0:0:0:0:
256,192,3707,1,8,0:0:0:0:
256,192,4916,1,0,0:0:0:0:
256,192,5642,1,8,0:0:0:0:
256,192,6368,1,0,0:0:0:0:
256,192,6852,1,8,0:0:0:0:
256,192,7578,1,0,0:0:0:0:
256,192,8304,1,8,0:0:0:0:
256,192,8545,1,8,0:0:0:0:
256,192,8787,1,0,0:0:0:0:
256,192,9513,1,0,0:0:0:0:
256,192,10723,1,8,0:0:0:0:
256,192,11449,1,0,0:0:0:0:
256,192,12658,1,0,0:0:0:0:
256,192,13384,1,8,0:0:0:0:
256,192,14110,1,0,0:0:0:0:
256,192,14594,1,8,0:0:0:0:
256,192,15078,1,0,0:0:0:0:
256,192,15320,1,12,0:0:0:0:
256,192,16045,1,8,0:0:0:0:
256,192,16529,1,4,0:0:0:0:
256,192,16771,1,8,0:0:0:0:
256,192,17255,1,0,0:0:0:0:
256,192,17739,1,0,0:0:0:0:
256,192,17981,1,8,0:0:0:0:
256,192,18223,1,8,0:0:0:0:
256,192,18707,1,8,0:0:0:0:
256,192,18949,1,0,0:0:0:0:
256,192,19191,1,0,0:0:0:0:
256,192,19675,1,0,0:0:0:0:
256,192,19916,1,8,0:0:0:0:
256,192,20400,1,8,0:0:0:0:
256,192,20642,1,0,0:0:0:0:
256,192,21126,1,8,0:0:0:0:
256,192,21610,1,0,0:0:0:0:
256,192,21852,1,0,0:0:0:0:
256,192,22094,1,8,0:0:0:0:
256,192,22578,1,8,0:0:0:0:
256,192,22820,1,8,0:0:0:0:
256,192,23062,1,0,0:0:0:0:
256,192,24271,1,12,0:0:0:0:
256,192,24513,1,0,0:0:0:0:
256,192,24997,1,8,0:0:0:0:
256,192,25481,1,0,0:0:0:0:
256,192,25723,1,8,0:0:0:0:
256,192,25965,1,0,0:0:0:0:
256,192,26449,1,8,0:0:0:0:
256,192,26691,1,0,0:0:0:0:
256,192,26933,1,8,0:0:0:0:
256,192,27417,1,0,0:0:0:0:
256,192,27658,1,8,0:0:0:0:
256,192,28142,1,0,0:0:0:0:
256,192,28384,1,8,0:0:0:0:
256,192,28868,1,8,0:0:0:0:
256,192,29352,1,0,0:0:0:0:
256,192,29594,1,8,0:0:0:0:
256,192,29836,1,0,0:0:0:0:
256,192,30320,1,8,0:0:0:0:
256,192,30562,1,8,0:0:0:0:
256,192,30804,1,0,0:0:0:0:
256,192,31045,1,8,0:0:0:0:
256,192,32013,1,4,0:0:0:0:
256,192,32497,1,8,0:0:0:0:
256,192,33465,1,8,0:0:0:0:
256,192,33707,1,0,0:0:0:0:
256,192,34433,1,8,0:0:0:0:
256,192,34675,1,0,0:0:0:0:
256,192,35400,1,8,0:0:0:0:
256,192,35884,1,0,0:0:0:0:
256,192,36368,1,8,0:0:0:0:
256,192,37336,1,8,0:0:0:0:
256,192,37578,1,0,0:0:0:0:
256,192,38304,1,8,0:0:0:0:
256,192,38545,1,0,0:0:0:0:
256,192,39029,1,0,0:0:0:0:
256,192,39271,1,8,0:0:0:0:
256,192,39755,1,4,0:0:0:0:
256,192,40239,1,8,0:0:0:0:
256,192,41207,1,8,0:0:0:0:
256,192,41449,1,0,0:0:0:0:
256,192,42175,1,8,0:0:0:0:
256,192,42416,1,0,0:0:0:0:
256,192,43142,1,8,0:0:0:0:
256,192,43384,1,0,0:0:0:0:
256,192,43626,1,8,0:0:0:0:
256,192,44110,1,8,0:0:0:0:
256,192,45078,1,8,0:0:0:0:
256,192,45320,1,0,0:0:0:0:
256,192,46045,1,8,0:0:0:0:
256,192,46287,1,0,0:0:0:0:
256,192,47013,1,8,0:0:0:0:
256,192,47497,1,4,0:0:0:0:
256,192,48223,1,4,0:0:0:0:
256,192,48949,1,12,0:0:0:0:
256,192,51368,1,12,0:0:0:0:
256,192,52094,1,12,0:0:0:0:
256,192,52820,1,4,0:0:0:0:
256,192,53787,1,8,0:0:0:0:
256,192,54755,1,8,0:0:0:0:
256,192,54997,1,4,0:0:0:0:
256,192,55481,1,0,0:0:0:0:
256,192,55723,1,8,0:0:0:0:
256,192,56207,1,0,0:0:0:0:
256,192,56449,1,0,0:0:0:0:
256,192,56691,1,8,0:0:0:0:
256,192,57175,1,8,0:0:0:0:
256,192,57416,1,0,0:0:0:0:
256,192,57658,1,8,0:0:0:0:
256,192,57900,1,8,0:0:0:0:
256,192,59110,1,4,0:0:0:0:
256,192,59594,1,8,0:0:0:0:
256,192,59836,1,0,0:0:0:0:
256,192,60320,1,0,0:0:0:0:
256,192,60562,1,8,0:0:0:0:
256,192,60804,1,0,0:0:0:0:
256,192,61045,1,8,0:0:0:0:
256,192,61529,1,8,0:0:0:0:
256,192,61771,1,0,0:0:0:0:
256,192,62981,1,0,0:0:0:0:
256,192,63223,1,0,0:0:0:0:
256,192,63465,1,8,0:0:0:0:
256,192,63707,1,0,0:0:0:0:
256,192,64191,1,0,0:0:0:0:
256,192,64433,1,8,0:0:0:0:
256,192,64916,1,8,0:0:0:0:
256,192,65158,1,8,0:0:0:0:
256,192,65400,1,0,0:0:0:0:
256,192,65642,1,8,0:0:0:0:
256,192,66126,1,0,0:0:0:0:
256,192,66368,1,8,0:0:0:0:
256,192,66610,1,8,0:0:0:0:
256,192,66852,1,4,0:0:0:0:
256,192,67336,1,8,0:0:0:0:
256,192,67578,1,0,0:0:0:0:
256,192,68062,1,0,0:0:0:0:
256,192,68304,1,8,0:0:0:0:
256,192,68546,1,0,0:0:0:0:
256,192,68787,1,8,0:0:0:0:
256,192,69271,1,8,0:0:0:0:
256,192,69513,1,0,0:0:0:0:
256,192,70723,1,8,0:0:0:0:
256,192,70965,1,8,0:0:0:0:
256,192,71207,1,0,0:0:0:0:
256,192,71449,1,8,0:0:0:0:
256,192,71933,1,8,0:0:0:0:
256,192,72175,1,0,0:0:0:0:
256,192,72416,1,12,0:0:0:0:
256,192,72900,1,0,0:0:0:0:
256,192,73142,1,0,0:0:0:0:
256,192,73384,1,12,0:0:0:0:
256,192,74594,1,4,0:0:0:0:
256,192,74836,1,8,0:0:0:0:
256,192,75320,1,8,0:0:0:0:
256,192,75804,1,0,0:0:0:0:
256,192,76046,1,8,0:0:0:0:
256,192,76288,1,8,0:0:0:0:
256,192,76772,1,8,0:0:0:0:
256,192,77014,1,0,0:0:0:0:
256,192,77256,1,0,0:0:0:0:
256,192,77740,1,0,0:0:0:0:
256,192,77981,1,8,0:0:0:0:
256,192,78465,1,8,0:0:0:0:
256,192,78707,1,0,0:0:0:0:
256,192,78949,1,8,0:0:0:0:
256,192,79191,1,8,0:0:0:0:
256,192,79675,1,0,0:0:0:0:
256,192,79917,1,8,0:0:0:0:
256,192,80159,1,8,0:0:0:0:
256,192,80400,1,0,0:0:0:0:
256,192,80885,1,8,0:0:0:0:
256,192,81127,1,0,0:0:0:0:
256,192,82336,1,12,0:0:0:0:
256,192,82578,1,0,0:0:0:0:
256,192,83062,1,0,0:0:0:0:
256,192,83546,1,0,0:0:0:0:
256,192,83788,1,8,0:0:0:0:
256,192,84030,1,0,0:0:0:0:
256,192,84514,1,8,0:0:0:0:
256,192,84756,1,0,0:0:0:0:
256,192,84998,1,8,0:0:0:0:
256,192,85482,1,0,0:0:0:0:
256,192,85723,1,8,0:0:0:0:
256,192,85965,1,8,0:0:0:0:
256,192,86207,1,0,0:0:0:0:
