osu file format v14

[General]
AudioFilename: audio.mp3
AudioLeadIn: 0
PreviewTime: 77609
Countdown: 0
SampleSet: Normal
StackLeniency: 0.7
Mode: 1
LetterboxInBreaks: 0
EpilepsyWarning: 1
WidescreenStoryboard: 1

[Editor]
Bookmarks: 225,10378,19917,29763,39609,49455,59301,69148,78994,88840,101148,110994,120840,130686,140532,150378,160225,172532,182378,192225,202071,215609,225455,232840,242686,250071,257455,267301
DistanceSpacing: 1.8
BeatDivisor: 4
GridSize: 16
TimelineZoom: 2.899999

[Metadata]
Title:Semi-Transparent Boy
TitleUnicode:準透明少年
Artist:Yorushika
ArtistUnicode:ヨルシカ
Creator:MicSup08
Version:Opacity
Source:
Tags:負け犬にアンコールはいらない Makeinu ni Encore wa Iranai A Loser Doesn't Need an Encore Juntoumei Shounen n-buna suis japanese rock pop jpop j-rock jrock j-pop female vocals vocalist
BeatmapID:4213010
BeatmapSetID:2022739

[Difficulty]
HPDrainRate:5.5
CircleSize:5
OverallDifficulty:6.5
ApproachRate:5
SliderMultiplier:1.4
SliderTickRate:1

[Events]
//Background and Video events
0,0,"bg.jpg",0,-30
Video,-250,"output.mp4"
//Break Periods
2,202270,214408
//Storyboard Layer 0 (Background)
//Storyboard Layer 1 (Fail)
//Storyboard Layer 2 (Pass)
//Storyboard Layer 3 (Foreground)
//Storyboard Layer 4 (Overlay)
//Storyboard Sound Samples

[TimingPoints]
225,307.692307692308,4,1,0,70,1,0
225,-125,4,1,0,70,0,0
18676,-125,4,1,0,70,0,0
18830,-124.035930728413,4,1,0,70,0,0
18907,-123.559603917334,4,1,0,70,0,0
18984,-123.086770018525,4,1,0,70,0,0
19138,-122.151876313896,4,1,0,70,0,0
19291,-121.231224314134,4,1,0,70,0,0
19445,-120.324201528599,4,1,0,70,0,0
19522,-119.875760761547,4,1,0,70,0,0
19599,-119.430650204346,4,1,0,70,0,0
19753,-118.550412970364,4,1,0,70,0,0
19907,-117.71838231399,4,1,0,75,0,0
27291,-117.647058823529,4,1,0,75,0,0
27445,-116.790503530577,4,1,0,75,0,0
27599,-115.946330762417,4,1,0,75,0,0
27753,-115.114406452853,4,1,0,75,0,0
27830,-114.702839354085,4,1,0,75,0,0
27907,-114.29420471235,4,1,0,75,0,0
28061,-113.485608322581,4,1,0,75,0,0
28215,-112.688372701016,4,1,0,75,0,0
28368,-111.902385311245,4,1,0,75,0,0
28445,-111.513426774151,4,1,0,75,0,0
28522,-111.127162812406,4,1,0,75,0,0
28676,-110.362607382817,4,1,0,75,0,0
28753,-109.984261252215,4,1,0,75,0,0
28830,-109.60850035842,4,1,0,75,0,0
28907,-109.235298294291,4,1,0,75,0,0
28984,-108.864747526321,4,1,0,75,0,0
29138,-108.1309032715,4,1,0,75,0,0
29445,-100,4,1,0,80,0,0
29522,-98.7903126219443,4,1,0,80,0,0
29599,-97.6095423088561,4,1,0,80,0,0
29676,-96.4566644320873,4,1,0,80,0,0
29763,-95.2380952380952,4,1,0,85,0,1
37445,-102.564102564103,4,1,0,85,0,1
37599,-100,4,1,0,85,0,1
37907,-102.564102564103,4,1,0,85,0,1
38061,-100,4,1,0,85,0,1
38215,-93.0232558139535,4,1,0,85,0,1
38368,-100,4,1,0,85,0,1
38984,-100,4,1,0,85,0,1
39138,-102.564102564103,4,1,0,85,0,1
39291,-105.263157894737,4,1,0,85,0,1
39445,-108.108108108108,4,1,0,85,0,1
39609,-111.111111111111,4,1,0,85,0,0
39676,-111.111111111111,4,1,0,70,0,0
48830,-111.111111111111,4,1,0,70,0,0
48984,-108.108108108108,4,1,0,70,0,0
49061,-106.666666666667,4,1,0,70,0,0
49138,-105.263157894737,4,1,0,70,0,0
49215,-103.896103896104,4,1,0,70,0,0
49291,-102.564102564103,4,1,0,70,0,0
49368,-101.26582278481,4,1,0,70,0,0
49445,-100,4,1,0,75,0,0
56907,-105.263157894737,4,1,0,70,0,0
57753,-97.5609756097561,4,1,0,75,0,0
57830,-105.263157894737,4,1,0,70,0,0
58676,-95.2380952380952,4,1,0,75,0,0
58984,-117.647058823529,4,1,0,75,0,0
59061,-119.402985074627,4,1,0,75,0,0
59138,-121.212121212121,4,1,0,75,0,0
59215,-123.076923076923,4,1,0,75,0,0
59291,-125,4,1,0,70,0,0
67907,-125,4,1,0,70,0,0
68061,-121.231224314134,4,1,0,70,0,0
68138,-119.430650204346,4,1,0,70,0,0
68215,-117.682917500744,4,1,0,70,0,0
68291,-115.985599228,4,1,0,70,0,0
68368,-114.336545046884,4,1,0,70,0,0
68445,-112.733598106977,4,1,0,70,0,0
68522,-111.175098556725,4,1,0,70,0,0
68599,-109.65910274729,4,1,0,70,0,0
68676,-108.183895312608,4,1,0,70,0,0
68753,-106.747738015431,4,1,0,70,0,0
68830,-105.349322551181,4,1,0,70,0,0
68907,-103.987072327168,4,1,0,70,0,0
68984,-102.659602317233,4,1,0,70,0,0
69061,-101.365597327192,4,1,0,70,0,0
69138,-100.103707440909,4,1,0,75,0,0
73445,-100,4,1,0,75,0,0
73599,-102.536969704427,4,1,0,75,0,0
73753,-105.206125100603,4,1,0,75,0,0
73907,-108.017840226492,4,1,0,75,0,0
74061,-110.983972804487,4,1,0,75,0,0
74138,-110.983972804487,4,1,0,65,0,0
77830,-110.983972804487,4,1,0,50,0,0
78994,-90.9090909090909,4,1,0,90,0,1
86445,-100,4,1,0,90,0,1
86676,-97.5609756097561,4,1,0,90,0,1
86830,-95.2380952380952,4,1,0,90,0,1
87138,-97.5609756097561,4,1,0,90,0,1
87291,-95.2380952380952,4,1,0,90,0,1
87445,-88.8888888888889,4,1,0,90,0,1
87599,-100,4,1,0,90,0,1
87753,-98.7717730027113,4,1,0,90,0,1
87907,-97.5733507664387,4,1,0,90,0,1
88061,-96.4035684744906,4,1,0,90,0,1
88138,-95.8292246553262,4,1,0,90,0,1
88215,-95.261593097726,4,1,0,90,0,1
88368,-94.1463561594312,4,1,0,90,0,1
88445,-93.5984290439669,4,1,0,90,0,1
88522,-93.0569294377221,4,1,0,90,0,1
88599,-92.5215737179517,4,1,0,90,0,1
88676,-91.9923425574055,4,1,0,90,0,1
88753,-91.4692151209589,4,1,0,90,0,1
88840,-90.9519209955233,4,1,0,80,0,0
89148,-83.3333333333333,4,1,0,90,0,1
89215,-90.9090909090909,4,1,0,90,0,1
94061,-95.2380952380952,4,1,0,90,0,1
94215,-88.8888888888889,4,1,0,90,0,1
94368,-100,4,1,0,90,0,1
94676,-97.5609756097561,4,1,0,90,0,1
94830,-95.2380952380952,4,1,0,90,0,1
94907,-93.0232558139535,4,1,0,90,0,1
94984,-90.9090909090909,4,1,0,90,0,1
95291,-95.2380952380952,4,1,0,90,0,1
95445,-88.8888888888889,4,1,0,90,0,1
95599,-100,4,1,0,90,0,1
95753,-95.2380952380952,4,1,0,90,0,1
95907,-90.9090909090909,4,1,0,90,0,1
96215,-95.2380952380952,4,1,0,85,0,1
98061,-95.2380952380952,4,1,0,85,0,1
98215,-94.1176470588235,4,1,0,85,0,1
98291,-93.5672514619883,4,1,0,85,0,1
98368,-93.0232558139535,4,1,0,85,0,1
98445,-92.485549132948,4,1,0,85,0,1
98522,-91.9540229885058,4,1,0,85,0,1
98599,-91.4285714285714,4,1,0,85,0,1
98676,-90.9090909090909,4,1,0,85,0,1
99291,-90.9090909090909,4,1,0,85,0,1
99445,-93.000935589412,4,1,0,80,0,1
99522,-94.0833785717579,4,1,0,80,0,1
99599,-95.1914061198555,4,1,0,80,0,1
99763,-86.9565217391304,4,1,0,90,0,0
100522,-100,4,1,0,80,0,0
100676,-98.7780171498393,4,1,0,80,0,0
100830,-97.5855386038632,4,1,0,80,0,0
100984,-96.4215085530699,4,1,0,80,0,0
101061,-95.8497995301443,4,1,0,80,0,0
101148,307.692307692308,4,1,0,85,1,1
101148,-95.2380952380952,4,1,0,85,0,1
108830,-102.564102564103,4,1,0,85,0,1
108984,-100,4,1,0,85,0,1
109291,-102.564102564103,4,1,0,85,0,1
109445,-100,4,1,0,85,0,1
109599,-93.0232558139535,4,1,0,85,0,1
109753,-100,4,1,0,85,0,1
110367,-100,4,1,0,85,0,1
110522,-102.536969704427,4,1,0,85,0,1
110676,-105.206125100603,4,1,0,85,0,1
110830,-108.017840226492,4,1,0,85,0,1
110994,-111.111111111111,4,1,0,85,0,0
111061,-111.111111111111,4,1,0,60,0,0
112215,-111.111111111111,4,1,0,50,0,0
113445,-125,4,1,0,50,0,0
120215,-111.111111111111,4,1,0,70,0,0
120368,-108.108108108108,4,1,0,70,0,0
120445,-106.666666666667,4,1,0,70,0,0
120522,-105.263157894737,4,1,0,70,0,0
120676,-102.564102564103,4,1,0,70,0,0
120830,-100,4,1,0,75,0,0
128291,-105.263157894737,4,1,0,70,0,0
129138,-97.5609756097561,4,1,0,75,0,0
129215,-105.263157894737,4,1,0,70,0,0
130061,-95.2380952380952,4,1,0,75,0,0
130367,-100,4,1,0,75,0,0
130445,-101.239679880132,4,1,0,75,0,0
130522,-102.510481696753,4,1,0,75,0,0
130599,-103.813592313642,4,1,0,75,0,0
130676,-105.150259721142,4,1,0,75,0,0
139907,-105.263157894737,4,1,0,75,0,0
139984,-104.575163398693,4,1,0,75,0,0
140061,-103.896103896104,4,1,0,75,0,0
140138,-103.225806451613,4,1,0,75,0,0
140215,-102.564102564103,4,1,0,75,0,0
140291,-101.910828025478,4,1,0,75,0,0
140368,-101.26582278481,4,1,0,75,0,0
140445,-100.62893081761,4,1,0,75,0,0
140522,-100,4,1,0,75,0,0
144830,-100,4,1,0,75,0,0
144907,-99.3788819875776,4,1,0,75,0,0
144984,-98.7654320987654,4,1,0,75,0,0
145061,-98.159509202454,4,1,0,75,0,0
145138,-97.5609756097561,4,1,0,75,0,0
145291,-96.3855421686747,4,1,0,75,0,0
145445,-95.2380952380952,4,1,0,80,0,0
147599,-95.2380952380952,4,1,0,80,0,0
147753,-97.536424977908,4,1,0,70,0,0
147830,-98.7276961793369,4,1,0,70,0,0
147907,-99.9485265088479,4,1,0,70,0,0
148061,-95.2380952380952,4,1,0,85,0,0
148138,-100,4,1,0,75,0,0
148522,-93.0232558139535,4,1,0,85,0,0
148599,-100,4,1,0,75,0,0
148984,-90.9090909090909,4,1,0,85,0,0
149138,-100,4,1,0,80,0,0
149291,-98.7654320987654,4,1,0,80,0,0
149368,-98.159509202454,4,1,0,80,0,0
149445,-97.5609756097561,4,1,0,80,0,0
149599,-96.3855421686747,4,1,0,80,0,0
149676,-95.8083832335329,4,1,0,80,0,0
149753,-95.2380952380952,4,1,0,80,0,0
149907,-94.1176470588235,4,1,0,80,0,0
149984,-93.5672514619883,4,1,0,80,0,0
150061,-93.0232558139535,4,1,0,80,0,0
150138,-92.485549132948,4,1,0,80,0,0
150215,-91.9540229885058,4,1,0,80,0,0
150291,-91.4285714285714,4,1,0,80,0,0
150378,-90.9090909090909,4,1,0,90,0,1
158061,-97.5609756097561,4,1,0,90,0,1
158215,-95.2380952380952,4,1,0,90,0,1
158522,-97.5609756097561,4,1,0,90,0,1
158676,-95.2380952380952,4,1,0,90,0,1
158830,-88.8888888888889,4,1,0,90,0,1
158984,-100,4,1,0,90,0,1
159138,-98.7717730027113,4,1,0,90,0,1
159291,-97.5733507664387,4,1,0,90,0,1
159445,-96.4035684744906,4,1,0,90,0,1
159522,-95.8292246553262,4,1,0,90,0,1
159599,-95.261593097726,4,1,0,90,0,1
159753,-94.1463561594312,4,1,0,90,0,1
159830,-93.5984290439669,4,1,0,90,0,1
159907,-93.0569294377221,4,1,0,90,0,1
159984,-92.5215737179517,4,1,0,90,0,1
160061,-91.9923425574055,4,1,0,90,0,1
160138,-91.4692151209589,4,1,0,90,0,1
160224,-90.9090909090909,4,1,0,80,0,0
160532,-83.3333333333333,4,1,0,90,0,1
160599,-90.9090909090909,4,1,0,90,0,1
165445,-95.2380952380952,4,1,0,90,0,1
165599,-88.8888888888889,4,1,0,90,0,1
165753,-100,4,1,0,90,0,1
166061,-97.5609756097561,4,1,0,90,0,1
166215,-95.2380952380952,4,1,0,90,0,1
166291,-93.0232558139535,4,1,0,90,0,1
166368,-90.9090909090909,4,1,0,90,0,1
166676,-95.2380952380952,4,1,0,90,0,1
166830,-88.8888888888889,4,1,0,90,0,1
166984,-100,4,1,0,90,0,1
167138,-95.2380952380952,4,1,0,90,0,1
167291,-90.9090909090909,4,1,0,90,0,1
167599,-95.2380952380952,4,1,0,85,0,1
169444,-95.2380952380952,4,1,0,85,0,1
169599,-94.1290754359823,4,1,0,85,0,1
169676,-93.5841513368028,4,1,0,85,0,1
169753,-93.0455867547746,4,1,0,85,0,1
169830,-92.5130998549395,4,1,0,85,0,1
169907,-91.9867575863779,4,1,0,85,0,1
169984,-91.4662868986435,4,1,0,85,0,1
170061,-90.9516728286425,4,1,0,85,0,1
170676,-90.9090909090909,4,1,0,85,0,1
170830,-92.9791447778263,4,1,0,80,0,1
170907,-94.0499311084255,4,1,0,80,0,1
170984,-95.1456680177351,4,1,0,80,0,1
171148,-86.9565217391304,4,1,0,90,0,0
171830,-111.111111111111,4,1,0,70,0,0
172061,-114.285714285714,4,1,0,70,0,0
172215,-117.647058823529,4,1,0,70,0,0
172368,-121.212121212121,4,1,0,70,0,0
172445,-123.076923076923,4,1,0,70,0,0
172532,307.692307692308,4,1,0,65,1,0
172532,-125,4,1,0,65,0,0
181137,-125,4,1,0,65,0,0
181291,-123.076923076923,4,1,0,65,0,0
181368,-122.137404580153,4,1,0,65,0,0
181445,-121.212121212121,4,1,0,65,0,0
181599,-119.402985074627,4,1,0,65,0,0
181753,-117.647058823529,4,1,0,65,0,0
181907,-115.942028985507,4,1,0,65,0,0
182061,-114.285714285714,4,1,0,65,0,0
182215,-112.676056338028,4,1,0,65,0,0
182368,-111.111111111111,4,1,0,70,0,0
191608,-111.111111111111,4,1,0,70,0,0
191762,-114.252026259686,4,1,0,70,0,0
191916,-117.575821708024,4,1,0,70,0,0
192070,-121.098655441629,4,1,0,70,0,0
192214,-111.111111111111,4,1,0,75,0,0
201445,-111.111111111111,4,1,0,75,0,0
201547,-113.207589889657,4,1,0,75,0,0
201650,-115.384571005934,4,1,0,75,0,0
201752,-117.647058823529,4,1,0,75,0,0
201855,-120.000048000019,4,1,0,75,0,0
201957,-122.448929612682,4,1,0,75,0,0
202061,-124.919583018432,4,1,0,75,0,0
202138,-124.919583018432,4,1,0,60,0,0
210685,307.692307692308,4,1,0,50,1,0
210685,-166.666666666667,4,1,0,50,0,0
215599,-142.752118084552,4,1,0,50,0,0
220522,-125,4,1,0,70,0,0
220676,-123.076923076923,4,1,0,70,0,0
220753,-122.137404580153,4,1,0,70,0,0
220830,-121.212121212121,4,1,0,70,0,0
220907,-120.300751879699,4,1,0,70,0,0
220984,-119.402985074627,4,1,0,70,0,0
221061,-118.518518518519,4,1,0,70,0,0
221138,-117.647058823529,4,1,0,70,0,0
221215,-116.788321167883,4,1,0,70,0,0
221291,-115.942028985507,4,1,0,70,0,0
221368,-115.107913669065,4,1,0,70,0,0
221445,-114.285714285714,4,1,0,70,0,0
221522,-113.475177304965,4,1,0,70,0,0
221599,-112.676056338028,4,1,0,70,0,0
221676,-111.888111888112,4,1,0,70,0,0
221753,-111.111111111111,4,1,0,70,0,0
221830,-110.344827586207,4,1,0,70,0,0
221907,-109.58904109589,4,1,0,70,0,0
221984,-108.843537414966,4,1,0,70,0,0
222061,-108.108108108108,4,1,0,70,0,0
222138,-107.38255033557,4,1,0,70,0,0
222215,-106.666666666667,4,1,0,70,0,0
222291,-105.960264900662,4,1,0,70,0,0
222368,-105.263157894737,4,1,0,80,0,0
222445,-103.910030539158,4,1,0,80,0,0
222522,-102.591249787123,4,1,0,80,0,0
222599,-101.305524291545,4,1,0,80,0,0
222676,-100.051526536166,4,1,0,80,0,0
222753,-98.8282917727424,4,1,0,80,0,0
222830,-97.6346063909661,4,1,0,80,0,0
222907,-96.4694124433966,4,1,0,80,0,0
222984,-95.3317018901416,4,1,0,85,0,0
223061,-102.564102564103,4,1,0,80,0,0
223445,-100,4,1,0,85,0,0
223753,-95.2380952380952,4,1,0,85,0,0
224061,-90.9090909090909,4,1,0,85,0,0
224214,-100,4,1,0,80,0,0
224368,-98.7654320987654,4,1,0,80,0,0
224522,-97.5609756097561,4,1,0,80,0,0
224599,-96.969696969697,4,1,0,80,0,0
224676,-96.3855421686747,4,1,0,80,0,0
224753,-95.8083832335329,4,1,0,80,0,0
224830,-95.2380952380952,4,1,0,80,0,0
224984,-94.1176470588235,4,1,0,80,0,0
225061,-93.5672514619883,4,1,0,80,0,0
225138,-93.0232558139535,4,1,0,80,0,0
225215,-92.485549132948,4,1,0,80,0,0
225291,-91.9540229885058,4,1,0,80,0,0
225368,-91.4285714285714,4,1,0,80,0,0
225454,-90.9090909090909,4,1,0,90,0,1
230676,-95.2380952380952,4,1,0,90,0,1
230830,-88.8888888888889,4,1,0,90,0,1
231138,-95.2380952380952,4,1,0,90,0,1
231291,-86.9565217391304,4,1,0,90,0,1
231608,-100,4,1,0,80,0,0
231753,-98.7717730027113,4,1,0,80,0,0
231830,-98.1688563230069,4,1,0,80,0,0
231907,-97.5733507664387,4,1,0,80,0,0
231984,-96.9849324208991,4,1,0,80,0,0
232061,-96.4035684744906,4,1,0,80,0,0
232138,-95.8292246553262,4,1,0,80,0,0
232215,-95.261593097726,4,1,0,80,0,0
232291,-94.7006465213138,4,1,0,80,0,0
232368,-94.1463561594312,4,1,0,80,0,0
232445,-93.5984290439669,4,1,0,80,0,0
232522,-93.0569294377221,4,1,0,80,0,0
232599,-92.5215737179517,4,1,0,80,0,0
232676,-91.9923425574055,4,1,0,80,0,0
232753,-91.4692151209589,4,1,0,80,0,0
232838,307.692307692308,4,1,0,90,1,1
232838,-90.9090909090909,4,1,0,90,0,1
240522,-97.5609756097561,4,1,0,90,0,1
240676,-95.2380952380952,4,1,0,90,0,1
240983,-97.5609756097561,4,1,0,90,0,1
241137,-95.2380952380952,4,1,0,90,0,1
241291,-88.8888888888889,4,1,0,90,0,1
241445,-100,4,1,0,90,0,1
241599,-98.7717730027113,4,1,0,90,0,1
241753,-97.5733507664387,4,1,0,90,0,1
241907,-96.4035684744906,4,1,0,90,0,1
241984,-95.8292246553262,4,1,0,90,0,1
242061,-95.261593097726,4,1,0,90,0,1
242214,-94.1463561594312,4,1,0,90,0,1
242291,-93.5984290439669,4,1,0,90,0,1
242368,-93.0569294377221,4,1,0,90,0,1
242445,-92.5215737179517,4,1,0,90,0,1
242522,-91.9923425574055,4,1,0,90,0,1
242599,-91.4692151209589,4,1,0,90,0,1
242684,-90.9090909090909,4,1,0,80,0,0
242991,-83.3333333333333,4,1,0,90,0,1
243138,-90.9090909090909,4,1,0,90,0,1
247907,-95.2380952380952,4,1,0,90,0,1
248061,-88.8888888888889,4,1,0,90,0,1
248368,-100,4,1,0,90,0,1
248522,-97.5609756097561,4,1,0,90,0,1
248676,-95.2380952380952,4,1,0,90,0,1
248753,-93.0232558139535,4,1,0,90,0,1
248830,-90.9090909090909,4,1,0,90,0,1
249138,-95.2380952380952,4,1,0,90,0,1
249291,-88.8888888888889,4,1,0,90,0,1
249599,-95.2380952380952,4,1,0,90,0,1
249753,-90.9090909090909,4,1,0,90,0,1
250061,-100,4,1,0,80,0,1
253753,-100,4,1,0,80,0,1
253907,-98.7717730027113,4,1,0,80,0,1
253984,-98.1688563230069,4,1,0,80,0,1
254061,-97.5733507664387,4,1,0,80,0,1
254215,-96.4035684744906,4,1,0,80,0,1
254291,-95.8292246553262,4,1,0,80,0,1
254368,-95.261593097726,4,1,0,80,0,1
254522,-94.1463561594312,4,1,0,80,0,1
254599,-93.5984290439669,4,1,0,80,0,1
254676,-93.0569294377221,4,1,0,80,0,1
254753,-92.5215737179517,4,1,0,80,0,1
254830,-91.9923425574055,4,1,0,80,0,1
254907,-91.4692151209589,4,1,0,80,0,1
254984,-90.9519209955233,4,1,0,85,0,1
255599,-90.9090909090909,4,1,0,85,0,1
255753,-92.9791447778263,4,1,0,80,0,1
255830,-94.0499311084255,4,1,0,80,0,1
255907,-95.1456680177351,4,1,0,80,0,1
256068,-86.9565217391304,4,1,0,90,0,0
256138,-100,4,1,0,50,0,0
256828,-100,4,1,0,50,0,0
256981,-98.7654320987654,4,1,0,80,0,0
257135,-97.5609756097561,4,1,0,80,0,0
257289,-96.3855421686747,4,1,0,80,0,0
257366,-95.8083832335329,4,1,0,80,0,0
257453,-95.2380952380952,4,1,0,85,0,1
265138,-100,4,1,0,85,0,1
265291,-95.2380952380952,4,1,0,85,0,1
265599,-102.564102564103,4,1,0,85,0,1
265753,-100,4,1,0,85,0,1
265907,-93.0232558139535,4,1,0,85,0,1
266061,-102.564102564103,4,1,0,85,0,1
266368,-100,4,1,0,85,0,1
266522,-97.5609756097561,4,1,0,85,0,1
266599,-95.2380952380952,4,1,0,85,0,1
266676,-93.0232558139535,4,1,0,85,0,1
266830,-98.7654320987654,4,1,0,85,0,1
266907,-98.159509202454,4,1,0,85,0,1
266983,-97.5609756097561,4,1,0,85,0,1
267061,-96.969696969697,4,1,0,85,0,1
267137,-96.3855421686747,4,1,0,85,0,1
267215,-95.8083832335329,4,1,0,85,0,1
267299,-95.2380952380952,4,1,0,75,0,0
267607,-86.9565217391304,4,1,0,85,0,1
267676,-95.2380952380952,4,1,0,85,0,1
274676,-95.2380952380952,4,1,0,75,0,1
274830,-97.5124572164094,4,1,0,75,0,1
274907,-98.6908656669282,4,1,0,75,0,1
274984,-99.8981039339873,4,1,0,75,0,1
275753,-95.2380952380952,4,1,0,85,0,1
275907,-100,4,1,0,85,0,1
276520,-100,4,1,0,85,0,1
276676,-97.5855386038632,4,1,0,85,0,1
276753,-96.4215085530699,4,1,0,85,0,1
276830,-95.2848301786114,4,1,0,85,0,1
276907,-94.1747280233855,4,1,0,85,0,1
276984,-93.090194158218,4,1,0,85,0,1
277061,-92.0303552923896,4,1,0,85,0,1
277138,-90.9943774574169,4,1,0,85,0,1
277291,-97.5609756097561,4,1,0,85,0,1
277445,-95.2380952380952,4,1,0,85,0,1
277522,-94.1176470588235,4,1,0,85,0,1
277599,-93.0232558139535,4,1,0,85,0,1
277676,-91.9540229885058,4,1,0,85,0,1
277753,-90.9090909090909,4,1,0,85,0,1
277830,-89.8876404494382,4,1,0,85,0,1
277907,-88.8888888888889,4,1,0,85,0,1
277984,-87.9120879120879,4,1,0,85,0,1
278061,-86.9565217391304,4,1,0,85,0,1
278222,-83.3333333333333,4,1,0,85,0,0

[HitObjects]
256,192,225,5,12,0:0:0:0:
256,192,532,1,0,0:0:0:0:
256,192,686,1,8,0:0:0:0:
256,192,840,1,0,0:0:0:0:
256,192,994,1,0,0:0:0:0:
256,192,1148,1,8,0:0:0:0:
256,192,1455,1,0,0:0:0:0:
256,192,1609,1,8,0:0:0:0:
256,192,1917,1,8,0:0:0:0:
256,192,2071,1,0,0:0:0:0:
256,192,2225,1,0,0:0:0:0:
256,192,2378,1,8,0:0:0:0:
256,192,2532,1,8,0:0:0:0:
256,192,2609,1,8,0:0:0:0:
256,192,2686,1,0,0:0:0:0:
256,192,2994,1,0,0:0:0:0:
256,192,3148,1,8,0:0:0:0:
256,192,3301,1,8,0:0:0:0:
256,192,3455,1,0,0:0:0:0:
256,192,3609,1,8,0:0:0:0:
256,192,3917,1,0,0:0:0:0:
256,192,4071,1,8,0:0:0:0:
256,192,4378,1,8,0:0:0:0:
256,192,4455,1,0,0:0:0:0:
256,192,4532,1,8,0:0:0:0:
256,192,4686,1,8,0:0:0:0:
256,192,4840,1,0,0:0:0:0:
256,192,4994,1,0,0:0:0:0:
256,192,5071,1,0,0:0:0:0:
256,192,5148,1,8,0:0:0:0:
256,192,5455,1,0,0:0:0:0:
256,192,5609,1,8,0:0:0:0:
256,192,5763,1,0,0:0:0:0:
256,192,5917,1,0,0:0:0:0:
256,192,6071,1,8,0:0:0:0:
256,192,6378,1,0,0:0:0:0:
256,192,6532,1,8,0:0:0:0:
256,192,6840,1,8,0:0:0:0:
256,192,6994,1,0,0:0:0:0:
256,192,7148,1,8,0:0:0:0:
256,192,7301,1,0,0:0:0:0:
256,192,7455,1,0,0:0:0:0:
256,192,7532,1,0,0:0:0:0:
256,192,7609,1,8,0:0:0:0:
256,192,7917,1,8,0:0:0:0:
256,192,8071,1,0,0:0:0:0:
256,192,8225,1,0,0:0:0:0:
256,192,8378,1,0,0:0:0:0:
256,192,8532,1,8,0:0:0:0:
256,192,8840,1,0,0:0:0:0:
256,192,8994,1,8,0:0:0:0:
256,192,9071,1,8,0:0:0:0:
256,192,9148,1,8,0:0:0:0:
256,192,9301,1,0,0:0:0:0:
256,192,9378,1,0,0:0:0:0:
256,192,9455,1,8,0:0:0:0:
256,192,9609,1,8,0:0:0:0:
256,192,9763,1,0,0:0:0:0:
256,192,10071,1,8,0:0:0:0:
256,192,10378,1,0,0:0:0:0:
256,192,10532,1,8,0:0:0:0:
256,192,10686,1,0,0:0:0:0:
256,192,10994,1,8,0:0:0:0:
256,192,11148,1,0,0:0:0:0:
256,192,11301,1,8,0:0:0:0:
256,192,11455,1,8,0:0:0:0:
256,192,11609,1,0,0:0:0:0:
256,192,11763,1,8,0:0:0:0:
256,192,12071,1,0,0:0:0:0:
256,192,12225,1,8,0:0:0:0:
256,192,12378,1,8,0:0:0:0:
256,192,12455,1,8,0:0:0:0:
256,192,12532,1,0,0:0:0:0:
256,192,12686,1,0,0:0:0:0:
256,192,12840,1,8,0:0:0:0:
256,192,13148,1,0,0:0:0:0:
256,192,13301,1,8,0:0:0:0:
256,192,13455,1,0,0:0:0:0:
256,192,13609,1,0,0:0:0:0:
256,192,13763,1,8,0:0:0:0:
256,192,14071,1,8,0:0:0:0:
256,192,14225,1,0,0:0:0:0:
256,192,14301,1,8,0:0:0:0:
256,192,14378,1,0,0:0:0:0:
256,192,14532,1,8,0:0:0:0:
256,192,14686,1,0,0:0:0:0:
256,192,14840,1,0,0:0:0:0:
256,192,14994,1,8,0:0:0:0:
256,192,15301,1,8,0:0:0:0:
256,192,15455,1,0,0:0:0:0:
256,192,15609,1,8,0:0:0:0:
256,192,15917,1,0,0:0:0:0:
256,192,16071,1,0,0:0:0:0:
256,192,16225,1,8,0:0:0:0:
256,192,16378,1,8,0:0:0:0:
256,192,16532,1,0,0:0:0:0:
256,192,16686,1,8,0:0:0:0:
256,192,16994,1,0,0:0:0:0:
256,192,17148,1,8,0:0:0:0:
256,192,17301,1,8,0:0:0:0:
256,192,17378,1,8,0:0:0:0:
256,192,17455,1,0,0:0:0:0:
256,192,17609,1,0,0:0:0:0:
256,192,17763,1,8,0:0:0:0:
256,192,18071,1,0,0:0:0:0:
256,192,18225,1,8,0:0:0:0:
256,192,18378,1,0,0:0:0:0:
256,192,18686,1,0,0:0:0:0:
256,192,18840,1,8,0:0:0:0:
256,192,18917,1,8,0:0:0:0:
256,192,18994,1,8,0:0:0:0:
256,192,19148,1,0,0:0:0:0:
256,192,19301,1,8,0:0:0:0:
256,192,19455,1,8,0:0:0:0:
256,192,19532,1,0,0:0:0:0:
256,192,19609,1,8,0:0:0:0:
256,192,19763,1,0,0:0:0:0:
256,192,19917,1,12,0:0:0:0:
256,192,20225,1,0,0:0:0:0:
256,192,20378,1,8,0:0:0:0:
256,192,20532,1,0,0:0:0:0:
256,192,20840,1,8,0:0:0:0:
256,192,20994,1,0,0:0:0:0:
256,192,21071,1,0,0:0:0:0:
256,192,21148,1,8,0:0:0:0:
256,192,21301,1,8,0:0:0:0:
256,192,21455,1,0,0:0:0:0:
256,192,21609,1,8,0:0:0:0:
256,192,21917,1,0,0:0:0:0:
256,192,22071,1,8,0:0:0:0:
256,192,22225,1,8,0:0:0:0:
256,192,22301,1,8,0:0:0:0:
256,192,22378,1,0,0:0:0:0:
256,192,22532,1,0,0:0:0:0:
256,192,22686,1,8,0:0:0:0:
256,192,22994,1,0,0:0:0:0:
256,192,23148,1,8,0:0:0:0:
256,192,23301,1,0,0:0:0:0:
256,192,23455,1,8,0:0:0:0:
256,192,23532,1,0,0:0:0:0:
256,192,23609,1,8,0:0:0:0:
256,192,23763,1,0,0:0:0:0:
256,192,23917,1,8,0:0:0:0:
256,192,24071,1,0,0:0:0:0:
256,192,24148,1,0,0:0:0:0:
256,192,24225,1,8,0:0:0:0:
256,192,24378,1,8,0:0:0:0:
256,192,24532,1,0,0:0:0:0:
256,192,24686,1,0,0:0:0:0:
256,192,24840,1,8,0:0:0:0:
256,192,25148,1,8,0:0:0:0:
256,192,25301,1,0,0:0:0:0:
256,192,25455,1,8,0:0:0:0:
256,192,25763,1,0,0:0:0:0:
256,192,25917,1,0,0:0:0:0:
256,192,25994,1,8,0:0:0:0:
256,192,26071,1,0,0:0:0:0:
256,192,26225,1,8,0:0:0:0:
256,192,26378,1,8,0:0:0:0:
256,192,26532,1,0,0:0:0:0:
256,192,26686,1,8,0:0:0:0:
256,192,26994,1,0,0:0:0:0:
256,192,27148,1,8,0:0:0:0:
256,192,27225,1,8,0:0:0:0:
256,192,27301,1,0,0:0:0:0:
256,192,27455,1,0,0:0:0:0:
256,192,27609,1,8,0:0:0:0:
256,192,27763,1,0,0:0:0:0:
256,192,27840,1,8,0:0:0:0:
256,192,27917,1,0,0:0:0:0:
256,192,28071,1,0,0:0:0:0:
256,192,28225,1,8,0:0:0:0:
256,192,28378,1,0,0:0:0:0:
256,192,28455,1,0,0:0:0:0:
256,192,28532,1,8,0:0:0:0:
256,192,28686,1,8,0:0:0:0:
256,192,28763,1,0,0:0:0:0:
256,192,28840,1,8,0:0:0:0:
256,192,28917,1,8,0:0:0:0:
256,192,28994,1,0,0:0:0:0:
256,192,29148,1,8,0:0:0:0:
256,192,29455,1,0,0:0:0:0:
256,192,29532,1,0,0:0:0:0:
256,192,29609,1,0,0:0:0:0:
256,192,29686,1,0,0:0:0:0:
256,192,29763,1,12,0:0:0:0:
256,192,30071,1,8,0:0:0:0:
256,192,30225,1,0,0:0:0:0:
256,192,30301,1,8,0:0:0:0:
256,192,30378,1,0,0:0:0:0:
256,192,30532,1,8,0:0:0:0:
256,192,30686,1,0,0:0:0:0:
256,192,30840,1,8,0:0:0:0:
256,192,30917,1,0,0:0:0:0:
256,192,30994,1,8,0:0:0:0:
256,192,31148,1,0,0:0:0:0:
256,192,31225,1,0,0:0:0:0:
256,192,31301,1,8,0:0:0:0:
256,192,31455,1,0,0:0:0:0:
256,192,31609,1,8,0:0:0:0:
256,192,31686,1,8,0:0:0:0:
256,192,31763,1,0,0:0:0:0:
256,192,31840,1,0,0:0:0:0:
256,192,31917,1,8,0:0:0:0:
256,192,31994,1,0,0:0:0:0:
256,192,32071,1,8,0:0:0:0:
256,192,32225,1,0,0:0:0:0:
256,192,32532,1,8,0:0:0:0:
256,192,32686,1,0,0:0:0:0:
256,192,32763,1,8,0:0:0:0:
256,192,32840,1,0,0:0:0:0:
256,192,32994,1,8,0:0:0:0:
256,192,33148,1,0,0:0:0:0:
256,192,33301,1,8,0:0:0:0:
256,192,33378,1,8,0:0:0:0:
256,192,33455,1,0,0:0:0:0:
256,192,33609,1,8,0:0:0:0:
256,192,33686,1,0,0:0:0:0:
256,192,33763,1,8,0:0:0:0:
256,192,33917,1,0,0:0:0:0:
256,192,34071,1,8,0:0:0:0:
256,192,34148,1,8,0:0:0:0:
256,192,34225,1,0,0:0:0:0:
256,192,34301,1,0,0:0:0:0:
256,192,34378,1,8,0:0:0:0:
256,192,34455,1,0,0:0:0:0:
256,192,34532,1,0,0:0:0:0:
256,192,34686,1,12,0:0:0:0:
256,192,34994,1,8,0:0:0:0:
256,192,35148,1,0,0:0:0:0:
256,192,35225,1,8,0:0:0:0:
256,192,35301,1,0,0:0:0:0:
256,192,35455,1,8,0:0:0:0:
256,192,35609,1,0,0:0:0:0:
256,192,35763,1,8,0:0:0:0:
256,192,35840,1,8,0:0:0:0:
256,192,35917,1,0,0:0:0:0:
256,192,36071,1,0,0:0:0:0:
256,192,36148,1,0,0:0:0:0:
256,192,36225,1,8,0:0:0:0:
256,192,36378,1,0,0:0:0:0:
256,192,36532,1,8,0:0:0:0:
256,192,36609,1,8,0:0:0:0:
256,192,36686,1,0,0:0:0:0:
256,192,36763,1,0,0:0:0:0:
256,192,36840,1,8,0:0:0:0:
256,192,36917,1,0,0:0:0:0:
256,192,36994,1,8,0:0:0:0:
256,192,37148,1,4,0:0:0:0:
256,192,37455,1,0,0:0:0:0:
256,192,37609,1,8,0:0:0:0:
256,192,37917,1,8,0:0:0:0:
256,192,38071,1,0,0:0:0:0:
256,192,38225,1,12,0:0:0:0:
256,192,38532,1,0,0:0:0:0:
256,192,38686,1,8,0:0:0:0:
256,192,38840,1,0,0:0:0:0:
256,192,38917,1,0,0:0:0:0:
256,192,38994,1,8,0:0:0:0:
256,192,39148,1,0,0:0:0:0:
256,192,39301,1,0,0:0:0:0:
256,192,39455,1,0,0:0:0:0:
256,192,39609,1,12,0:0:0:0:
256,192,39917,1,8,0:0:0:0:
256,192,40225,1,0,0:0:0:0:
256,192,40532,1,8,0:0:0:0:
256,192,40686,1,0,0:0:0:0:
256,192,40763,1,8,0:0:0:0:
256,192,40840,1,0,0:0:0:0:
256,192,40994,1,0,0:0:0:0:
256,192,41148,1,8,0:0:0:0:
256,192,41301,1,0,0:0:0:0:
256,192,41609,1,0,0:0:0:0:
256,192,41763,1,8,0:0:0:0:
256,192,41917,1,8,0:0:0:0:
256,192,41994,1,8,0:0:0:0:
256,192,42071,1,0,0:0:0:0:
256,192,42225,1,0,0:0:0:0:
256,192,42378,1,8,0:0:0:0:
256,192,42686,1,8,0:0:0:0:
256,192,42840,1,0,0:0:0:0:
256,192,42994,1,8,0:0:0:0:
256,192,43148,1,0,0:0:0:0:
256,192,43225,1,8,0:0:0:0:
256,192,43301,1,0,0:0:0:0:
256,192,43455,1,0,0:0:0:0:
256,192,43609,1,8,0:0:0:0:
256,192,43917,1,8,0:0:0:0:
256,192,44071,1,0,0:0:0:0:
256,192,44225,1,8,0:0:0:0:
256,192,44378,1,0,0:0:0:0:
256,192,44455,1,0,0:0:0:0:
256,192,44532,1,0,0:0:0:0:
256,192,44686,1,0,0:0:0:0:
256,192,44840,1,8,0:0:0:0:
256,192,45148,1,0,0:0:0:0:
256,192,45301,1,0,0:0:0:0:
256,192,45455,1,8,0:0:0:0:
256,192,45609,1,8,0:0:0:0:
256,192,45686,1,8,0:0:0:0:
256,192,45763,1,0,0:0:0:0:
256,192,45917,1,0,0:0:0:0:
256,192,46071,1,8,0:0:0:0:
256,192,46225,1,0,0:0:0:0:
256,192,46532,1,0,0:0:0:0:
256,192,46686,1,8,0:0:0:0:
256,192,46840,1,0,0:0:0:0:
256,192,46917,1,0,0:0:0:0:
256,192,46994,1,0,0:0:0:0:
256,192,47148,1,0,0:0:0:0:
256,192,47301,1,8,0:0:0:0:
256,192,47609,1,8,0:0:0:0:
256,192,47763,1,8,0:0:0:0:
256,192,47840,1,0,0:0:0:0:
256,192,47917,1,8,0:0:0:0:
256,192,48225,1,0,0:0:0:0:
256,192,48378,1,0,0:0:0:0:
256,192,48532,1,12,0:0:0:0:
256,192,48840,1,0,0:0:0:0:
256,192,48994,1,0,0:0:0:0:
256,192,49071,1,0,0:0:0:0:
256,192,49148,1,8,0:0:0:0:
256,192,49225,1,0,0:0:0:0:
256,192,49301,1,0,0:0:0:0:
256,192,49378,1,0,0:0:0:0:
256,192,49455,1,12,0:0:0:0:
256,192,49763,1,8,0:0:0:0:
256,192,49917,1,0,0:0:0:0:
256,192,49994,1,0,0:0:0:0:
256,192,50071,1,8,0:0:0:0:
256,192,50225,1,0,0:0:0:0:
256,192,50378,1,8,0:0:0:0:
256,192,50686,1,0,0:0:0:0:
256,192,50840,1,8,0:0:0:0:
256,192,50994,1,0,0:0:0:0:
256,192,51148,1,8,0:0:0:0:
256,192,51225,1,8,0:0:0:0:
256,192,51301,1,0,0:0:0:0:
256,192,51455,1,0,0:0:0:0:
256,192,51609,1,8,0:0:0:0:
256,192,51686,1,8,0:0:0:0:
256,192,51763,1,8,0:0:0:0:
256,192,51840,1,8,0:0:0:0:
256,192,51917,1,0,0:0:0:0:
256,192,52225,1,8,0:0:0:0:
256,192,52378,1,0,0:0:0:0:
256,192,52455,1,0,0:0:0:0:
256,192,52532,1,8,0:0:0:0:
256,192,52686,1,0,0:0:0:0:
256,192,52840,1,8,0:0:0:0:
256,192,52994,1,8,0:0:0:0:
256,192,53148,1,0,0:0:0:0:
256,192,53225,1,0,0:0:0:0:
256,192,53301,1,8,0:0:0:0:
256,192,53378,1,8,0:0:0:0:
256,192,53455,1,0,0:0:0:0:
256,192,53609,1,8,0:0:0:0:
256,192,53763,1,0,0:0:0:0:
256,192,53840,1,0,0:0:0:0:
256,192,53917,1,8,0:0:0:0:
256,192,53994,1,0,0:0:0:0:
256,192,54071,1,8,0:0:0:0:
256,192,54225,1,0,0:0:0:0:
256,192,54378,1,12,0:0:0:0:
256,192,54686,1,0,0:0:0:0:
256,192,54840,1,0,0:0:0:0:
256,192,54917,1,0,0:0:0:0:
256,192,54994,1,8,0:0:0:0:
256,192,55148,1,0,0:0:0:0:
256,192,55301,1,8,0:0:0:0:
256,192,55609,1,0,0:0:0:0:
256,192,55763,1,8,0:0:0:0:
256,192,55840,1,0,0:0:0:0:
256,192,55917,1,8,0:0:0:0:
256,192,56071,1,8,0:0:0:0:
256,192,56225,1,0,0:0:0:0:
256,192,56378,1,0,0:0:0:0:
256,192,56532,1,8,0:0:0:0:
256,192,56609,1,8,0:0:0:0:
256,192,56686,1,8,0:0:0:0:
256,192,56763,1,8,0:0:0:0:
256,192,56840,1,4,0:0:0:0:
256,192,57148,1,0,0:0:0:0:
256,192,57301,1,8,0:0:0:0:
256,192,57609,1,8,0:0:0:0:
256,192,57763,1,4,0:0:0:0:
256,192,58071,1,0,0:0:0:0:
256,192,58225,1,8,0:0:0:0:
256,192,58532,1,0,0:0:0:0:
256,192,58686,1,12,0:0:0:0:
256,192,58994,1,0,0:0:0:0:
256,192,59071,1,0,0:0:0:0:
256,192,59148,1,0,0:0:0:0:
256,192,59225,1,0,0:0:0:0:
256,192,59301,1,12,0:0:0:0:
256,192,59609,1,0,0:0:0:0:
256,192,59763,1,0,0:0:0:0:
256,192,59840,1,0,0:0:0:0:
256,192,59917,1,8,0:0:0:0:
256,192,60071,1,0,0:0:0:0:
256,192,60225,1,8,0:0:0:0:
256,192,60301,1,0,0:0:0:0:
256,192,60378,1,8,0:0:0:0:
256,192,60686,1,8,0:0:0:0:
256,192,60840,1,0,0:0:0:0:
256,192,60994,1,0,0:0:0:0:
256,192,61071,1,0,0:0:0:0:
256,192,61148,1,8,0:0:0:0:
256,192,61301,1,0,0:0:0:0:
256,192,61455,1,8,0:0:0:0:
256,192,61532,1,0,0:0:0:0:
256,192,61609,1,0,0:0:0:0:
256,192,61686,1,0,0:0:0:0:
256,192,61763,1,8,0:0:0:0:
256,192,62071,1,0,0:0:0:0:
256,192,62225,1,0,0:0:0:0:
256,192,62301,1,0,0:0:0:0:
256,192,62378,1,8,0:0:0:0:
256,192,62532,1,8,0:0:0:0:
256,192,62686,1,0,0:0:0:0:
256,192,62763,1,0,0:0:0:0:
256,192,62840,1,8,0:0:0:0:
256,192,63148,1,8,0:0:0:0:
256,192,63301,1,0,0:0:0:0:
256,192,63455,1,0,0:0:0:0:
256,192,63532,1,8,0:0:0:0:
256,192,63609,1,0,0:0:0:0:
256,192,63763,1,0,0:0:0:0:
256,192,63917,1,12,0:0:0:0:
256,192,64225,1,4,0:0:0:0:
256,192,64532,1,8,0:0:0:0:
256,192,64686,1,0,0:0:0:0:
256,192,64763,1,0,0:0:0:0:
256,192,64840,1,8,0:0:0:0:
256,192,64994,1,0,0:0:0:0:
256,192,65148,1,8,0:0:0:0:
256,192,65225,1,0,0:0:0:0:
256,192,65301,1,8,0:0:0:0:
256,192,65609,1,8,0:0:0:0:
256,192,65763,1,0,0:0:0:0:
256,192,65917,1,0,0:0:0:0:
256,192,65994,1,0,0:0:0:0:
256,192,66071,1,0,0:0:0:0:
256,192,66225,1,8,0:0:0:0:
256,192,66378,1,0,0:0:0:0:
256,192,66455,1,8,0:0:0:0:
256,192,66532,1,0,0:0:0:0:
256,192,66609,1,0,0:0:0:0:
256,192,66686,1,8,0:0:0:0:
256,192,66994,1,8,0:0:0:0:
256,192,67148,1,0,0:0:0:0:
256,192,67225,1,8,0:0:0:0:
256,192,67301,1,0,0:0:0:0:
256,192,67455,1,0,0:0:0:0:
256,192,67609,1,12,0:0:0:0:
256,192,67917,1,0,0:0:0:0:
256,192,68071,1,8,0:0:0:0:
256,192,68148,1,8,0:0:0:0:
256,192,68225,1,0,0:0:0:0:
256,192,68301,1,0,0:0:0:0:
256,192,68378,1,8,0:0:0:0:
256,192,68455,1,0,0:0:0:0:
256,192,68532,1,8,0:0:0:0:
256,192,68609,1,8,0:0:0:0:
256,192,68686,1,0,0:0:0:0:
256,192,68763,1,8,0:0:0:0:
256,192,68840,1,0,0:0:0:0:
256,192,68917,1,0,0:0:0:0:
256,192,68994,1,0,0:0:0:0:
256,192,69071,1,0,0:0:0:0:
256,192,69148,1,12,0:0:0:0:
256,192,69301,1,0,0:0:0:0:
256,192,69455,1,8,0:0:0:0:
256,192,69763,1,0,0:0:0:0:
256,192,69917,1,8,0:0:0:0:
256,192,69994,1,8,0:0:0:0:
256,192,70071,1,0,0:0:0:0:
256,192,70225,1,8,0:0:0:0:
256,192,70378,1,0,0:0:0:0:
256,192,70532,1,8,0:0:0:0:
256,192,70609,1,0,0:0:0:0:
256,192,70686,1,8,0:0:0:0:
256,192,70840,1,8,0:0:0:0:
256,192,70917,1,8,0:0:0:0:
256,192,70994,1,0,0:0:0:0:
256,192,71148,1,0,0:0:0:0:
256,192,71301,1,8,0:0:0:0:
256,192,71378,1,0,0:0:0:0:
256,192,71455,1,8,0:0:0:0:
256,192,71532,1,8,0:0:0:0:
256,192,71609,1,0,0:0:0:0:
256,192,71763,1,0,0:0:0:0:
256,192,71917,1,8,0:0:0:0:
256,192,72071,1,8,0:0:0:0:
256,192,72148,1,8,0:0:0:0:
256,192,72225,1,0,0:0:0:0:
256,192,72378,1,8,0:0:0:0:
256,192,72455,1,0,0:0:0:0:
256,192,72532,1,8,0:0:0:0:
256,192,72686,1,8,0:0:0:0:
256,192,72840,1,0,0:0:0:0:
256,192,73148,1,12,0:0:0:0:
256,192,73455,1,0,0:0:0:0:
256,192,73609,1,0,0:0:0:0:
256,192,73763,1,0,0:0:0:0:
256,192,73917,1,0,0:0:0:0:
256,192,74071,1,12,0:0:0:0:
256,192,74378,1,8,0:0:0:0:
256,192,74686,1,8,0:0:0:0:
256,192,74994,1,8,0:0:0:0:
256,192,75148,1,0,0:0:0:0:
256,192,75301,1,8,0:0:0:0:
256,192,75455,1,8,0:0:0:0:
256,192,75609,1,0,0:0:0:0:
256,192,75763,1,0,0:0:0:0:
256,192,75917,1,8,0:0:0:0:
256,192,76225,1,8,0:0:0:0:
256,192,76378,1,0,0:0:0:0:
256,192,76532,1,8,0:0:0:0:
256,192,76686,1,0,0:0:0:0:
256,192,76840,1,0,0:0:0:0:
256,192,76994,1,0,0:0:0:0:
256,192,77148,1,8,0:0:0:0:
256,192,77301,1,8,0:0:0:0:
256,192,77455,1,8,0:0:0:0:
256,192,77609,1,8,0:0:0:0:
256,192,77763,1,0,0:0:0:0:
256,192,78994,1,4,0:0:0:0:
256,192,79301,1,12,0:0:0:0:
256,192,79609,1,0,0:0:0:0:
256,192,79686,1,8,0:0:0:0:
256,192,79763,1,0,0:0:0:0:
256,192,79840,1,0,0:0:0:0:
256,192,79917,1,8,0:0:0:0:
256,192,80071,1,8,0:0:0:0:
256,192,80148,1,0,0:0:0:0:
256,192,80225,1,8,0:0:0:0:
256,192,80378,1,0,0:0:0:0:
256,192,80455,1,0,0:0:0:0:
256,192,80532,1,8,0:0:0:0:
256,192,80686,1,0,0:0:0:0:
256,192,80840,1,8,0:0:0:0:
256,192,80917,1,0,0:0:0:0:
256,192,80994,1,8,0:0:0:0:
256,192,81071,1,0,0:0:0:0:
256,192,81148,1,8,0:0:0:0:
256,192,81225,1,8,0:0:0:0:
256,192,81301,1,0,0:0:0:0:
256,192,81455,1,0,0:0:0:0:
256,192,81532,1,8,0:0:0:0:
256,192,81609,1,0,0:0:0:0:
256,192,81763,1,8,0:0:0:0:
256,192,81917,1,0,0:0:0:0:
256,192,81994,1,8,0:0:0:0:
256,192,82071,1,8,0:0:0:0:
256,192,82225,1,0,0:0:0:0:
256,192,82301,1,0,0:0:0:0:
256,192,82378,1,8,0:0:0:0:
256,192,82532,1,0,0:0:0:0:
256,192,82686,1,8,0:0:0:0:
256,192,82763,1,0,0:0:0:0:
256,192,82840,1,0,0:0:0:0:
256,192,82917,1,0,0:0:0:0:
256,192,82994,1,8,0:0:0:0:
256,192,83148,1,0,0:0:0:0:
256,192,83301,1,8,0:0:0:0:
256,192,83378,1,0,0:0:0:0:
256,192,83455,1,8,0:0:0:0:
256,192,83532,1,0,0:0:0:0:
256,192,83609,1,8,0:0:0:0:
256,192,83686,1,8,0:0:0:0:
256,192,83763,1,0,0:0:0:0:
256,192,83840,1,0,0:0:0:0:
256,192,83917,1,8,0:0:0:0:
256,192,84071,1,0,0:0:0:0:
256,192,84225,1,8,0:0:0:0:
256,192,84378,1,0,0:0:0:0:
256,192,84455,1,8,0:0:0:0:
256,192,84532,1,0,0:0:0:0:
256,192,84686,1,0,0:0:0:0:
256,192,84763,1,0,0:0:0:0:
256,192,84840,1,8,0:0:0:0:
256,192,84994,1,8,0:0:0:0:
256,192,85071,1,8,0:0:0:0:
256,192,85148,1,0,0:0:0:0:
256,192,85225,1,8,0:0:0:0:
256,192,85301,1,0,0:0:0:0:
256,192,85378,1,0,0:0:0:0:
256,192,85455,1,8,0:0:0:0:
256,192,85609,1,0,0:0:0:0:
256,192,85763,1,8,0:0:0:0:
256,192,85840,1,0,0:0:0:0:
256,192,85917,1,8,0:0:0:0:
256,192,85994,1,8,0:0:0:0:
256,192,86071,1,0,0:0:0:0:
256,192,86148,1,0,0:0:0:0:
256,192,86225,1,0,0:0:0:0:
256,192,86301,1,0,0:0:0:0:
256,192,86378,1,12,0:0:0:0:
256,192,86686,1,0,0:0:0:0:
256,192,86840,1,8,0:0:0:0:
256,192,87148,1,8,0:0:0:0:
256,192,87301,1,0,0:0:0:0:
256,192,87455,1,12,0:0:0:0:
256,192,87763,1,0,0:0:0:0:
256,192,87917,1,8,0:0:0:0:
256,192,88071,1,8,0:0:0:0:
256,192,88148,1,0,0:0:0:0:
256,192,88225,1,8,0:0:0:0:
256,192,88378,1,0,0:0:0:0:
256,192,88455,1,0,0:0:0:0:
256,192,88532,1,8,0:0:0:0:
256,192,88609,1,8,0:0:0:0:
256,192,88686,1,8,0:0:0:0:
256,192,88763,1,8,0:0:0:0:
256,192,88840,1,0,0:0:0:0:
256,192,89148,1,12,0:0:0:0:
256,192,89455,1,0,0:0:0:0:
256,192,89532,1,0,0:0:0:0:
256,192,89609,1,8,0:0:0:0:
256,192,89686,1,0,0:0:0:0:
256,192,89763,1,8,0:0:0:0:
256,192,89917,1,0,0:0:0:0:
256,192,89994,1,8,0:0:0:0:
256,192,90071,1,0,0:0:0:0:
256,192,90225,1,8,0:0:0:0:
256,192,90301,1,8,0:0:0:0:
256,192,90378,1,0,0:0:0:0:
256,192,90532,1,8,0:0:0:0:
256,192,90686,1,0,0:0:0:0:
256,192,90763,1,8,0:0:0:0:
256,192,90840,1,0,0:0:0:0:
256,192,90917,1,0,0:0:0:0:
256,192,90994,1,8,0:0:0:0:
256,192,91071,1,0,0:0:0:0:
256,192,91148,1,8,0:0:0:0:
256,192,91301,1,0,0:0:0:0:
256,192,91455,1,0,0:0:0:0:
256,192,91532,1,0,0:0:0:0:
256,192,91609,1,8,0:0:0:0:
256,192,91763,1,8,0:0:0:0:
256,192,91840,1,0,0:0:0:0:
256,192,91917,1,8,0:0:0:0:
256,192,91994,1,8,0:0:0:0:
256,192,92071,1,0,0:0:0:0:
256,192,92148,1,0,0:0:0:0:
256,192,92225,1,8,0:0:0:0:
256,192,92378,1,0,0:0:0:0:
256,192,92532,1,8,0:0:0:0:
256,192,92686,1,8,0:0:0:0:
256,192,92763,1,8,0:0:0:0:
256,192,92840,1,0,0:0:0:0:
256,192,92994,1,8,0:0:0:0:
256,192,93071,1,8,0:0:0:0:
256,192,93148,1,0,0:0:0:0:
256,192,93225,1,8,0:0:0:0:
256,192,93301,1,0,0:0:0:0:
256,192,93378,1,0,0:0:0:0:
256,192,93455,1,8,0:0:0:0:
256,192,93609,1,0,0:0:0:0:
256,192,93686,1,0,0:0:0:0:
256,192,93763,1,12,0:0:0:0:
256,192,94071,1,8,0:0:0:0:
256,192,94225,1,4,0:0:0:0:
256,192,94532,1,0,0:0:0:0:
256,192,94686,1,8,0:0:0:0:
256,192,94840,1,0,0:0:0:0:
256,192,94917,1,0,0:0:0:0:
256,192,94994,1,12,0:0:0:0:
256,192,95301,1,8,0:0:0:0:
256,192,95455,1,4,0:0:0:0:
256,192,95763,1,0,0:0:0:0:
256,192,95917,1,12,0:0:0:0:
256,192,96225,1,0,0:0:0:0:
256,192,96378,1,0,0:0:0:0:
256,192,96532,1,8,0:0:0:0:
256,192,96686,1,8,0:0:0:0:
256,192,96763,1,8,0:0:0:0:
256,192,96840,1,0,0:0:0:0:
256,192,96994,1,0,0:0:0:0:
256,192,97148,1,8,0:0:0:0:
256,192,97301,1,0,0:0:0:0:
256,192,97378,1,8,0:0:0:0:
256,192,97455,1,0,0:0:0:0:
256,192,97609,1,0,0:0:0:0:
256,192,97763,1,8,0:0:0:0:
256,192,97917,1,0,0:0:0:0:
256,192,97994,1,0,0:0:0:0:
256,192,98071,1,8,0:0:0:0:
256,192,98225,1,8,0:0:0:0:
256,192,98301,1,0,0:0:0:0:
256,192,98378,1,8,0:0:0:0:
256,192,98455,1,8,0:0:0:0:
256,192,98532,1,0,0:0:0:0:
256,192,98609,1,0,0:0:0:0:
256,192,98686,1,8,0:0:0:0:
256,192,98840,1,0,0:0:0:0:
256,192,98994,1,12,0:0:0:0:
256,192,99301,1,8,0:0:0:0:
256,192,99455,1,0,0:0:0:0:
256,192,99532,1,0,0:0:0:0:
256,192,99609,1,0,0:0:0:0:
256,192,99763,1,12,0:0:0:0:
256,192,100071,1,4,0:0:0:0:
256,192,100378,1,12,0:0:0:0:
256,192,100686,1,0,0:0:0:0:
256,192,100840,1,12,0:0:0:0:
256,192,100994,1,0,0:0:0:0:
256,192,101071,1,0,0:0:0:0:
256,192,101148,1,12,0:0:0:0:
256,192,101455,1,8,0:0:0:0:
256,192,101609,1,0,0:0:0:0:
256,192,101686,1,8,0:0:0:0:
256,192,101763,1,0,0:0:0:0:
256,192,101917,1,8,0:0:0:0:
256,192,102071,1,0,0:0:0:0:
256,192,102224,1,8,0:0:0:0:
256,192,102301,1,8,0:0:0:0:
256,192,102378,1,0,0:0:0:0:
256,192,102532,1,8,0:0:0:0:
256,192,102609,1,0,0:0:0:0:
256,192,102686,1,8,0:0:0:0:
256,192,102840,1,0,0:0:0:0:
256,192,102994,1,8,0:0:0:0:
256,192,103071,1,8,0:0:0:0:
256,192,103148,1,0,0:0:0:0:
256,192,103224,1,0,0:0:0:0:
256,192,103301,1,8,0:0:0:0:
256,192,103378,1,0,0:0:0:0:
256,192,103455,1,8,0:0:0:0:
256,192,103609,1,0,0:0:0:0:
256,192,103917,1,8,0:0:0:0:
256,192,104071,1,0,0:0:0:0:
256,192,104148,1,8,0:0:0:0:
256,192,104224,1,0,0:0:0:0:
256,192,104378,1,8,0:0:0:0:
256,192,104532,1,0,0:0:0:0:
256,192,104686,1,8,0:0:0:0:
256,192,104763,1,0,0:0:0:0:
256,192,104840,1,8,0:0:0:0:
256,192,104994,1,0,0:0:0:0:
256,192,105071,1,0,0:0:0:0:
256,192,105148,1,8,0:0:0:0:
256,192,105301,1,0,0:0:0:0:
256,192,105455,1,8,0:0:0:0:
256,192,105532,1,8,0:0:0:0:
256,192,105609,1,0,0:0:0:0:
256,192,105686,1,0,0:0:0:0:
256,192,105763,1,8,0:0:0:0:
256,192,105840,1,0,0:0:0:0:
256,192,105917,1,0,0:0:0:0:
256,192,106071,1,12,0:0:0:0:
256,192,106378,1,8,0:0:0:0:
256,192,106532,1,0,0:0:0:0:
256,192,106609,1,8,0:0:0:0:
256,192,106686,1,0,0:0:0:0:
256,192,106840,1,8,0:0:0:0:
256,192,106994,1,0,0:0:0:0:
256,192,107148,1,8,0:0:0:0:
256,192,107224,1,8,0:0:0:0:
256,192,107301,1,0,0:0:0:0:
256,192,107455,1,0,0:0:0:0:
256,192,107532,1,0,0:0:0:0:
256,192,107609,1,8,0:0:0:0:
256,192,107763,1,0,0:0:0:0:
256,192,107917,1,8,0:0:0:0:
256,192,107994,1,8,0:0:0:0:
256,192,108071,1,0,0:0:0:0:
256,192,108148,1,0,0:0:0:0:
256,192,108224,1,8,0:0:0:0:
256,192,108301,1,0,0:0:0:0:
256,192,108378,1,8,0:0:0:0:
256,192,108532,1,4,0:0:0:0:
256,192,108840,1,0,0:0:0:0:
256,192,108994,1,8,0:0:0:0:
256,192,109301,1,8,0:0:0:0:
256,192,109455,1,0,0:0:0:0:
256,192,109609,1,12,0:0:0:0:
256,192,109917,1,0,0:0:0:0:
256,192,110071,1,8,0:0:0:0:
256,192,110224,1,0,0:0:0:0:
256,192,110301,1,0,0:0:0:0:
256,192,110378,1,8,0:0:0:0:
256,192,110532,1,0,0:0:0:0:
256,192,110686,1,0,0:0:0:0:
256,192,110840,1,0,0:0:0:0:
256,192,110994,1,12,0:0:0:0:
256,192,115763,5,8,0:0:0:0:
256,192,115840,1,8,0:0:0:0:
256,192,115917,1,8,0:0:0:0:
256,192,120224,1,8,0:0:0:0:
256,192,120378,1,0,0:0:0:0:
256,192,120455,1,8,0:0:0:0:
256,192,120532,1,0,0:0:0:0:
256,192,120686,1,0,0:0:0:0:
256,192,120840,1,12,0:0:0:0:
256,192,121148,1,8,0:0:0:0:
256,192,121301,1,0,0:0:0:0:
256,192,121378,1,0,0:0:0:0:
256,192,121455,1,8,0:0:0:0:
256,192,121609,1,0,0:0:0:0:
256,192,121763,1,8,0:0:0:0:
256,192,121840,1,8,0:0:0:0:
256,192,121917,1,0,0:0:0:0:
256,192,121994,1,0,0:0:0:0:
256,192,122071,1,8,0:0:0:0:
256,192,122224,1,8,0:0:0:0:
256,192,122378,1,0,0:0:0:0:
256,192,122532,1,8,0:0:0:0:
256,192,122609,1,8,0:0:0:0:
256,192,122686,1,0,0:0:0:0:
256,192,122763,1,0,0:0:0:0:
256,192,122840,1,0,0:0:0:0:
256,192,122994,1,8,0:0:0:0:
256,192,123148,1,0,0:0:0:0:
256,192,123224,1,0,0:0:0:0:
256,192,123301,1,8,0:0:0:0:
256,192,123455,1,0,0:0:0:0:
256,192,123532,1,8,0:0:0:0:
256,192,123609,1,8,0:0:0:0:
256,192,123763,1,0,0:0:0:0:
256,192,123917,1,8,0:0:0:0:
256,192,123994,1,8,0:0:0:0:
256,192,124071,1,0,0:0:0:0:
256,192,124148,1,0,0:0:0:0:
256,192,124224,1,8,0:0:0:0:
256,192,124378,1,0,0:0:0:0:
256,192,124532,1,8,0:0:0:0:
256,192,124609,1,0,0:0:0:0:
256,192,124686,1,8,0:0:0:0:
256,192,124763,1,8,0:0:0:0:
256,192,124840,1,0,0:0:0:0:
256,192,124994,1,0,0:0:0:0:
256,192,125071,1,8,0:0:0:0:
256,192,125148,1,0,0:0:0:0:
256,192,125301,1,8,0:0:0:0:
256,192,125455,1,8,0:0:0:0:
256,192,125609,1,0,0:0:0:0:
256,192,125763,1,12,0:0:0:0:
256,192,126071,1,8,0:0:0:0:
256,192,126224,1,0,0:0:0:0:
256,192,126301,1,0,0:0:0:0:
256,192,126378,1,8,0:0:0:0:
256,192,126532,1,0,0:0:0:0:
256,192,126609,1,8,0:0:0:0:
256,192,126686,1,0,0:0:0:0:
256,192,126840,1,8,0:0:0:0:
256,192,126994,1,0,0:0:0:0:
256,192,127071,1,8,0:0:0:0:
256,192,127148,1,8,0:0:0:0:
256,192,127224,1,8,0:0:0:0:
256,192,127301,1,0,0:0:0:0:
256,192,127455,1,8,0:0:0:0:
256,192,127609,1,0,0:0:0:0:
256,192,127686,1,8,0:0:0:0:
256,192,127763,1,0,0:0:0:0:
256,192,127840,1,0,0:0:0:0:
256,192,127917,1,8,0:0:0:0:
256,192,128071,1,8,0:0:0:0:
256,192,128224,1,4,0:0:0:0:
256,192,128532,1,0,0:0:0:0:
256,192,128686,1,0,0:0:0:0:
256,192,128994,1,8,0:0:0:0:
256,192,129148,1,4,0:0:0:0:
256,192,129455,1,0,0:0:0:0:
256,192,129609,1,0,0:0:0:0:
256,192,129917,1,0,0:0:0:0:
256,192,130071,1,12,0:0:0:0:
256,192,130378,1,0,0:0:0:0:
256,192,130455,1,0,0:0:0:0:
256,192,130532,1,0,0:0:0:0:
256,192,130609,1,0,0:0:0:0:
256,192,130686,1,12,0:0:0:0:
256,192,130994,1,8,0:0:0:0:
256,192,131148,1,8,0:0:0:0:
256,192,131301,1,0,0:0:0:0:
256,192,131455,1,0,0:0:0:0:
256,192,131532,1,8,0:0:0:0:
256,192,131609,1,0,0:0:0:0:
256,192,131763,1,8,0:0:0:0:
256,192,132071,1,0,0:0:0:0:
256,192,132224,1,8,0:0:0:0:
256,192,132378,1,0,0:0:0:0:
256,192,132455,1,0,0:0:0:0:
256,192,132532,1,8,0:0:0:0:
256,192,132686,1,0,0:0:0:0:
256,192,132840,1,8,0:0:0:0:
256,192,132917,1,0,0:0:0:0:
256,192,132994,1,0,0:0:0:0:
256,192,133071,1,0,0:0:0:0:
256,192,133148,1,8,0:0:0:0:
256,192,133455,1,8,0:0:0:0:
256,192,133609,1,0,0:0:0:0:
256,192,133763,1,0,0:0:0:0:
256,192,133917,1,0,0:0:0:0:
256,192,133994,1,8,0:0:0:0:
256,192,134071,1,0,0:0:0:0:
256,192,134224,1,8,0:0:0:0:
256,192,134532,1,8,0:0:0:0:
256,192,134686,1,0,0:0:0:0:
256,192,134840,1,8,0:0:0:0:
256,192,134917,1,8,0:0:0:0:
256,192,134994,1,0,0:0:0:0:
256,192,135148,1,0,0:0:0:0:
256,192,135301,1,8,0:0:0:0:
256,192,135378,1,0,0:0:0:0:
256,192,135455,1,8,0:0:0:0:
256,192,135532,1,8,0:0:0:0:
256,192,135609,1,0,0:0:0:0:
256,192,135917,1,8,0:0:0:0:
256,192,136071,1,8,0:0:0:0:
256,192,136224,1,0,0:0:0:0:
256,192,136378,1,8,0:0:0:0:
256,192,136455,1,0,0:0:0:0:
256,192,136532,1,8,0:0:0:0:
256,192,136686,1,8,0:0:0:0:
256,192,136994,1,0,0:0:0:0:
256,192,137148,1,8,0:0:0:0:
256,192,137224,1,8,0:0:0:0:
256,192,137301,1,8,0:0:0:0:
256,192,137455,1,0,0:0:0:0:
256,192,137609,1,8,0:0:0:0:
256,192,137686,1,8,0:0:0:0:
256,192,137763,1,0,0:0:0:0:
256,192,137840,1,0,0:0:0:0:
256,192,137917,1,8,0:0:0:0:
256,192,138071,1,0,0:0:0:0:
256,192,138378,1,8,0:0:0:0:
256,192,138532,1,0,0:0:0:0:
256,192,138686,1,0,0:0:0:0:
256,192,138840,1,8,0:0:0:0:
256,192,138917,1,0,0:0:0:0:
256,192,138994,1,8,0:0:0:0:
256,192,139148,1,0,0:0:0:0:
256,192,139224,1,0,0:0:0:0:
256,192,139301,1,0,0:0:0:0:
256,192,139455,1,0,0:0:0:0:
256,192,139609,1,12,0:0:0:0:
256,192,139917,1,0,0:0:0:0:
256,192,139994,1,8,0:0:0:0:
256,192,140071,1,0,0:0:0:0:
256,192,140148,1,0,0:0:0:0:
256,192,140224,1,8,0:0:0:0:
256,192,140301,1,8,0:0:0:0:
256,192,140378,1,8,0:0:0:0:
256,192,140455,1,8,0:0:0:0:
256,192,140532,1,0,0:0:0:0:
256,192,140840,1,8,0:0:0:0:
256,192,140994,1,0,0:0:0:0:
256,192,141071,1,8,0:0:0:0:
256,192,141148,1,0,0:0:0:0:
256,192,141301,1,8,0:0:0:0:
256,192,141378,1,8,0:0:0:0:
256,192,141455,1,0,0:0:0:0:
256,192,141609,1,8,0:0:0:0:
256,192,141763,1,0,0:0:0:0:
256,192,142071,1,8,0:0:0:0:
256,192,142224,1,0,0:0:0:0:
256,192,142301,1,8,0:0:0:0:
256,192,142378,1,0,0:0:0:0:
256,192,142532,1,0,0:0:0:0:
256,192,142686,1,8,0:0:0:0:
256,192,142763,1,8,0:0:0:0:
256,192,142840,1,8,0:0:0:0:
256,192,142994,1,0,0:0:0:0:
256,192,143148,1,0,0:0:0:0:
256,192,143301,1,8,0:0:0:0:
256,192,143609,1,0,0:0:0:0:
256,192,143763,1,8,0:0:0:0:
256,192,143840,1,0,0:0:0:0:
256,192,143917,1,8,0:0:0:0:
256,192,143994,1,8,0:0:0:0:
256,192,144071,1,0,0:0:0:0:
256,192,144224,1,8,0:0:0:0:
256,192,144378,1,0,0:0:0:0:
256,192,144455,1,0,0:0:0:0:
256,192,144532,1,8,0:0:0:0:
256,192,144686,1,0,0:0:0:0:
256,192,144840,1,8,0:0:0:0:
256,192,144917,1,0,0:0:0:0:
256,192,144994,1,8,0:0:0:0:
256,192,145071,1,0,0:0:0:0:
256,192,145148,1,8,0:0:0:0:
256,192,145301,1,0,0:0:0:0:
256,192,145455,1,12,0:0:0:0:
256,192,145763,1,0,0:0:0:0:
256,192,145917,1,8,0:0:0:0:
256,192,145994,1,8,0:0:0:0:
256,192,146071,1,0,0:0:0:0:
256,192,146224,1,0,0:0:0:0:
256,192,146378,1,8,0:0:0:0:
256,192,146455,1,0,0:0:0:0:
256,192,146532,1,0,0:0:0:0:
256,192,146609,1,0,0:0:0:0:
256,192,146686,1,8,0:0:0:0:
256,192,146840,1,0,0:0:0:0:
256,192,146994,1,0,0:0:0:0:
256,192,147148,1,8,0:0:0:0:
256,192,147224,1,8,0:0:0:0:
256,192,147301,1,0,0:0:0:0:
256,192,147455,1,0,0:0:0:0:
256,192,147609,1,8,0:0:0:0:
256,192,147763,1,0,0:0:0:0:
256,192,147840,1,8,0:0:0:0:
256,192,147917,1,0,0:0:0:0:
256,192,148071,1,12,0:0:0:0:
256,192,148378,1,8,0:0:0:0:
256,192,148532,1,4,0:0:0:0:
256,192,148840,1,0,0:0:0:0:
256,192,148994,1,12,0:0:0:0:
256,192,149301,1,0,0:0:0:0:
256,192,149378,1,0,0:0:0:0:
256,192,149455,1,8,0:0:0:0:
256,192,149609,1,0,0:0:0:0:
256,192,149686,1,8,0:0:0:0:
256,192,149763,1,0,0:0:0:0:
256,192,149917,1,8,0:0:0:0:
256,192,149994,1,0,0:0:0:0:
256,192,150071,1,8,0:0:0:0:
256,192,150148,1,8,0:0:0:0:
256,192,150224,1,8,0:0:0:0:
256,192,150301,1,8,0:0:0:0:
256,192,150378,1,4,0:0:0:0:
256,192,150686,1,12,0:0:0:0:
256,192,150994,1,0,0:0:0:0:
256,192,151071,1,8,0:0:0:0:
256,192,151148,1,0,0:0:0:0:
256,192,151224,1,0,0:0:0:0:
256,192,151301,1,8,0:0:0:0:
256,192,151455,1,8,0:0:0:0:
256,192,151532,1,0,0:0:0:0:
256,192,151609,1,8,0:0:0:0:
256,192,151763,1,0,0:0:0:0:
256,192,151840,1,0,0:0:0:0:
256,192,151917,1,8,0:0:0:0:
256,192,152071,1,0,0:0:0:0:
256,192,152224,1,8,0:0:0:0:
256,192,152301,1,8,0:0:0:0:
256,192,152378,1,8,0:0:0:0:
256,192,152455,1,0,0:0:0:0:
256,192,152532,1,8,0:0:0:0:
256,192,152609,1,8,0:0:0:0:
256,192,152686,1,0,0:0:0:0:
256,192,152840,1,0,0:0:0:0:
256,192,152917,1,0,0:0:0:0:
256,192,152994,1,0,0:0:0:0:
256,192,153148,1,8,0:0:0:0:
256,192,153301,1,0,0:0:0:0:
256,192,153378,1,8,0:0:0:0:
256,192,153455,1,8,0:0:0:0:
256,192,153609,1,0,0:0:0:0:
256,192,153686,1,0,0:0:0:0:
256,192,153763,1,8,0:0:0:0:
256,192,153917,1,8,0:0:0:0:
256,192,154071,1,0,0:0:0:0:
256,192,154148,1,0,0:0:0:0:
256,192,154224,1,0,0:0:0:0:
256,192,154301,1,0,0:0:0:0:
256,192,154378,1,8,0:0:0:0:
256,192,154532,1,0,0:0:0:0:
256,192,154686,1,8,0:0:0:0:
256,192,154763,1,0,0:0:0:0:
256,192,154840,1,0,0:0:0:0:
256,192,154917,1,0,0:0:0:0:
256,192,154994,1,8,0:0:0:0:
256,192,155071,1,0,0:0:0:0:
256,192,155148,1,8,0:0:0:0:
256,192,155224,1,8,0:0:0:0:
256,192,155301,1,0,0:0:0:0:
256,192,155455,1,0,0:0:0:0:
256,192,155609,1,8,0:0:0:0:
256,192,155763,1,0,0:0:0:0:
256,192,155840,1,8,0:0:0:0:
256,192,155917,1,0,0:0:0:0:
256,192,156071,1,0,0:0:0:0:
256,192,156148,1,0,0:0:0:0:
256,192,156224,1,8,0:0:0:0:
256,192,156378,1,0,0:0:0:0:
256,192,156455,1,8,0:0:0:0:
256,192,156532,1,0,0:0:0:0:
256,192,156609,1,0,0:0:0:0:
256,192,156686,1,8,0:0:0:0:
256,192,156763,1,0,0:0:0:0:
256,192,156840,1,8,0:0:0:0:
256,192,156994,1,0,0:0:0:0:
256,192,157148,1,8,0:0:0:0:
256,192,157224,1,8,0:0:0:0:
256,192,157301,1,0,0:0:0:0:
256,192,157378,1,8,0:0:0:0:
256,192,157455,1,0,0:0:0:0:
256,192,157532,1,0,0:0:0:0:
256,192,157609,1,0,0:0:0:0:
256,192,157686,1,0,0:0:0:0:
256,192,157763,1,12,0:0:0:0:
256,192,158071,1,0,0:0:0:0:
256,192,158224,1,8,0:0:0:0:
256,192,158532,1,8,0:0:0:0:
256,192,158686,1,0,0:0:0:0:
256,192,158840,1,12,0:0:0:0:
256,192,159148,1,0,0:0:0:0:
256,192,159301,1,8,0:0:0:0:
256,192,159455,1,8,0:0:0:0:
256,192,159532,1,0,0:0:0:0:
256,192,159609,1,8,0:0:0:0:
256,192,159763,1,0,0:0:0:0:
256,192,159840,1,0,0:0:0:0:
256,192,159917,1,8,0:0:0:0:
256,192,159994,1,8,0:0:0:0:
256,192,160071,1,8,0:0:0:0:
256,192,160148,1,8,0:0:0:0:
256,192,160224,1,0,0:0:0:0:
256,192,160532,1,12,0:0:0:0:
256,192,160840,1,0,0:0:0:0:
256,192,160917,1,0,0:0:0:0:
256,192,160994,1,8,0:0:0:0:
256,192,161071,1,0,0:0:0:0:
256,192,161148,1,8,0:0:0:0:
256,192,161301,1,0,0:0:0:0:
256,192,161378,1,8,0:0:0:0:
256,192,161455,1,0,0:0:0:0:
256,192,161609,1,8,0:0:0:0:
256,192,161686,1,8,0:0:0:0:
256,192,161763,1,0,0:0:0:0:
256,192,161917,1,8,0:0:0:0:
256,192,162071,1,0,0:0:0:0:
256,192,162148,1,0,0:0:0:0:
256,192,162224,1,8,0:0:0:0:
256,192,162301,1,0,0:0:0:0:
256,192,162378,1,8,0:0:0:0:
256,192,162455,1,8,0:0:0:0:
256,192,162532,1,0,0:0:0:0:
256,192,162686,1,0,0:0:0:0:
256,192,162840,1,8,0:0:0:0:
256,192,162917,1,0,0:0:0:0:
256,192,162994,1,8,0:0:0:0:
256,192,163148,1,8,0:0:0:0:
256,192,163224,1,8,0:0:0:0:
256,192,163301,1,0,0:0:0:0:
256,192,163378,1,0,0:0:0:0:
256,192,163455,1,8,0:0:0:0:
256,192,163532,1,0,0:0:0:0:
256,192,163609,1,8,0:0:0:0:
256,192,163763,1,0,0:0:0:0:
256,192,163917,1,8,0:0:0:0:
256,192,164071,1,8,0:0:0:0:
256,192,164148,1,0,0:0:0:0:
256,192,164224,1,8,0:0:0:0:
256,192,164378,1,8,0:0:0:0:
256,192,164455,1,0,0:0:0:0:
256,192,164532,1,8,0:0:0:0:
256,192,164609,1,8,0:0:0:0:
256,192,164686,1,0,0:0:0:0:
256,192,164763,1,0,0:0:0:0:
256,192,164840,1,8,0:0:0:0:
256,192,164994,1,0,0:0:0:0:
256,192,165071,1,0,0:0:0:0:
256,192,165148,1,12,0:0:0:0:
256,192,165455,1,0,0:0:0:0:
256,192,165609,1,12,0:0:0:0:
256,192,165917,1,8,0:0:0:0:
256,192,166071,1,0,0:0:0:0:
256,192,166224,1,8,0:0:0:0:
256,192,166301,1,8,0:0:0:0:
256,192,166378,1,4,0:0:0:0:
256,192,166686,1,8,0:0:0:0:
256,192,166840,1,4,0:0:0:0:
256,192,167148,1,0,0:0:0:0:
256,192,167301,1,12,0:0:0:0:
256,192,167609,1,0,0:0:0:0:
256,192,167763,1,0,0:0:0:0:
256,192,167917,1,8,0:0:0:0:
256,192,168071,1,0,0:0:0:0:
256,192,168148,1,0,0:0:0:0:
256,192,168224,1,8,0:0:0:0:
256,192,168378,1,0,0:0:0:0:
256,192,168532,1,8,0:0:0:0:
256,192,168686,1,0,0:0:0:0:
256,192,168763,1,8,0:0:0:0:
256,192,168840,1,0,0:0:0:0:
256,192,168994,1,0,0:0:0:0:
256,192,169148,1,8,0:0:0:0:
256,192,169301,1,8,0:0:0:0:
256,192,169378,1,8,0:0:0:0:
256,192,169455,1,0,0:0:0:0:
256,192,169609,1,8,0:0:0:0:
256,192,169686,1,0,0:0:0:0:
256,192,169763,1,8,0:0:0:0:
256,192,169840,1,8,0:0:0:0:
256,192,169917,1,0,0:0:0:0:
256,192,169994,1,0,0:0:0:0:
256,192,170071,1,8,0:0:0:0:
256,192,170224,1,0,0:0:0:0:
256,192,170378,1,12,0:0:0:0:
256,192,170686,1,8,0:0:0:0:
256,192,170840,1,0,0:0:0:0:
256,192,170917,1,0,0:0:0:0:
256,192,170994,1,0,0:0:0:0:
256,192,171148,1,12,0:0:0:0:
256,192,171455,1,4,0:0:0:0:
256,192,171763,1,12,0:0:0:0:
256,192,172071,1,0,0:0:0:0:
256,192,172224,1,0,0:0:0:0:
256,192,172378,1,0,0:0:0:0:
256,192,172455,1,0,0:0:0:0:
256,192,172532,1,8,0:0:0:0:
256,192,172839,1,0,0:0:0:0:
256,192,172993,1,8,0:0:0:0:
256,192,173147,1,0,0:0:0:0:
256,192,173455,1,0,0:0:0:0:
256,192,173608,1,8,0:0:0:0:
256,192,173916,1,0,0:0:0:0:
256,192,174224,1,0,0:0:0:0:
256,192,174378,1,0,0:0:0:0:
256,192,174685,1,0,0:0:0:0:
256,192,174839,1,0,0:0:0:0:
256,192,174993,1,8,0:0:0:0:
256,192,175301,1,0,0:0:0:0:
256,192,175455,1,0,0:0:0:0:
256,192,175608,1,8,0:0:0:0:
256,192,175916,1,0,0:0:0:0:
256,192,176070,1,8,0:0:0:0:
256,192,176378,1,0,0:0:0:0:
256,192,176685,1,0,0:0:0:0:
256,192,176839,1,0,0:0:0:0:
256,192,177147,1,0,0:0:0:0:
256,192,177301,1,8,0:0:0:0:
256,192,177455,1,0,0:0:0:0:
256,192,177762,1,0,0:0:0:0:
256,192,177916,1,8,0:0:0:0:
256,192,178070,1,0,0:0:0:0:
256,192,178378,1,0,0:0:0:0:
256,192,178532,1,8,0:0:0:0:
256,192,178839,1,0,0:0:0:0:
256,192,179147,1,0,0:0:0:0:
256,192,179301,1,0,0:0:0:0:
256,192,179608,1,0,0:0:0:0:
256,192,179762,1,8,0:0:0:0:
256,192,179916,1,0,0:0:0:0:
256,192,180070,1,0,0:0:0:0:
256,192,180378,1,0,0:0:0:0:
256,192,180685,1,0,0:0:0:0:
256,192,180993,1,0,0:0:0:0:
256,192,181147,1,8,0:0:0:0:
256,192,181301,1,8,0:0:0:0:
256,192,181378,1,8,0:0:0:0:
256,192,181455,1,8,0:0:0:0:
256,192,181608,1,0,0:0:0:0:
256,192,181762,1,8,0:0:0:0:
256,192,181916,1,8,0:0:0:0:
256,192,182070,1,8,0:0:0:0:
256,192,182224,1,0,0:0:0:0:
256,192,182378,1,12,0:0:0:0:
256,192,182685,1,0,0:0:0:0:
256,192,182839,1,8,0:0:0:0:
256,192,182993,1,0,0:0:0:0:
256,192,183147,1,0,0:0:0:0:
256,192,183301,1,0,0:0:0:0:
256,192,183455,1,8,0:0:0:0:
256,192,183762,1,0,0:0:0:0:
256,192,183916,1,8,0:0:0:0:
256,192,184070,1,0,0:0:0:0:
256,192,184224,1,0,0:0:0:0:
256,192,184378,1,8,0:0:0:0:
256,192,184532,1,0,0:0:0:0:
256,192,184685,1,0,0:0:0:0:
256,192,184762,1,0,0:0:0:0:
256,192,184839,1,8,0:0:0:0:
256,192,185147,1,0,0:0:0:0:
256,192,185301,1,0,0:0:0:0:
256,192,185455,1,8,0:0:0:0:
256,192,185608,1,8,0:0:0:0:
256,192,185762,1,0,0:0:0:0:
256,192,185916,1,8,0:0:0:0:
256,192,186224,1,0,0:0:0:0:
256,192,186378,1,8,0:0:0:0:
256,192,186532,1,0,0:0:0:0:
256,192,186685,1,8,0:0:0:0:
256,192,186839,1,8,0:0:0:0:
256,192,186993,1,0,0:0:0:0:
256,192,187147,1,8,0:0:0:0:
256,192,187224,1,8,0:0:0:0:
256,192,187301,1,0,0:0:0:0:
256,192,187608,1,0,0:0:0:0:
256,192,187762,1,8,0:0:0:0:
256,192,187916,1,0,0:0:0:0:
256,192,188070,1,0,0:0:0:0:
256,192,188224,1,0,0:0:0:0:
256,192,188378,1,8,0:0:0:0:
256,192,188685,1,0,0:0:0:0:
256,192,188839,1,8,0:0:0:0:
256,192,188993,1,0,0:0:0:0:
256,192,189147,1,0,0:0:0:0:
256,192,189301,1,8,0:0:0:0:
256,192,189455,1,0,0:0:0:0:
256,192,189608,1,8,0:0:0:0:
256,192,189685,1,0,0:0:0:0:
256,192,189762,1,8,0:0:0:0:
256,192,189916,1,8,0:0:0:0:
256,192,190224,1,0,0:0:0:0:
256,192,190378,1,8,0:0:0:0:
256,192,190532,1,0,0:0:0:0:
256,192,190839,1,0,0:0:0:0:
256,192,190993,1,8,0:0:0:0:
256,192,191147,1,0,0:0:0:0:
256,192,191224,1,0,0:0:0:0:
256,192,191301,1,8,0:0:0:0:
256,192,191455,1,0,0:0:0:0:
256,192,191608,1,8,0:0:0:0:
256,192,191762,1,0,0:0:0:0:
256,192,191916,1,0,0:0:0:0:
256,192,192070,1,0,0:0:0:0:
256,192,192224,1,12,0:0:0:0:
256,192,192532,1,8,0:0:0:0:
256,192,192685,1,0,0:0:0:0:
256,192,192762,1,0,0:0:0:0:
256,192,192839,1,8,0:0:0:0:
256,192,192993,1,0,0:0:0:0:
256,192,193147,1,8,0:0:0:0:
256,192,193455,1,0,0:0:0:0:
256,192,193608,1,8,0:0:0:0:
256,192,193762,1,0,0:0:0:0:
256,192,193839,1,8,0:0:0:0:
256,192,193916,1,0,0:0:0:0:
256,192,193993,1,0,0:0:0:0:
256,192,194070,1,8,0:0:0:0:
256,192,194224,1,0,0:0:0:0:
256,192,194378,1,8,0:0:0:0:
256,192,194685,1,0,0:0:0:0:
256,192,194839,1,0,0:0:0:0:
256,192,194993,1,8,0:0:0:0:
256,192,195147,1,8,0:0:0:0:
256,192,195224,1,0,0:0:0:0:
256,192,195301,1,8,0:0:0:0:
256,192,195608,1,8,0:0:0:0:
256,192,195762,1,0,0:0:0:0:
256,192,195916,1,8,0:0:0:0:
256,192,195993,1,8,0:0:0:0:
256,192,196070,1,0,0:0:0:0:
256,192,196147,1,0,0:0:0:0:
256,192,196224,1,8,0:0:0:0:
256,192,196378,1,0,0:0:0:0:
256,192,196532,1,8,0:0:0:0:
256,192,196762,1,8,0:0:0:0:
256,192,196839,1,0,0:0:0:0:
256,192,196993,1,8,0:0:0:0:
256,192,197147,1,0,0:0:0:0:
256,192,197455,1,8,0:0:0:0:
256,192,197608,1,0,0:0:0:0:
256,192,197685,1,0,0:0:0:0:
256,192,197762,1,8,0:0:0:0:
256,192,197916,1,8,0:0:0:0:
256,192,198070,1,0,0:0:0:0:
256,192,198378,1,8,0:0:0:0:
256,192,198532,1,0,0:0:0:0:
256,192,198685,1,8,0:0:0:0:
256,192,198762,1,0,0:0:0:0:
256,192,198839,1,0,0:0:0:0:
256,192,198916,1,0,0:0:0:0:
256,192,198993,1,8,0:0:0:0:
256,192,199147,1,8,0:0:0:0:
256,192,199301,1,0,0:0:0:0:
256,192,199608,1,0,0:0:0:0:
256,192,199762,1,8,0:0:0:0:
256,192,199916,1,0,0:0:0:0:
256,192,200070,1,8,0:0:0:0:
256,192,200147,1,0,0:0:0:0:
256,192,200224,1,8,0:0:0:0:
256,192,200532,1,8,0:0:0:0:
256,192,200685,1,0,0:0:0:0:
256,192,200839,1,8,0:0:0:0:
256,192,200916,1,8,0:0:0:0:
256,192,200993,1,0,0:0:0:0:
256,192,201070,1,0,0:0:0:0:
256,192,201147,1,8,0:0:0:0:
256,192,201301,1,0,0:0:0:0:
256,192,201455,1,8,0:0:0:0:
256,192,201557,1,8,0:0:0:0:
256,192,201660,1,8,0:0:0:0:
256,192,201762,1,0,0:0:0:0:
256,192,201865,1,0,0:0:0:0:
256,192,201967,1,0,0:0:0:0:
256,192,202070,1,12,0:0:0:0:
256,192,215608,5,8,0:0:0:0:
256,192,216531,1,0,0:0:0:0:
256,192,217761,1,8,0:0:0:0:
256,192,218685,1,8,0:0:0:0:
256,192,219300,1,0,0:0:0:0:
256,192,220223,1,0,0:0:0:0:
256,192,220531,1,8,0:0:0:0:
256,192,220685,1,0,0:0:0:0:
256,192,220761,1,8,0:0:0:0:
256,192,220838,1,0,0:0:0:0:
256,192,220915,1,0,0:0:0:0:
256,192,220992,1,8,0:0:0:0:
256,192,221069,1,0,0:0:0:0:
256,192,221146,1,8,0:0:0:0:
256,192,221223,1,0,0:0:0:0:
256,192,221300,1,0,0:0:0:0:
256,192,221377,1,0,0:0:0:0:
256,192,221454,1,8,0:0:0:0:
256,192,221531,1,8,0:0:0:0:
256,192,221608,1,0,0:0:0:0:
256,192,221685,1,0,0:0:0:0:
256,192,221761,1,8,0:0:0:0:
256,192,221838,1,0,0:0:0:0:
256,192,221915,1,8,0:0:0:0:
256,192,221992,1,8,0:0:0:0:
256,192,222069,1,0,0:0:0:0:
256,192,222146,1,8,0:0:0:0:
256,192,222223,1,8,0:0:0:0:
256,192,222300,1,0,0:0:0:0:
256,192,222377,1,8,0:0:0:0:
256,192,222454,1,8,0:0:0:0:
256,192,222531,1,8,0:0:0:0:
256,192,222608,1,8,0:0:0:0:
256,192,222685,1,0,0:0:0:0:
256,192,222761,1,0,0:0:0:0:
256,192,222838,1,0,0:0:0:0:
256,192,222915,1,0,0:0:0:0:
256,192,222992,1,12,0:0:0:0:
256,192,223300,1,0,0:0:0:0:
256,192,223454,1,12,0:0:0:0:
256,192,223761,1,4,0:0:0:0:
256,192,224069,1,12,0:0:0:0:
256,192,224377,1,0,0:0:0:0:
256,192,224531,1,8,0:0:0:0:
256,192,224608,1,8,0:0:0:0:
256,192,224685,1,0,0:0:0:0:
256,192,224761,1,0,0:0:0:0:
256,192,224838,1,8,0:0:0:0:
256,192,224992,1,8,0:0:0:0:
256,192,225069,1,0,0:0:0:0:
256,192,225146,1,8,0:0:0:0:
256,192,225223,1,8,0:0:0:0:
256,192,225300,1,8,0:0:0:0:
256,192,225377,1,8,0:0:0:0:
256,192,225454,1,4,0:0:0:0:
256,192,225761,1,12,0:0:0:0:
256,192,226069,1,0,0:0:0:0:
256,192,226146,1,8,0:0:0:0:
256,192,226223,1,8,0:0:0:0:
256,192,226300,1,8,0:0:0:0:
256,192,226377,1,0,0:0:0:0:
256,192,226531,1,8,0:0:0:0:
256,192,226608,1,0,0:0:0:0:
256,192,226685,1,8,0:0:0:0:
256,192,226838,1,0,0:0:0:0:
256,192,226915,1,0,0:0:0:0:
256,192,226992,1,8,0:0:0:0:
256,192,227146,1,8,0:0:0:0:
256,192,227300,1,0,0:0:0:0:
256,192,227377,1,8,0:0:0:0:
256,192,227454,1,0,0:0:0:0:
256,192,227531,1,0,0:0:0:0:
256,192,227608,1,8,0:0:0:0:
256,192,227685,1,0,0:0:0:0:
256,192,227761,1,8,0:0:0:0:
256,192,227915,1,0,0:0:0:0:
256,192,228069,1,8,0:0:0:0:
256,192,228146,1,8,0:0:0:0:
256,192,228223,1,0,0:0:0:0:
256,192,228377,1,8,0:0:0:0:
256,192,228454,1,8,0:0:0:0:
256,192,228531,1,0,0:0:0:0:
256,192,228608,1,0,0:0:0:0:
256,192,228685,1,8,0:0:0:0:
256,192,228761,1,0,0:0:0:0:
256,192,228838,1,8,0:0:0:0:
256,192,228992,1,0,0:0:0:0:
256,192,229146,1,8,0:0:0:0:
256,192,229223,1,0,0:0:0:0:
256,192,229300,1,8,0:0:0:0:
256,192,229377,1,0,0:0:0:0:
256,192,229454,1,8,0:0:0:0:
256,192,229608,1,0,0:0:0:0:
256,192,229761,1,8,0:0:0:0:
256,192,229838,1,8,0:0:0:0:
256,192,229915,1,0,0:0:0:0:
256,192,229992,1,0,0:0:0:0:
256,192,230069,1,8,0:0:0:0:
256,192,230146,1,0,0:0:0:0:
256,192,230223,1,0,0:0:0:0:
256,192,230300,1,0,0:0:0:0:
256,192,230377,1,12,0:0:0:0:
256,192,230685,1,8,0:0:0:0:
256,192,230838,1,4,0:0:0:0:
256,192,231146,1,0,0:0:0:0:
256,192,231300,1,12,0:0:0:0:
256,192,231608,1,0,0:0:0:0:
256,192,231761,1,0,0:0:0:0:
256,192,231838,1,8,0:0:0:0:
256,192,231915,1,0,0:0:0:0:
256,192,231992,1,0,0:0:0:0:
256,192,232069,1,8,0:0:0:0:
256,192,232146,1,0,0:0:0:0:
256,192,232223,1,8,0:0:0:0:
256,192,232300,1,8,0:0:0:0:
256,192,232377,1,8,0:0:0:0:
256,192,232454,1,0,0:0:0:0:
256,192,232531,1,8,0:0:0:0:
256,192,232608,1,0,0:0:0:0:
256,192,232685,1,0,0:0:0:0:
256,192,232761,1,0,0:0:0:0:
256,192,232838,1,12,0:0:0:0:
256,192,233145,1,12,0:0:0:0:
256,192,233453,1,0,0:0:0:0:
256,192,233530,1,8,0:0:0:0:
256,192,233607,1,0,0:0:0:0:
256,192,233684,1,0,0:0:0:0:
256,192,233761,1,8,0:0:0:0:
256,192,233914,1,8,0:0:0:0:
256,192,233991,1,0,0:0:0:0:
256,192,234068,1,8,0:0:0:0:
256,192,234222,1,0,0:0:0:0:
256,192,234299,1,0,0:0:0:0:
256,192,234376,1,8,0:0:0:0:
256,192,234530,1,0,0:0:0:0:
256,192,234684,1,8,0:0:0:0:
256,192,234761,1,8,0:0:0:0:
256,192,234838,1,0,0:0:0:0:
256,192,234914,1,0,0:0:0:0:
256,192,234991,1,8,0:0:0:0:
256,192,235068,1,0,0:0:0:0:
256,192,235145,1,8,0:0:0:0:
256,192,235299,1,0,0:0:0:0:
256,192,235376,1,8,0:0:0:0:
256,192,235453,1,0,0:0:0:0:
256,192,235607,1,8,0:0:0:0:
256,192,235761,1,0,0:0:0:0:
256,192,235838,1,8,0:0:0:0:
256,192,235914,1,8,0:0:0:0:
256,192,236068,1,0,0:0:0:0:
256,192,236145,1,0,0:0:0:0:
256,192,236222,1,8,0:0:0:0:
256,192,236376,1,8,0:0:0:0:
256,192,236530,1,0,0:0:0:0:
256,192,236607,1,0,0:0:0:0:
256,192,236684,1,0,0:0:0:0:
256,192,236761,1,0,0:0:0:0:
256,192,236838,1,8,0:0:0:0:
256,192,236991,1,0,0:0:0:0:
256,192,237145,1,8,0:0:0:0:
256,192,237222,1,8,0:0:0:0:
256,192,237299,1,0,0:0:0:0:
256,192,237376,1,0,0:0:0:0:
256,192,237453,1,8,0:0:0:0:
256,192,237530,1,0,0:0:0:0:
256,192,237607,1,0,0:0:0:0:
256,192,237684,1,0,0:0:0:0:
256,192,237761,1,12,0:0:0:0:
256,192,238068,1,8,0:0:0:0:
256,192,238222,1,0,0:0:0:0:
256,192,238299,1,8,0:0:0:0:
256,192,238376,1,0,0:0:0:0:
256,192,238530,1,0,0:0:0:0:
256,192,238607,1,0,0:0:0:0:
256,192,238684,1,8,0:0:0:0:
256,192,238838,1,8,0:0:0:0:
256,192,238914,1,0,0:0:0:0:
256,192,238991,1,8,0:0:0:0:
256,192,239068,1,8,0:0:0:0:
256,192,239145,1,0,0:0:0:0:
256,192,239222,1,0,0:0:0:0:
256,192,239299,1,8,0:0:0:0:
256,192,239453,1,0,0:0:0:0:
256,192,239607,1,8,0:0:0:0:
256,192,239684,1,0,0:0:0:0:
256,192,239761,1,8,0:0:0:0:
256,192,239838,1,8,0:0:0:0:
256,192,239914,1,0,0:0:0:0:
256,192,239991,1,0,0:0:0:0:
256,192,240068,1,0,0:0:0:0:
256,192,240145,1,0,0:0:0:0:
256,192,240222,1,12,0:0:0:0:
256,192,240530,1,0,0:0:0:0:
256,192,240684,1,8,0:0:0:0:
256,192,240991,1,8,0:0:0:0:
256,192,241145,1,0,0:0:0:0:
256,192,241299,1,12,0:0:0:0:
256,192,241607,1,0,0:0:0:0:
256,192,241761,1,8,0:0:0:0:
256,192,241914,1,0,0:0:0:0:
256,192,241991,1,0,0:0:0:0:
256,192,242068,1,8,0:0:0:0:
256,192,242222,1,8,0:0:0:0:
256,192,242299,1,0,0:0:0:0:
256,192,242376,1,8,0:0:0:0:
256,192,242453,1,8,0:0:0:0:
256,192,242530,1,8,0:0:0:0:
256,192,242607,1,8,0:0:0:0:
256,192,242684,1,0,0:0:0:0:
256,192,242991,1,12,0:0:0:0:
256,192,243299,1,0,0:0:0:0:
256,192,243376,1,0,0:0:0:0:
256,192,243453,1,8,0:0:0:0:
256,192,243530,1,0,0:0:0:0:
256,192,243607,1,8,0:0:0:0:
256,192,243761,1,0,0:0:0:0:
256,192,243838,1,8,0:0:0:0:
256,192,243914,1,0,0:0:0:0:
256,192,244068,1,8,0:0:0:0:
256,192,244145,1,8,0:0:0:0:
256,192,244222,1,0,0:0:0:0:
256,192,244376,1,8,0:0:0:0:
256,192,244530,1,0,0:0:0:0:
256,192,244607,1,8,0:0:0:0:
256,192,244684,1,0,0:0:0:0:
256,192,244761,1,0,0:0:0:0:
256,192,244838,1,8,0:0:0:0:
256,192,244914,1,0,0:0:0:0:
256,192,244991,1,8,0:0:0:0:
256,192,245145,1,0,0:0:0:0:
256,192,245299,1,0,0:0:0:0:
256,192,245376,1,0,0:0:0:0:
256,192,245453,1,8,0:0:0:0:
256,192,245607,1,8,0:0:0:0:
256,192,245684,1,0,0:0:0:0:
256,192,245761,1,8,0:0:0:0:
256,192,245838,1,8,0:0:0:0:
256,192,245914,1,0,0:0:0:0:
256,192,245991,1,0,0:0:0:0:
256,192,246068,1,8,0:0:0:0:
256,192,246222,1,0,0:0:0:0:
256,192,246376,1,8,0:0:0:0:
256,192,246530,1,0,0:0:0:0:
256,192,246607,1,8,0:0:0:0:
256,192,246684,1,0,0:0:0:0:
256,192,246838,1,0,0:0:0:0:
256,192,246914,1,8,0:0:0:0:
256,192,246991,1,0,0:0:0:0:
256,192,247068,1,0,0:0:0:0:
256,192,247145,1,8,0:0:0:0:
256,192,247222,1,8,0:0:0:0:
256,192,247299,1,0,0:0:0:0:
256,192,247453,1,0,0:0:0:0:
256,192,247530,1,0,0:0:0:0:
256,192,247607,1,12,0:0:0:0:
256,192,247914,1,8,0:0:0:0:
256,192,248068,1,4,0:0:0:0:
256,192,248376,1,0,0:0:0:0:
256,192,248530,1,8,0:0:0:0:
256,192,248684,1,0,0:0:0:0:
256,192,248761,1,0,0:0:0:0:
256,192,248838,1,12,0:0:0:0:
256,192,249145,1,8,0:0:0:0:
256,192,249299,1,4,0:0:0:0:
256,192,249607,1,0,0:0:0:0:
256,192,249761,1,12,0:0:0:0:
256,192,250068,1,0,0:0:0:0:
256,192,250222,1,0,0:0:0:0:
256,192,250376,1,8,0:0:0:0:
256,192,250530,1,8,0:0:0:0:
256,192,250607,1,0,0:0:0:0:
256,192,250684,1,8,0:0:0:0:
256,192,250838,1,0,0:0:0:0:
256,192,250991,1,8,0:0:0:0:
256,192,251145,1,8,0:0:0:0:
256,192,251222,1,8,0:0:0:0:
256,192,251299,1,0,0:0:0:0:
256,192,251453,1,0,0:0:0:0:
256,192,251607,1,8,0:0:0:0:
256,192,251761,1,0,0:0:0:0:
256,192,251838,1,0,0:0:0:0:
256,192,251914,1,8,0:0:0:0:
256,192,252068,1,0,0:0:0:0:
256,192,252222,1,8,0:0:0:0:
256,192,252376,1,0,0:0:0:0:
256,192,252453,1,8,0:0:0:0:
256,192,252530,1,8,0:0:0:0:
256,192,252684,1,0,0:0:0:0:
256,192,252838,1,8,0:0:0:0:
256,192,252991,1,8,0:0:0:0:
256,192,253068,1,0,0:0:0:0:
256,192,253145,1,0,0:0:0:0:
256,192,253299,1,0,0:0:0:0:
256,192,253453,1,8,0:0:0:0:
256,192,253530,1,8,0:0:0:0:
256,192,253607,1,0,0:0:0:0:
256,192,253684,1,8,0:0:0:0:
256,192,253761,1,8,0:0:0:0:
256,192,253914,1,0,0:0:0:0:
256,192,253991,1,0,0:0:0:0:
256,192,254068,1,8,0:0:0:0:
256,192,254222,1,0,0:0:0:0:
256,192,254299,1,8,0:0:0:0:
256,192,254376,1,0,0:0:0:0:
256,192,254530,1,8,0:0:0:0:
256,192,254607,1,0,0:0:0:0:
256,192,254684,1,8,0:0:0:0:
256,192,254761,1,8,0:0:0:0:
256,192,254838,1,0,0:0:0:0:
256,192,254914,1,0,0:0:0:0:
256,192,254991,1,8,0:0:0:0:
256,192,255145,1,0,0:0:0:0:
256,192,255299,1,12,0:0:0:0:
256,192,255607,1,8,0:0:0:0:
256,192,255761,1,0,0:0:0:0:
256,192,255838,1,0,0:0:0:0:
256,192,255914,1,0,0:0:0:0:
256,192,256068,1,12,0:0:0:0:
256,192,256991,1,0,0:0:0:0:
256,192,257145,1,12,0:0:0:0:
256,192,257299,1,0,0:0:0:0:
256,192,257376,1,0,0:0:0:0:
256,192,257453,1,12,0:0:0:0:
256,192,257761,1,8,0:0:0:0:
256,192,257914,1,0,0:0:0:0:
256,192,257991,1,8,0:0:0:0:
256,192,258068,1,0,0:0:0:0:
256,192,258222,1,8,0:0:0:0:
256,192,258376,1,0,0:0:0:0:
256,192,258530,1,8,0:0:0:0:
256,192,258607,1,0,0:0:0:0:
256,192,258684,1,8,0:0:0:0:
256,192,258838,1,0,0:0:0:0:
256,192,258914,1,0,0:0:0:0:
256,192,258991,1,8,0:0:0:0:
256,192,259145,1,0,0:0:0:0:
256,192,259299,1,8,0:0:0:0:
256,192,259376,1,8,0:0:0:0:
256,192,259453,1,0,0:0:0:0:
256,192,259530,1,0,0:0:0:0:
256,192,259607,1,8,0:0:0:0:
256,192,259684,1,0,0:0:0:0:
256,192,259761,1,8,0:0:0:0:
256,192,259914,1,0,0:0:0:0:
256,192,260222,1,8,0:0:0:0:
256,192,260376,1,0,0:0:0:0:
256,192,260453,1,8,0:0:0:0:
256,192,260530,1,0,0:0:0:0:
256,192,260684,1,8,0:0:0:0:
256,192,260838,1,0,0:0:0:0:
256,192,260991,1,8,0:0:0:0:
256,192,261068,1,8,0:0:0:0:
256,192,261145,1,0,0:0:0:0:
256,192,261299,1,8,0:0:0:0:
256,192,261376,1,0,0:0:0:0:
256,192,261453,1,8,0:0:0:0:
256,192,261607,1,0,0:0:0:0:
256,192,261761,1,8,0:0:0:0:
256,192,261838,1,8,0:0:0:0:
256,192,261914,1,0,0:0:0:0:
256,192,261991,1,0,0:0:0:0:
256,192,262068,1,8,0:0:0:0:
256,192,262145,1,0,0:0:0:0:
256,192,262222,1,0,0:0:0:0:
256,192,262376,1,0,0:0:0:0:
256,192,262684,1,8,0:0:0:0:
256,192,262838,1,0,0:0:0:0:
256,192,262914,1,8,0:0:0:0:
256,192,262991,1,0,0:0:0:0:
256,192,263145,1,8,0:0:0:0:
256,192,263299,1,0,0:0:0:0:
256,192,263453,1,8,0:0:0:0:
256,192,263530,1,8,0:0:0:0:
256,192,263607,1,0,0:0:0:0:
256,192,263761,1,0,0:0:0:0:
256,192,263838,1,0,0:0:0:0:
256,192,263914,1,8,0:0:0:0:
256,192,264068,1,0,0:0:0:0:
256,192,264222,1,8,0:0:0:0:
256,192,264299,1,8,0:0:0:0:
256,192,264376,1,0,0:0:0:0:
256,192,264453,1,0,0:0:0:0:
256,192,264530,1,8,0:0:0:0:
256,192,264607,1,0,0:0:0:0:
256,192,264684,1,8,0:0:0:0:
256,192,264838,1,4,0:0:0:0:
256,192,265145,1,8,0:0:0:0:
256,192,265299,1,4,0:0:0:0:
256,192,265607,1,8,0:0:0:0:
256,192,265761,1,0,0:0:0:0:
256,192,265914,1,12,0:0:0:0:
256,192,266222,1,0,0:0:0:0:
256,192,266376,1,8,0:0:0:0:
256,192,266530,1,0,0:0:0:0:
256,192,266607,1,0,0:0:0:0:
256,192,266684,1,12,0:0:0:0:
256,192,266838,1,0,0:0:0:0:
256,192,266914,1,8,0:0:0:0:
256,192,266991,1,0,0:0:0:0:
256,192,267068,1,0,0:0:0:0:
256,192,267145,1,8,0:0:0:0:
256,192,267222,1,8,0:0:0:0:
256,192,267299,1,0,0:0:0:0:
256,192,267607,1,12,0:0:0:0:
256,192,267761,1,0,0:0:0:0:
256,192,267838,1,8,0:0:0:0:
256,192,267914,1,0,0:0:0:0:
256,192,268068,1,8,0:0:0:0:
256,192,268222,1,0,0:0:0:0:
256,192,268376,1,8,0:0:0:0:
256,192,268453,1,8,0:0:0:0:
256,192,268530,1,0,0:0:0:0:
256,192,268684,1,8,0:0:0:0:
256,192,268761,1,0,0:0:0:0:
256,192,268838,1,8,0:0:0:0:
256,192,268991,1,0,0:0:0:0:
256,192,269145,1,8,0:0:0:0:
256,192,269222,1,8,0:0:0:0:
256,192,269299,1,0,0:0:0:0:
256,192,269376,1,0,0:0:0:0:
256,192,269453,1,8,0:0:0:0:
256,192,269530,1,0,0:0:0:0:
256,192,269607,1,8,0:0:0:0:
256,192,269761,1,0,0:0:0:0:
256,192,270068,1,8,0:0:0:0:
256,192,270222,1,0,0:0:0:0:
256,192,270299,1,8,0:0:0:0:
256,192,270376,1,0,0:0:0:0:
256,192,270530,1,8,0:0:0:0:
256,192,270684,1,0,0:0:0:0:
256,192,270838,1,8,0:0:0:0:
256,192,270914,1,0,0:0:0:0:
256,192,270991,1,8,0:0:0:0:
256,192,271145,1,0,0:0:0:0:
256,192,271222,1,0,0:0:0:0:
256,192,271299,1,8,0:0:0:0:
256,192,271453,1,0,0:0:0:0:
256,192,271607,1,8,0:0:0:0:
256,192,271684,1,8,0:0:0:0:
256,192,271761,1,0,0:0:0:0:
256,192,271838,1,0,0:0:0:0:
256,192,271914,1,8,0:0:0:0:
256,192,271991,1,0,0:0:0:0:
256,192,272068,1,0,0:0:0:0:
256,192,272222,1,0,0:0:0:0:
256,192,272530,1,8,0:0:0:0:
256,192,272684,1,0,0:0:0:0:
256,192,272761,1,8,0:0:0:0:
256,192,272838,1,0,0:0:0:0:
256,192,272991,1,8,0:0:0:0:
256,192,273145,1,0,0:0:0:0:
256,192,273299,1,8,0:0:0:0:
256,192,273376,1,8,0:0:0:0:
256,192,273453,1,0,0:0:0:0:
256,192,273607,1,0,0:0:0:0:
256,192,273684,1,0,0:0:0:0:
256,192,273761,1,8,0:0:0:0:
256,192,273914,1,0,0:0:0:0:
256,192,274068,1,8,0:0:0:0:
256,192,274145,1,8,0:0:0:0:
256,192,274222,1,0,0:0:0:0:
256,192,274299,1,0,0:0:0:0:
256,192,274376,1,8,0:0:0:0:
256,192,274453,1,0,0:0:0:0:
256,192,274530,1,8,0:0:0:0:
256,192,274684,1,8,0:0:0:0:
256,192,274838,1,0,0:0:0:0:
256,192,274914,1,0,0:0:0:0:
256,192,274991,1,0,0:0:0:0:
256,192,275145,1,8,0:0:0:0:
256,192,275453,1,8,0:0:0:0:
256,192,275607,1,0,0:0:0:0:
256,192,275761,1,12,0:0:0:0:
256,192,276068,1,0,0:0:0:0:
256,192,276222,1,8,0:0:0:0:
256,192,276376,1,0,0:0:0:0:
256,192,276453,1,0,0:0:0:0:
256,192,276530,1,8,0:0:0:0:
256,192,276684,1,0,0:0:0:0:
256,192,276761,1,0,0:0:0:0:
256,192,276838,1,8,0:0:0:0:
256,192,276914,1,0,0:0:0:0:
256,192,276991,1,8,0:0:0:0:
256,192,277068,1,0,0:0:0:0:
256,192,277145,1,8,0:0:0:0:
256,192,277453,1,8,0:0:0:0:
256,192,277530,1,8,0:0:0:0:
256,192,277607,1,0,0:0:0:0:
256,192,277684,1,0,0:0:0:0:
256,192,277761,1,8,0:0:0:0:
256,192,277838,1,0,0:0:0:0:
256,192,277914,1,0,0:0:0:0:
256,192,277991,1,0,0:0:0:0:
256,192,278068,1,8,0:0:0:0:
256,192,278222,1,4,0:0:0:0:
256,192,278530,1,4,0:0:0:0:
256,192,278838,1,12,0:0:0:0:
