osu file format v14

[General]
AudioFilename: audio.mp3
AudioLeadIn: 0
PreviewTime: 60296
Countdown: 1
SampleSet: Soft
StackLeniency: 0.2
Mode: 0
LetterboxInBreaks: 0
WidescreenStoryboard: 1

[Editor]
DistanceSpacing: 2
BeatDivisor: 4
GridSize: 16
TimelineZoom: 1

[Metadata]
Title:Say It.
TitleUnicode:Say It.
Artist:Yorushika
ArtistUnicode:Yorushika
Creator:Ricepuddinz
Version:Insane
Source:
Tags:
BeatmapID:1742111
BeatmapSetID:828577

[Difficulty]
HPDrainRate:5
CircleSize:4
OverallDifficulty:8.5
ApproachRate:9.2
SliderMultiplier:1.4
SliderTickRate:1

[Events]
//Background and Video events
0,0,"681497.jpg",0,0
//Break Periods
//Storyboard Layer 0 (Background)
//Storyboard Layer 1 (Fail)
//Storyboard Layer 2 (Pass)
//Storyboard Layer 3 (Foreground)
//Storyboard Sound Samples

[TimingPoints]
130,333.333333333333,4,2,1,70,1,0
2629,-333.333333333333,4,2,1,25,0,0
3129,-333.333333333333,4,2,1,70,0,0
3796,-66.6666666666667,4,2,1,70,0,0
6463,-62.5,4,2,1,70,0,0
6963,-66.6666666666667,4,2,1,70,0,0
11796,-100,4,2,1,70,0,0
13796,-333.333333333333,4,2,1,70,0,0
14463,-66.6666666666667,4,2,1,70,0,0
19296,-100,4,2,1,70,0,0
19796,-66.6666666666667,4,2,1,70,0,0
25129,-100,4,2,1,70,0,0
26796,-100,4,2,1,40,0,0
26963,-100,4,2,1,70,0,0
37796,-100,4,2,1,30,0,0
37963,-100,4,2,1,70,0,0
45129,-66.6666666666667,4,2,1,70,0,0
49129,-83.3333333333333,4,2,1,70,0,0
59796,-83.3333333333333,4,2,1,75,0,0
60129,-83.3333333333333,4,2,1,76,0,0
60463,-83.3333333333333,4,2,1,77,0,0
60796,-83.3333333333333,4,2,1,78,0,0
61129,-83.3333333333333,4,2,1,79,0,0
61463,-83.3333333333333,4,2,1,80,0,0
61629,-100,4,2,1,80,0,0
61796,-500,4,2,1,80,0,0
62463,-62.5,4,2,1,70,0,1
70629,-62.5,4,2,1,40,0,1
71629,-125,4,2,1,70,0,1
73129,-62.5,4,2,1,70,0,1
77629,-62.5,4,2,1,50,0,1
77796,-83.3333333333333,4,2,1,70,0,1
82796,-250,4,2,1,70,0,1
83963,-250,4,2,1,70,0,0

[Colours]
Combo1 : 255,245,132
Combo2 : 211,83,61
Combo3 : 241,187,86
Combo4 : 227,172,121
Combo5 : 255,239,130

[HitObjects]
336,200,2629,6,0,L|376:224,1,41.9999987182618,0|0,3:0|3:0,0:0:0:0:
240,136,3129,1,2,1:0:0:0:
240,136,3463,1,2,1:0:0:0:
152,320,3796,6,0,L|272:304,1,105.000004005432,0|0,3:0|0:0,0:0:0:0:
352,352,4129,1,2,1:0:0:0:
424,288,4296,1,0,1:0:0:0:
272,184,4463,2,0,L|167:197,1,105.000004005432,0|0,3:0|0:0,0:0:0:0:
96,264,4796,1,2,1:0:0:0:
136,112,4963,6,0,L|0:88,1,105.000004005432,0|0,0:0|3:0,0:0:0:0:
312,48,5296,2,0,L|208:66,1,105.000004005432,0|2,0:0|1:0,0:0:0:0:
472,96,5629,2,0,L|368:114,2,105.000004005432,0|0|0,3:0|0:0|3:0,0:0:0:0:
360,224,6129,2,0,P|296:192|224:184,1,105.000004005432,2|0,1:0|0:0,0:0:0:0:
72,312,6463,6,0,B|56:248|60:212|60:212|72:224,1,112,0|0,3:0|0:0,0:0:0:0:
248,184,6796,1,2,1:0:0:0:
432,232,6963,6,0,B|427:134|392:56|392:56|386:83,1,210.000008010865
316,343,7463,5,2,1:0:0:0:
283,196,7630,1,0,0:0:0:0:
154,288,7797,2,0,L|49:301,2,105.000004005432,0|0|2,3:0|0:0|1:0,0:0:0:0:
123,165,8296,6,0,B|182:129|213:75|213:75|181:92,1,157.500006008148,2|0,1:0|0:0,0:0:0:0:
188,89,8629,1,0,0:0:0:0:
371,42,8796,1,2,1:0:0:0:
265,195,8963,1,0,3:0:0:0:
416,136,9129,2,0,L|455:269,1,105.000004005432,0|0,3:0|0:0,0:0:0:0:
312,96,9463,2,0,L|273:229,1,105.000004005432,2|0,1:0|0:0,0:0:0:0:
152,56,9796,2,0,L|191:189,2,105.000004005432,0|0|2,3:0|0:0|1:0,0:0:0:0:
176,276,10296,6,0,P|130:300|79:308,1,105.000004005432
317,244,10629,2,0,P|289:288|248:320,1,105.000004005432
442,185,10963,2,0,P|439:237|420:285,2,105.000004005432
409,49,11463,2,0,P|353:56|305:96,1,105.000004005432,0|2,3:0|1:0,0:0:0:0:
206,192,11796,2,0,B|165:231|165:231|120:186|50:203|14:260|58:323|93:328,1,280
261,127,12629,5,0,0:0:0:0:
371,338,12963,1,0,0:0:0:0:
231,76,13296,1,0,3:0:0:0:
371,338,13463,1,2,1:0:0:0:
184,329,13629,1,0,0:0:0:0:
403,190,13796,1,0,3:0:0:0:
403,190,13963,2,0,B|445:165,1,41.9999987182618
382,42,14463,6,0,L|269:60,1,104.999996795654,0|0,3:0|0:0,0:0:0:0:
209,141,14796,1,2,1:0:0:0:
116,90,14963,1,0,0:0:0:0:
200,232,15129,2,0,L|313:214,1,104.999996795654,0|0,3:0|0:0,0:0:0:0:
403,266,15463,1,2,1:0:0:0:
424,90,15629,6,0,L|315:104,1,105.000004005432
266,204,15963,2,0,L|157:190,1,105.000004005432,0|2,3:0|1:0,0:0:0:0:
150,296,16296,2,0,L|41:310,2,105.000004005432,0|0|0,0:0|0:0|3:0,0:0:0:0:
376,244,16796,1,2,1:0:0:0:
261,319,16963,1,0,0:0:0:0:
432,98,17129,6,0,B|373:68|342:64|342:64|358:104,1,105.000004005432,0|0,3:0|0:0,0:0:0:0:
252,191,17463,1,2,1:0:0:0:
180,332,17629,6,0,B|96:282|44:214|44:214|71:222,1,210.000008010865
385,192,18129,1,2,1:0:0:0:
245,237,18296,1,0,0:0:0:0:
181,104,18463,2,0,L|55:36,2,105.000004005432,0|0|2,3:0|0:0|1:0,0:0:0:0:
321,332,18963,6,0,B|380:296|411:242|411:242|379:259,1,157.500006008148
385,255,19296,2,0,L|346:226,1,35,0|0,3:0|3:0,3:0:0:0:
418,147,19463,2,0,L|388:186,1,35,2|0,1:0|3:0,3:0:0:0:
323,90,19629,2,0,L|351:110,1,35,0|0,3:0|3:0,3:0:0:0:
71,124,19796,6,0,L|161:218,1,105.000004005432
65,249,20129,2,0,L|189:285,1,105.000004005432,2|0,1:0|0:0,0:0:0:0:
142,356,20463,2,0,L|268:325,1,105.000004005432
404,191,20796,1,2,1:0:0:0:
279,168,20963,2,0,L|174:145,1,105.000004005432
92,98,21296,2,0,P|158:117|179:157,1,105.000004005432,0|2,0:0|1:0,0:0:0:0:
330,262,21629,2,0,L|225:239,2,105.000004005432,0|0|0,0:0|0:0|3:0,0:0:0:0:
209,112,22129,6,0,P|265:79|313:87,1,105.000004005432,2|0,1:0|0:0,0:0:0:0:
71,298,22463,2,0,P|52:250|90:100,2,210.000008010865,0|2|0,0:0|1:0|3:0,0:0:0:0:
217,125,23296,2,0,L|187:232,1,105.000004005432,0|2,0:0|1:0,0:0:0:0:
386,127,23629,2,0,L|416:20,1,105.000004005432
195,45,23963,5,0,3:0:0:0:
403,138,24129,1,0,3:0:0:0:
217,190,24296,1,0,0:0:0:0:
333,238,24463,1,0,3:0:0:0:
239,260,24629,1,0,3:0:0:0:
288,290,24796,1,0,0:0:0:0:
263,299,24963,1,0,0:0:0:0:
253,313,25129,6,0,P|181:321|117:289,1,140,0|0,3:0|0:0,0:0:0:0:
64,233,25796,1,0,3:0:0:0:
184,80,26129,1,0,0:0:0:0:
184,80,26296,2,0,P|240:80|312:136,1,140,0|0,3:0|0:0,0:0:0:0:
357,81,26796,1,0,0:0:0:0:
357,81,26963,2,0,P|323:103|303:134,1,70,0|0,0:0|3:0,0:0:0:0:
272,213,27296,1,0,0:0:0:0:
103,255,27463,5,0,3:0:0:0:
232,339,27629,1,0,0:0:0:0:
39,211,27796,2,0,P|57:137|115:73,1,140,0|0,3:0|0:0,0:0:0:0:
165,33,28463,1,0,3:0:0:0:
399,232,28796,5,0,0:0:0:0:
399,232,28963,2,0,P|366:294|311:344,1,140,0|0,3:0|0:0,0:0:0:0:
160,272,29463,2,0,L|216:208,1,70,0|0,3:0|0:0,0:0:0:0:
285,274,29796,1,0,3:0:0:0:
112,152,29963,2,0,L|168:88,1,70,0|0,3:0|0:0,0:0:0:0:
227,161,30296,1,0,0:0:0:0:
423,129,30463,6,0,P|361:85|298:68,1,140,0|0,3:0|0:0,0:0:0:0:
217,52,31129,1,0,3:0:0:0:
97,251,31463,2,0,P|143:241|177:219,1,70,0|0,3:0|0:0,0:0:0:0:
250,153,31796,1,0,0:0:0:0:
377,279,31963,1,0,0:0:0:0:
362,89,32129,1,0,3:0:0:0:
276,322,32296,1,0,0:0:0:0:
450,145,32463,1,0,0:0:0:0:
181,236,32629,1,0,3:0:0:0:
181,236,32796,2,0,L|229:172,1,70
302,63,33129,6,0,L|254:135,1,70,0|0,3:0|0:0,0:0:0:0:
142,268,33463,1,0,0:0:0:0:
264,168,33796,2,0,L|216:240,1,70,0|0,3:0|0:0,0:0:0:0:
148,344,34130,1,0,0:0:0:0:
272,240,34463,2,0,L|224:312,1,70,0|0,3:0|0:0,0:0:0:0:
369,104,34796,1,0,0:0:0:0:
176,104,34963,2,0,L|264:104,1,70,0|0,3:0|0:0,0:0:0:0:
379,105,35296,5,0,0:0:0:0:
379,105,35379,1,0,0:0:0:0:
379,105,35463,1,0,0:0:0:0:
175,165,35629,5,0,0:0:0:0:
73,288,35796,2,0,B|97:312|185:339|185:339|185:304,1,140,0|0,3:0|0:0,0:0:0:0:
185,255,36463,1,0,0:0:0:0:
382,202,36796,1,0,0:0:0:0:
382,202,36963,2,0,B|417:165|438:90|438:90|406:106,1,140,0|0,3:0|0:0,0:0:0:0:
354,112,37463,1,0,0:0:0:0:
178,108,37629,2,0,P|194:67|233:35,1,70,0|0,3:0|3:0,0:0:0:0:
69,189,37963,1,0,0:0:0:0:
69,189,38129,2,0,B|37:221|37:221|61:277|-3:317,2,140,0|0|0,3:0|0:0|3:0,0:0:0:0:
67,75,39129,5,0,3:0:0:0:
81,303,39463,2,0,L|87:224,1,70
141,65,39796,1,0,0:0:0:0:
87,233,39963,2,0,L|119:161,1,70,0|0,3:0|0:0,0:0:0:0:
225,48,40296,1,0,0:0:0:0:
265,223,40463,2,0,P|229:248|207:302,1,70,0|0,3:0|0:0,0:0:0:0:
402,287,40796,2,0,P|437:261|459:207,1,70,0|0,3:0|0:0,0:0:0:0:
174,160,41129,6,0,P|196:92|252:22,2,140
48,136,42129,2,0,L|88:64,1,70,0|0,3:0|0:0,0:0:0:0:
131,259,42463,1,0,0:0:0:0:
131,259,42629,2,0,P|226:289|291:291,1,140,0|0,3:0|0:0,0:0:0:0:
450,98,43129,1,0,0:0:0:0:
260,163,43296,1,0,0:0:0:0:
407,290,43463,1,0,3:0:0:0:
246,301,43629,5,0,3:0:0:0:
222,301,43713,1,0,3:0:0:0:
190,301,43796,2,0,L|46:301,1,140,0|0,3:0|3:0,3:0:0:0:
168,93,44296,2,0,L|312:93,1,140,0|0,3:0|0:0,0:0:0:0:
389,89,44796,1,0,0:0:0:0:
73,169,44963,1,0,3:0:0:0:
109,162,45046,1,0,3:0:0:0:
138,156,45129,2,0,L|367:119,1,210.000008010865,0|0,3:0|3:0,3:0:0:0:
465,316,45629,2,0,L|236:279,1,210.000008010865,0|0,3:0|3:0,3:0:0:0:
343,69,46129,5,0,0:0:0:0:
251,251,46296,1,0,0:0:0:0:
343,69,46463,2,0,P|399:96|438:144,2,105.000004005432,0|0|0,3:0|0:0|3:0,0:0:0:0:
113,54,46963,1,0,0:0:0:0:
272,104,47129,1,0,0:0:0:0:
87,152,47296,1,0,0:0:0:0:
296,177,47463,1,0,0:0:0:0:
99,278,47629,1,0,3:0:0:0:
324,343,47796,2,0,L|390:256,2,105.000004005432,0|0|0,0:0|3:0|0:0,0:0:0:0:
174,142,48296,5,0,0:0:0:0:
303,253,48463,1,0,0:0:0:0:
115,102,48629,1,0,0:0:0:0:
239,222,48796,2,0,L|239:332,1,105.000004005432,0|0,3:0|0:0,0:0:0:0:
280,54,49129,2,0,B|219:139|219:139|242:138,1,125.999996154785,0|0,3:0|0:0,0:0:0:0:
240,138,49463,1,0,0:0:0:0:
432,104,49629,1,0,0:0:0:0:
320,304,49796,2,0,P|416:320|416:320,2,83.9999974365235,0|0|0,3:0|0:0|3:0,0:0:0:0:
320,304,50296,1,0,0:0:0:0:
144,184,50463,6,0,P|48:200|48:200,2,83.9999974365235,0|0|0,3:0|0:0|3:0,0:0:0:0:
406,56,50963,5,0,0:0:0:0:
361,67,51046,1,0,0:0:0:0:
316,81,51129,2,0,L|210:109,1,83.9999974365235
192,177,51463,2,0,L|110:155,1,83.9999974365235
112,243,51796,2,0,L|6:271,2,83.9999974365235,0|0|0,3:0|0:0|3:0,0:0:0:0:
179,50,52463,5,0,0:0:0:0:
426,75,52629,1,0,0:0:0:0:
251,144,52796,1,0,0:0:0:0:
445,267,52963,1,0,3:0:0:0:
308,303,53129,2,0,L|200:365,2,83.9999974365235,0|0|0,3:0|0:0|3:0,0:0:0:0:
264,192,53796,5,0,0:0:0:0:
112,64,53963,1,0,0:0:0:0:
40,192,54129,1,0,0:0:0:0:
208,64,54296,1,0,3:0:0:0:
430,69,54463,2,0,L|427:170,1,83.9999974365235
313,124,54796,2,0,L|252:205,1,83.9999974365235
328,267,55129,2,0,L|231:299,1,83.9999974365235
60,240,55463,2,0,L|156:207,1,83.9999974365235
162,204,55713,5,0,3:0:0:0:
193,193,55796,1,0,3:0:0:0:
357,132,55963,1,0,0:0:0:0:
328,323,56129,2,0,B|410:303|410:303|470:237,2,167.999994873047
104,192,57129,5,2,1:0:0:0:
104,40,57462,1,2,1:0:0:0:
104,232,57796,2,0,L|104:328,1,83.9999974365235,2|0,1:0|0:0,0:0:0:0:
104,120,58129,1,2,1:0:0:0:
280,168,58296,6,0,L|384:152,1,83.9999974365235,0|2,0:0|1:0,0:0:0:0:
443,138,58629,1,0,0:0:0:0:
205,187,58796,1,2,1:0:0:0:
428,256,58963,1,0,0:0:0:0:
166,298,59129,1,2,1:0:0:0:
328,272,59296,2,0,L|224:288,1,83.9999974365235,0|2,0:0|1:0,0:0:0:0:
287,109,59629,1,0,0:0:0:0:
378,343,59796,5,0,0:0:0:0:
136,296,59963,1,0,0:0:0:0:
361,120,60129,1,0,0:0:0:0:
91,163,60296,1,0,0:0:0:0:
256,32,60463,5,0,0:0:0:0:
352,320,60629,1,0,0:0:0:0:
96,128,60796,1,0,0:0:0:0:
416,128,60963,1,0,0:0:0:0:
160,320,61129,1,0,0:0:0:0:
120,173,61796,6,0,L|106:147,1,28
433,58,62463,6,0,B|351:77|248:77|248:77|282:105,1,224,2|8,1:0|1:0,0:0:0:0:
283,95,62963,1,0,0:0:0:0:
267,331,63129,2,0,L|233:195,1,112
51,257,63463,2,0,L|84:118,1,112,8|0,1:0|0:0,0:0:0:0:
128,61,63796,5,0,3:0:0:0:
366,153,63963,1,0,0:0:0:0:
214,47,64129,1,8,1:0:0:0:
318,242,64296,1,0,3:0:0:0:
468,91,64463,2,0,L|353:70,1,112,0|4,3:0|0:0,0:0:0:0:
202,67,64796,1,8,1:0:0:0:
347,41,64963,1,0,0:0:0:0:
363,311,65129,6,0,B|353:220|353:220|325:245,1,112
217,253,65462,2,0,B|195:164|195:164|230:177,1,112,8|0,1:0|3:0,0:0:0:0:
67,199,65796,6,0,B|57:108|57:108|29:133,1,112,0|0,0:0|3:0,0:0:0:0:
368,112,66129,1,8,1:0:0:0:
200,104,66296,1,0,0:0:0:0:
393,294,66463,2,0,P|340:336|265:345,1,112,0|0,3:0|3:0,3:0:0:0:
112,330,66796,1,8,1:0:0:0:
272,212,66963,5,8,1:0:0:0:
279,221,67046,1,0,3:0:0:0:
279,221,67129,1,0,3:0:0:0:
47,189,67296,1,0,0:0:0:0:
318,119,67463,2,0,P|257:116|168:157,1,112,8|0,1:0|0:0,2:0:0:0:
374,284,67713,1,0,0:0:0:0:
374,284,67796,2,0,P|301:214|173:160,1,224,0|8,0:0|1:0,0:0:0:0:
420,53,68296,5,0,3:0:0:0:
420,53,68463,2,0,L|420:187,1,112,0|0,3:0|3:0,3:0:0:0:
420,342,68796,1,8,1:0:0:0:
260,266,68963,1,0,0:0:0:0:
376,158,69129,1,0,0:0:0:0:
114,116,69296,1,0,0:0:0:0:
258,47,69463,1,8,1:0:0:0:
268,192,69629,1,0,3:0:0:0:
86,217,69796,2,0,L|-39:302,2,105.000004005432,0|0|8,0:0|0:0|1:0,0:0:0:0:
431,101,70296,2,0,L|336:169,1,112,0|0,3:0|3:0,0:0:0:0:
268,218,70629,5,8,3:0:0:0:
244,233,70713,1,8,3:0:0:0:
222,250,70796,1,8,3:0:0:0:
336,55,70963,5,8,3:0:0:0:
363,57,71046,1,8,3:0:0:0:
389,66,71129,1,8,3:0:0:0:
136,288,71296,5,0,0:0:0:0:
145,276,71379,1,8,3:0:0:0:
152,264,71462,1,0,0:0:0:0:
160,253,71546,1,0,3:0:0:0:
168,240,71629,6,0,B|186:214|200:192|200:192|128:160|112:120,1,167.999994873047,8|0,3:0|0:0,0:0:0:0:
77,56,72463,1,0,0:0:0:0:
385,76,72630,1,8,3:0:0:0:
385,100,72713,1,8,3:0:0:0:
385,124,72797,1,0,3:0:0:0:
385,148,72880,1,8,3:0:0:0:
385,172,72963,1,0,3:0:0:0:
385,196,73047,1,8,3:0:0:0:
385,220,73130,6,0,L|385:354,1,112,8|0,3:0|0:0,0:0:0:0:
475,218,73463,1,8,1:0:0:0:
267,346,73629,1,0,3:0:0:0:
98,218,73796,2,0,L|229:219,1,112
128,336,74129,1,8,1:0:0:0:
131,91,74296,2,0,L|276:91,1,112
285,299,74629,5,0,3:0:0:0:
393,64,74796,1,8,1:0:0:0:
446,254,74963,1,0,0:0:0:0:
226,113,75129,1,0,0:0:0:0:
446,254,75296,1,0,0:0:0:0:
206,305,75463,6,0,P|277:331|350:319,1,112,8|0,1:0|0:0,0:0:0:0:
286,171,75796,1,0,3:0:0:0:
286,171,75963,1,0,3:0:0:0:
359,56,76129,2,0,P|290:44|204:51,1,112,8|0,1:0|0:0,0:0:0:0:
66,170,76463,2,0,P|103:238|168:274,1,112,0|0,3:0|3:0,3:0:0:0:
299,317,76796,5,8,1:0:0:0:
175,104,76963,1,0,0:0:0:0:
436,144,77129,1,0,3:0:0:0:
117,202,77296,1,0,3:0:0:0:
331,59,77463,1,8,1:0:0:0:
288,297,77629,1,8,1:0:0:0:
331,59,77796,6,0,B|375:46|375:46|410:92|483:104,2,167.999994873047,0|0|0,3:0|0:0|3:0,0:0:0:0:
201,299,78629,1,0,0:0:0:0:
71,80,78796,1,8,1:0:0:0:
367,231,78962,1,8,1:0:0:0:
217,228,79129,6,0,P|134:227|64:272,2,167.999994873047,0|0|0,0:0|0:0|3:0,0:0:0:0:
248,74,79962,1,0,0:0:0:0:
379,314,80129,1,8,1:0:0:0:
83,163,80296,1,8,1:0:0:0:
320,144,80462,6,0,L|466:43,2,167.999994873047,0|0|0,0:0|0:0|3:0,0:0:0:0:
240,200,81296,1,0,0:0:0:0:
88,72,81462,1,0,0:0:0:0:
48,256,81629,1,0,0:0:0:0:
336,128,81796,5,0,3:0:0:0:
142,172,81963,1,0,0:0:0:0:
265,315,82129,1,0,0:0:0:0:
328,34,82296,5,0,0:0:0:0:
252,218,82463,1,0,3:0:0:0:
439,199,82629,1,0,0:0:0:0:
128,320,82796,2,0,L|96:336,1,28
128,88,83129,5,0,0:0:0:0:
128,128,83212,1,0,0:0:0:0:
128,160,83296,1,0,0:0:0:0:
128,184,83379,1,0,0:0:0:0:
128,200,83462,1,0,0:0:0:0:
128,208,83546,1,0,0:0:0:0:
128,216,83629,1,0,0:0:0:0:
128,224,83712,1,0,0:0:0:0:
127,231,83796,2,0,L|127:263,1,28,0|0,3:0|0:0,0:0:0:0:
283,60,84462,5,0,0:0:0:0:
397,199,84796,1,0,0:0:0:0:
127,231,85129,2,0,L|127:263,1,28,0|0,3:0|0:0,0:0:0:0:
184,64,85796,5,0,0:0:0:0:
216,128,86129,1,0,0:0:0:0:
256,192,86463,1,0,0:0:0:0:
