osu file format v14

[General]
AudioFilename: audio.mp3
AudioLeadIn: 0
PreviewTime: 35250
Countdown: 0
SampleSet: Soft
StackLeniency: 0.3
Mode: 0
LetterboxInBreaks: 0
WidescreenStoryboard: 1

[Editor]
Bookmarks: 200,24200,55400,74600,93800,105800,125000,144200,165800,187400,194600,213800,233000,237800
DistanceSpacing: 0.6
BeatDivisor: 6
GridSize: 16
TimelineZoom: 2

[Metadata]
Title:Plagiarism
TitleUnicode:盗作
Artist:Yorushika
ArtistUnicode:ヨルシカ
Creator:alevi
Version:brain exe's Insane
Source:
Tags:doraemonelf dora- shiny braixen brain exe galaxyskys galaxyskys_ japanese rock jrock j-rock pop j-pop jpop nabuna n-buna nbuna suis tousaku ナブナ スイ
BeatmapID:3808367
BeatmapSetID:1839117

[Difficulty]
HPDrainRate:5
CircleSize:4
OverallDifficulty:8
ApproachRate:9
SliderMultiplier:3
SliderTickRate:1

[Events]
//Background and Video events
0,0,"wKc7HlO0_4x (1).jpg",0,0
//Break Periods
2,24500,28300
2,82000,83000
2,94100,97700
//Storyboard Layer 0 (Background)
//Storyboard Layer 1 (Fail)
//Storyboard Layer 2 (Pass)
//Storyboard Layer 3 (Foreground)
//Storyboard Layer 4 (Overlay)
//Storyboard Sound Samples

[TimingPoints]
200,600,4,2,1,45,1,0
4400,-100,4,2,1,60,0,0
4700,-100,4,2,2,60,0,0
5000,-125,4,2,1,60,0,0
5500,-125,4,2,2,60,0,0
7400,-125,4,2,1,60,0,0
7600,-125,4,2,2,60,0,0
9200,-125,4,2,1,60,0,0
9700,-125,4,2,2,60,0,0
9800,-125,4,2,1,60,0,0
10100,-125,4,2,2,60,0,0
11000,-125,4,2,1,60,0,0
11200,-125,4,2,2,60,0,0
12200,-166.666666666667,4,2,1,60,0,0
12400,-166.666666666667,4,2,2,60,0,0
14600,-125,4,2,1,60,0,0
14800,-125,4,2,2,60,0,0
14900,-125,4,2,1,60,0,0
15100,-125,4,2,2,60,0,0
15200,-125,4,2,1,60,0,0
15500,-125,4,2,2,60,0,0
17000,-125,4,2,1,60,0,0
17200,-125,4,2,2,60,0,0
17900,-125,4,2,1,60,0,0
18200,-125,4,2,2,60,0,0
19400,-125,4,2,1,60,0,0
19700,-125,4,2,2,60,0,0
20600,-125,4,2,1,60,0,0
20800,-125,4,2,2,60,0,0
21800,-125,4,2,1,60,0,0
22000,-125,4,2,2,60,0,0
22400,-125,4,2,1,60,0,0
22600,-125,4,2,2,60,0,0
23000,-125,4,2,1,60,0,0
23600,-125,4,2,2,60,0,0
25300,-125,4,2,1,60,0,0
25600,-125,4,2,2,60,0,0
26000,-125,4,2,1,60,0,0
26200,-125,4,2,2,60,0,0
26600,-125,4,2,1,60,0,0
26800,-125,4,2,2,60,0,0
27700,-125,4,2,1,60,0,0
28000,-125,4,2,2,60,0,0
28400,-125,4,2,1,60,0,0
28600,-125,4,2,2,60,0,0
28900,-125,4,2,1,60,0,0
29000,-100,4,2,1,60,0,0
29200,-100,4,2,2,60,0,0
30200,-100,4,2,1,60,0,0
30400,-100,4,2,2,60,0,0
30800,-100,4,2,1,60,0,0
31300,-100,4,2,2,60,0,0
31400,-100,4,2,1,65,0,0
31600,-100,4,2,2,65,0,0
32000,-100,4,2,2,65,0,0
32600,-100,4,2,1,65,0,0
32900,-100,4,2,2,65,0,0
33200,-100,4,2,1,65,0,0
33500,-100,4,2,2,65,0,0
35300,-83.3333333333333,4,2,1,75,0,0
35600,-83.3333333333333,4,2,2,75,0,0
35900,-83.3333333333333,4,2,1,75,0,0
36100,-83.3333333333333,4,2,2,75,0,0
36200,-66.6666666666667,4,2,1,85,0,1
36400,-66.6666666666667,4,2,2,85,0,1
36500,-66.6666666666667,4,2,3,85,0,1
37300,-66.6666666666667,4,2,2,85,0,1
37400,-66.6666666666667,4,2,1,85,0,1
37600,-66.6666666666667,4,2,2,85,0,1
37700,-66.6666666666667,4,2,3,85,0,1
38500,-66.6666666666667,4,2,2,85,0,1
38600,-66.6666666666667,4,2,1,85,0,1
38800,-66.6666666666667,4,2,2,85,0,1
38900,-66.6666666666667,4,2,3,85,0,1
39100,-66.6666666666667,4,2,2,85,0,1
39200,-66.6666666666667,4,2,3,85,0,1
39700,-66.6666666666667,4,2,4,85,0,1
40400,-66.6666666666667,4,2,3,85,0,1
40900,-66.6666666666667,4,2,2,85,0,1
41300,-66.6666666666667,4,2,4,85,0,1
42200,-66.6666666666667,4,2,1,85,0,1
42400,-66.6666666666667,4,2,4,85,0,1
43300,-66.6666666666667,4,2,8,85,0,1
44000,-66.6666666666667,4,2,4,85,0,1
44300,-66.6666666666667,4,2,5,85,0,1
44900,-66.6666666666667,4,2,1,85,0,1
45700,-66.6666666666667,4,2,2,85,0,1
45800,-66.6666666666667,4,2,1,85,0,1
46000,-66.6666666666667,4,2,2,85,0,1
46100,-66.6666666666667,4,2,3,85,0,1
46400,-66.6666666666667,4,2,6,85,0,1
46700,-66.6666666666667,4,2,4,85,0,1
47000,-66.6666666666667,4,2,1,85,0,1
47200,-66.6666666666667,4,2,2,85,0,1
47300,-66.6666666666667,4,2,3,85,0,1
48100,-66.6666666666667,4,2,2,85,0,1
48200,-66.6666666666667,4,2,1,85,0,1
48400,-66.6666666666667,4,2,2,85,0,1
48500,-66.6666666666667,4,2,3,85,0,1
48700,-66.6666666666667,4,2,2,85,0,1
48800,-66.6666666666667,4,2,3,85,0,1
49300,-66.6666666666667,4,2,4,85,0,1
50000,-66.6666666666667,4,2,3,85,0,1
50200,-66.6666666666667,4,2,4,85,0,1
50600,-66.6666666666667,4,2,2,85,0,1
50900,-66.6666666666667,4,2,4,85,0,1
51800,-66.6666666666667,4,2,1,85,0,1
52000,-66.6666666666667,4,2,4,85,0,1
52900,-66.6666666666667,4,2,1,85,0,1
53500,-66.6666666666667,4,2,5,85,0,1
53900,-66.6666666666667,4,2,1,85,0,1
54100,-66.6666666666667,4,2,2,85,0,1
55400,-83.3333333333333,4,2,2,75,0,0
55700,-83.3333333333333,4,2,5,75,0,0
57500,-83.3333333333333,4,2,6,75,0,0
57600,-83.3333333333333,4,2,2,75,0,0
57800,-83.3333333333333,4,2,1,75,0,0
58100,-83.3333333333333,4,2,5,75,0,0
58700,-83.3333333333333,4,2,6,75,0,0
59600,-83.3333333333333,4,2,4,75,0,0
59900,-83.3333333333333,4,2,2,75,0,0
60200,-83.3333333333333,4,2,7,75,0,0
60500,-83.3333333333333,4,2,5,75,0,0
62300,-83.3333333333333,4,2,6,75,0,0
62900,-83.3333333333333,4,2,5,75,0,0
63200,-83.3333333333333,4,2,3,75,0,0
63500,-83.3333333333333,4,2,6,75,0,0
64100,-83.3333333333333,4,2,2,75,0,0
64400,-83.3333333333333,4,2,1,75,0,0
64600,-83.3333333333333,4,2,2,75,0,0
65300,-83.3333333333333,4,2,5,75,0,0
67100,-83.3333333333333,4,2,6,75,0,0
67200,-83.3333333333333,4,2,2,75,0,0
67400,-83.3333333333333,4,2,1,75,0,0
67700,-83.3333333333333,4,2,5,75,0,0
68300,-83.3333333333333,4,2,6,75,0,0
69200,-83.3333333333333,4,2,7,75,0,0
69800,-83.3333333333333,4,2,8,75,0,0
70100,-83.3333333333333,4,2,5,75,0,0
70300,-83.3333333333333,4,2,1,75,0,0
70600,-83.3333333333333,4,2,2,75,0,0
70700,-83.3333333333333,4,2,6,75,0,0
70900,-83.3333333333333,4,2,2,75,0,0
71000,-83.3333333333333,4,2,1,75,0,0
71300,-83.3333333333333,4,2,5,75,0,0
72500,-83.3333333333333,4,2,4,75,0,0
72800,-83.3333333333333,4,2,5,75,0,0
73300,-83.3333333333333,4,2,2,75,0,0
74000,-83.3333333333333,4,2,1,75,0,0
74300,-83.3333333333333,4,2,4,75,0,0
74600,-125,4,2,1,60,0,0
75100,-125,4,2,2,60,0,0
77000,-125,4,2,1,60,0,0
77200,-125,4,2,2,60,0,0
79400,-125,4,2,1,60,0,0
79700,-125,4,2,2,60,0,0
79900,-125,4,2,2,60,0,0
80600,-125,4,2,1,60,0,0
80800,-125,4,2,2,60,0,0
81800,-125,4,2,7,35,0,0
83000,-125,4,2,8,35,0,0
83300,-125,4,2,7,35,0,0
83600,-125,4,2,1,55,0,0
83800,-125,4,2,2,55,0,0
83900,-125,4,2,1,55,0,0
84100,-125,4,2,2,55,0,0
84200,-100,4,2,9,65,0,0
84700,-100,4,2,7,65,0,0
85400,-100,4,2,8,65,0,0
85500,-100,4,2,2,65,0,0
85600,-100,4,2,1,65,0,0
85700,-100,4,2,7,65,0,0
86000,-100,4,2,8,65,0,0
86200,-100,4,2,7,65,0,0
86600,-100,4,2,8,65,0,0
87100,-100,4,2,7,65,0,0
87800,-100,4,2,8,65,0,0
87900,-100,4,2,2,65,0,0
88100,-100,4,2,8,65,0,0
88200,-100,4,2,2,65,0,0
88400,-100,4,2,8,65,0,0
88500,-100,4,2,2,65,0,0
88700,-100,4,2,8,65,0,0
88800,-100,4,2,2,65,0,0
89000,-100,4,2,8,65,0,0
89500,-100,4,2,7,65,0,0
90200,-100,4,2,8,65,0,0
90500,-100,4,2,7,65,0,0
91400,-100,4,2,1,65,0,0
91600,-100,4,2,2,65,0,0
91700,-100,4,2,1,65,0,0
91900,-100,4,2,2,65,0,0
92000,-100,4,2,1,65,0,0
92300,-100,4,2,2,65,0,0
92600,-100,4,2,1,65,0,0
92800,-100,4,2,2,65,0,0
92900,-100,4,2,1,65,0,0
93100,-100,4,2,2,65,0,0
93200,-100,4,2,1,65,0,0
93400,-100,4,2,2,65,0,0
93800,-100,4,2,10,60,0,0
94000,-100,4,2,7,60,0,0
94900,-100,4,2,8,60,0,0
95200,-100,4,2,7,60,0,0
95600,-100,4,2,8,60,0,0
95800,-100,4,2,7,60,0,0
96200,-100,4,2,8,60,0,0
96400,-100,4,2,7,60,0,0
97300,-100,4,2,8,60,0,0
97600,-100,4,2,7,60,0,0
98000,-100,4,2,8,60,0,0
98200,-100,4,2,7,60,0,0
98500,-100,4,2,8,60,0,0
98800,-100,4,2,7,60,0,0
99800,-100,4,2,8,60,0,0
100000,-100,4,2,7,60,0,0
100400,-100,4,2,8,60,0,0
100900,-100,4,2,2,60,0,0
101000,-100,4,2,8,65,0,0
101300,-100,4,2,7,65,0,0
101900,-100,4,2,8,65,0,0
102100,-100,4,2,1,65,0,0
102200,-100,4,2,7,65,0,0
102500,-100,4,2,3,65,0,0
102800,-100,4,2,7,65,0,0
103100,-100,4,2,11,65,0,0
103400,-166.666666666667,4,2,2,75,0,0
104900,-66.6666666666667,4,2,1,75,0,0
105200,-66.6666666666667,4,2,4,75,0,0
105500,-66.6666666666667,4,2,1,75,0,0
105700,-66.6666666666667,4,2,2,75,0,0
105800,-66.6666666666667,4,2,1,85,0,1
106000,-66.6666666666667,4,2,2,85,0,1
106100,-66.6666666666667,4,2,3,85,0,1
106600,-66.6666666666667,4,2,2,85,0,1
106700,-66.6666666666667,4,2,3,85,0,1
106900,-66.6666666666667,4,2,2,85,0,1
107000,-66.6666666666667,4,2,1,85,0,1
107200,-66.6666666666667,4,2,2,85,0,1
107300,-66.6666666666667,4,2,3,85,0,1
107800,-66.6666666666667,4,2,4,85,0,1
108200,-66.6666666666667,4,2,1,85,0,1
108400,-66.6666666666667,4,2,2,85,0,1
108500,-66.6666666666667,4,2,3,85,0,1
108700,-66.6666666666667,4,2,2,85,0,1
108800,-66.6666666666667,4,2,3,85,0,1
109300,-66.6666666666667,4,2,4,85,0,1
110000,-66.6666666666667,4,2,3,85,0,1
110500,-66.6666666666667,4,2,2,85,0,1
110900,-66.6666666666667,4,2,4,85,0,1
111800,-66.6666666666667,4,2,1,85,0,1
112000,-66.6666666666667,4,2,4,85,0,1
112900,-66.6666666666667,4,2,8,85,0,1
113600,-66.6666666666667,4,2,4,85,0,1
113900,-66.6666666666667,4,2,5,85,0,1
114500,-66.6666666666667,4,2,1,85,0,1
115300,-66.6666666666667,4,2,2,85,0,1
115400,-66.6666666666667,4,2,1,85,0,1
115600,-66.6666666666667,4,2,2,85,0,1
115700,-66.6666666666667,4,2,3,85,0,1
116000,-66.6666666666667,4,2,6,85,0,1
116300,-66.6666666666667,4,2,3,85,0,1
116500,-66.6666666666667,4,2,2,85,0,1
116600,-66.6666666666667,4,2,1,85,0,1
116800,-66.6666666666667,4,2,2,85,0,1
116900,-66.6666666666667,4,2,3,85,0,1
117700,-66.6666666666667,4,2,2,85,0,1
117800,-66.6666666666667,4,2,1,85,0,1
118000,-66.6666666666667,4,2,2,85,0,1
118100,-66.6666666666667,4,2,3,85,0,1
118300,-66.6666666666667,4,2,2,85,0,1
118400,-66.6666666666667,4,2,3,85,0,1
118900,-66.6666666666667,4,2,4,85,0,1
119600,-66.6666666666667,4,2,3,85,0,1
119800,-66.6666666666667,4,2,4,85,0,1
120200,-66.6666666666667,4,2,2,85,0,1
120500,-66.6666666666667,4,2,4,85,0,1
123500,-66.6666666666667,4,2,1,85,0,1
123700,-66.6666666666667,4,2,2,85,0,1
125000,-83.3333333333333,4,2,11,75,0,0
125300,-83.3333333333333,4,2,6,75,0,0
125600,-83.3333333333333,4,2,5,75,0,0
125900,-83.3333333333333,4,2,6,75,0,0
126200,-83.3333333333333,4,2,2,75,0,0
126500,-83.3333333333333,4,2,6,75,0,0
126800,-83.3333333333333,4,2,2,75,0,0
127100,-83.3333333333333,4,2,6,75,0,0
127400,-83.3333333333333,4,2,2,75,0,0
127700,-83.3333333333333,4,2,6,75,0,0
128000,-83.3333333333333,4,2,2,75,0,0
128300,-83.3333333333333,4,2,6,75,0,0
128600,-83.3333333333333,4,2,5,75,0,0
129200,-83.3333333333333,4,2,9,75,0,0
129400,-83.3333333333333,4,2,2,75,0,0
130100,-83.3333333333333,4,2,6,75,0,0
130400,-83.3333333333333,4,2,2,75,0,0
130700,-83.3333333333333,4,2,6,75,0,0
131000,-83.3333333333333,4,2,2,75,0,0
131300,-83.3333333333333,4,2,6,75,0,0
131600,-83.3333333333333,4,2,2,75,0,0
131900,-83.3333333333333,4,2,6,75,0,0
132200,-83.3333333333333,4,2,5,75,0,0
132800,-83.3333333333333,4,2,4,75,0,0
133100,-83.3333333333333,4,2,5,75,0,0
133300,-83.3333333333333,4,2,3,75,0,0
134300,-83.3333333333333,4,2,2,75,0,0
134600,-83.3333333333333,4,2,8,75,0,0
134900,-83.3333333333333,4,2,5,75,0,0
135200,-83.3333333333333,4,2,1,75,0,0
135500,-83.3333333333333,4,2,5,75,0,0
135700,-83.3333333333333,4,2,1,75,0,0
135800,-83.3333333333333,4,2,5,75,0,0
136400,-83.3333333333333,4,2,1,75,0,0
136700,-83.3333333333333,4,2,5,75,0,0
137000,-83.3333333333333,4,2,1,75,0,0
137300,-83.3333333333333,4,2,5,75,0,0
137600,-83.3333333333333,4,2,1,75,0,0
137900,-83.3333333333333,4,2,5,75,0,0
138100,-83.3333333333333,4,2,1,75,0,0
138200,-83.3333333333333,4,2,5,75,0,0
138800,-83.3333333333333,4,2,9,75,0,0
139000,-83.3333333333333,4,2,2,75,0,0
139400,-83.3333333333333,4,2,8,75,0,0
139700,-83.3333333333333,4,2,5,75,0,0
140000,-83.3333333333333,4,2,1,75,0,0
140300,-83.3333333333333,4,2,5,75,0,0
140500,-83.3333333333333,4,2,1,75,0,0
140600,-83.3333333333333,4,2,5,75,0,0
141200,-83.3333333333333,4,2,1,75,0,0
141500,-83.3333333333333,4,2,5,75,0,0
141700,-83.3333333333333,4,2,1,75,0,0
141800,-83.3333333333333,4,2,7,75,0,0
142400,-83.3333333333333,4,2,5,75,0,0
142900,-83.3333333333333,4,2,1,75,0,0
143200,-83.3333333333333,4,2,4,75,0,0
143300,-83.3333333333333,4,2,2,75,0,0
143600,-83.3333333333333,4,2,1,75,0,0
143800,-83.3333333333333,4,2,4,75,0,0
144200,-83.3333333333333,4,2,1,60,0,0
144700,-83.3333333333333,4,2,2,60,0,0
144800,-125,4,2,2,60,0,0
146600,-125,4,2,1,60,0,0
146800,-125,4,2,2,60,0,0
148100,-125,4,2,1,60,0,0
148300,-125,4,2,2,60,0,0
149000,-125,4,2,1,60,0,0
149300,-125,4,2,2,60,0,0
150200,-125,4,2,1,60,0,0
150400,-125,4,2,2,60,0,0
151400,-166.666666666667,4,2,1,60,0,0
151600,-166.666666666667,4,2,2,60,0,0
153800,-125,4,2,1,60,0,0
154000,-125,4,2,2,60,0,0
154100,-125,4,2,1,60,0,0
154300,-125,4,2,2,60,0,0
154400,-125,4,2,1,60,0,0
154700,-125,4,2,2,60,0,0
156200,-125,4,2,1,60,0,0
156400,-125,4,2,2,60,0,0
158600,-125,4,2,1,60,0,0
158800,-125,4,2,2,60,0,0
159800,-125,4,2,1,60,0,0
160100,-125,4,2,2,60,0,0
161000,-125,4,2,1,60,0,0
161300,-125,4,2,2,60,0,0
161600,-125,4,2,1,60,0,0
161800,-125,4,2,2,60,0,0
162200,-125,4,2,1,60,0,0
162500,-125,4,2,2,60,0,0
163400,-125,4,2,2,40,0,0
164900,-125,4,2,1,70,0,0
165200,-500,4,2,1,70,0,0
165700,-500,4,2,1,5,0,0
165800,-500,4,2,1,70,0,0
166000,-83.3333333333333,4,2,1,70,0,0
166100,-83.3333333333333,4,2,8,70,0,0
167800,-83.3333333333333,4,2,7,70,0,0
168200,-83.3333333333333,4,2,8,70,0,0
170600,-83.3333333333333,4,2,7,70,0,0
172000,-83.3333333333333,4,2,8,70,0,0
172300,-83.3333333333333,4,2,7,70,0,0
173000,-83.3333333333333,4,2,9,70,0,0
173600,-66.6666666666667,4,2,9,70,0,0
173900,-66.6666666666667,4,2,6,70,0,0
175000,-66.6666666666667,4,2,1,70,0,0
175400,-83.3333333333333,4,2,3,70,0,0
176000,-83.3333333333333,4,2,6,70,0,0
176300,-83.3333333333333,4,2,7,70,0,0
176600,-83.3333333333333,4,2,8,70,0,0
176900,-83.3333333333333,4,2,7,70,0,0
177200,-83.3333333333333,4,2,8,70,0,0
177500,-83.3333333333333,4,2,7,70,0,0
177800,-83.3333333333333,4,2,8,70,0,0
178100,-83.3333333333333,4,2,7,70,0,0
178400,-83.3333333333333,4,2,8,70,0,0
178700,-83.3333333333333,4,2,7,70,0,0
179000,-83.3333333333333,4,2,8,70,0,0
179300,-83.3333333333333,4,2,7,70,0,0
179600,-83.3333333333333,4,2,8,70,0,0
179900,-83.3333333333333,4,2,7,70,0,0
180200,-83.3333333333333,4,2,8,70,0,0
180500,-83.3333333333333,4,2,7,70,0,0
180800,-83.3333333333333,4,2,8,70,0,0
181100,-83.3333333333333,4,2,7,70,0,0
181400,-83.3333333333333,4,2,8,70,0,0
181700,-83.3333333333333,4,2,7,70,0,0
182000,-83.3333333333333,4,2,8,70,0,0
182300,-83.3333333333333,4,2,7,70,0,0
182600,-83.3333333333333,4,2,8,70,0,0
182900,-83.3333333333333,4,2,7,70,0,0
183200,-83.3333333333333,4,2,8,70,0,0
183500,-83.3333333333333,4,2,7,70,0,0
183800,-83.3333333333333,4,2,8,70,0,0
184000,-83.3333333333333,4,2,7,70,0,0
184400,-83.3333333333333,4,2,9,70,0,0
184700,-83.3333333333333,4,2,2,70,0,0
185000,-83.3333333333333,4,2,3,70,0,0
185300,-83.3333333333333,4,2,7,70,0,0
185600,-83.3333333333333,4,2,8,70,0,0
185900,-83.3333333333333,4,2,7,70,0,0
186200,-83.3333333333333,4,2,8,70,0,0
186400,-83.3333333333333,4,2,7,70,0,0
186800,-83.3333333333333,4,2,8,70,0,0
187100,-83.3333333333333,4,2,4,70,0,0
187400,-125,4,2,8,70,0,0
188900,-125,4,2,2,70,0,0
189200,-125,4,2,1,70,0,0
189500,-125,4,2,2,70,0,0
189800,-125,4,2,1,70,0,0
191000,-166.666666666667,4,2,1,70,0,0
191100,-166.666666666667,4,2,2,70,0,0
191600,-166.666666666667,4,2,1,70,0,0
191700,-166.666666666667,4,2,2,70,0,0
192200,-166.666666666667,4,2,1,70,0,0
193700,-83.3333333333333,4,2,3,75,0,0
194600,-66.6666666666667,4,2,1,85,0,1
194800,-66.6666666666667,4,2,2,85,0,1
194900,-66.6666666666667,4,2,3,85,0,1
195400,-66.6666666666667,4,2,4,85,0,1
195800,-66.6666666666667,4,2,1,85,0,1
196000,-66.6666666666667,4,2,2,85,0,1
196100,-66.6666666666667,4,2,3,85,0,1
196600,-66.6666666666667,4,2,4,85,0,1
197000,-66.6666666666667,4,2,1,85,0,1
197200,-66.6666666666667,4,2,2,85,0,1
197300,-66.6666666666667,4,2,3,85,0,1
197500,-66.6666666666667,4,2,2,85,0,1
197600,-66.6666666666667,4,2,3,85,0,1
198100,-66.6666666666667,4,2,4,85,0,1
198800,-66.6666666666667,4,2,3,85,0,1
199300,-66.6666666666667,4,2,2,85,0,1
199700,-66.6666666666667,4,2,4,85,0,1
200600,-66.6666666666667,4,2,1,85,0,1
200800,-66.6666666666667,4,2,4,85,0,1
201700,-66.6666666666667,4,2,8,85,0,1
202400,-66.6666666666667,4,2,4,85,0,1
202700,-66.6666666666667,4,2,5,85,0,1
203300,-66.6666666666667,4,2,1,85,0,1
204100,-66.6666666666667,4,2,2,85,0,1
204200,-66.6666666666667,4,2,1,85,0,1
204400,-66.6666666666667,4,2,2,85,0,1
204500,-66.6666666666667,4,2,3,85,0,1
204800,-66.6666666666667,4,2,6,85,0,1
205100,-66.6666666666667,4,2,4,85,0,1
205400,-66.6666666666667,4,2,1,85,0,1
205600,-66.6666666666667,4,2,2,85,0,1
205700,-66.6666666666667,4,2,3,85,0,1
206500,-66.6666666666667,4,2,2,85,0,1
206600,-66.6666666666667,4,2,1,85,0,1
206800,-66.6666666666667,4,2,2,85,0,1
206900,-66.6666666666667,4,2,3,85,0,1
207100,-66.6666666666667,4,2,2,85,0,1
207200,-66.6666666666667,4,2,3,85,0,1
207700,-66.6666666666667,4,2,4,85,0,1
208400,-66.6666666666667,4,2,3,85,0,1
208600,-66.6666666666667,4,2,4,85,0,1
209000,-66.6666666666667,4,2,2,85,0,1
209300,-66.6666666666667,4,2,4,85,0,1
212000,-66.6666666666667,4,2,7,85,0,1
212300,-66.6666666666667,4,2,6,85,0,1
212500,-66.6666666666667,4,2,2,85,0,1
213500,-66.6666666666667,4,2,1,85,0,1
213600,-66.6666666666667,4,2,2,85,0,1
213700,-66.6666666666667,4,2,2,85,0,0
213800,-66.6666666666667,4,2,11,85,0,1
214100,-66.6666666666667,4,2,6,85,0,1
214900,-66.6666666666667,4,2,2,85,0,1
215000,-66.6666666666667,4,2,9,85,0,1
215200,-66.6666666666667,4,2,2,85,0,1
215300,-66.6666666666667,4,2,6,85,0,1
215600,-66.6666666666667,4,2,4,85,0,1
215900,-66.6666666666667,4,2,6,85,0,1
216100,-66.6666666666667,4,2,2,85,0,1
216200,-66.6666666666667,4,2,9,85,0,1
216400,-66.6666666666667,4,2,2,85,0,1
216500,-66.6666666666667,4,2,6,85,0,1
216800,-66.6666666666667,4,2,4,85,0,1
217100,-66.6666666666667,4,2,6,85,0,1
217300,-66.6666666666667,4,2,2,85,0,1
217400,-66.6666666666667,4,2,9,85,0,1
217600,-66.6666666666667,4,2,2,85,0,1
217700,-66.6666666666667,4,2,6,85,0,1
218000,-66.6666666666667,4,2,4,85,0,1
218300,-66.6666666666667,4,2,6,85,0,1
218500,-66.6666666666667,4,2,2,85,0,1
218600,-66.6666666666667,4,2,9,85,0,1
218800,-66.6666666666667,4,2,2,85,0,1
218900,-66.6666666666667,4,2,6,85,0,1
219200,-66.6666666666667,4,2,4,85,0,1
219500,-66.6666666666667,4,2,5,85,0,1
219800,-66.6666666666667,4,2,9,85,0,1
220000,-66.6666666666667,4,2,2,85,0,1
220100,-66.6666666666667,4,2,6,85,0,1
220400,-66.6666666666667,4,2,4,85,0,1
220700,-66.6666666666667,4,2,5,85,0,1
221000,-66.6666666666667,4,2,9,85,0,1
221600,-66.6666666666667,4,2,3,85,0,1
221900,-66.6666666666667,4,2,6,85,0,1
222800,-66.6666666666667,4,2,9,85,0,1
223300,-66.6666666666667,4,2,2,85,0,1
223400,-66.6666666666667,4,2,8,85,0,1
223600,-66.6666666666667,4,2,2,85,0,1
223700,-66.6666666666667,4,2,6,85,0,1
224000,-66.6666666666667,4,2,9,85,0,1
224300,-66.6666666666667,4,2,5,85,0,1
224600,-66.6666666666667,4,2,9,85,0,1
224800,-66.6666666666667,4,2,2,85,0,1
224900,-66.6666666666667,4,2,6,85,0,1
225200,-66.6666666666667,4,2,9,85,0,1
225500,-66.6666666666667,4,2,6,85,0,1
225700,-66.6666666666667,4,2,2,85,0,1
225800,-66.6666666666667,4,2,9,85,0,1
226000,-66.6666666666667,4,2,2,85,0,1
226100,-66.6666666666667,4,2,6,85,0,1
226400,-66.6666666666667,4,2,9,85,0,1
226700,-66.6666666666667,4,2,6,85,0,1
226900,-66.6666666666667,4,2,1,85,0,1
227000,-66.6666666666667,4,2,4,85,0,1
227900,-66.6666666666667,4,2,5,85,0,1
228100,-66.6666666666667,4,2,1,85,0,1
228200,-66.6666666666667,4,2,8,85,0,1
228400,-66.6666666666667,4,2,2,85,0,1
228500,-66.6666666666667,4,2,8,85,0,1
228700,-66.6666666666667,4,2,2,85,0,1
228800,-66.6666666666667,4,2,12,85,0,1
229000,-66.6666666666667,4,2,1,85,0,1
229100,-66.6666666666667,4,2,7,85,0,1
229400,-66.6666666666667,4,2,8,85,0,1
229600,-66.6666666666667,4,2,7,85,0,1
229900,-66.6666666666667,4,2,1,85,0,1
230000,-66.6666666666667,4,2,7,85,0,1
230300,-66.6666666666667,4,2,8,85,0,1
230500,-66.6666666666667,4,2,2,85,0,1
230600,-66.6666666666667,4,2,8,85,0,1
230800,-66.6666666666667,4,2,7,85,0,1
231100,-66.6666666666667,4,2,1,85,0,1
231200,-66.6666666666667,4,2,7,85,0,1
231500,-66.6666666666667,4,2,8,85,0,1
231700,-66.6666666666667,4,2,2,85,0,1
231800,-66.6666666666667,4,2,2,65,0,1
232100,-66.6666666666667,4,2,1,65,0,1
232600,-66.6666666666667,4,2,4,65,0,1
233000,-66.6666666666667,4,2,2,60,0,0
234200,-166.666666666667,4,2,2,60,0,0

[Colours]
Combo1 : 174,174,174
Combo2 : 100,0,200
Combo3 : 0,0,255

[HitObjects]
256,193,4400,5,2,1:2:0:0:
256,193,4700,1,2,2:2:0:0:
256,193,5000,6,0,P|312:213|373:228,1,120,10|8,3:2|2:2,0:0:0:0:
209,379,5500,1,2,3:2:0:0:
209,379,5600,2,0,P|171:355|172:306,1,80,8|2,1:2|2:2,0:0:0:0:
234,277,5900,2,0,P|272:301|271:350,1,80,10|2,2:2|3:2,0:0:0:0:
165,322,6200,6,0,P|102:306|23:295,2,120,10|10|10,2:2|3:2|1:2,0:0:0:0:
54,114,7300,1,2,2:2:0:0:
54,114,7400,6,0,P|69:150|77:189,1,80,10|2,2:2|2:2,0:0:0:0:
174,145,7700,2,0,P|158:181|150:221,1,80,10|2,2:2|2:2,0:0:0:0:
127,80,8000,1,10,1:2:0:0:
254,161,8200,2,0,P|311:143|370:134,1,120,2|2,3:2|3:2,0:0:0:0:
437,88,8600,1,10,2:2:0:0:
404,275,8900,2,0,P|372:251|369:212,1,80,10|2,3:2|2:2,0:0:0:0:
441,176,9200,1,10,1:2:0:0:
186,4,9700,1,2,2:2:0:0:
186,4,9800,6,0,P|171:41|165:80,1,80,10|0,3:2|0:0,0:0:0:0:
74,55,10100,2,0,P|88:92|94:131,1,80,10|2,2:2|3:2,0:0:0:0:
233,192,10400,2,0,P|213:160|174:155,1,80,10|2,1:2|2:2,0:0:0:0:
110,275,10700,2,0,P|130:241|168:236,1,80,10|2,2:2|3:2,0:0:0:0:
289,256,11000,6,0,P|274:293|268:332,1,80,10|2,2:2|2:2,0:0:0:0:
208,382,11300,1,10,3:2:0:0:
349,326,11500,1,2,2:2:0:0:
349,326,11600,1,8,1:2:0:0:
287,59,12100,1,2,2:2:0:0:
287,59,12200,6,0,P|301:116|302:134,1,59.9999999999999,10|2,2:2|2:2,0:0:0:0:
316,127,12500,1,10,2:2:0:0:
393,156,12700,1,2,2:2:0:0:
393,156,12800,2,0,P|379:213|378:231,1,59.9999999999999,10|2,1:2|3:2,0:0:0:0:
364,224,13100,1,10,2:2:0:0:
289,256,13300,1,2,3:2:0:0:
289,256,13400,2,0,P|247:240|238:188,2,89.9999999999998,10|10|8,2:2|3:2|1:2,0:0:0:0:
50,25,14500,1,2,2:2:0:0:
50,25,14600,6,0,P|60:63|66:103,1,80,10|2,3:2|2:2,0:0:0:0:
133,188,14900,2,0,P|138:148|149:109,1,80,10|2,2:2|3:2,0:0:0:0:
216,38,15200,2,0,P|272:46|290:100,1,120,10|10,1:2|2:2,0:0:0:0:
393,8,15700,1,2,3:2:0:0:
391,8,15800,2,0,P|375:44|365:83,1,80,10|2,2:2|2:2,0:0:0:0:
290,100,16100,2,0,P|307:157|318:216,2,120,10|8|8,3:2|1:2|2:2,0:0:0:0:
399,214,16900,1,2,2:2:0:0:
399,214,17000,6,0,P|431:194|436:155,1,80,10|2,2:2|2:2,0:0:0:0:
377,100,17300,1,10,2:2:0:0:
245,228,17500,1,2,2:2:0:0:
244,228,17600,2,0,P|205:238|165:244,1,80,10|0,1:2|3:3,0:0:0:0:
121,307,17900,2,0,P|82:296|43:290,1,80,10|0,2:2|3:3,0:0:0:0:
0,226,18200,1,10,2:2:0:0:
173,367,18500,2,0,P|229:364|249:311,2,120,10|8|8,3:2|1:2|2:2,0:0:0:0:
364,295,19300,1,2,2:2:0:0:
364,295,19400,6,0,P|344:263|305:258,1,80,10|0,3:2|0:0,0:0:0:0:
249,311,19700,1,10,2:2:0:0:
453,302,19900,1,2,3:2:0:0:
452,302,20000,2,0,P|433:337|424:376,1,80,10|2,1:2|2:2,0:0:0:0:
347,384,20300,1,10,2:2:0:0:
512,249,20500,1,2,3:2:0:0:
511,249,20600,6,0,P|492:213|483:174,1,80,10|2,2:2|2:2,0:0:0:0:
512,101,20900,1,10,3:2:0:0:
361,163,21100,1,2,2:2:0:0:
361,163,21200,2,0,P|381:131|420:126,1,80,10|2,1:2|2:2,0:0:0:0:
483,174,21500,1,10,2:2:0:0:
317,62,21700,1,2,2:2:0:0:
317,62,21800,6,0,B|202:62|260:144|147:144,1,200,10|2,2:2|2:2,0:0:0:0:
93,196,22400,2,0,P|66:167|70:128,1,80,10|2,1:2|3:2,0:0:0:0:
122,70,22700,1,10,2:2:0:0:
216,266,22900,1,2,3:2:0:0:
216,266,23000,5,10,2:2:0:0:
330,231,23300,1,8,3:2:0:0:
295,117,23600,1,10,1:2:0:0:
181,152,23900,1,8,2:2:0:0:
255,194,24100,1,0,0:0:0:0:
255,194,24200,5,14,3:2:0:0:
171,160,28900,5,2,2:2:0:0:
161,147,29000,2,0,P|189:108|237:110,1,100,10|2,3:2|2:2,0:0:0:0:
280,44,29300,2,0,P|267:108|255:200,2,150,10|10|10,2:2|1:2|2:2,0:0:0:0:
477,133,30100,1,2,3:2:0:0:
480,147,30200,6,0,P|444:187|396:183,1,100,10|2,2:2|2:2,0:0:0:0:
255,191,30500,2,0,P|303:191|333:229,1,100,10|2,3:2|2:2,0:0:0:0:
234,347,30800,1,10,1:2:0:0:
234,347,31100,2,0,P|216:300|204:251,1,100,10|2,2:2|2:2,0:0:0:0:
255,0,31400,5,10,3:2:0:0:
255,0,32000,1,10,1:2:0:0:
256,0,32600,5,10,2:2:0:0:
228,76,32900,1,10,3:2:0:0:
267,140,33200,1,10,1:2:0:0:
250,178,33500,1,10,2:2:0:0:
256,192,33800,5,10,3:2:0:0:
256,192,34400,1,10,3:2:0:0:
256,192,35000,1,10,3:2:0:0:
169,18,35300,6,0,B|191:-7|227:-7|227:-7|200:3|189:30,1,120,2|0,2:2|0:0,0:0:0:0:
134,86,35600,2,0,P|77:107|18:117,1,120,2|2,2:2|2:2,0:0:0:0:
190,144,35900,1,2,2:2:0:0:
342,201,36100,5,2,2:2:0:0:
391,138,36200,2,0,P|367:210|355:284,1,150,6|2,3:2|2:2,0:0:0:0:
170,242,36500,2,0,B|232:228|276:278|276:278|278:340|332:360,1,225,10|0,2:2|1:1,0:0:0:0:
109,192,37000,2,0,P|45:215|65:280,1,150,2|0,2:2|0:0,0:0:0:0:
135,114,37300,1,2,3:2:0:0:
152,122,37400,6,0,P|222:97|296:82,1,150,2|2,2:2|2:2,0:0:0:0:
464,98,37700,2,0,B|380:113|362:49|374:58|357:-8|278:7,1,225,10|0,3:2|1:1,0:0:0:0:
54,25,38200,1,2,2:2:0:0:
62,38,38300,2,0,P|43:110|29:184,1,150,10|2,2:2|2:2,0:0:0:0:
65,280,38600,5,2,3:2:0:0:
206,333,38800,5,2,2:2:0:0:
184,341,38900,1,10,2:2:0:0:
248,208,39100,5,2,3:2:0:0:
320,241,39200,2,0,P|383:209|373:140,1,150,2|2,1:2|2:2,0:0:0:0:
289,312,39500,1,10,2:2:0:0:
311,94,39700,6,0,P|347:201|375:310,1,225,2|0,3:2|0:0,0:0:0:0:
483,135,40100,2,0,P|463:207|449:281,1,150,8|0,3:2|0:0,0:0:0:0:
440,68,40400,5,4,1:2:0:0:
316,11,40600,5,0,0:0:0:0:
298,18,40700,1,8,2:2:0:0:
196,114,40900,5,2,2:2:0:0:
129,69,41000,2,0,B|40:79|89:122|0:133,1,150,6|2,3:2|2:2,0:0:0:0:
174,1,41300,1,10,2:2:0:0:
98,177,41500,1,2,3:2:0:0:
113,184,41600,2,0,P|136:255|153:328,1,150,2|2,1:2|2:2,0:0:0:0:
0,384,41900,2,0,P|0:314|67:298,1,150,10|0,2:2|3:3,0:0:0:0:
220,373,42200,6,0,B|304:388|322:324|310:333|327:267|406:282,1,225,2|10,2:2|3:2,0:0:0:0:
316,135,42700,1,2,2:2:0:0:
325,125,42800,2,0,P|398:142|392:210,1,150,2|2,1:2|2:2,0:0:0:0:
405,281,43100,1,10,2:2:0:0:
185,133,43300,5,2,2:2:0:0:
250,176,43400,2,0,P|359:146|463:105,1,225,6|2,3:2|0:0,0:0:0:0:
417,19,43900,5,2,3:2:0:0:
427,37,44000,1,6,1:2:0:0:
278,0,44200,5,0,0:0:0:0:
252,73,44300,1,4,1:2:0:0:
62,46,44500,6,0,B|133:59|133:59|175:113|168:173|114:194,1,225,2|2,0:0|1:2,0:0:0:0:
0,100,44900,1,10,2:3:0:0:
59,260,45100,5,2,0:0:0:0:
77,265,45200,1,2,1:2:0:0:
204,302,45400,5,10,1:3:0:0:
233,289,45500,1,6,2:3:0:0:
357,217,45700,5,2,2:2:0:0:
430,241,45800,2,0,P|456:311|471:384,1,150,6|2,3:2|2:2,0:0:0:0:
506,117,46100,2,0,P|400:119|356:216,1,225,10|4,2:2|1:2,0:0:0:0:
209,37,46600,2,0,P|279:31|310:94,1,150,2|0,2:2|0:0,0:0:0:0:
178,257,46900,1,2,3:2:0:0:
191,241,47000,6,0,P|177:167|154:96,1,150,2|2,2:2|2:2,0:0:0:0:
9,266,47300,2,0,B|71:252|115:302|115:302|117:364|171:384,1,225,10|0,3:2|1:1,0:0:0:0:
322,319,47800,1,2,2:2:0:0:
334,310,47900,2,0,P|347:236|370:165,1,150,10|2,2:2|2:2,0:0:0:0:
264,254,48200,5,2,3:2:0:0:
462,269,48400,2,0,B|378:284|360:220|372:229|355:163|276:178,1,225,2|2,2:2|3:2,0:0:0:0:
209,37,48800,2,0,P|279:31|310:94,1,150,2|2,1:2|2:2,0:0:0:0:
200,201,49100,1,10,2:2:0:0:
376,33,49300,6,0,P|269:69|160:94,1,225,2|2,3:2|2:2,0:0:0:0:
193,186,49700,2,0,P|120:165|47:151,1,150,10|2,3:2|2:2,0:0:0:0:
101,46,50000,1,6,1:2:0:0:
16,221,50200,5,2,2:2:0:0:
23,238,50300,1,10,2:2:0:0:
146,375,50500,5,2,2:2:0:0:
187,312,50600,2,0,P|262:319|281:389,1,150,6|2,3:2|2:2,0:0:0:0:
463,254,50900,2,0,P|392:258|368:324,1,150,10|2,2:2|3:2,0:0:0:0:
194,304,51200,2,0,P|268:311|287:381,1,150,2|2,1:2|2:2,0:0:0:0:
456,248,51500,2,0,P|385:252|361:318,1,150,10|2,2:2|3:2,0:0:0:0:
421,370,51800,5,2,2:2:0:0:
296,236,52000,1,2,2:2:0:0:
280,228,52100,2,0,P|253:157|235:84,1,150,10|2,3:2|2:2,0:0:0:0:
44,118,52400,2,0,B|133:91|167:42|167:42|148:81|162:117,1,225,2|10,1:2|2:2,0:0:0:0:
397,30,52900,1,2,2:2:0:0:
383,20,53000,6,0,P|358:103|346:181,1,150,0|2,3:3|2:2,0:0:0:0:
423,165,53300,1,0,0:0:0:0:
248,297,53500,1,2,3:2:0:0:
296,236,53600,2,0,B|379:257|323:294|416:315,1,150,6|2,1:2|2:2,0:0:0:0:
231,189,53900,1,2,2:2:0:0:
69,282,54100,5,2,1:2:0:0:
76,268,54200,2,0,P|146:266|171:332,1,150,2|2,0:0|2:2,0:0:0:0:
116,382,54500,1,2,3:2:0:0:
310,351,54700,5,2,2:2:0:0:
328,361,54800,1,2,1:2:0:0:
442,382,55000,5,8,1:3:0:0:
511,347,55100,2,0,P|507:277|438:264,1,150,6|0,2:3|0:0,0:0:0:0:
219,382,55400,6,0,P|307:359|390:325,1,180,6|8,3:2|2:2,0:0:0:0:
429,159,55900,1,0,3:3:0:0:
417,148,56000,2,0,P|365:172|365:229,1,120,2|0,1:2|0:0,0:0:0:0:
434,266,56300,1,8,2:2:0:0:
300,129,56500,1,0,3:3:0:0:
286,139,56600,6,0,B|176:148|242:200|127:211,2,180,2|10|2,2:2|3:2|1:2,0:0:0:0:
286,139,57500,1,10,2:2:0:0:
5,232,57800,6,0,P|60:243|68:299,1,120,2|0,3:2|0:0,0:0:0:0:
26,360,58100,1,10,2:2:0:0:
248,319,58300,1,2,3:2:0:0:
241,306,58400,2,0,P|157:303|137:384,1,180,2|10,1:2|2:2,0:0:0:0:
311,273,58900,1,0,3:3:0:0:
324,286,59000,6,0,P|394:313|472:330,1,120,2|0,2:2|0:0,0:0:0:0:
502,280,59300,1,8,3:2:0:0:
446,56,59600,2,0,P|391:73|384:129,1,120,4|0,1:2|0:0,0:0:0:0:
450,175,59900,1,10,2:3:0:0:
310,56,60100,1,4,2:3:0:0:
248,107,60200,6,0,B|141:95|208:30|103:16,1,180,6|8,3:2|2:2,0:0:0:0:
284,180,60700,1,0,3:3:0:0:
267,185,60800,2,0,P|241:239|221:295,1,120,2|0,1:2|0:0,0:0:0:0:
241,372,61100,1,8,2:2:0:0:
49,328,61300,1,0,3:3:0:0:
38,317,61400,6,0,P|63:244|161:264,1,180,2|10,2:2|3:2,0:0:0:0:
33,47,62000,2,0,P|56:102|71:160,1,120,2|0,1:2|0:0,0:0:0:0:
187,21,62300,2,0,P|163:76|148:134,1,120,10|0,2:2|0:0,0:0:0:0:
266,184,62600,6,0,P|350:169|374:87,1,180,0|10,3:3|2:2,0:0:0:0:
512,262,63100,1,0,3:3:0:0:
498,272,63200,2,0,P|440:273|411:224,1,120,6|0,1:2|0:0,0:0:0:0:
463,113,63500,1,6,1:2:0:0:
352,303,63700,6,0,P|264:324|182:360,1,180,0|0,3:3|1:1,0:0:0:0:
43,241,64100,1,2,3:2:0:0:
84,239,64200,1,2,2:2:0:0:
110,275,64300,1,2,2:2:0:0:
96,317,64400,2,0,P|81:258|62:201,1,120,2|10,1:2|1:3,0:0:0:0:
189,271,64700,2,0,P|203:212|222:155,1,120,6|0,2:3|0:0,0:0:0:0:
68,25,65000,6,0,P|67:107|149:119,1,180,6|8,3:2|2:2,0:0:0:0:
300,20,65500,1,0,3:3:0:0:
314,29,65600,2,0,P|335:84|349:143,1,120,2|0,1:2|0:0,0:0:0:0:
293,196,65900,1,8,2:2:0:0:
479,63,66100,1,0,3:3:0:0:
463,69,66200,6,0,P|427:167|408:274,2,180,2|10|2,2:2|3:2|1:2,0:0:0:0:
463,69,67100,1,10,2:2:0:0:
429,320,67400,6,0,P|484:309|492:253,1,120,2|0,3:2|0:0,0:0:0:0:
443,192,67700,1,10,2:2:0:0:
255,297,67900,1,2,3:2:0:0:
248,282,68000,2,0,P|330:292|337:375,1,180,2|10,1:2|2:2,0:0:0:0:
180,240,68500,1,0,3:3:0:0:
171,256,68600,6,0,P|115:277|56:287,1,120,2|0,2:2|0:0,0:0:0:0:
0,231,68900,1,8,3:2:0:0:
198,157,69200,2,0,P|179:103|122:99,1,120,4|0,1:2|0:0,0:0:0:0:
72,162,69500,1,2,2:2:0:0:
238,50,69700,1,0,1:1:0:0:
295,108,69800,6,0,B|345:89|389:124|389:124|400:167|440:180,1,180,6|10,3:2|2:2,0:0:0:0:
310,350,70300,1,2,3:2:0:0:
324,342,70400,2,0,P|345:286|360:228,1,120,0|2,1:1|2:2,0:0:0:0:
470,384,70700,2,0,P|448:327|433:269,1,120,10|2,2:2|3:2,0:0:0:0:
272,234,71000,6,0,P|187:235|160:315,1,180,2|10,2:2|3:2,0:0:0:0:
40,140,71500,1,2,2:2:0:0:
45,129,71600,2,0,P|120:151|123:189,1,120,0|2,1:1|2:2,0:0:0:0:
80,246,71900,1,10,2:2:0:0:
159,66,72100,1,2,2:2:0:0:
174,71,72200,6,0,P|232:60|289:40,1,120,2|2,3:2|2:2,0:0:0:0:
344,175,72500,2,0,P|287:155|229:145,1,120,4|2,1:2|2:2,0:0:0:0:
490,183,72800,2,0,B|422:177|407:222|417:216|403:260|336:255,1,180,4|2,1:2|2:2,0:0:0:0:
167,373,73300,5,10,2:3:0:0:
184,367,73400,1,2,2:2:0:0:
276,311,73600,5,4,2:3:0:0:
293,317,73700,1,4,2:3:0:0:
393,362,73900,5,0,0:0:0:0:
411,353,74000,2,0,P|428:296|436:237,1,120,2|0,1:2|1:1,0:0:0:0:
384,103,74300,1,10,2:2:0:0:
168,200,74600,6,0,P|111:191|89:138,1,120,10|8,3:2|2:2,0:0:0:0:
315,0,75100,1,2,3:2:0:0:
315,0,75200,2,0,P|305:38|298:78,1,80,10|2,1:2|2:2,0:0:0:0:
212,54,75500,2,0,P|221:92|228:132,1,80,10|2,2:2|3:2,0:0:0:0:
359,200,75800,2,0,P|340:165|302:156,1,80,10|2,2:2|2:2,0:0:0:0:
232,273,76100,2,0,P|269:264|288:230,1,80,10|2,3:2|2:2,0:0:0:0:
228,132,76400,1,10,1:2:0:0:
244,357,76900,1,2,2:2:0:0:
244,357,77000,6,0,P|206:344|166:338,1,80,10|2,2:2|2:2,0:0:0:0:
139,264,77300,2,0,P|101:276|61:282,1,80,10|2,2:2|2:2,0:0:0:0:
10,339,77600,1,10,1:2:0:0:
79,200,77800,1,0,3:3:0:0:
79,200,77900,1,10,2:2:0:0:
11,41,78100,1,2,3:2:0:0:
11,41,78200,6,0,P|35:71|73:80,1,80,10|2,2:2|2:2,0:0:0:0:
129,136,78500,2,0,P|167:127|191:96,1,80,10|2,3:2|2:2,0:0:0:0:
248,44,78800,2,0,P|306:58|365:67,1,120,10|10,1:2|2:2,0:0:0:0:
512,3,79400,5,10,3:2:0:0:
347,293,79900,1,2,3:2:0:0:
347,293,80000,2,0,P|317:269|308:231,1,80,10|2,1:2|2:2,0:0:0:0:
376,188,80300,2,0,P|406:212|415:250,1,80,10|2,2:2|3:2,0:0:0:0:
487,282,80600,6,0,P|444:284|436:369,1,120,10|8,2:2|3:2,0:0:0:0:
269,383,81100,1,2,2:2:0:0:
268,382,81200,2,0,P|230:369|190:363,1,80,10|0,1:2|0:0,0:0:0:0:
153,293,81500,2,0,P|192:286|230:274,1,80,10|0,2:2|0:0,0:0:0:0:
80,73,83600,5,2,1:2:0:0:
205,158,83800,5,2,1:2:0:0:
190,165,83900,1,10,2:3:0:0:
309,64,84100,5,6,2:3:0:0:
378,102,84200,2,0,P|443:78|436:9,1,150,14|8,3:2|2:2,0:0:0:0:
312,158,84700,1,2,3:2:0:0:
325,163,84800,2,0,P|344:227|350:266,1,100,10|2,1:2|2:2,0:0:0:0:
441,221,85100,2,0,P|422:285|416:324,1,100,10|2,2:2|3:2,0:0:0:0:
512,201,85400,5,10,2:2:0:0:
289,312,85600,2,0,B|200:296|256:256|162:240,1,150,2|2,2:2|2:2,0:0:0:0:
45,237,86000,2,0,P|88:216|96:169,1,100,10|2,1:2|2:2,0:0:0:0:
115,59,86300,2,0,P|158:79|166:126,1,100,10|2,2:2|2:2,0:0:0:0:
49,105,86600,5,10,3:2:0:0:
256,195,86800,2,0,B|344:179|288:139|382:123,1,150,2|2,2:2|3:2,0:0:0:0:
458,147,87200,1,10,1:2:0:0:
356,39,87400,5,2,2:2:0:0:
341,46,87500,1,10,2:2:0:0:
166,126,87700,5,2,3:2:0:0:
227,78,87800,2,0,P|216:43|206:23,2,50,10|2|2,2:2|2:2|2:2,0:0:0:0:
76,211,88100,6,0,P|85:188|92:164,2,50,10|2|2,3:2|2:2|2:2,0:0:0:0:
250,238,88400,5,10,1:2:0:0:
205,229,88500,1,2,2:2:0:0:
170,258,88600,1,2,2:2:0:0:
174,302,88700,2,0,P|198:295|220:285,2,50,10|2|2,2:2|2:2|2:2,0:0:0:0:
101,380,89000,5,10,3:2:0:0:
306,296,89200,2,0,B|394:311|338:351|432:367,1,150,2|2,2:2|3:2,0:0:0:0:
451,203,89600,2,0,P|403:199|382:241,1,100,10|2,1:2|2:2,0:0:0:0:
242,340,89900,2,0,P|194:343|173:301,1,100,10|2,2:2|3:2,0:0:0:0:
269,134,90200,6,0,P|289:206|301:280,1,150,10|10,2:2|3:2,0:0:0:0:
190,94,90700,1,2,2:2:0:0:
179,108,90800,2,0,P|121:127|68:133,1,100,8|2,1:2|2:2,0:0:0:0:
316,68,91100,2,0,P|374:87|427:93,1,100,8|2,2:2|2:2,0:0:0:0:
389,221,91400,6,0,B|455:229|504:175|490:105|490:105|489:140|452:160,1,250,2|2,3:2|3:2,0:0:0:0:
375,213,92000,2,0,B|256:212|326:283|196:285,1,200,2|0,1:2|0:0,0:0:0:0:
61,335,92500,5,2,3:2:0:0:
56,308,92600,1,2,2:2:0:0:
151,201,92800,5,2,2:2:0:0:
144,218,92900,1,10,3:3:0:0:
76,111,93100,5,2,2:2:0:0:
69,98,93200,2,0,P|90:52|152:53,1,100,2|10,1:2|2:3,0:0:0:0:
203,4,93500,2,0,P|250:13|270:57,1,100,6|0,2:3|0:0,0:0:0:0:
256,192,93800,5,14,3:2:0:0:
88,46,98300,5,10,2:2:0:0:
219,73,98500,1,2,2:2:0:0:
207,63,98600,2,0,P|161:77|149:124,1,100,10|2,3:2|2:2,0:0:0:0:
93,174,98900,2,0,P|157:161|249:149,2,150,10|10|10,2:2|1:2|2:2,0:0:0:0:
47,327,99700,1,2,3:2:0:0:
39,311,99800,6,0,P|60:268|108:264,1,100,10|2,2:2|2:2,0:0:0:0:
231,370,100100,2,0,P|183:366|161:323,1,100,10|2,3:2|2:2,0:0:0:0:
300,334,100400,2,0,P|360:297|348:228,1,150,10|10,1:2|2:2,0:0:0:0:
509,158,100900,1,2,2:2:0:0:
497,149,101000,6,0,P|448:161|399:169,1,100,10|0,3:2|0:0,0:0:0:0:
278,78,101300,2,0,P|326:90|375:98,1,100,10|0,1:2|0:0,0:0:0:0:
198,95,101600,2,0,P|159:122|169:168,1,100,10|0,1:2|0:0,0:0:0:0:
273,256,101900,1,10,1:2:0:0:
69,342,102100,1,10,2:3:0:0:
54,349,102200,6,0,P|15:321|25:275,1,100,8|0,2:2|1:1,0:0:0:0:
193,311,102500,2,0,P|203:357|164:384,1,100,14|0,2:3|0:0,0:0:0:0:
15,177,102800,1,10,1:2:0:0:
105,271,103000,1,0,1:1:0:0:
123,266,103100,1,10,2:2:0:0:
245,188,103300,1,0,0:0:0:0:
256,192,103400,6,0,L|256:245,2,29.9999999999999,10|2|2,3:2|2:2|2:2,0:0:0:0:
256,192,104000,2,0,L|301:165,2,29.9999999999999,10|2|2,3:2|2:2|2:2,0:0:0:0:
256,192,104600,2,0,L|210:165,2,29.9999999999999,10|2|2,3:2|2:2|2:2,0:0:0:0:
153,30,104900,6,0,B|104:32|90:76|90:76|112:49|149:48,1,150,2|0,2:2|0:0,0:0:0:0:
224,60,105200,2,0,P|295:85|368:102,1,150,10|2,2:2|2:2,0:0:0:0:
511,271,105500,1,10,2:3:0:0:
510,79,105700,5,6,2:3:0:0:
455,136,105800,2,0,P|393:105|419:40,1,150,6|2,3:2|2:2,0:0:0:0:
360,296,106100,2,0,P|463:305|489:205,1,225,10|0,2:2|1:1,0:0:0:0:
294,248,106600,1,2,2:2:0:0:
283,258,106700,2,0,P|194:275|117:281,1,150,10|2,2:2|3:2,0:0:0:0:
4,168,107000,6,0,P|72:181|59:257,1,150,2|2,2:2|2:2,0:0:0:0:
143,372,107300,2,0,P|211:359|198:283,1,150,10|0,3:2|0:0,0:0:0:0:
62,324,107600,5,2,1:2:0:0:
202,177,107800,5,2,2:2:0:0:
210,195,107900,1,10,2:2:0:0:
60,88,108100,5,2,2:2:0:0:
110,28,108200,2,0,P|182:49|256:63,1,150,2|2,3:2|2:2,0:0:0:0:
426,101,108500,2,0,P|352:114|280:136,1,150,10|2,2:2|3:2,0:0:0:0:
210,303,108800,2,0,P|280:287|293:215,1,150,2|2,1:2|2:2,0:0:0:0:
141,118,109100,1,10,2:2:0:0:
351,326,109300,6,0,P|245:287|134:268,1,225,2|0,3:2|0:0,0:0:0:0:
402,384,109700,2,0,P|470:346|444:285,1,150,8|0,3:2|0:0,0:0:0:0:
414,220,110000,1,4,1:2:0:0:
351,73,110200,5,0,0:0:0:0:
343,90,110300,1,8,2:2:0:0:
199,168,110500,5,2,2:2:0:0:
141,118,110600,2,0,B|52:128|101:171|12:182,1,150,6|2,3:2|2:2,0:0:0:0:
179,54,110900,1,10,2:2:0:0:
309,209,111100,1,2,3:2:0:0:
293,216,111200,2,0,P|271:288|259:362,1,150,2|2,1:2|2:2,0:0:0:0:
122,323,111500,2,0,P|109:249|88:177,1,150,10|0,2:2|3:3,0:0:0:0:
357,152,111800,6,0,B|403:126|467:144|493:194|493:194|485:230|513:254,1,225,2|10,2:2|3:2,0:0:0:0:
509,34,112300,1,2,2:2:0:0:
499,21,112400,2,0,P|427:42|422:109,1,150,2|2,1:2|2:2,0:0:0:0:
490,143,112700,1,10,2:2:0:0:
280,30,112900,5,2,2:2:0:0:
226,85,113000,2,0,P|119:121|8:138,1,225,6|2,3:2|0:0,0:0:0:0:
171,305,113500,5,2,3:2:0:0:
178,290,113600,1,6,1:2:0:0:
339,164,113800,5,2,0:0:0:0:
356,239,113900,1,6,1:2:0:0:
512,266,114100,6,0,B|450:252|406:302|406:302|404:364|350:384,1,225,2|2,0:0|1:2,0:0:0:0:
479,340,114500,1,10,2:3:0:0:
279,215,114700,5,2,0:0:0:0:
263,221,114800,1,2,1:2:0:0:
133,330,115000,5,10,1:3:0:0:
106,321,115100,1,6,2:3:0:0:
74,165,115300,5,2,2:2:0:0:
120,225,115400,2,0,P|183:193|176:122,1,150,6|2,3:2|2:2,0:0:0:0:
84,53,115700,2,0,B|65:20|41:2|41:2|87:33|190:50,1,225,10|4,2:2|1:2,0:0:0:0:
348,51,116200,1,2,2:2:0:0:
338,37,116300,2,0,P|270:55|268:125,1,150,10|2,2:2|3:2,0:0:0:0:
461,264,116600,5,2,2:2:0:0:
322,181,116800,1,2,2:2:0:0:
334,168,116900,2,0,P|374:272|400:382,1,225,10|0,3:2|1:1,0:0:0:0:
137,249,117400,1,2,2:2:0:0:
151,234,117500,2,0,P|224:248|295:271,1,150,10|2,2:2|2:2,0:0:0:0:
107,171,117800,5,2,3:2:0:0:
264,107,118000,5,2,2:2:0:0:
267,124,118100,1,10,2:2:0:0:
379,223,118300,5,2,3:2:0:0:
426,162,118400,2,0,P|492:181|489:250,1,150,2|2,1:2|2:2,0:0:0:0:
384,366,118700,1,10,2:2:0:0:
502,94,118900,6,0,P|463:199|444:310,1,225,2|2,3:2|2:2,0:0:0:0:
241,381,119300,2,0,P|257:312|327:307,1,150,10|2,3:2|2:2,0:0:0:0:
459,384,119600,5,6,1:2:0:0:
338,209,119800,5,2,2:2:0:0:
331,224,119900,1,10,2:2:0:0:
122,273,120100,5,2,2:2:0:0:
151,343,120200,2,0,P|164:269|182:196,1,150,6|2,3:2|2:2,0:0:0:0:
36,364,120500,2,0,P|22:290|4:217,1,150,10|2,2:2|3:2,0:0:0:0:
156,348,120800,2,0,P|169:274|187:201,1,150,2|2,1:2|2:2,0:0:0:0:
31,369,121100,2,0,P|17:295|0:222,1,150,10|2,2:2|3:2,0:0:0:0:
115,21,121400,5,2,2:2:0:0:
347,103,121600,1,2,2:2:0:0:
337,93,121700,2,0,P|273:121|281:191,1,150,10|2,3:2|2:2,0:0:0:0:
137,137,122000,6,0,B|196:105|250:147|250:147|262:208|315:219,1,225,2|10,1:2|2:2,0:0:0:0:
383,335,122500,1,2,2:2:0:0:
372,321,122600,6,0,P|385:247|407:175,1,150,2|2,3:2|2:2,0:0:0:0:
472,141,122900,1,0,0:0:0:0:
299,301,123100,1,2,3:2:0:0:
286,293,123200,2,0,B|203:314|259:351|166:372,1,150,2|2,1:2|2:2,0:0:0:0:
97,334,123500,1,2,2:2:0:0:
16,100,123700,5,2,1:2:0:0:
23,86,123800,2,0,P|93:84|118:150,1,150,0|2,0:0|2:2,0:0:0:0:
74,212,124100,1,2,3:2:0:0:
296,42,124300,5,2,2:2:0:0:
289,28,124400,2,0,P|219:26|194:92,1,150,2|2,3:2|1:2,0:0:0:0:
251,146,124700,1,2,1:2:0:0:
253,187,124800,1,0,1:1:0:0:
217,213,124900,1,0,1:1:0:0:
175,199,125000,6,0,P|234:184|291:165,1,120,6|0,3:2|0:0,0:0:0:0:
431,270,125300,2,0,P|372:255|315:236,1,120,10|0,2:2|3:3,0:0:0:0:
371,69,125600,2,0,P|453:74|462:157,1,180,6|10,1:2|2:2,0:0:0:0:
357,348,126100,1,0,3:3:0:0:
368,358,126200,6,0,P|420:334|425:277,1,120,2|0,2:2|0:0,0:0:0:0:
386,211,126500,1,10,3:2:0:0:
221,361,126700,1,0,0:0:0:0:
207,372,126800,6,0,B|102:353|162:305|56:285,1,180,2|10,1:2|2:2,0:0:0:0:
138,74,127300,1,0,0:0:0:0:
131,88,127400,6,0,P|190:73|247:54,1,120,2|0,3:2|0:0,0:0:0:0:
426,47,127700,2,0,P|367:32|310:13,1,120,10|0,2:2|3:3,0:0:0:0:
382,174,128000,2,0,P|439:171|462:119,1,120,2|0,1:2|0:0,0:0:0:0:
426,47,128300,1,10,2:2:0:0:
480,238,128500,6,0,P|392:216|303:201,1,180,0|0,3:3|0:0,0:0:0:0:
336,109,128900,2,0,P|279:127|220:142,1,120,10|0,3:2|0:0,0:0:0:0:
25,25,129200,5,6,1:2:0:0:
137,148,129400,5,2,2:2:0:0:
133,166,129500,1,2,2:2:0:0:
43,349,129700,5,2,2:2:0:0:
10,278,129800,2,0,P|69:263|126:244,1,120,6|0,3:2|0:0,0:0:0:0:
275,345,130100,2,0,P|216:330|159:311,1,120,10|0,2:2|3:3,0:0:0:0:
341,384,130400,2,0,P|393:360|395:303,1,120,2|0,1:2|0:0,0:0:0:0:
352,238,130700,1,10,2:2:0:0:
512,249,130900,6,0,P|432:222|440:139,1,180,0|0,3:3|0:0,0:0:0:0:
299,98,131300,2,0,P|358:83|415:64,1,120,10|0,3:2|0:0,0:0:0:0:
184,173,131600,2,0,B|83:165|137:100|31:92,1,180,2|10,1:2|2:2,0:0:0:0:
266,318,132100,5,0,0:0:0:0:
226,384,132200,2,0,P|236:294|252:206,1,180,2|10,3:2|2:2,0:0:0:0:
463,240,132700,5,2,3:2:0:0:
456,223,132800,1,6,1:2:0:0:
348,77,133000,5,2,2:2:0:0:
322,153,133100,1,6,1:2:0:0:
184,173,133300,6,0,B|127:183|127:183|93:226|99:274|142:291,1,180,2|2,3:2|3:2,0:0:0:0:
247,127,133700,1,2,2:2:0:0:
21,14,133900,5,2,3:2:0:0:
37,22,134000,1,6,1:2:0:0:
157,93,134200,5,2,2:2:0:0:
181,82,134300,1,10,2:3:0:0:
332,16,134500,5,2,2:2:0:0:
383,74,134600,2,0,P|366:131|357:190,1,120,6|0,3:2|0:0,0:0:0:0:
475,254,134900,2,0,P|457:196|448:137,1,120,10|0,2:2|3:3,0:0:0:0:
291,230,135200,2,0,P|329:272|385:262,1,120,2|0,1:2|0:0,0:0:0:0:
357,190,135500,1,10,2:2:0:0:
132,377,135700,6,0,P|142:293|225:282,1,180,2|0,3:2|0:0,0:0:0:0:
103,224,136100,2,0,P|90:166|74:108,1,120,10|0,3:2|0:0,0:0:0:0:
227,21,136400,6,0,P|198:106|181:194,1,180,2|10,1:2|2:2,0:0:0:0:
376,139,136900,1,0,0:0:0:0:
382,127,137000,6,0,P|357:75|300:73,1,120,2|0,3:2|0:0,0:0:0:0:
181,194,137300,2,0,P|205:142|262:140,1,120,10|0,2:2|3:3,0:0:0:0:
344,313,137600,2,0,P|329:254|319:195,1,120,2|0,1:2|0:0,0:0:0:0:
376,139,137900,1,10,2:2:0:0:
288,375,138100,6,0,B|395:358|327:300|433:284,1,180,2|0,3:2|0:0,0:0:0:0:
221,329,138500,2,0,P|161:319|103:304,1,120,10|0,3:2|0:0,0:0:0:0:
17,123,138800,5,6,1:2:0:0:
156,234,139000,5,2,2:2:0:0:
165,221,139100,1,2,2:2:0:0:
295,69,139300,5,2,2:2:0:0:
349,129,139400,2,0,B|403:136|403:136|440:181|435:242|371:258,1,180,6|10,3:2|2:2,0:0:0:0:
255,382,139900,1,0,3:3:0:0:
265,371,140000,2,0,P|254:311|238:254,1,120,2|0,1:2|0:0,0:0:0:0:
281,189,140300,1,10,2:2:0:0:
82,222,140500,6,0,P|162:197|159:113,1,180,2|0,3:2|0:0,0:0:0:0:
150,35,140900,2,0,P|94:32|82:86,1,120,10|0,3:2|0:0,0:0:0:0:
238,254,141200,6,0,P|324:228|442:204,1,180,2|10,1:2|2:2,0:0:0:0:
478,71,141700,1,2,2:2:0:0:
464,61,141800,6,0,P|401:88|416:142,1,120,2|0,3:2|0:0,0:0:0:0:
472,261,142100,1,6,1:2:0:0:
326,375,142300,5,2,2:2:0:0:
328,348,142400,1,6,1:2:0:0:
168,255,142600,5,2,2:2:0:0:
174,270,142700,1,2,2:2:0:0:
14,318,142900,6,0,B|126:323|73:378|175:383,1,180,10|10,2:3|1:2,0:0:0:0:
235,339,143300,1,6,2:3:0:0:
116,184,143500,1,2,2:2:0:0:
109,172,143600,2,0,P|39:214|77:265,1,120,2|2,1:2|1:2,0:0:0:0:
167,118,143900,2,0,P|152:59|140:0,1,120,10|0,2:2|0:0,0:0:0:0:
239,151,144200,5,10,3:2:0:0:
469,363,144700,1,2,3:2:0:0:
469,363,144800,2,0,P|459:325|452:285,1,80,8|2,1:2|2:2,0:0:0:0:
366,309,145100,2,0,P|375:271|382:231,1,80,10|2,2:2|3:2,0:0:0:0:
419,117,145400,2,0,P|433:172|489:183,2,120,10|10|10,2:2|3:2|1:2,0:0:0:0:
276,274,146500,1,2,2:2:0:0:
276,274,146600,6,0,P|238:264|198:257,1,80,10|2,2:2|2:2,0:0:0:0:
151,196,146900,2,0,P|112:206|72:213,1,80,10|0,2:2|0:0,0:0:0:0:
26,271,147200,1,10,1:2:0:0:
90,136,147400,1,2,3:2:0:0:
90,136,147500,1,10,2:2:0:0:
231,186,147700,1,2,3:2:0:0:
231,186,147800,6,0,P|283:151|269:94,1,120,10|10,2:2|3:2,0:0:0:0:
177,43,148300,1,2,2:2:0:0:
177,43,148400,1,8,1:2:0:0:
479,46,148900,1,2,2:2:0:0:
479,46,149000,6,0,P|441:55|423:90,1,80,10|0,3:2|0:0,0:0:0:0:
339,145,149300,2,0,P|376:154|394:189,1,80,10|2,2:2|3:2,0:0:0:0:
398,265,149600,1,10,1:2:0:0:
312,382,149800,1,2,2:2:0:0:
312,382,149900,2,0,P|322:343|329:303,1,80,10|2,2:2|3:2,0:0:0:0:
211,219,150200,6,0,P|232:274|241:334,1,120,10|10,2:2|3:2,0:0:0:0:
246,151,150700,1,2,2:2:0:0:
246,151,150800,1,8,1:2:0:0:
53,241,151300,1,2,2:2:0:0:
53,241,151400,6,0,P|67:184|68:166,1,59.9999999999999,10|2,2:2|2:2,0:0:0:0:
82,173,151700,1,10,2:2:0:0:
159,144,151900,1,2,2:2:0:0:
159,144,152000,2,0,P|145:87|144:69,1,59.9999999999999,10|2,1:2|3:2,0:0:0:0:
130,76,152300,1,10,2:2:0:0:
62,44,152500,1,2,3:2:0:0:
62,44,152600,2,0,P|20:60|11:112,2,89.9999999999998,10|10|8,2:2|3:2|1:2,0:0:0:0:
309,146,153700,1,2,2:2:0:0:
309,146,153800,6,0,P|346:136|363:101,1,80,10|2,3:2|2:2,0:0:0:0:
314,42,154100,2,0,P|276:51|259:86,1,80,10|2,2:2|3:2,0:0:0:0:
264,210,154400,2,0,P|287:265|298:323,1,120,10|10,1:2|2:2,0:0:0:0:
471,274,155000,6,0,P|453:239|416:229,1,80,10|2,2:2|2:2,0:0:0:0:
353,279,155300,2,0,P|335:313|298:323,1,80,8|2,3:2|2:2,0:0:0:0:
223,351,155600,2,0,P|184:344|144:339,1,80,10|2,1:2|2:2,0:0:0:0:
42,116,156100,1,2,2:2:0:0:
42,116,156200,6,0,P|76:133|86:170,1,80,10|2,2:2|2:2,0:0:0:0:
157,209,156500,2,0,P|191:192|201:155,1,80,10|2,2:2|2:2,0:0:0:0:
155,90,156800,1,10,1:2:0:0:
276,144,157000,2,0,P|331:121|389:110,1,120,2|2,3:2|3:2,0:0:0:0:
420,39,157400,6,0,P|454:56|464:93,1,80,10|2,2:2|2:2,0:0:0:0:
512,150,157700,2,0,P|503:188|469:206,1,80,10|2,3:2|2:2,0:0:0:0:
409,254,158000,1,8,1:2:0:0:
201,177,158500,1,2,2:2:0:0:
201,177,158600,6,0,P|208:216|213:256,1,80,10|2,3:2|2:2,0:0:0:0:
175,323,158900,1,10,2:2:0:0:
298,228,159100,1,2,3:2:0:0:
298,228,159200,2,0,P|291:267|286:307,1,80,10|2,1:2|2:2,0:0:0:0:
319,375,159500,2,0,P|353:357|362:319,1,80,10|2,2:2|3:2,0:0:0:0:
217,384,159800,6,0,P|160:362|102:349,1,120,10|10,2:2|3:2,0:0:0:0:
0,384,160300,1,2,2:2:0:0:
0,384,160400,1,8,1:2:0:0:
60,53,161000,6,0,B|96:73|132:91|132:91|113:152|103:222,1,200,10|2,2:2|2:2,0:0:0:0:
91,281,161600,2,0,P|53:275|36:240,1,80,10|2,1:2|3:2,0:0:0:0:
37,160,161900,1,10,2:2:0:0:
216,266,162100,1,0,3:3:0:0:
216,266,162200,5,10,2:2:0:0:
330,231,162500,1,10,3:2:0:0:
295,117,162800,1,10,1:2:0:0:
181,152,163100,1,8,2:2:0:0:
255,194,163300,1,0,0:0:0:0:
255,194,163400,5,2,2:2:0:0:
333,212,163700,1,2,2:2:0:0:
397,171,164000,1,2,2:2:0:0:
461,217,164300,1,2,2:2:0:0:
512,157,164600,1,2,2:2:0:0:
323,67,164900,5,2,2:2:0:0:
402,325,165200,2,0,L|408:275,1,50,2|0,2:2|0:0,0:0:0:0:
461,217,165800,5,6,3:2:0:0:
333,367,166000,2,0,B|223:361|288:302|177:293,1,180,2|2,2:2|3:2,0:0:0:0:
14,262,166400,2,0,P|72:246|128:226,1,120,10|2,1:2|2:2,0:0:0:0:
144,364,166700,1,10,2:2:0:0:
271,147,166900,1,2,3:2:0:0:
258,138,167000,6,0,P|205:156|206:213,1,120,10|0,2:2|0:0,0:0:0:0:
319,287,167300,2,0,P|371:268|370:211,1,120,10|0,3:2|0:0,0:0:0:0:
310,78,167600,5,8,1:2:0:0:
125,145,167800,2,0,P|52:105|73:24,1,180,2|2,2:2|2:2,0:0:0:0:
128,226,168200,6,0,P|109:282|99:342,1,120,10|0,3:2|0:0,0:0:0:0:
42,223,168500,1,10,2:2:0:0:
162,375,168700,1,2,3:2:0:0:
171,384,168800,2,0,P|226:369|236:313,1,120,8|2,1:2|2:2,0:0:0:0:
368,311,169100,2,0,P|312:296|302:240,1,120,10|2,2:2|3:2,0:0:0:0:
466,142,169400,6,0,P|447:198|437:258,1,120,10|0,2:2|0:0,0:0:0:0:
342,87,169700,2,0,P|360:143|370:203,1,120,10|0,3:2|0:0,0:0:0:0:
353,5,170000,2,0,B|243:11|308:70|197:77,1,180,8|8,1:2|2:2,0:0:0:0:
368,312,170600,5,10,3:2:0:0:
212,241,170800,5,2,2:2:0:0:
221,226,170900,1,10,2:2:0:0:
83,349,171100,5,2,3:2:0:0:
66,336,171200,2,0,P|56:276|41:218,1,120,10|2,1:2|2:2,0:0:0:0:
74,145,171500,1,10,2:2:0:0:
191,356,171700,6,0,P|249:353|272:301,1,120,2|0,3:2|0:0,0:0:0:0:
381,239,172000,2,0,P|323:236|299:184,1,120,2|0,2:2|0:0,0:0:0:0:
309,21,172300,1,2,2:2:0:0:
321,12,172400,2,0,P|341:68|353:127,1,120,10|2,1:2|2:2,0:0:0:0:
456,63,172700,2,0,P|435:119|423:178,1,120,10|2,2:2|2:2,0:0:0:0:
458,328,173000,5,10,3:2:0:0:
299,184,173200,5,2,2:2:0:0:
283,259,173300,1,10,2:2:0:0:
126,345,173500,5,2,3:2:0:0:
69,290,173600,2,0,P|73:220|142:207,1,150,4|2,1:2|2:2,0:0:0:0:
282,365,173900,2,0,P|277:295|208:282,1,150,4|2,1:2|3:2,0:0:0:0:
0,350,174200,5,2,2:2:0:0:
215,173,174400,5,2,1:2:0:0:
142,207,174500,1,2,3:2:0:0:
8,18,174700,5,2,2:2:0:0:
72,65,174800,2,0,P|146:76|218:95,1,150,2|8,1:2|2:3,0:0:0:0:
36,138,175100,1,6,2:3:0:0:
332,135,175300,5,6,2:3:0:0:
292,67,175400,2,0,P|211:89|214:172,1,180,6|0,3:2|0:0,0:0:0:0:
375,207,175900,1,0,3:3:0:0:
384,194,176000,2,0,P|442:176|501:168,1,120,6|0,1:2|0:0,0:0:0:0:
332,135,176300,1,10,2:2:0:0:
247,321,176500,1,0,3:3:0:0:
231,328,176600,6,0,B|122:308|185:263|79:244,2,180,10|10|10,2:2|3:2|1:2,0:0:0:0:
78,243,177500,1,10,2:2:0:0:
289,383,177800,6,0,P|340:358|336:301,1,120,10|0,3:2|0:0,0:0:0:0:
281,245,178100,1,10,2:2:0:0:
493,268,178400,2,0,P|410:269|393:188,1,180,10|10,1:2|2:2,0:0:0:0:
481,13,178900,5,0,3:3:0:0:
474,32,179000,1,10,2:2:0:0:
321,110,179200,5,0,0:0:0:0:
309,97,179300,2,0,P|220:79|135:50,2,180,10|10|10,3:2|1:2|2:2,0:0:0:0:
71,258,180100,1,0,0:0:0:0:
58,248,180200,6,0,P|66:164|149:150,1,180,14|10,3:2|2:2,0:0:0:0:
271,266,180700,1,0,3:3:0:0:
262,253,180800,2,0,P|204:235|145:227,1,120,10|0,1:2|0:0,0:0:0:0:
320,199,181100,1,10,2:2:0:0:
346,352,181300,1,0,3:3:0:0:
358,365,181400,6,0,B|467:345|404:300|510:281,2,180,10|10|10,2:2|3:2|1:2,0:0:0:0:
510,280,182300,1,10,2:2:0:0:
386,128,182500,1,0,0:0:0:0:
372,118,182600,6,0,P|319:144|329:210,1,120,10|0,3:2|0:0,0:0:0:0:
458,202,182900,2,0,P|479:114|512:24,2,180,10|10|10,2:2|1:2|2:2,0:0:0:0:
311,43,183700,5,0,3:3:0:0:
293,51,183800,1,10,2:2:0:0:
197,107,184000,5,2,2:2:0:0:
179,99,184100,1,10,3:2:0:0:
41,39,184300,5,2,2:2:0:0:
95,96,184400,2,0,P|108:154|119:213,1,120,6|0,1:2|0:0,0:0:0:0:
286,61,184700,2,0,P|272:119|261:178,1,120,10|6,2:3|2:3,0:0:0:0:
298,342,185000,6,0,P|269:264|186:272,1,180,6|10,3:2|2:2,0:0:0:0:
373,298,185500,1,0,3:3:0:0:
388,308,185600,2,0,P|447:299|504:282,1,120,10|0,1:2|0:0,0:0:0:0:
367,384,185900,1,10,2:2:0:0:
439,155,186100,5,0,3:3:0:0:
449,202,186200,1,10,2:2:0:0:
324,164,186400,5,2,1:2:0:0:
320,191,186500,1,10,3:2:0:0:
205,143,186700,5,2,2:2:0:0:
196,158,186800,1,10,1:2:0:0:
123,90,187000,5,0,1:1:0:0:
115,96,187100,1,10,2:2:0:0:
75,24,187400,6,0,P|100:120|111:219,1,200,6|0,3:2|3:3,0:0:0:0:
106,232,188000,1,0,1:1:0:0:
229,321,188300,2,0,P|208:287|170:278,1,80,2|0,2:2|3:3,0:0:0:0:
137,349,188600,1,0,0:0:0:0:
305,294,188800,1,0,0:0:0:0:
305,294,188900,2,0,P|361:313|420:326,2,120,2|2|2,3:2|1:2|2:2,0:0:0:0:
256,192,189800,5,2,3:2:0:0:
256,192,190400,1,2,3:2:0:0:
256,192,191000,2,0,L|256:245,2,29.9999999999999,2|2|2,3:2|2:2|2:2,0:0:0:0:
256,192,191600,2,0,L|256:139,2,29.9999999999999,2|2|2,3:2|2:2|2:2,0:0:0:0:
256,192,192200,1,2,3:2:0:0:
22,285,192700,5,0,3:3:0:0:
22,285,192800,2,0,L|191:310,1,150,8|0,1:2|3:3,0:0:0:0:
302,109,193700,6,0,B|279:83|244:84|244:84|271:94|281:121,1,120,10|0,3:2|0:0,0:0:0:0:
332,182,194000,2,0,P|353:238|363:297,1,120,0|0,1:1|0:0,0:0:0:0:
397,135,194300,1,2,2:2:0:0:
463,279,194500,5,2,2:2:0:0:
512,216,194600,2,0,P|488:288|476:362,1,150,6|2,3:2|2:2,0:0:0:0:
396,135,194900,2,0,P|497:136|500:34,1,225,10|0,2:2|1:1,0:0:0:0:
332,181,195400,2,0,P|353:252|365:326,1,150,2|0,2:2|0:0,0:0:0:0:
179,215,195700,1,2,3:2:0:0:
168,201,195800,6,0,P|189:134|259:136,1,150,2|2,2:2|2:2,0:0:0:0:
192,291,196100,2,0,B|108:306|90:242|102:251|85:185|6:200,1,225,10|0,3:2|1:1,0:0:0:0:
242,351,196600,1,2,2:2:0:0:
252,367,196700,2,0,P|320:350|329:279,1,150,8|2,2:2|2:2,0:0:0:0:
258,135,197000,5,2,3:2:0:0:
165,9,197200,5,2,2:2:0:0:
171,28,197300,1,10,2:2:0:0:
0,151,197500,5,2,3:2:0:0:
34,81,197600,2,0,P|100:100|97:169,1,150,2|2,1:2|2:2,0:0:0:0:
0,282,197900,1,10,2:2:0:0:
86,0,198100,6,0,P|56:108|40:219,1,225,2|0,3:2|0:0,0:0:0:0:
9,379,198500,2,0,P|15:310|84:308,1,150,8|0,3:2|0:0,0:0:0:0:
215,384,198800,5,4,1:2:0:0:
303,224,199000,5,0,0:0:0:0:
311,240,199100,1,8,2:2:0:0:
506,320,199300,5,2,2:2:0:0:
439,360,199400,2,0,P|367:338|293:323,1,150,6|2,3:2|2:2,0:0:0:0:
474,246,199700,1,10,2:2:0:0:
341,137,199900,1,2,3:2:0:0:
334,122,200000,2,0,P|409:138|403:214,1,150,2|0,1:2|0:0,0:0:0:0:
262,153,200300,2,0,P|247:79|225:7,1,150,10|0,2:2|3:3,0:0:0:0:
190,193,200600,5,2,2:2:0:0:
45,117,200800,5,2,2:2:0:0:
52,134,200900,1,10,3:2:0:0:
18,328,201100,5,2,2:2:0:0:
82,282,201200,2,0,P|152:308|225:325,1,150,2|2,1:2|2:2,0:0:0:0:
262,153,201500,1,10,2:2:0:0:
407,321,201700,5,2,2:2:0:0:
363,256,201800,2,0,P|256:292|276:391,1,225,6|2,3:2|0:0,0:0:0:0:
457,179,202300,5,2,3:2:0:0:
453,158,202400,1,6,1:2:0:0:
292,73,202600,5,2,0:0:0:0:
274,148,202700,1,6,1:2:0:0:
52,134,202900,6,0,B|115:140|115:140|170:184|161:263|110:285,1,225,2|2,0:0|1:2,0:0:0:0:
0,71,203300,1,10,2:3:0:0:
158,20,203500,5,0,0:0:0:0:
174,27,203600,1,2,1:2:0:0:
382,115,203800,5,10,1:3:0:0:
357,125,203900,1,4,2:3:0:0:
249,294,204100,5,2,2:2:0:0:
297,233,204200,2,0,P|281:159|255:89,1,150,6|2,3:2|2:2,0:0:0:0:
460,258,204500,2,0,B|398:244|354:294|354:294|352:356|298:376,1,225,10|4,2:2|1:2,0:0:0:0:
115,159,205000,2,0,P|184:163|199:231,1,150,2|0,2:2|0:0,0:0:0:0:
39,231,205300,1,2,3:2:0:0:
44,215,205400,6,0,P|28:141|2:71,1,150,2|2,2:2|2:2,0:0:0:0:
166,18,205700,2,0,P|136:126|123:238,1,225,10|0,3:2|1:1,0:0:0:0:
288,357,206200,1,2,2:2:0:0:
280,373,206300,2,0,P|210:368|195:300,1,150,10|2,2:2|2:2,0:0:0:0:
336,297,206600,5,2,3:2:0:0:
84,347,206800,2,0,B|168:362|186:298|174:307|191:241|270:256,1,225,2|2,2:2|3:2,0:0:0:0:
481,257,207200,2,0,P|411:256|398:188,1,150,2|2,1:2|2:2,0:0:0:0:
512,329,207500,1,10,2:2:0:0:
455,134,207700,6,0,P|422:241|407:353,1,225,2|2,3:2|2:2,0:0:0:0:
315,124,208100,2,0,P|337:58|405:67,1,150,10|2,3:2|2:2,0:0:0:0:
264,178,208400,5,6,1:2:0:0:
148,71,208600,5,2,2:2:0:0:
135,79,208700,1,10,2:2:0:0:
25,216,208900,5,2,2:2:0:0:
89,256,209000,2,0,P|157:239|160:169,1,150,6|2,3:2|2:2,0:0:0:0:
328,341,209300,2,0,P|260:323|257:253,1,150,10|2,2:2|3:2,0:0:0:0:
99,263,209600,2,0,P|166:245|169:175,1,150,2|2,1:2|2:2,0:0:0:0:
318,347,209900,2,0,P|250:329|247:259,1,150,10|2,2:2|3:2,0:0:0:0:
384,174,210200,5,2,2:2:0:0:
259,69,210400,1,2,2:2:0:0:
269,58,210500,2,0,P|295:129|308:203,1,150,10|2,3:2|2:2,0:0:0:0:
482,288,210800,6,0,B|433:278|373:253|373:253|309:286|337:352,1,225,2|10,1:2|2:2,0:0:0:0:
448,129,211300,5,2,2:2:0:0:
440,114,211400,1,2,3:2:0:0:
350,10,211600,5,2,2:2:0:0:
342,25,211700,1,0,0:0:0:0:
197,117,211900,5,2,3:2:0:0:
182,110,212000,2,0,P|163:77|155:41,2,75,6|0|2,1:2|0:0|2:2,0:0:0:0:
42,173,212300,6,0,P|60:140|68:104,2,75,6|0|2,2:2|0:0|1:2,0:0:0:0:
21,290,212600,5,2,2:2:0:0:
87,249,212700,1,2,2:2:0:0:
142,267,212800,1,2,2:2:0:0:
161,318,212900,1,2,3:2:0:0:
193,353,213000,1,2,2:2:0:0:
222,358,213100,1,2,2:2:0:0:
237,351,213200,1,2,3:2:0:0:
344,223,213400,5,2,1:2:0:0:
326,230,213500,2,0,P|307:262|299:298,2,75,2|2|2,1:2|1:2|1:2,0:0:0:0:
382,20,213800,6,0,P|452:24|472:91,1,150,6|2,3:2|2:2,0:0:0:0:
327,76,214100,2,0,P|220:110|108:125,2,225,10|4|10,2:2|1:2|2:2,0:0:0:0:
248,320,214900,1,2,3:2:0:0:
194,378,215000,6,0,P|123:373|103:306,1,150,6|2,2:2|2:2,0:0:0:0:
0,192,215300,2,0,P|106:226|218:241,2,225,10|4|10,3:2|1:2|2:2,0:0:0:0:
191,26,216100,1,2,2:2:0:0:
264,61,216200,6,0,P|299:136|317:215,1,150,6|2,3:2|2:2,0:0:0:0:
440,28,216500,2,0,P|404:134|388:245,2,225,10|4|10,2:2|1:2|2:2,0:0:0:0:
319,279,217300,1,2,3:2:0:0:
263,335,217400,6,0,P|178:327|180:259,1,150,6|2,2:2|2:2,0:0:0:0:
15,235,217700,2,0,P|117:226|117:124,2,225,10|4|10,3:2|1:2|2:2,0:0:0:0:
262,48,218500,1,2,2:2:0:0:
202,99,218600,6,0,P|127:87|56:64,1,150,6|2,3:2|2:2,0:0:0:0:
229,261,218900,2,0,P|337:232|449:220,1,225,10|4,2:2|1:2,0:0:0:0:
181,322,219400,2,0,P|106:288|131:219,1,150,2|0,2:2|0:0,0:0:0:0:
287,166,219700,1,2,3:2:0:0:
304,157,219800,6,0,P|328:86|341:12,1,150,6|2,2:2|2:2,0:0:0:0:
390,188,220100,2,0,P|403:114|427:43,1,150,10|0,3:2|0:0,0:0:0:0:
441,250,220400,1,4,1:2:0:0:
256,49,220600,2,0,P|154:65|151:169,1,225,2|2,2:2|2:2,0:0:0:0:
219,364,221000,5,6,3:2:0:0:
343,264,221200,5,2,1:2:0:0:
362,274,221300,1,2,2:2:0:0:
486,384,221500,5,2,3:2:0:0:
468,309,221600,1,6,1:2:0:0:
287,166,221800,5,2,2:2:0:0:
269,241,221900,1,6,1:2:0:0:
91,363,222100,5,2,2:2:0:0:
72,287,222200,2,0,P|139:272|170:335,1,150,2|0,3:2|1:1,0:0:0:0:
10,384,222500,1,2,3:2:0:0:
66,144,222700,5,2,2:2:0:0:
129,189,222800,2,0,P|165:180|200:167,2,75,4|0|0,3:2|0:0|1:1,0:0:0:0:
204,33,223100,5,2,1:2:0:0:
249,24,223200,1,0,1:1:0:0:
286,48,223300,1,2,1:2:0:0:
292,91,223400,2,0,P|275:165|265:239,1,150,6|2,3:2|2:2,0:0:0:0:
446,384,223700,2,0,P|429:283|328:294,1,225,10|4,2:2|1:2,0:0:0:0:
430,195,224200,2,0,P|499:185|507:116,1,150,2|0,2:2|0:0,0:0:0:0:
362,0,224500,1,2,3:2:0:0:
350,10,224600,6,0,P|279:34|205:49,1,150,6|2,2:2|1:2,0:0:0:0:
276,154,224900,2,0,P|205:129|131:114,1,150,10|0,2:2|3:3,0:0:0:0:
334,95,225200,1,4,1:2:0:0:
151,251,225400,1,2,2:2:0:0:
135,260,225500,2,0,P|68:237|71:167,1,150,10|2,2:2|2:2,0:0:0:0:
3,361,225800,5,6,3:2:0:0:
131,114,226000,2,0,P|92:219|67:329,1,225,2|2,2:2|3:2,0:0:0:0:
219,361,226400,2,0,P|293:353|301:283,1,150,6|0,1:2|0:0,0:0:0:0:
276,154,226700,1,10,2:2:0:0:
423,334,226900,6,0,P|326:301|347:195,1,225,6|4,2:3|2:3,0:0:0:0:
480,284,227300,2,0,P|492:210|512:137,1,150,12|2,2:3|3:2,0:0:0:0:
391,27,227600,5,4,1:2:0:0:
276,154,227800,5,0,3:3:0:0:
259,159,227900,1,8,2:3:0:0:
78,35,228100,5,4,2:3:0:0:
135,90,228200,2,0,P|110:160|95:234,1,150,14|2,3:2|2:2,0:0:0:0:
0,190,228500,2,0,P|24:260|39:334,1,150,10|2,2:2|3:2,0:0:0:0:
41,121,228800,5,14,1:2:0:0:
179,332,229000,2,0,B|263:347|281:283|269:292|286:226|365:241,1,225,2|2,2:2|3:2,0:0:0:0:
499,232,229400,2,0,P|437:263|455:330,1,150,10|2,2:2|2:2,0:0:0:0:
458,157,229700,1,10,3:2:0:0:
334,29,229900,5,2,2:2:0:0:
309,105,230000,1,14,1:2:0:0:
169,50,230200,5,2,2:2:0:0:
176,72,230300,1,10,2:2:0:0:
37,100,230500,5,2,2:2:0:0:
49,109,230600,2,0,P|81:176|100:248,1,150,10|2,3:2|2:2,0:0:0:0:
61,313,230900,1,10,2:2:0:0:
289,329,231100,1,2,3:2:0:0:
250,262,231200,2,0,P|180:271|172:341,1,150,14|2,1:2|2:2,0:0:0:0:
296,200,231500,1,10,2:2:0:0:
478,324,231700,5,10,2:3:0:0:
468,306,231800,1,2,2:2:0:0:
466,111,232000,5,0,1:1:0:0:
407,159,232100,2,0,P|345:127|359:59,1,150,2|0,3:2|0:0,0:0:0:0:
491,232,232400,2,0,B|407:217|389:281|401:272|384:338|305:323,1,225,2|10,1:2|2:2,0:0:0:0:
257,191,232900,5,2,2:2:0:0:
257,191,233000,1,10,3:2:0:0:
314,138,233500,1,0,3:3:0:0:
314,138,233600,1,8,1:2:0:0:
243,57,234100,1,0,3:3:0:0:
243,57,234200,2,0,L|154:73,2,89.9999999999998,8|8|8,2:2|3:2|1:2,0:0:0:0:
28,172,236000,5,8,1:2:0:0:
91,220,236200,2,0,L|196:204,1,89.9999999999998,0|0,3:3|3:3,0:0:0:0:
256,192,236600,1,8,2:2:0:0:
256,192,236900,1,8,3:2:0:0:
