osu file format v14

[General]
AudioFilename: audio.mp3
AudioLeadIn: 0
PreviewTime: 35250
Countdown: 0
SampleSet: Soft
StackLeniency: 0.5
Mode: 0
LetterboxInBreaks: 0
WidescreenStoryboard: 0

[Editor]
DistanceSpacing: 1.9
BeatDivisor: 6
GridSize: 16
TimelineZoom: 2.3

[Metadata]
Title:Plagiarism
TitleUnicode:盗作
Artist:Yorushika
ArtistUnicode:ヨルシカ
Creator:alevi
Version:Stolen Melodies
Source:
Tags:doraemonelf dora- shiny braixen brain exe galaxyskys galaxyskys_ japanese rock jrock j-rock pop j-pop jpop nabuna n-buna nbuna suis tousaku ナブナ スイ
BeatmapID:3777003
BeatmapSetID:1839117

[Difficulty]
HPDrainRate:6
CircleSize:4.5
OverallDifficulty:9
ApproachRate:9.6
SliderMultiplier:3.4
SliderTickRate:1

[Events]
//Background and Video events
0,0,"wKc7HlO0_4x (1).jpg",0,0
//Break Periods
//Storyboard Layer 0 (Background)
//Storyboard Layer 1 (Fail)
//Storyboard Layer 2 (Pass)
//Storyboard Layer 3 (Foreground)
//Storyboard Layer 4 (Overlay)
//Storyboard Sound Samples

[TimingPoints]
200,600,4,2,1,45,1,0
200,-250,4,2,1,45,0,0
4400,-250,4,2,1,60,0,0
4700,-250,4,2,2,60,0,0
5000,-111.111111111111,4,2,1,60,0,0
5500,-111.111111111111,4,2,2,60,0,0
7400,-111.111111111111,4,2,1,60,0,0
7600,-111.111111111111,4,2,2,60,0,0
9200,-111.111111111111,4,2,1,60,0,0
9700,-111.111111111111,4,2,2,60,0,0
9800,-111.111111111111,4,2,1,60,0,0
10100,-111.111111111111,4,2,2,60,0,0
11000,-111.111111111111,4,2,1,60,0,0
11200,-111.111111111111,4,2,2,60,0,0
12200,-111.111111111111,4,2,1,60,0,0
12400,-111.111111111111,4,2,2,60,0,0
14600,-100,4,2,1,60,0,0
14800,-100,4,2,2,60,0,0
14900,-100,4,2,1,60,0,0
15100,-100,4,2,2,60,0,0
15200,-100,4,2,1,60,0,0
15500,-100,4,2,2,60,0,0
17000,-100,4,2,1,60,0,0
17200,-100,4,2,2,60,0,0
17900,-100,4,2,1,60,0,0
18200,-100,4,2,2,60,0,0
19400,-100,4,2,1,60,0,0
19700,-100,4,2,2,60,0,0
20600,-100,4,2,1,60,0,0
20800,-100,4,2,2,60,0,0
21800,-142.857142857143,4,2,1,60,0,0
22000,-142.857142857143,4,2,2,60,0,0
22400,-125,4,2,1,60,0,0
22600,-125,4,2,2,60,0,0
23000,-100,4,2,1,60,0,0
23600,-100,4,2,2,60,0,0
24200,-142.857142857143,4,2,2,60,0,0
25300,-142.857142857143,4,2,1,60,0,0
25600,-142.857142857143,4,2,2,60,0,0
26000,-142.857142857143,4,2,1,60,0,0
26200,-142.857142857143,4,2,2,60,0,0
26600,-142.857142857143,4,2,1,60,0,0
26800,-142.857142857143,4,2,2,60,0,0
27700,-142.857142857143,4,2,1,60,0,0
28000,-142.857142857143,4,2,2,60,0,0
28400,-111.111111111111,4,2,1,60,0,0
28600,-111.111111111111,4,2,2,60,0,0
28900,-111.111111111111,4,2,1,60,0,0
29000,-125,4,2,1,60,0,0
29200,-125,4,2,2,60,0,0
30200,-125,4,2,1,60,0,0
30400,-125,4,2,2,60,0,0
30800,-125,4,2,1,60,0,0
31300,-125,4,2,2,60,0,0
31400,-333.333333333333,4,2,1,65,0,0
31600,-333.333333333333,4,2,2,65,0,0
32000,-250,4,2,2,65,0,0
32600,-200,4,2,1,65,0,0
32900,-200,4,2,2,65,0,0
33200,-166.666666666666,4,2,1,65,0,0
33500,-166.666666666666,4,2,2,65,0,0
33800,-90.9090909090909,4,2,2,65,0,0
33900,-90.9090909090909,4,2,2,65,0,0
34400,-90.9090909090909,4,2,2,65,0,0
34500,-90.9090909090909,4,2,2,65,0,0
35000,-90.9090909090909,4,2,2,65,0,0
35100,-90.9090909090909,4,2,2,65,0,0
35300,-90.9090909090909,4,2,1,75,0,0
35600,-90.9090909090909,4,2,2,75,0,0
35900,-90.9090909090909,4,2,1,75,0,0
36100,-90.9090909090909,4,2,2,75,0,0
36200,-76.9230769230769,4,2,1,85,0,1
36400,-76.9230769230769,4,2,2,85,0,1
36500,-76.9230769230769,4,2,3,85,0,1
37300,-76.9230769230769,4,2,2,85,0,1
37400,-76.9230769230769,4,2,1,85,0,1
37600,-76.9230769230769,4,2,2,85,0,1
37700,-76.9230769230769,4,2,3,85,0,1
38500,-76.9230769230769,4,2,2,85,0,1
38600,-76.9230769230769,4,2,1,85,0,1
38800,-76.9230769230769,4,2,2,85,0,1
38900,-76.9230769230769,4,2,3,85,0,1
39100,-76.9230769230769,4,2,2,85,0,1
39200,-76.9230769230769,4,2,3,85,0,1
39700,-76.9230769230769,4,2,4,85,0,1
40400,-76.9230769230769,4,2,3,85,0,1
40900,-76.9230769230769,4,2,2,85,0,1
41300,-76.9230769230769,4,2,4,85,0,1
42200,-76.9230769230769,4,2,1,85,0,1
42400,-76.9230769230769,4,2,4,85,0,1
43300,-76.9230769230769,4,2,8,85,0,1
44000,-76.9230769230769,4,2,4,85,0,1
44300,-76.9230769230769,4,2,5,85,0,1
44500,-62.5,4,2,5,85,0,1
44900,-250,4,2,1,85,0,1
45200,-76.9230769230769,4,2,1,85,0,1
45700,-76.9230769230769,4,2,2,85,0,1
45800,-76.9230769230769,4,2,1,85,0,1
46000,-76.9230769230769,4,2,2,85,0,1
46100,-76.9230769230769,4,2,3,85,0,1
46400,-76.9230769230769,4,2,6,85,0,1
46700,-76.9230769230769,4,2,4,85,0,1
47000,-76.9230769230769,4,2,1,85,0,1
47200,-76.9230769230769,4,2,2,85,0,1
47300,-76.9230769230769,4,2,3,85,0,1
48100,-76.9230769230769,4,2,2,85,0,1
48200,-76.9230769230769,4,2,1,85,0,1
48400,-76.9230769230769,4,2,2,85,0,1
48500,-76.9230769230769,4,2,3,85,0,1
48700,-76.9230769230769,4,2,2,85,0,1
48800,-76.9230769230769,4,2,3,85,0,1
49300,-76.9230769230769,4,2,4,85,0,1
50000,-76.9230769230769,4,2,3,85,0,1
50200,-76.9230769230769,4,2,4,85,0,1
50600,-90.9090909090909,4,2,2,85,0,1
50900,-90.9090909090909,4,2,4,85,0,1
51800,-90.9090909090909,4,2,1,85,0,1
52000,-90.9090909090909,4,2,4,85,0,1
52900,-90.9090909090909,4,2,1,85,0,1
53500,-90.9090909090909,4,2,5,85,0,1
53900,-90.9090909090909,4,2,1,85,0,1
54100,-76.9230769230769,4,2,2,85,0,1
54500,-250,4,2,2,85,0,1
54800,-76.9230769230769,4,2,2,85,0,1
55400,-250,4,2,2,75,0,0
55700,-90.9090909090909,4,2,5,75,0,0
57500,-90.9090909090909,4,2,6,75,0,0
57600,-90.9090909090909,4,2,2,75,0,0
57800,-90.9090909090909,4,2,1,75,0,0
58100,-90.9090909090909,4,2,5,75,0,0
58700,-90.9090909090909,4,2,6,75,0,0
59600,-90.9090909090909,4,2,4,75,0,0
59900,-90.9090909090909,4,2,2,75,0,0
60200,-90.9090909090909,4,2,7,75,0,0
60500,-90.9090909090909,4,2,5,75,0,0
62300,-90.9090909090909,4,2,6,75,0,0
62900,-90.9090909090909,4,2,5,75,0,0
63200,-90.9090909090909,4,2,3,75,0,0
63500,-90.9090909090909,4,2,6,75,0,0
64100,-90.9090909090909,4,2,2,75,0,0
64400,-90.9090909090909,4,2,1,75,0,0
64600,-90.9090909090909,4,2,2,75,0,0
65000,-250,4,2,2,75,0,0
65300,-90.9090909090909,4,2,5,75,0,0
67100,-90.9090909090909,4,2,6,75,0,0
67200,-90.9090909090909,4,2,2,75,0,0
67400,-90.9090909090909,4,2,1,75,0,0
67700,-90.9090909090909,4,2,5,75,0,0
68300,-90.9090909090909,4,2,6,75,0,0
69200,-90.9090909090909,4,2,7,75,0,0
69800,-90.9090909090909,4,2,8,75,0,0
70100,-90.9090909090909,4,2,5,75,0,0
70300,-90.9090909090909,4,2,1,75,0,0
70600,-90.9090909090909,4,2,2,75,0,0
70700,-90.9090909090909,4,2,6,75,0,0
70900,-90.9090909090909,4,2,2,75,0,0
71000,-90.9090909090909,4,2,1,75,0,0
71300,-90.9090909090909,4,2,5,75,0,0
72200,-83.3333333333333,4,2,5,75,0,0
72500,-83.3333333333333,4,2,4,75,0,0
72800,-83.3333333333333,4,2,5,75,0,0
73300,-83.3333333333333,4,2,2,75,0,0
74000,-90.9090909090909,4,2,1,75,0,0
74300,-90.9090909090909,4,2,4,75,0,0
74600,-111.111111111111,4,2,1,60,0,0
75100,-111.111111111111,4,2,2,60,0,0
77000,-111.111111111111,4,2,1,60,0,0
77200,-111.111111111111,4,2,2,60,0,0
79400,-111.111111111111,4,2,1,60,0,0
79700,-111.111111111111,4,2,2,60,0,0
80600,-111.111111111111,4,2,1,60,0,0
80800,-111.111111111111,4,2,2,60,0,0
81800,-166.666666666667,4,2,7,35,0,0
83000,-166.666666666667,4,2,8,35,0,0
83300,-166.666666666667,4,2,7,35,0,0
83600,-111.111111111111,4,2,1,55,0,0
83800,-111.111111111111,4,2,2,55,0,0
83900,-111.111111111111,4,2,1,55,0,0
84100,-111.111111111111,4,2,2,55,0,0
84200,-100,4,2,9,65,0,0
84700,-100,4,2,7,65,0,0
85400,-100,4,2,8,65,0,0
85500,-100,4,2,2,65,0,0
85600,-100,4,2,1,65,0,0
85700,-100,4,2,7,65,0,0
86000,-100,4,2,8,65,0,0
86200,-100,4,2,7,65,0,0
86600,-100,4,2,8,65,0,0
87100,-100,4,2,7,65,0,0
87800,-100,4,2,8,65,0,0
87900,-100,4,2,2,65,0,0
88100,-100,4,2,8,65,0,0
88200,-100,4,2,2,65,0,0
88400,-100,4,2,8,65,0,0
88500,-100,4,2,2,65,0,0
88700,-100,4,2,8,65,0,0
88800,-100,4,2,2,65,0,0
89000,-100,4,2,8,65,0,0
89500,-100,4,2,7,65,0,0
90200,-100,4,2,8,65,0,0
90500,-100,4,2,7,65,0,0
91400,-100,4,2,1,65,0,0
91600,-100,4,2,2,65,0,0
91700,-100,4,2,1,65,0,0
91900,-100,4,2,2,65,0,0
92000,-100,4,2,1,65,0,0
92300,-100,4,2,2,65,0,0
92600,-100,4,2,1,65,0,0
92800,-100,4,2,2,65,0,0
92900,-100,4,2,1,65,0,0
93100,-100,4,2,2,65,0,0
93200,-100,4,2,1,65,0,0
93400,-100,4,2,2,65,0,0
93800,-142.857142857143,4,2,10,60,0,0
94000,-142.857142857143,4,2,7,60,0,0
94900,-142.857142857143,4,2,8,60,0,0
95200,-142.857142857143,4,2,7,60,0,0
95600,-142.857142857143,4,2,8,60,0,0
95800,-142.857142857143,4,2,7,60,0,0
96200,-142.857142857143,4,2,8,60,0,0
96400,-142.857142857143,4,2,7,60,0,0
97300,-142.857142857143,4,2,8,60,0,0
97600,-142.857142857143,4,2,7,60,0,0
98000,-111.111111111111,4,2,8,60,0,0
98200,-111.111111111111,4,2,7,60,0,0
98500,-111.111111111111,4,2,8,60,0,0
98600,-125,4,2,8,60,0,0
98800,-125,4,2,7,60,0,0
99800,-125,4,2,8,60,0,0
100000,-125,4,2,7,60,0,0
100400,-125,4,2,8,60,0,0
100900,-125,4,2,2,60,0,0
101000,-125,4,2,8,65,0,0
101300,-125,4,2,7,65,0,0
101900,-125,4,2,8,65,0,0
102100,-111.111111111111,4,2,1,65,0,0
102200,-111.111111111111,4,2,7,65,0,0
102500,-111.111111111111,4,2,3,65,0,0
102800,-111.111111111111,4,2,7,65,0,0
103100,-111.111111111111,4,2,11,65,0,0
103400,-90.9090909090909,4,2,2,75,0,0
104900,-90.9090909090909,4,2,1,75,0,0
105200,-90.9090909090909,4,2,4,75,0,0
105500,-90.9090909090909,4,2,1,75,0,0
105700,-90.9090909090909,4,2,2,75,0,0
105800,-76.9230769230769,4,2,1,85,0,1
106000,-76.9230769230769,4,2,2,85,0,1
106100,-76.9230769230769,4,2,3,85,0,1
106600,-76.9230769230769,4,2,2,85,0,1
106700,-76.9230769230769,4,2,3,85,0,1
106900,-76.9230769230769,4,2,2,85,0,1
107000,-76.9230769230769,4,2,1,85,0,1
107200,-76.9230769230769,4,2,2,85,0,1
107300,-76.9230769230769,4,2,3,85,0,1
107800,-76.9230769230769,4,2,4,85,0,1
108200,-76.9230769230769,4,2,1,85,0,1
108400,-76.9230769230769,4,2,2,85,0,1
108500,-76.9230769230769,4,2,3,85,0,1
108700,-76.9230769230769,4,2,2,85,0,1
108800,-76.9230769230769,4,2,3,85,0,1
109300,-76.9230769230769,4,2,4,85,0,1
110000,-76.9230769230769,4,2,3,85,0,1
110500,-76.9230769230769,4,2,2,85,0,1
110900,-76.9230769230769,4,2,4,85,0,1
111800,-76.9230769230769,4,2,1,85,0,1
112000,-76.9230769230769,4,2,4,85,0,1
112900,-76.9230769230769,4,2,8,85,0,1
113600,-76.9230769230769,4,2,4,85,0,1
113900,-76.9230769230769,4,2,5,85,0,1
114100,-62.5,4,2,5,85,0,1
114500,-250,4,2,1,85,0,1
114800,-76.9230769230769,4,2,1,85,0,1
115300,-76.9230769230769,4,2,2,85,0,1
115400,-76.9230769230769,4,2,1,85,0,1
115600,-76.9230769230769,4,2,2,85,0,1
115700,-76.9230769230769,4,2,3,85,0,1
116000,-76.9230769230769,4,2,6,85,0,1
116300,-76.9230769230769,4,2,3,85,0,1
116500,-76.9230769230769,4,2,2,85,0,1
116600,-76.9230769230769,4,2,1,85,0,1
116800,-76.9230769230769,4,2,2,85,0,1
116900,-76.9230769230769,4,2,3,85,0,1
117700,-76.9230769230769,4,2,2,85,0,1
117800,-76.9230769230769,4,2,1,85,0,1
118000,-76.9230769230769,4,2,2,85,0,1
118100,-76.9230769230769,4,2,3,85,0,1
118300,-76.9230769230769,4,2,2,85,0,1
118400,-76.9230769230769,4,2,3,85,0,1
118900,-76.9230769230769,4,2,4,85,0,1
119600,-76.9230769230769,4,2,3,85,0,1
119800,-76.9230769230769,4,2,4,85,0,1
120200,-76.9230769230769,4,2,2,85,0,1
120500,-76.9230769230769,4,2,4,85,0,1
123500,-76.9230769230769,4,2,1,85,0,1
123700,-76.9230769230769,4,2,2,85,0,1
124100,-250,4,2,2,85,0,1
124400,-76.9230769230769,4,2,2,85,0,1
125000,-83.3333333333333,4,2,11,75,0,0
125300,-83.3333333333333,4,2,6,75,0,0
125600,-83.3333333333333,4,2,5,75,0,0
125900,-83.3333333333333,4,2,6,75,0,0
126200,-83.3333333333333,4,2,2,75,0,0
126500,-83.3333333333333,4,2,6,75,0,0
126800,-83.3333333333333,4,2,2,75,0,0
127100,-83.3333333333333,4,2,6,75,0,0
127400,-83.3333333333333,4,2,2,75,0,0
127700,-83.3333333333333,4,2,6,75,0,0
128000,-83.3333333333333,4,2,2,75,0,0
128300,-83.3333333333333,4,2,6,75,0,0
128600,-83.3333333333333,4,2,5,75,0,0
129200,-83.3333333333333,4,2,9,75,0,0
129400,-83.3333333333333,4,2,2,75,0,0
130100,-83.3333333333333,4,2,6,75,0,0
130400,-83.3333333333333,4,2,2,75,0,0
130700,-83.3333333333333,4,2,6,75,0,0
131000,-83.3333333333333,4,2,2,75,0,0
131300,-83.3333333333333,4,2,6,75,0,0
131600,-83.3333333333333,4,2,2,75,0,0
131900,-83.3333333333333,4,2,6,75,0,0
132200,-83.3333333333333,4,2,5,75,0,0
132800,-83.3333333333333,4,2,4,75,0,0
133100,-83.3333333333333,4,2,5,75,0,0
133300,-76.9230769230769,4,2,3,75,0,0
134300,-76.9230769230769,4,2,2,75,0,0
134600,-83.3333333333333,4,2,8,75,0,0
134900,-83.3333333333333,4,2,5,75,0,0
135200,-83.3333333333333,4,2,1,75,0,0
135500,-83.3333333333333,4,2,5,75,0,0
135700,-83.3333333333333,4,2,1,75,0,0
135800,-83.3333333333333,4,2,5,75,0,0
136400,-83.3333333333333,4,2,1,75,0,0
136700,-83.3333333333333,4,2,5,75,0,0
137000,-83.3333333333333,4,2,1,75,0,0
137300,-83.3333333333333,4,2,5,75,0,0
137600,-83.3333333333333,4,2,1,75,0,0
137900,-83.3333333333333,4,2,5,75,0,0
138100,-83.3333333333333,4,2,1,75,0,0
138200,-83.3333333333333,4,2,5,75,0,0
138800,-83.3333333333333,4,2,9,75,0,0
139000,-83.3333333333333,4,2,2,75,0,0
139400,-83.3333333333333,4,2,8,75,0,0
139700,-83.3333333333333,4,2,5,75,0,0
140000,-83.3333333333333,4,2,1,75,0,0
140300,-83.3333333333333,4,2,5,75,0,0
140500,-83.3333333333333,4,2,1,75,0,0
140600,-83.3333333333333,4,2,5,75,0,0
141200,-83.3333333333333,4,2,1,75,0,0
141500,-83.3333333333333,4,2,5,75,0,0
141700,-83.3333333333333,4,2,1,75,0,0
141800,-83.3333333333333,4,2,7,75,0,0
142400,-83.3333333333333,4,2,5,75,0,0
142900,-83.3333333333333,4,2,1,75,0,0
143200,-83.3333333333333,4,2,4,75,0,0
143300,-83.3333333333333,4,2,2,75,0,0
143600,-83.3333333333333,4,2,1,75,0,0
143800,-83.3333333333333,4,2,4,75,0,0
144200,-111.111111111111,4,2,1,60,0,0
144700,-111.111111111111,4,2,2,60,0,0
146600,-111.111111111111,4,2,1,60,0,0
146800,-111.111111111111,4,2,2,60,0,0
148100,-111.111111111111,4,2,1,60,0,0
148300,-111.111111111111,4,2,2,60,0,0
149000,-111.111111111111,4,2,1,60,0,0
149300,-111.111111111111,4,2,2,60,0,0
150200,-111.111111111111,4,2,1,60,0,0
150400,-111.111111111111,4,2,2,60,0,0
151400,-111.111111111111,4,2,1,60,0,0
151600,-111.111111111111,4,2,2,60,0,0
153800,-100,4,2,1,60,0,0
154000,-100,4,2,2,60,0,0
154100,-100,4,2,1,60,0,0
154300,-100,4,2,2,60,0,0
154400,-100,4,2,1,60,0,0
154700,-100,4,2,2,60,0,0
156200,-100,4,2,1,60,0,0
156400,-100,4,2,2,60,0,0
158600,-100,4,2,1,60,0,0
158800,-100,4,2,2,60,0,0
159800,-100,4,2,1,60,0,0
160100,-100,4,2,2,60,0,0
161000,-125,4,2,1,60,0,0
161300,-125,4,2,2,60,0,0
161600,-125,4,2,1,60,0,0
161800,-125,4,2,2,60,0,0
162200,-125,4,2,1,60,0,0
162500,-125,4,2,2,60,0,0
163400,-333.333333333333,4,2,2,40,0,0
163600,-90.9090909090909,4,2,2,5,0,0
163700,-250,4,2,2,40,0,0
163900,-90.9090909090909,4,2,2,5,0,0
164000,-200,4,2,2,40,0,0
164200,-90.9090909090909,4,2,2,5,0,0
164300,-166.666666666667,4,2,2,40,0,0
164500,-90.9090909090909,4,2,2,5,0,0
164600,-142.857142857143,4,2,2,40,0,0
164800,-90.9090909090909,4,2,2,5,0,0
164900,-125,4,2,1,70,0,0
165100,-90.9090909090909,4,2,1,5,0,0
165200,-125,4,2,1,70,0,0
165400,-90.9090909090909,4,2,1,70,0,0
165500,-90.9090909090909,4,2,1,70,0,0
165700,-90.9090909090909,4,2,1,70,0,0
165800,-83.3333333333333,4,2,1,70,0,0
166100,-83.3333333333333,4,2,8,70,0,0
167800,-83.3333333333333,4,2,7,70,0,0
168200,-83.3333333333333,4,2,8,70,0,0
170600,-83.3333333333333,4,2,7,70,0,0
172000,-83.3333333333333,4,2,8,70,0,0
172300,-83.3333333333333,4,2,7,70,0,0
173000,-76.9230769230769,4,2,9,70,0,0
173900,-76.9230769230769,4,2,6,70,0,0
175000,-76.9230769230769,4,2,1,70,0,0
175400,-83.3333333333333,4,2,3,70,0,0
176000,-83.3333333333333,4,2,6,70,0,0
176300,-83.3333333333333,4,2,7,70,0,0
176600,-83.3333333333333,4,2,8,70,0,0
176900,-83.3333333333333,4,2,7,70,0,0
177200,-83.3333333333333,4,2,8,70,0,0
177500,-83.3333333333333,4,2,7,70,0,0
177800,-83.3333333333333,4,2,8,70,0,0
178100,-83.3333333333333,4,2,7,70,0,0
178400,-83.3333333333333,4,2,8,70,0,0
178700,-83.3333333333333,4,2,7,70,0,0
179000,-83.3333333333333,4,2,8,70,0,0
179300,-83.3333333333333,4,2,7,70,0,0
179600,-83.3333333333333,4,2,8,70,0,0
179900,-83.3333333333333,4,2,7,70,0,0
180200,-83.3333333333333,4,2,8,70,0,0
180500,-83.3333333333333,4,2,7,70,0,0
180800,-83.3333333333333,4,2,8,70,0,0
181100,-83.3333333333333,4,2,7,70,0,0
181400,-83.3333333333333,4,2,8,70,0,0
181700,-83.3333333333333,4,2,7,70,0,0
182000,-83.3333333333333,4,2,8,70,0,0
182300,-83.3333333333333,4,2,7,70,0,0
182600,-83.3333333333333,4,2,8,70,0,0
182900,-83.3333333333333,4,2,7,70,0,0
183200,-83.3333333333333,4,2,8,70,0,0
183500,-83.3333333333333,4,2,7,70,0,0
183800,-83.3333333333333,4,2,8,70,0,0
184000,-83.3333333333333,4,2,7,70,0,0
184400,-83.3333333333333,4,2,9,70,0,0
184700,-83.3333333333333,4,2,2,70,0,0
185000,-83.3333333333333,4,2,3,70,0,0
185300,-83.3333333333333,4,2,7,70,0,0
185600,-83.3333333333333,4,2,8,70,0,0
185900,-83.3333333333333,4,2,7,70,0,0
186200,-83.3333333333333,4,2,8,70,0,0
186400,-83.3333333333333,4,2,7,70,0,0
186800,-83.3333333333333,4,2,8,70,0,0
187100,-83.3333333333333,4,2,4,70,0,0
187400,-142.857142857143,4,2,8,70,0,0
188900,-142.857142857143,4,2,2,70,0,0
189200,-142.857142857143,4,2,1,70,0,0
189500,-142.857142857143,4,2,2,70,0,0
189800,-90.9090909090909,4,2,1,70,0,0
189900,-90.9090909090909,4,2,1,70,0,0
190400,-90.9090909090909,4,2,1,70,0,0
190500,-90.9090909090909,4,2,1,70,0,0
191000,-90.9090909090909,4,2,1,70,0,0
191100,-90.9090909090909,4,2,2,70,0,0
191600,-90.9090909090909,4,2,1,70,0,0
191700,-90.9090909090909,4,2,2,70,0,0
192200,-90.9090909090909,4,2,1,70,0,0
192300,-90.9090909090909,4,2,1,70,0,0
192500,-111.111111111111,4,2,1,70,0,0
193700,-90.9090909090909,4,2,3,75,0,0
194600,-71.4285714285714,4,2,1,85,0,1
194800,-71.4285714285714,4,2,2,85,0,1
194900,-71.4285714285714,4,2,3,85,0,1
195400,-71.4285714285714,4,2,4,85,0,1
195800,-71.4285714285714,4,2,1,85,0,1
196000,-71.4285714285714,4,2,2,85,0,1
196100,-71.4285714285714,4,2,3,85,0,1
196600,-71.4285714285714,4,2,4,85,0,1
197000,-71.4285714285714,4,2,1,85,0,1
197200,-71.4285714285714,4,2,2,85,0,1
197300,-71.4285714285714,4,2,3,85,0,1
197500,-71.4285714285714,4,2,2,85,0,1
197600,-71.4285714285714,4,2,3,85,0,1
198100,-71.4285714285714,4,2,4,85,0,1
198800,-71.4285714285714,4,2,3,85,0,1
199300,-71.4285714285714,4,2,2,85,0,1
199700,-71.4285714285714,4,2,4,85,0,1
200600,-71.4285714285714,4,2,1,85,0,1
200800,-71.4285714285714,4,2,4,85,0,1
201700,-71.4285714285714,4,2,8,85,0,1
202400,-71.4285714285714,4,2,4,85,0,1
202700,-71.4285714285714,4,2,5,85,0,1
202900,-58.8235294117647,4,2,5,85,0,1
203300,-71.4285714285714,4,2,1,85,0,1
204100,-71.4285714285714,4,2,2,85,0,1
204200,-71.4285714285714,4,2,1,85,0,1
204400,-71.4285714285714,4,2,2,85,0,1
204500,-71.4285714285714,4,2,3,85,0,1
204800,-71.4285714285714,4,2,6,85,0,1
205100,-71.4285714285714,4,2,4,85,0,1
205400,-71.4285714285714,4,2,1,85,0,1
205600,-71.4285714285714,4,2,2,85,0,1
205700,-71.4285714285714,4,2,3,85,0,1
206500,-71.4285714285714,4,2,2,85,0,1
206600,-71.4285714285714,4,2,1,85,0,1
206800,-71.4285714285714,4,2,2,85,0,1
206900,-71.4285714285714,4,2,3,85,0,1
207100,-71.4285714285714,4,2,2,85,0,1
207200,-71.4285714285714,4,2,3,85,0,1
207700,-71.4285714285714,4,2,4,85,0,1
208400,-71.4285714285714,4,2,3,85,0,1
208600,-71.4285714285714,4,2,4,85,0,1
209000,-71.4285714285714,4,2,2,85,0,1
209300,-71.4285714285714,4,2,4,85,0,1
212000,-71.4285714285714,4,2,7,85,0,1
212300,-71.4285714285714,4,2,6,85,0,1
212500,-71.4285714285714,4,2,2,85,0,1
212900,-142.857142857143,4,2,2,85,0,1
213200,-71.4285714285714,4,2,2,85,0,1
213500,-71.4285714285714,4,2,1,85,0,1
213600,-71.4285714285714,4,2,2,85,0,1
213700,-71.4285714285714,4,2,2,85,0,0
213800,-71.4285714285714,4,2,11,85,0,1
214100,-71.4285714285714,4,2,6,85,0,1
214900,-71.4285714285714,4,2,2,85,0,1
215000,-71.4285714285714,4,2,9,85,0,1
215200,-71.4285714285714,4,2,2,85,0,1
215300,-71.4285714285714,4,2,6,85,0,1
215600,-71.4285714285714,4,2,4,85,0,1
215900,-71.4285714285714,4,2,6,85,0,1
216100,-71.4285714285714,4,2,2,85,0,1
216200,-71.4285714285714,4,2,9,85,0,1
216400,-71.4285714285714,4,2,2,85,0,1
216500,-71.4285714285714,4,2,6,85,0,1
216800,-71.4285714285714,4,2,4,85,0,1
217100,-71.4285714285714,4,2,6,85,0,1
217300,-71.4285714285714,4,2,2,85,0,1
217400,-71.4285714285714,4,2,9,85,0,1
217600,-71.4285714285714,4,2,2,85,0,1
217700,-71.4285714285714,4,2,6,85,0,1
218000,-71.4285714285714,4,2,4,85,0,1
218300,-71.4285714285714,4,2,6,85,0,1
218500,-71.4285714285714,4,2,2,85,0,1
218600,-71.4285714285714,4,2,9,85,0,1
218800,-71.4285714285714,4,2,2,85,0,1
218900,-71.4285714285714,4,2,6,85,0,1
219200,-71.4285714285714,4,2,4,85,0,1
219500,-71.4285714285714,4,2,5,85,0,1
219800,-71.4285714285714,4,2,9,85,0,1
220000,-71.4285714285714,4,2,2,85,0,1
220100,-71.4285714285714,4,2,6,85,0,1
220400,-71.4285714285714,4,2,4,85,0,1
220700,-71.4285714285714,4,2,5,85,0,1
221000,-71.4285714285714,4,2,9,85,0,1
221600,-71.4285714285714,4,2,3,85,0,1
221900,-71.4285714285714,4,2,6,85,0,1
222800,-71.4285714285714,4,2,9,85,0,1
223300,-71.4285714285714,4,2,2,85,0,1
223400,-71.4285714285714,4,2,8,85,0,1
223600,-71.4285714285714,4,2,2,85,0,1
223700,-71.4285714285714,4,2,6,85,0,1
224000,-71.4285714285714,4,2,9,85,0,1
224300,-71.4285714285714,4,2,5,85,0,1
224600,-71.4285714285714,4,2,9,85,0,1
224800,-71.4285714285714,4,2,2,85,0,1
224900,-71.4285714285714,4,2,6,85,0,1
225200,-71.4285714285714,4,2,9,85,0,1
225500,-71.4285714285714,4,2,6,85,0,1
225700,-71.4285714285714,4,2,2,85,0,1
225800,-71.4285714285714,4,2,9,85,0,1
226000,-71.4285714285714,4,2,2,85,0,1
226100,-71.4285714285714,4,2,6,85,0,1
226400,-71.4285714285714,4,2,9,85,0,1
226700,-71.4285714285714,4,2,6,85,0,1
226900,-71.4285714285714,4,2,1,85,0,1
227000,-71.4285714285714,4,2,4,85,0,1
227900,-71.4285714285714,4,2,5,85,0,1
228100,-71.4285714285714,4,2,1,85,0,1
228200,-71.4285714285714,4,2,8,85,0,1
228400,-71.4285714285714,4,2,2,85,0,1
228500,-71.4285714285714,4,2,8,85,0,1
228700,-71.4285714285714,4,2,2,85,0,1
228800,-71.4285714285714,4,2,12,85,0,1
229000,-71.4285714285714,4,2,1,85,0,1
229100,-71.4285714285714,4,2,7,85,0,1
229400,-71.4285714285714,4,2,8,85,0,1
229600,-71.4285714285714,4,2,7,85,0,1
229900,-71.4285714285714,4,2,1,85,0,1
230000,-71.4285714285714,4,2,7,85,0,1
230300,-71.4285714285714,4,2,8,85,0,1
230500,-71.4285714285714,4,2,2,85,0,1
230600,-71.4285714285714,4,2,8,85,0,1
230800,-71.4285714285714,4,2,7,85,0,1
231100,-71.4285714285714,4,2,1,85,0,1
231200,-71.4285714285714,4,2,7,85,0,1
231500,-71.4285714285714,4,2,8,85,0,1
231700,-71.4285714285714,4,2,2,85,0,1
231800,-71.4285714285714,4,2,2,65,0,1
232100,-71.4285714285714,4,2,1,65,0,1
232600,-71.4285714285714,4,2,4,65,0,1
233000,-111.111111111111,4,2,2,60,0,0

[Colours]
Combo1 : 138,40,236
Combo2 : 145,13,145
Combo3 : 89,89,240
Combo4 : 176,176,176

[HitObjects]
423,384,4400,5,2,1:2:0:0:
423,384,5000,6,0,B|390:374|390:374|358:299|358:299|319:287,1,152.999995330811,10|8,3:2|2:2,0:0:0:0:
155,201,5500,1,2,3:2:0:0:
212,263,5600,2,0,P|229:207|238:164,1,101.999996887207,8|2,1:2|2:2,0:0:0:0:
313,144,5900,2,0,P|296:88|287:45,1,101.999996887207,10|2,2:2|3:2,0:0:0:0:
175,0,6200,2,0,B|80:11|134:61|50:79,2,152.999995330811,10|10|10,2:2|3:2|1:2,0:0:0:0:
425,173,7300,1,2,2:2:0:0:
362,214,7400,6,0,P|316:189|315:137,1,101.999996887207,10|2,2:2|2:2,0:0:0:0:
373,98,7700,2,0,P|388:54|399:-3,1,101.999996887207,10|2,2:2|2:2,0:0:0:0:
473,22,8000,1,10,1:2:0:0:
263,84,8200,2,0,B|230:94|230:94|198:169|198:169|159:181,1,152.999995330811,2|2,3:2|3:2,0:0:0:0:
77,182,8600,2,0,P|148:206|157:287,1,152.999995330811,10|10,2:2|3:2,0:0:0:0:
357,342,9100,1,2,2:2:0:0:
289,382,9200,2,0,B|292:333|319:315|337:327|364:311|370:258,1,152.999995330811,10|8,1:2|2:2,0:0:0:0:
512,138,9700,1,2,2:2:0:0:
455,83,9800,6,0,B|392:67|367:112|367:112|367:142|345:158,1,152.999995330811,10|10,3:2|2:2,0:0:0:0:
126,217,10300,1,2,3:2:0:0:
144,146,10400,2,0,P|153:117|158:88,2,50.9999984436036,10|0|2,1:2|0:0|2:2,0:0:0:0:
70,171,10700,2,0,P|37:206|47:263,1,101.999996887207,10|2,2:2|3:2,0:0:0:0:
153,323,11000,2,0,B|234:304|214:368|307:352,2,152.999995330811,10|10|8,2:2|3:2|1:2,0:0:0:0:
388,232,12100,1,2,2:2:0:0:
332,183,12200,6,0,L|320:148,1,25.4999992218018,10|0,2:2|0:0,0:0:0:0:
82,7,12800,2,0,P|91:29|99:59,1,50.9999984436036,10|0,1:2|0:0,0:0:0:0:
41,99,13000,2,0,B|94:88|139:72|139:72|164:94|201:89,1,152.999995330811,2|2,3:2|3:2,0:0:0:0:
229,27,13400,2,0,B|209:98|209:98|226:131|226:131|215:175,2,152.999995330811,10|10|8,2:2|3:2|1:2,0:0:0:0:
72,332,14500,1,2,2:2:0:0:
144,290,14600,6,0,B|207:302|178:330|240:345,1,113.333333333333,10|2,3:2|2:2,0:0:0:0:
312,315,14900,2,0,B|327:292|351:272|351:272|331:247|318:207,1,113.333333333333,10|2,2:2|3:2,0:0:0:0:
220,174,15200,2,0,B|223:120|252:100|272:113|302:96|308:37,1,170,10|10,1:2|2:2,0:0:0:0:
470,231,15700,1,2,3:2:0:0:
504,161,15800,2,0,P|495:133|488:107,2,56.6666666666667,10|0|2,2:2|0:0|2:2,0:0:0:0:
394,208,16100,2,0,P|318:230|310:311,1,170,10|8,3:2|1:2,0:0:0:0:
16,375,16900,1,2,2:2:0:0:
70,322,17000,6,0,B|146:341|146:341|167:381,1,113.333333333333,10|2,2:2|2:2,0:0:0:0:
237,342,17300,2,0,B|261:332|261:332|279:271|279:271|304:262,1,113.333333333333,10|2,2:2|2:2,0:0:0:0:
160,221,17600,2,0,P|148:189|138:158,2,56.6666666666667,10|0|0,1:2|0:0|3:3,0:0:0:0:
59,164,17900,2,0,P|80:107|93:55,1,113.333333333333,10|0,2:2|3:3,0:0:0:0:
218,0,18200,2,0,B|288:-18|317:32|317:32|317:66|341:84,2,170,10|10|8,2:2|3:2|1:2,0:0:0:0:
412,218,19300,1,2,2:2:0:0:
480,174,19400,6,0,B|477:228|448:248|428:235|398:252|392:311,1,170,10|10,3:2|2:2,0:0:0:0:
248,375,19900,1,2,3:2:0:0:
184,331,20000,2,0,P|176:295|166:261,2,56.6666666666667,10|0|2,1:2|0:0|2:2,0:0:0:0:
276,264,20300,2,0,P|291:210|308:139,1,113.333333333333,10|2,2:2|3:2,0:0:0:0:
206,52,20600,6,0,P|150:53|136:106,1,113.333333333333,10|2,2:2|2:2,0:0:0:0:
77,157,20900,2,0,P|21:156|7:103,1,113.333333333333,10|2,3:2|2:2,0:0:0:0:
153,173,21200,2,0,B|179:186|179:186|188:222,2,56.6666666666667,10|0|2,1:2|0:0|2:2,0:0:0:0:
227,127,21500,2,0,P|290:109|340:93,1,113.333333333333,10|2,2:2|2:2,0:0:0:0:
447,149,21800,6,0,P|424:201|410:265,1,118.999996368408,10|10,2:2|2:2,0:0:0:0:
202,272,22400,2,0,P|215:303|221:331,1,45.3333333333333,10|0,1:2|0:0,0:0:0:0:
261,382,22600,2,0,P|321:373|345:303,1,136,2|2,3:2|3:2,0:0:0:0:
263,220,23000,2,0,B|260:166|231:146|211:159|181:142|175:83,2,170,10|8|10,2:2|3:2|1:2,0:0:0:0:
46,346,24200,6,0,L|57:384,2,39.6666654561361,14|0|2,3:2|0:0|2:2,0:0:0:0:
98,294,24500,2,0,P|133:283|178:265,1,79.3333309122722,10|2,2:2|3:2,0:0:0:0:
308,209,24800,2,0,L|321:163,2,39.6666654561361,10|0|2,1:2|0:0|2:2,0:0:0:0:
248,257,25100,1,10,2:2:0:0:
405,381,25300,6,0,B|397:341|379:330|369:338|354:326|345:282,1,118.999996368408,2|2,3:2|2:2,0:0:0:0:
392,219,25700,2,0,L|433:207,2,39.6666654561361,10|0|2,3:2|0:0|2:2,0:0:0:0:
236,171,26000,2,0,L|220:122,1,39.6666654561361,10|0,1:2|0:0,0:0:0:0:
164,80,26200,1,2,2:2:0:0:
228,8,26300,2,0,L|309:29,1,79.3333309122722,10|2,2:2|2:2,0:0:0:0:
141,150,26600,6,0,P|102:163|85:200,1,79.3333309122722,10|2,3:2|2:2,0:0:0:0:
7,212,26900,2,0,P|20:248|32:295,1,79.3333309122722,10|2,2:2|3:2,0:0:0:0:
146,342,27200,2,0,P|139:360|133:383,2,39.6666654561361,10|0|2,1:2|0:0|2:2,0:0:0:0:
104,277,27500,1,10,2:2:0:0:
279,237,27700,6,0,B|347:253|306:289|372:307,1,118.999996368408,2|2,3:2|2:2,0:0:0:0:
415,246,28100,2,0,P|437:238|462:229,2,39.6666654561361,10|0|2,3:2|0:0|2:2,0:0:0:0:
310,164,28400,2,0,P|297:126|291:100,1,50.9999984436036,10|0,1:2|0:0,0:0:0:0:
236,60,28600,1,2,2:2:0:0:
142,97,28700,2,0,P|161:46|173:-10,1,101.999996887207,10|2,2:2|2:2,0:0:0:0:
66,119,29000,6,0,P|63:163|107:193,1,90.6666666666667,10|2,3:2|2:2,0:0:0:0:
128,281,29300,2,0,P|174:263|220:251,1,90.6666666666667,10|2,2:2|3:2,0:0:0:0:
310,164,29600,2,0,P|333:173|362:181,2,45.3333333333333,10|0|2,1:2|0:0|2:2,0:0:0:0:
403,240,29900,2,0,P|436:211|432:167,1,90.6666666666667,10|2,2:2|3:2,0:0:0:0:
241,52,30200,6,0,B|250:98|270:110|282:101|299:115|310:166,1,136,10|10,2:2|3:2,0:0:0:0:
453,365,30700,1,2,2:2:0:0:
490,299,30800,2,0,P|433:320|360:341,1,136,10|10,1:2|2:2,0:0:0:0:
190,287,31300,1,2,2:2:0:0:
220,384,31400,6,0,P|226:369|230:350,1,33.9999989624024,10|2,3:2|2:2,0:0:0:0:
301,329,31700,2,0,P|295:314|291:295,1,33.9999989624024,10|2,2:2|3:2,0:0:0:0:
190,287,32000,6,0,B|186:263|186:263|177:236,1,45.3333333333333,10|2,1:2|2:2,0:0:0:0:
333,234,32300,2,0,B|336:212|336:212|345:183,1,45.3333333333333,10|2,2:2|3:2,0:0:0:0:
137,183,32600,6,0,P|120:162|97:141,1,56.6666666666667,10|0,2:2|0:0,0:0:0:0:
395,132,32900,2,0,P|411:110|436:88,1,56.6666666666667,10|0,3:2|0:0,0:0:0:0:
72,62,33200,6,0,B|41:74|41:74|2:82,1,67.9999979248048,10|0,1:2|0:0,0:0:0:0:
441,6,33500,2,0,B|471:18|471:18|511:25,1,67.9999979248048,10|8,2:2|2:2,0:0:0:0:
211,0,33800,6,0,L|220:39,1,31.1666676177979,10|0,3:2|0:0,0:0:0:0:
316,178,34400,6,0,L|307:217,1,31.1666676177979,10|0,3:2|0:0,0:0:0:0:
251,351,35000,6,0,L|260:390,1,31.1666676177979,10|0,3:2|0:0,0:0:0:0:
422,297,35300,6,0,B|386:291|344:274|344:274|304:295,1,124.666670471192,2|0,2:2|0:0,0:0:0:0:
183,379,35600,2,0,P|121:358|39:339,1,124.666670471192,2|2,2:2|2:2,0:0:0:0:
146,217,35900,2,0,P|195:248|183:309,1,124.666670471192,2|2,2:2|2:2,0:0:0:0:
77,263,36200,6,0,B|82:213|105:197|123:208|150:193|155:140,1,147.333326588949,6|2,3:2|2:2,0:0:0:0:
278,43,36500,2,0,P|301:98|233:125,1,147.333326588949,10|0,2:2|3:3,0:0:0:0:
78,129,36800,2,0,P|47:100|40:65,1,73.6666632944744,0|0,1:1|0:0,0:0:0:0:
197,0,37000,2,0,P|181:36|172:79,2,73.6666632944744,2|8|0,2:2|2:2|0:0,0:0:0:0:
103,23,37300,1,2,3:2:0:0:
234,125,37400,6,0,B|324:143|266:192|366:214,1,147.333326588949,2|2,2:2|2:2,0:0:0:0:
451,192,37700,2,0,P|385:208|403:285,1,147.333326588949,10|0,3:2|0:0,0:0:0:0:
251,358,38000,2,0,P|215:370|177:388,1,73.6666632944744,0|0,1:1|0:0,0:0:0:0:
284,288,38200,1,2,2:2:0:0:
152,205,38300,2,0,P|145:242|170:269,2,73.6666632944744,10|0|2,2:2|0:0|2:2,0:0:0:0:
316,175,38600,6,0,B|311:125|288:109|270:120|243:105|238:52,1,147.333326588949,2|2,3:2|2:2,0:0:0:0:
383,11,38900,2,0,P|382:49|352:63,1,73.6666632944744,10|0,2:2|0:0,0:0:0:0:
297,11,39100,1,2,3:2:0:0:
445,158,39200,2,0,P|483:171|521:191,1,73.6666632944744,2|0,1:2|0:0,0:0:0:0:
445,81,39400,1,2,2:2:0:0:
512,50,39500,1,10,2:2:0:0:
251,290,39700,6,0,P|151:289|122:172,1,220.999989883423,2|0,3:2|0:0,0:0:0:0:
323,247,40100,2,0,B|407:272|356:314|450:343,1,147.333326588949,8|0,3:2|0:0,0:0:0:0:
268,184,40400,2,0,P|255:140|247:101,1,73.6666632944744,4|0,1:2|0:0,0:0:0:0:
337,142,40600,1,0,0:0:0:0:
445,81,40700,2,0,P|458:37|466:-2,2,73.6666632944744,8|0|2,2:2|0:0|2:2,0:0:0:0:
397,217,41000,6,0,B|422:299|363:274|394:363,1,147.333326588949,6|2,3:2|2:2,0:0:0:0:
255,384,41300,2,0,P|219:379|196:351,1,73.6666632944744,10|0,2:2|0:0,0:0:0:0:
251,301,41500,1,2,3:2:0:0:
112,232,41600,2,0,B|29:252|80:294|0:323,1,147.333326588949,2|2,1:2|2:2,0:0:0:0:
193,215,41900,2,0,B|198:165|221:149|239:160|266:145|271:92,1,147.333326588949,10|0,2:2|3:3,0:0:0:0:
26,20,42200,6,0,P|50:85|68:165,1,147.333326588949,2|2,2:2|2:2,0:0:0:0:
251,301,42500,2,0,P|278:269|263:229,2,73.6666632944744,10|0|2,3:2|0:0|2:2,0:0:0:0:
124,382,42800,2,0,P|91:364|56:353,1,73.6666632944744,2|0,1:2|0:0,0:0:0:0:
148,305,43000,1,2,2:2:0:0:
0,234,43100,2,0,P|67:212|135:173,1,147.333326588949,10|2,2:2|2:2,0:0:0:0:
334,79,43400,6,0,P|397:96|398:172,1,147.333326588949,6|2,3:2|0:0,0:0:0:0:
188,124,43700,2,0,B|183:74|160:58|142:69|115:54|110:1,1,147.333326588949,2|2,0:0|3:2,0:0:0:0:
327,157,44000,2,0,P|312:191|303:238,1,73.6666632944744,6|0,1:2|0:0,0:0:0:0:
259,286,44200,1,0,0:0:0:0:
93,245,44300,2,0,P|108:279|117:326,1,73.6666632944744,4|0,1:2|0:0,0:0:0:0:
226,368,44500,6,0,B|268:310|235:231|181:267|144:189|191:117,1,272,2|2,0:0|1:2,0:0:0:0:
299,43,44900,2,0,P|305:66|314:91,1,45.3333333333333,10|2,2:3|0:0,0:0:0:0:
443,198,45200,6,0,P|478:184|519:172,1,73.6666632944744,2|0,1:2|0:0,0:0:0:0:
386,64,45400,1,10,1:3:0:0:
487,3,45500,2,0,P|474:38|465:75,2,73.6666632944744,6|0|2,2:3|0:0|2:2,0:0:0:0:
366,150,45800,6,0,P|331:164|297:182,1,73.6666632944744,6|0,3:2|0:0,0:0:0:0:
178,306,46000,1,2,2:2:0:0:
187,229,46100,2,0,B|273:254|217:298|310:320,1,147.333326588949,10|0,2:2|3:3,0:0:0:0:
438,368,46400,2,0,B|452:333|452:333|422:308,1,73.6666632944744,4|0,1:2|0:0,0:0:0:0:
344,220,46600,2,0,P|359:180|366:144,2,73.6666632944744,2|8|0,2:2|2:2|0:0,0:0:0:0:
435,199,46900,1,2,3:2:0:0:
322,82,47000,6,0,P|307:42|300:6,1,73.6666632944744,2|0,2:2|0:0,0:0:0:0:
435,110,47200,1,2,2:2:0:0:
365,149,47300,2,0,B|332:161|332:161|312:238|312:238|278:252,1,147.333326588949,10|0,3:2|0:0,0:0:0:0:
169,357,47600,2,0,P|143:329|154:289,1,73.6666632944744,0|0,1:1|0:0,0:0:0:0:
210,259,47800,1,2,2:2:0:0:
46,191,47900,2,0,P|66:158|107:158,1,73.6666632944744,10|0,2:2|0:0,0:0:0:0:
151,210,48100,1,2,2:2:0:0:
204,48,48200,6,0,P|202:86|166:106,1,73.6666632944744,2|0,3:2|0:0,0:0:0:0:
88,0,48400,2,0,P|125:93|152:214,1,220.999989883423,2|2,2:2|3:2,0:0:0:0:
308,270,48800,2,0,P|346:284|374:306,1,73.6666632944744,2|0,1:2|0:0,0:0:0:0:
276,199,49000,1,2,2:2:0:0:
340,154,49100,1,10,2:2:0:0:
124,384,49300,6,0,P|35:338|88:248,1,220.999989883423,2|2,3:2|2:2,0:0:0:0:
276,199,49700,2,0,B|281:149|304:133|322:144|349:129|354:76,1,147.333326588949,10|2,3:2|2:2,0:0:0:0:
180,31,50000,2,0,P|178:67|213:89,1,73.6666632944744,6|0,1:2|0:0,0:0:0:0:
283,71,50200,1,2,2:2:0:0:
202,162,50300,2,0,P|167:176|132:194,2,73.6666632944744,10|0|2,2:2|0:0|2:2,0:0:0:0:
355,213,50600,6,0,P|371:269|316:303,1,124.666670471192,6|2,3:2|2:2,0:0:0:0:
277,364,50900,2,0,P|211:336|146:320,1,124.666670471192,10|2,2:2|3:2,0:0:0:0:
6,52,51200,6,0,P|-10:108|45:142,1,124.666670471192,2|2,1:2|2:2,0:0:0:0:
84,203,51500,2,0,P|150:175|215:159,1,124.666670471192,10|2,2:2|3:2,0:0:0:0:
308,33,51800,6,0,B|347:44|347:44|379:157|379:157|416:171,2,187.000005706787,2|10|2,2:2|3:2|1:2,0:0:0:0:
510,253,52600,1,2,2:2:0:0:
483,182,52700,2,0,B|405:198|405:198|379:246,1,124.666670471192,10|2,2:2|2:2,0:0:0:0:
257,332,53000,6,0,B|215:326|177:311|177:311|158:327|131:325,1,124.666670471192,0|2,3:3|2:2,0:0:0:0:
81,281,53300,2,0,P|69:245|57:216,1,62.3333352355958
145,236,53500,1,2,3:2:0:0:
264,147,53600,2,0,P|276:111|288:82,2,62.3333352355958,6|0|2,1:2|0:0|2:2,0:0:0:0:
172,127,53900,1,2,2:2:0:0:
476,341,54100,6,0,P|417:250|309:255,1,220.999989883423,2|2,1:2|2:2,0:0:0:0:
172,127,54500,6,0,P|171:146|185:169,1,45.3333333333333,2|2,3:2|2:2,0:0:0:0:
313,252,54800,5,2,1:2:0:0:
97,360,55000,1,8,1:3:0:0:
183,300,55100,2,0,B|188:250|211:234|229:245|256:230|261:177,1,147.333326588949,6|0,2:3|0:0,0:0:0:0:
393,128,55400,6,0,P|384:106|376:82,1,45.3333333333333,6|0,3:2|0:0,0:0:0:0:
297,58,55700,2,0,P|308:29|319:-1,2,62.3333352355958,8|0|0,2:2|0:0|3:3,0:0:0:0:
186,136,56000,2,0,P|128:119|120:56,1,124.666670471192,2|0,1:2|0:0,0:0:0:0:
281,128,56300,2,0,P|270:159|261:196,1,62.3333352355958,8|0,2:2|0:0,0:0:0:0:
309,254,56500,1,0,3:3:0:0:
94,352,56600,6,0,P|135:280|244:289,2,187.000005706787,2|10|2,2:2|3:2|1:2,0:0:0:0:
405,328,57500,2,0,P|387:266|373:198,1,124.666670471192,10|2,2:2|2:2,0:0:0:0:
257,130,57800,2,0,P|240:184|292:211,1,124.666670471192,2|0,3:2|0:0,0:0:0:0:
437,167,58100,2,0,P|454:113|402:86,1,124.666670471192,10|2,2:2|3:2,0:0:0:0:
236,55,58400,2,0,P|204:42|182:18,2,62.3333352355958,2|0|0,1:2|0:0|0:0,0:0:0:0:
329,96,58700,1,10,2:2:0:0:
160,278,58900,6,0,B|166:216|194:196|216:209|250:191|256:125,1,187.000005706787,0|0,3:3|0:0,0:0:0:0:
52,44,59300,2,0,P|79:104|96:173,1,124.666670471192,8|0,3:2|0:0,0:0:0:0:
247,280,59600,2,0,P|260:336|211:371,1,124.666670471192,4|0,1:2|0:0,0:0:0:0:
73,332,59900,2,0,P|62:301|55:263,2,62.3333352355958,10|0|4,2:3|0:0|2:3,0:0:0:0:
0,384,60200,6,0,B|80:362|80:362|124:388,1,124.666670471192,6|0,3:2|0:0,0:0:0:0:
247,280,60500,2,0,P|258:249|265:211,2,62.3333352355958,8|0|0,2:2|0:0|3:3,0:0:0:0:
301,338,60800,1,2,1:2:0:0:
93,180,61100,2,0,P|82:149|75:111,1,62.3333352355958,8|0,2:2|0:0,0:0:0:0:
9,160,61300,1,0,3:3:0:0:
193,28,61400,6,0,P|276:40|290:133,2,187.000005706787,2|10|2,2:2|3:2|1:2,0:0:0:0:
333,198,62300,2,0,B|411:214|366:247|448:267,1,124.666670471192,10|0,2:2|0:0,0:0:0:0:
286,307,62600,2,0,B|245:321|203:330|203:330|177:373,1,124.666670471192,0|0,3:3|0:0,0:0:0:0:
108,384,62900,1,10,2:2:0:0:
258,232,63100,1,0,3:3:0:0:
189,201,63200,2,0,P|178:167|168:128,1,62.3333352355958,6|0,1:2|0:0,0:0:0:0:
107,194,63400,1,0,0:0:0:0:
293,122,63500,2,0,P|304:88|314:49,1,62.3333352355958,6|0,1:2|0:0,0:0:0:0:
194,0,63700,6,0,B|117:-21|83:28|83:28|84:64|47:84,1,187.000005706787,0|0,3:3|1:1,0:0:0:0:
0,167,64100,2,0,P|13:200|23:238,2,62.3333352355958,2|2|2,3:2|2:2|2:2,0:0:0:0:
149,263,64400,1,2,1:2:0:0:
89,310,64500,1,0,0:0:0:0:
190,376,64600,1,10,1:3:0:0:
230,259,64700,2,0,P|207:316|190:376,1,124.666670471192,6|0,2:3|0:0,0:0:0:0:
49,380,65000,6,0,P|22:370|4:366,1,45.3333333333333,6|0,3:2|0:0,0:0:0:0:
149,263,65300,2,0,P|151:227|127:203,2,62.3333352355958,8|0|0,2:2|0:0|3:3,0:0:0:0:
0,103,65600,2,0,P|31:148|99:137,1,124.666670471192,2|0,1:2|0:0,0:0:0:0:
247,50,65900,2,0,P|224:30|194:32,1,62.3333352355958,8|0,2:2|0:0,0:0:0:0:
159,99,66100,1,0,3:3:0:0:
295,189,66200,6,0,B|301:127|329:107|351:120|385:102|391:36,2,187.000005706787,2|10|2,2:2|3:2|1:2,0:0:0:0:
502,286,67100,2,0,P|514:225|457:204,1,124.666670471192,10|2,2:2|2:2,0:0:0:0:
370,319,67400,2,0,B|444:333|404:370|479:387,1,124.666670471192,2|0,3:2|0:0,0:0:0:0:
306,268,67700,2,0,B|262:285|218:292|218:292|194:336,1,124.666670471192,10|2,2:2|3:2,0:0:0:0:
354,203,68000,2,0,P|365:172|374:132,2,62.3333352355958,2|0|0,1:2|0:0|0:0,0:0:0:0:
417,251,68300,1,10,2:2:0:0:
457,22,68500,6,0,P|416:93|319:89,1,187.000005706787,0|0,3:3|0:0,0:0:0:0:
212,150,68900,2,0,P|167:116|181:44,1,124.666670471192,8|0,3:2|0:0,0:0:0:0:
282,12,69200,1,4,1:2:0:0:
489,185,69500,2,0,P|512:171|511:138,1,62.3333352355958,2|0,2:2|0:0,0:0:0:0:
450,95,69700,1,0,1:1:0:0:
354,203,69800,6,0,B|390:318|310:275|354:402,1,187.000005706787,6|10,3:2|2:2,0:0:0:0:
435,242,70300,1,2,3:2:0:0:
288,154,70400,2,0,P|233:181|166:202,1,124.666670471192,0|2,1:1|2:2,0:0:0:0:
403,11,70700,2,0,P|456:36|438:104,1,124.666670471192,10|2,2:2|3:2,0:0:0:0:
354,203,71000,6,0,B|348:141|320:121|298:134|264:116|258:50,2,187.000005706787,2|10|0,2:2|3:2|1:1,0:0:0:0:
504,384,71800,2,0,L|514:350,1,31.1666676177979,2|0,2:2|0:0,0:0:0:0:
464,299,71900,2,0,P|433:306|411:337,2,62.3333352355958,10|0|2,2:2|0:0|2:2,0:0:0:0:
349,368,72200,6,0,P|277:342|197:316,1,135.99999584961,2|2,3:2|2:2,0:0:0:0:
129,175,72500,1,4,1:2:0:0:
238,245,72600,1,0,0:0:0:0:
271,118,72700,1,2,2:2:0:0:
210,171,72800,2,0,B|205:121|182:105|165:115|137:101|132:48,1,135.99999584961,4|2,1:2|2:2,0:0:0:0:
341,0,73100,2,0,P|334:36|321:81,1,67.9999979248048,2|0,2:2|0:0,0:0:0:0:
271,118,73300,1,10,2:3:0:0:
433,248,73400,6,0,P|452:180|396:160,1,135.99999584961,2|4,2:2|2:3,0:0:0:0:
238,245,73700,2,0,P|170:266|108:299,1,135.99999584961,4|0,2:3|0:0,0:0:0:0:
427,384,74000,2,0,P|413:347|403:308,1,62.3333352355958,2|0,1:2|0:0,0:0:0:0:
315,217,74200,2,0,B|321:155|349:135|371:148|405:130|411:64,1,187.000005706787,0|0,1:1|0:0,0:0:0:0:
341,0,74600,6,0,B|285:15|241:17|241:17|233:48|199:57,1,152.999995330811,10|8,3:2|2:2,0:0:0:0:
39,188,75100,1,2,3:2:0:0:
99,126,75200,2,0,P|111:176|125:231,1,101.999996887207,10|2,1:2|2:2,0:0:0:0:
206,219,75500,2,0,P|192:268|180:318,1,101.999996887207,10|2,2:2|3:2,0:0:0:0:
87,369,75800,2,0,P|59:359|44:335,2,50.9999984436036,10|0|2,2:2|0:0|2:2,0:0:0:0:
180,317,76100,2,0,P|224:304|255:346,1,101.999996887207,10|2,3:2|2:2,0:0:0:0:
319,384,76400,1,10,1:2:0:0:
482,199,76900,1,2,2:2:0:0:
431,144,77000,6,0,P|387:131|356:173,1,101.999996887207,10|2,2:2|2:2,0:0:0:0:
299,220,77300,2,0,P|272:228|245:239,2,50.9999984436036,10|0|2,2:2|0:0|2:2,0:0:0:0:
219,305,77600,2,0,P|175:318|144:276,1,101.999996887207,10|0,1:2|3:3,0:0:0:0:
78,241,77900,2,0,P|92:200|105:143,1,101.999996887207,10|2,2:2|3:2,0:0:0:0:
225,93,78200,2,0,P|214:61|210:40,2,50.9999984436036,10|0|2,2:2|0:0|2:2,0:0:0:0:
292,133,78500,1,10,3:2:0:0:
166,252,78700,1,2,2:2:0:0:
219,305,78800,2,0,B|254:294|254:294|280:214|280:214|323:199,1,152.999995330811,10|10,1:2|2:2,0:0:0:0:
162,369,79400,6,0,B|103:355|58:338|58:338|10:362,1,152.999995330811,10|10,3:2|2:2,0:0:0:0:
219,201,79900,1,2,3:2:0:0:
153,137,80000,2,0,P|142:191|128:240,1,101.999996887207,10|2,1:2|2:2,0:0:0:0:
219,305,80300,2,0,P|274:289|289:243,1,101.999996887207,10|2,2:2|3:2,0:0:0:0:
355,205,80600,2,0,B|341:159|341:159|363:110|363:110|346:60,1,152.999995330811,10|8,2:2|3:2,0:0:0:0:
470,249,81100,1,2,2:2:0:0:
400,267,81200,2,0,B|435:278|435:278|461:358|461:358|504:373,1,152.999995330811,10|10,1:2|2:2,0:0:0:0:
259,378,81800,5,8,2:2:0:0:
300,313,82000,1,2,2:2:0:0:
295,305,82100,1,10,2:2:0:0:
295,305,82400,2,0,P|258:295|224:283,1,67.9999979248048,10|2,2:2|2:2,0:0:0:0:
187,224,82700,1,10,2:2:0:0:
302,153,82900,1,2,2:2:0:0:
308,143,83000,6,0,P|354:130|414:106,1,101.999996887207,10|10,2:2|2:2,0:0:0:0:
404,110,83500,1,2,2:2:0:0:
236,36,83600,2,0,P|246:63|256:95,1,50.9999984436036,2|0,1:2|0:0,0:0:0:0:
380,219,83800,1,2,1:2:0:0:
444,182,83900,2,0,P|426:232|413:289,1,101.999996887207,10|6,2:3|2:3,0:0:0:0:
484,321,84200,6,0,B|377:288|421:366|322:343,1,170,14|8,3:2|2:2,0:0:0:0:
161,222,84700,1,2,3:2:0:0:
227,184,84800,2,0,P|252:177|283:167,2,56.6666666666667,10|2|2,1:2|2:2|2:2,0:0:0:0:
160,299,85100,2,0,P|135:306|104:316,2,56.6666666666667,10|2|2,2:2|2:2|3:2,0:0:0:0:
249,356,85400,2,0,B|243:299|217:280|196:293|165:276|160:215,1,170,10|10,2:2|3:2,0:0:0:0:
349,268,85900,1,2,2:2:0:0:
399,213,86000,2,0,P|408:186|416:156,2,56.6666666666667,10|0|2,1:2|0:0|2:2,0:0:0:0:
317,157,86300,2,0,P|264:167|245:222,1,113.333333333333,10|2,2:2|2:2,0:0:0:0:
160,299,86600,6,0,P|107:278|50:261,1,113.333333333333,10|2,3:2|2:2,0:0:0:0:
237,291,86900,2,0,P|277:326|266:383,1,113.333333333333,8|2,2:2|3:2,0:0:0:0:
163,216,87200,2,0,P|153:182|147:149,2,56.6666666666667,10|0|2,1:2|0:0|2:2,0:0:0:0:
24,164,87500,2,0,P|44:102|54:49,1,113.333333333333,10|2,2:2|3:2,0:0:0:0:
209,0,87800,5,10,2:2:0:0:
232,11,87900,2,0,P|245:31|254:70,1,56.6666666666667,2|2,2:2|2:2,0:0:0:0:
348,81,88100,5,10,3:2:0:0:
353,99,88200,2,0,P|348:122|326:156,1,56.6666666666667,2|2,2:2|2:2,0:0:0:0:
323,269,88400,5,10,1:2:0:0:
314,275,88500,2,0,P|290:270|256:248,1,56.6666666666667,2|2,2:2|2:2,0:0:0:0:
184,267,88700,6,0,P|171:247|162:208,2,56.6666666666667,10|2|2,2:2|2:2|2:2,0:0:0:0:
7,188,89000,6,0,P|50:126|134:146,1,170,10|8,3:2|2:2,0:0:0:0:
249,310,89500,1,2,3:2:0:0:
184,267,89600,2,0,P|237:271|267:226,1,113.333333333333,10|2,1:2|2:2,0:0:0:0:
360,198,89900,2,0,P|342:145|328:87,1,113.333333333333,10|2,2:2|3:2,0:0:0:0:
209,0,90200,6,0,P|169:35|192:93,1,113.333333333333,10|0,2:2|0:0,0:0:0:0:
258,108,90500,2,0,P|298:73|275:15,1,113.333333333333,10|2,3:2|2:2,0:0:0:0:
136,155,90800,2,0,B|97:170|97:170|81:262|81:262|36:282,1,170,8|8,1:2|2:2,0:0:0:0:
283,367,91300,1,2,2:2:0:0:
183,280,91400,6,0,P|214:289|235:317,2,56.6666666666667,2|0|2,3:2|0:0|2:2,0:0:0:0:
283,367,91700,2,0,P|335:358|363:300,1,113.333333333333,2|2,2:2|3:2,0:0:0:0:
468,239,92000,2,0,B|462:182|436:163|415:176|384:159|379:98,1,170,2|2,1:2|2:2,0:0:0:0:
234,211,92500,1,2,3:2:0:0:
304,180,92600,6,0,P|248:172|226:122,1,113.333333333333,2|2,2:2|2:2,0:0:0:0:
166,74,92900,2,0,P|110:82|88:132,1,113.333333333333,10|2,3:3|2:2,0:0:0:0:
0,207,93200,2,0,P|10:234|22:274,1,56.6666666666667,2|0,1:2|0:0,0:0:0:0:
110,292,93400,1,10,2:3:0:0:
171,252,93500,2,0,P|154:295|135:360,1,113.333333333333,6|0,2:3|0:0,0:0:0:0:
65,384,93800,6,0,P|45:376|25:370,2,39.6666654561361,14|0|2,3:2|0:0|2:2,0:0:0:0:
135,359,94100,2,0,P|180:343|222:331,1,79.3333309122722,10|2,2:2|3:2,0:0:0:0:
313,237,94400,2,0,P|334:245|359:252,2,39.6666654561361,10|0|2,1:2|0:0|2:2,0:0:0:0:
247,273,94700,1,10,2:2:0:0:
164,144,94900,6,0,P|129:154|107:206,1,79.3333309122722,2|0,3:2|0:0,0:0:0:0:
153,243,95200,1,2,2:2:0:0:
284,158,95300,2,0,P|293:133|300:110,2,39.6666654561361,10|0|2,3:2|0:0|2:2,0:0:0:0:
190,34,95600,2,0,P|196:53|203:71,1,39.6666654561361,10|0,1:2|0:0,0:0:0:0:
270,34,95800,1,2,2:2:0:0:
381,103,95900,2,0,P|367:145|354:197,1,79.3333309122722,10|2,2:2|2:2,0:0:0:0:
238,263,96200,6,0,P|267:230|310:234,1,79.3333309122722,10|2,3:2|2:2,0:0:0:0:
357,286,96500,2,0,P|395:283|419:252,1,79.3333309122722,10|2,2:2|3:2,0:0:0:0:
512,164,96800,2,0,P|504:144|496:117,2,39.6666654561361,10|0|2,1:2|0:0|2:2,0:0:0:0:
495,234,97100,1,10,2:2:0:0:
332,139,97300,6,0,B|336:98|354:84|369:94|391:82|395:38,1,118.999996368408,2|2,3:2|2:2,0:0:0:0:
462,12,97700,2,0,P|483:6|505:-3,2,39.6666654561361,10|0|2,3:2|0:0|2:2,0:0:0:0:
323,29,98000,2,0,P|296:19|266:5,1,50.9999984436036,10|0,1:2|0:0,0:0:0:0:
270,86,98200,1,2,2:2:0:0:
182,137,98300,2,0,P|131:156|82:179,1,101.999996887207,10|2,2:2|2:2,0:0:0:0:
282,244,98600,6,0,P|284:192|247:164,1,90.6666666666667,10|2,3:2|2:2,0:0:0:0:
188,57,98900,2,0,P|196:34|201:9,2,45.3333333333333,10|0|2,2:2|0:0|3:2,0:0:0:0:
104,121,99200,2,0,P|59:101|49:61,1,90.6666666666667,10|2,1:2|2:2,0:0:0:0:
129,191,99500,2,0,P|123:214|115:244,1,45.3333333333333,10|0,2:2|0:0,0:0:0:0:
79,336,99700,1,2,3:2:0:0:
0,244,99800,6,0,B|28:254|28:254|51:327|51:327|88:339,1,136,10|10,2:2|3:2,0:0:0:0:
228,291,100400,2,0,P|254:283|281:273,2,45.3333333333333,10|0|0,1:2|0:0|0:0,0:0:0:0:
152,278,100700,2,0,P|138:227|127:186,1,90.6666666666667,10|2,2:2|2:2,0:0:0:0:
215,207,101000,5,10,3:2:0:0:
132,21,101200,1,0,0:0:0:0:
86,78,101300,2,0,P|38:95|-3:109,1,90.6666666666667,10|0,1:2|0:0,0:0:0:0:
215,207,101600,2,0,P|257:221|300:236,1,90.6666666666667,10|0,1:2|0:0,0:0:0:0:
268,140,101900,1,10,1:2:0:0:
61,278,102100,6,0,B|66:228|88:211|107:222|134:208|138:154,1,152.999995330811,10|0,2:3|1:1,0:0:0:0:
231,76,102500,2,0,P|222:49|215:24,2,50.9999984436036,14|0|0,2:3|0:0|0:0,0:0:0:0:
345,159,102800,2,0,P|369:152|388:126,2,50.9999984436036,10|0|0,1:2|0:0|1:1,0:0:0:0:
306,225,103100,1,10,2:2:0:0:
306,225,103400,5,10,3:2:0:0:
235,211,103500,1,2,2:2:0:0:
206,277,103600,1,2,2:2:0:0:
345,159,104000,5,10,3:2:0:0:
321,87,104100,1,2,2:2:0:0:
244,95,104200,1,2,2:2:0:0:
459,141,104600,5,10,3:2:0:0:
512,74,104700,1,2,2:2:0:0:
448,23,104800,1,2,2:2:0:0:
394,103,104900,6,0,B|398:146|417:161|434:151|457:163|460:210,1,124.666670471192,2|0,2:2|0:0,0:0:0:0:
374,301,105200,2,0,P|339:290|321:264,1,62.3333352355958,10|0,2:2|0:0,0:0:0:0:
387,229,105400,1,2,2:2:0:0:
268,159,105500,2,0,B|194:182|194:182|167:231,1,124.666670471192,10|6,2:3|2:3,0:0:0:0:
98,384,105800,6,0,P|33:374|40:302,1,147.333326588949,6|2,3:2|2:2,0:0:0:0:
171,223,106100,2,0,B|165:169|142:151|122:163|93:148|89:90,1,147.333326588949,10|0,2:2|3:3,0:0:0:0:
235,56,106400,2,0,P|229:92|186:107,1,73.6666632944744,0|0,1:1|0:0,0:0:0:0:
23,71,106600,2,0,P|8:37|28:4,2,73.6666632944744,2|10|0,2:2|2:2|0:0,0:0:0:0:
91,108,106900,1,2,3:2:0:0:
0,214,107000,6,0,P|34:224|74:240,1,73.6666632944744,2|0,2:2|0:0,0:0:0:0:
112,182,107200,1,2,2:2:0:0:
281,322,107300,2,0,B|297:288|322:262|322:262|291:236|264:193,1,147.333326588949,10|0,3:2|0:0,0:0:0:0:
112,306,107600,2,0,P|104:343|92:385,1,73.6666632944744,2|0,1:2|0:0,0:0:0:0:
213,289,107800,1,2,2:2:0:0:
112,182,107900,2,0,P|193:157|264:131,1,147.333326588949,10|2,2:2|2:2,0:0:0:0:
421,43,108200,6,0,P|484:66|477:151,1,147.333326588949,2|2,3:2|2:2,0:0:0:0:
293,70,108500,2,0,P|284:43|271:-1,2,73.6666632944744,10|0|2,2:2|0:0|3:2,0:0:0:0:
420,184,108800,2,0,P|411:211|398:255,1,73.6666632944744,2|0,1:2|0:0,0:0:0:0:
213,289,109000,1,2,2:2:0:0:
243,219,109100,1,10,2:2:0:0:
498,378,109300,6,0,P|436:292|326:300,1,220.999989883423,2|0,3:2|0:0,0:0:0:0:
186,384,109700,2,0,P|116:375|85:299,1,147.333326588949,8|0,3:2|0:0,0:0:0:0:
240,155,110000,2,0,P|257:187|235:224,1,73.6666632944744,4|0,1:2|0:0,0:0:0:0:
168,230,110200,1,0,0:0:0:0:
86,126,110300,2,0,P|97:93|107:54,2,73.6666632944744,8|0|2,2:2|0:0|2:2,0:0:0:0:
0,173,110600,6,0,B|35:185|35:185|54:267|54:267|89:282,1,147.333326588949,6|2,3:2|2:2,0:0:0:0:
280,341,110900,2,0,P|317:327|358:315,2,73.6666632944744,10|0|2,2:2|0:0|3:2,0:0:0:0:
135,384,111200,2,0,P|120:349|141:318,1,73.6666632944744,2|0,1:2|0:0,0:0:0:0:
208,293,111400,1,2,2:2:0:0:
302,201,111500,2,0,P|292:168|282:126,1,73.6666632944744,10|0,2:2|0:0,0:0:0:0:
215,204,111700,1,0,3:3:0:0:
350,318,111800,6,0,B|356:264|379:246|399:258|428:243|432:185,1,147.333326588949,2|2,2:2|2:2,0:0:0:0:
283,130,112100,2,0,P|206:101|191:35,1,147.333326588949,10|2,3:2|2:2,0:0:0:0:
401,0,112400,2,0,P|388:36|379:78,1,73.6666632944744,2|0,1:2|0:0,0:0:0:0:
308,58,112600,1,2,2:2:0:0:
504,207,112700,2,0,P|525:136|460:109,1,147.333326588949,10|2,2:2|2:2,0:0:0:0:
302,201,113000,6,0,B|213:223|271:267|179:296,1,147.333326588949,6|2,3:2|0:0,0:0:0:0:
427,384,113300,2,0,P|407:318|388:236,1,147.333326588949,2|2,0:0|3:2,0:0:0:0:
288,128,113600,2,0,P|300:94|308:54,1,73.6666632944744,6|0,1:2|0:0,0:0:0:0:
364,7,113800,1,2,0:0:0:0:
488,70,113900,2,0,P|476:36|468:-4,1,73.6666632944744,6|0,1:2|0:0,0:0:0:0:
392,136,114100,6,0,B|434:194|401:273|347:237|310:315|357:387,1,272,2|2,0:0|1:2,0:0:0:0:
512,293,114500,6,0,P|501:265|496:238,1,45.3333333333333,10|2,2:3|0:0,0:0:0:0:
288,128,114800,6,0,P|253:115|221:98,1,73.6666632944744,2|0,1:2|0:0,0:0:0:0:
270,199,115000,1,10,1:3:0:0:
115,300,115100,2,0,P|147:282|181:270,2,73.6666632944744,6|0|2,2:3|0:0|2:2,0:0:0:0:
344,58,115400,6,0,P|371:50|422:30,1,73.6666632944744,6|0,3:2|0:0,0:0:0:0:
419,117,115600,1,2,2:2:0:0:
175,19,115700,2,0,B|159:53|134:79|134:79|165:105|192:148,1,147.333326588949,10|0,2:2|3:3,0:0:0:0:
405,270,116000,2,0,P|413:233|424:195,2,73.6666632944744,4|0|2,1:2|0:0|2:2,0:0:0:0:
244,322,116300,2,0,P|208:310|189:272,1,73.6666632944744,10|0,2:2|0:0,0:0:0:0:
252,232,116500,1,2,3:2:0:0:
94,158,116600,6,0,P|58:173|15:186,1,73.6666632944744,2|0,2:2|0:0,0:0:0:0:
147,215,116800,1,2,2:2:0:0:
62,367,116900,2,0,P|35:300|94:256,1,147.333326588949,10|0,3:2|0:0,0:0:0:0:
274,154,117200,2,0,P|264:121|253:67,1,73.6666632944744,0|0,1:1|0:0,0:0:0:0:
204,28,117400,1,2,2:2:0:0:
83,71,117500,2,0,P|93:38|104:-16,1,73.6666632944744,10|0,2:2|0:0,0:0:0:0:
180,103,117700,1,2,2:2:0:0:
30,143,117800,6,0,B|74:158|123:169|123:169|149:220,1,147.333326588949,2|2,3:2|2:2,0:0:0:0:
244,340,118100,2,0,P|279:326|319:312,2,73.6666632944744,10|0|2,2:2|0:0|3:2,0:0:0:0:
49,294,118400,2,0,P|42:257|71:235,1,73.6666632944744,2|0,1:2|0:0,0:0:0:0:
85,361,118600,1,2,2:2:0:0:
13,384,118700,1,10,2:2:0:0:
290,224,118900,6,0,B|362:186|418:248|418:248|415:292|460:309,1,220.999989883423,2|2,3:2|2:2,0:0:0:0:
222,165,119300,2,0,B|216:111|193:93|173:105|144:90|140:32,1,147.333326588949,10|2,3:2|2:2,0:0:0:0:
370,0,119600,2,0,P|357:35|347:80,1,73.6666632944744,6|0,1:2|0:0,0:0:0:0:
291,118,119800,1,2,2:2:0:0:
470,166,119900,2,0,B|478:129|478:129|444:107,2,73.6666632944744,10|0|2,2:2|0:0|2:2,0:0:0:0:
336,286,120200,6,0,B|248:303|299:348|217:379,1,147.333326588949,6|2,3:2|2:2,0:0:0:0:
159,333,120500,2,0,P|130:261|186:218,1,147.333326588949,10|2,2:2|3:2,0:0:0:0:
291,118,120800,6,0,B|379:135|328:180|410:211,1,147.333326588949,2|2,1:2|2:2,0:0:0:0:
470,166,121100,2,0,P|499:94|443:51,1,147.333326588949,10|2,2:2|3:2,0:0:0:0:
291,210,121400,6,0,B|282:136|251:111|223:127|184:107|178:27,2,220.999989883423,2|10|2,2:2|3:2|1:2,0:0:0:0:
470,355,122200,1,2,2:2:0:0:
406,299,122300,2,0,P|343:313|320:397,1,147.333326588949,10|2,2:2|2:2,0:0:0:0:
478,281,122600,6,0,B|494:247|519:221|519:221|488:195|461:152,1,147.333326588949,2|2,3:2|2:2,0:0:0:0:
338,78,122900,2,0,P|336:38|356:9,1,73.6666632944744
430,27,123100,1,2,3:2:0:0:
326,154,123200,2,0,P|289:168|253:186,2,73.6666632944744,2|0|2,1:2|0:0|2:2,0:0:0:0:
415,114,123500,1,2,2:2:0:0:
233,343,123700,6,0,B|191:329|191:329|157:210|157:210|107:190,1,220.999989883423,2|2,1:2|2:2,0:0:0:0:
264,15,124100,6,0,P|256:44|243:77,1,45.3333333333333,2|2,3:2|2:2,0:0:0:0:
66,125,124400,6,0,P|53:92|42:43,1,73.6666632944744,2|0,3:2|0:0,0:0:0:0:
171,119,124600,1,2,1:2:0:0:
107,190,124700,1,2,1:2:0:0:
256,237,124800,1,0,1:1:0:0:
180,127,124900,1,0,1:1:0:0:
44,337,125000,6,0,P|127:310|178:298,1,135.99999584961,6|0,3:2|0:0,0:0:0:0:
348,177,125300,2,0,P|377:190|419:203,1,67.9999979248048,10|0,2:2|0:0,0:0:0:0:
340,257,125500,1,0,3:3:0:0:
264,117,125600,2,0,P|275:83|285:42,2,67.9999979248048,6|0|0,1:2|0:0|0:0,0:0:0:0:
107,190,125900,2,0,B|112:234|131:249|148:240|171:252|175:300,1,135.99999584961,10|0,2:2|3:3,0:0:0:0:
321,358,126200,6,0,P|369:302|335:255,1,135.99999584961,2|0,2:2|0:0,0:0:0:0:
175,299,126500,2,0,B|133:314|86:325|86:325|59:372,1,135.99999584961,10|0,3:2|0:0,0:0:0:0:
211,200,126800,2,0,P|245:215|286:227,2,67.9999979248048,2|0|0,1:2|0:0|0:0,0:0:0:0:
97,91,127100,2,0,P|102:55|133:34,1,67.9999979248048,10|0,2:2|0:0,0:0:0:0:
186,80,127300,1,0,0:0:0:0:
10,177,127400,6,0,P|76:198|140:228,1,135.99999584961,2|0,3:2|0:0,0:0:0:0:
288,346,127700,2,0,P|318:331|351:321,1,67.9999979248048,10|0,2:2|0:0,0:0:0:0:
231,289,127900,1,0,3:3:0:0:
355,189,128000,2,0,P|379:214|368:261,2,67.9999979248048,2|0|0,1:2|0:0|0:0,0:0:0:0:
288,147,128300,1,10,2:2:0:0:
127,363,128500,6,0,B|135:296|163:273|188:287|223:269|229:197,1,203.999993774414,0|0,3:3|0:0,0:0:0:0:
119,72,128900,2,0,P|102:134|164:163,1,135.99999584961,10|0,3:2|0:0,0:0:0:0:
337,84,129200,2,0,P|348:48|356:8,1,67.9999979248048,6|0,1:2|0:0,0:0:0:0:
378,151,129400,1,2,2:2:0:0:
203,66,129500,2,0,P|192:30|184:-10,2,67.9999979248048,2|0|2,2:2|0:0|2:2,0:0:0:0:
316,207,129800,6,0,B|348:288|291:266|319:352,1,135.99999584961,6|0,3:2|0:0,0:0:0:0:
140,383,130100,2,0,P|112:324|166:293,1,135.99999584961,10|0,2:2|3:3,0:0:0:0:
315,338,130400,2,0,P|350:352|382:362,2,67.9999979248048,2|0|0,1:2|0:0|0:0,0:0:0:0:
158,214,130700,2,0,P|140:157|125:72,1,135.99999584961,10|0,2:2|3:3,0:0:0:0:
290,1,131000,6,0,P|344:26|319:94,1,135.99999584961,2|0,2:2|0:0,0:0:0:0:
158,214,131300,2,0,B|77:235|129:271|51:305,1,135.99999584961,10|0,3:2|0:0,0:0:0:0:
318,171,131600,2,0,P|346:181|370:218,2,67.9999979248048,2|0|0,1:2|0:0|0:0,0:0:0:0:
127,133,131900,2,0,P|92:121|50:100,1,67.9999979248048,10|0,2:2|0:0,0:0:0:0:
181,77,132100,1,0,0:0:0:0:
245,277,132200,6,0,B|250:227|271:210|289:220|315:207|320:154,1,135.99999584961,2|2,3:2|2:2,0:0:0:0:
423,71,132500,2,0,P|410:31|400:-6,2,67.9999979248048,10|0|2,2:2|0:0|3:2,0:0:0:0:
511,171,132800,2,0,P|494:144|451:141,1,67.9999979248048,6|0,1:2|0:0,0:0:0:0:
399,184,133000,1,2,2:2:0:0:
291,92,133100,2,0,P|308:65|351:62,1,67.9999979248048,6|0,1:2|0:0,0:0:0:0:
245,277,133300,6,0,P|146:308|30:359,1,220.999989883423,2|2,3:2|3:2,0:0:0:0:
291,218,133700,2,0,B|285:167|264:150|245:161|219:147|214:93,1,147.333326588949,2|2,2:2|3:2,0:0:0:0:
70,72,134000,2,0,P|83:37|92:2,1,73.6666632944744,6|0,1:2|0:0,0:0:0:0:
141,107,134200,1,2,2:2:0:0:
0,144,134300,2,0,B|43:160|94:169|94:169|118:218,1,147.333326588949,10|2,2:3|2:2,0:0:0:0:
294,350,134600,6,0,B|362:340|430:318|430:318|453:346|503:348,1,203.999993774414,6|10,3:2|2:2,0:0:0:0:
348,164,135100,1,0,3:3:0:0:
443,95,135200,2,0,P|432:130|422:173,2,67.9999979248048,2|0|0,1:2|0:0|0:0,0:0:0:0:
398,32,135500,1,10,2:2:0:0:
237,271,135700,6,0,B|228:202|200:179|175:194|140:175|133:103,1,203.999993774414,2|0,3:2|0:0,0:0:0:0:
294,24,136100,2,0,P|298:90|231:113,1,135.99999584961,10|0,3:2|0:0,0:0:0:0:
15,211,136400,2,0,P|79:230|143:262,1,135.99999584961,2|0,1:2|0:0,0:0:0:0:
319,384,136700,2,0,P|309:349|303:308,2,67.9999979248048,10|0|0,2:2|0:0|0:0,0:0:0:0:
359,176,137000,6,0,P|263:179|239:276,1,203.999993774414,2|10,3:2|2:2,0:0:0:0:
26,384,137500,1,0,3:3:0:0:
18,299,137600,2,0,B|64:318|112:326|112:326|135:371,1,135.99999584961,2|0,1:2|0:0,0:0:0:0:
201,339,137900,1,10,2:2:0:0:
287,123,138100,6,0,B|239:137|239:137|210:250|210:250|169:266,1,203.999993774414,2|0,3:2|0:0,0:0:0:0:
397,384,138500,2,0,P|414:318|350:289,1,135.99999584961,10|0,3:2|0:0,0:0:0:0:
149,192,138800,2,0,P|118:182|75:163,2,67.9999979248048,6|0|2,1:2|0:0|2:2,0:0:0:0:
367,124,139100,2,0,P|398:110|430:100,1,67.9999979248048,2|0,2:2|0:0,0:0:0:0:
356,45,139300,1,2,2:2:0:0:
255,191,139400,6,0,B|285:148|261:90|222:116|194:59|229:7,1,203.999993774414,6|10,3:2|2:2,0:0:0:0:
366,229,139900,1,0,3:3:0:0:
295,258,140000,2,0,B|213:270|262:317|184:338,1,135.99999584961,2|0,1:2|0:0,0:0:0:0:
274,384,140300,1,10,2:2:0:0:
30,172,140500,6,0,P|125:172|162:276,1,203.999993774414,2|0,3:2|0:0,0:0:0:0:
40,384,140900,2,0,P|60:325|77:246,1,135.99999584961,10|0,3:2|0:0,0:0:0:0:
232,115,141200,2,0,P|221:77|212:40,2,67.9999979248048,2|0|0,1:2|0:0|0:0,0:0:0:0:
386,165,141500,2,0,P|419:150|435:114,1,67.9999979248048,10|0,2:2|0:0,0:0:0:0:
387,65,141700,1,2,2:2:0:0:
238,197,141800,6,0,P|300:215|376:250,1,135.99999584961,2|0,3:2|0:0,0:0:0:0:
512,384,142100,2,0,P|499:349|491:314,1,67.9999979248048,6|0,1:2|0:0,0:0:0:0:
427,365,142300,1,2,2:2:0:0:
345,308,142400,2,0,P|358:273|366:238,2,67.9999979248048,6|0|2,1:2|0:0|2:2,0:0:0:0:
438,222,142700,1,2,2:2:0:0:
196,384,142900,6,0,P|142:308|19:316,1,203.999993774414,10|10,2:3|1:2,0:0:0:0:
191,176,143300,2,0,P|220:166|259:148,1,67.9999979248048,6|0,2:3|0:0,0:0:0:0:
206,249,143500,1,2,2:2:0:0:
82,94,143600,5,2,1:2:0:0:
191,176,143700,1,0,0:0:0:0:
69,224,143800,1,2,1:2:0:0:
114,164,143900,2,0,B|120:114|140:98|158:108|183:95|188:43,1,135.99999584961,10|0,2:2|0:0,0:0:0:0:
329,0,144200,6,0,P|391:27|366:108,1,152.999995330811,10|8,3:2|2:2,0:0:0:0:
206,249,144700,1,2,3:2:0:0:
257,307,144800,2,0,P|310:323|362:346,1,101.999996887207,8|2,1:2|2:2,0:0:0:0:
434,303,145100,2,0,P|453:250|411:216,1,101.999996887207,10|2,2:2|3:2,0:0:0:0:
297,149,145400,2,0,B|256:161|256:161|233:239|233:239|193:253,1,152.999995330811,10|10,2:2|3:2,0:0:0:0:
15,340,145900,1,2,2:2:0:0:
78,381,146000,2,0,B|71:327|49:309|30:320|3:306|-1:250,1,152.999995330811,10|8,1:2|2:2,0:0:0:0:
134,126,146500,1,2,2:2:0:0:
73,81,146600,6,0,P|49:90|16:100,2,50.9999984436036,10|0|2,2:2|0:0|2:2,0:0:0:0:
150,16,146900,2,0,P|199:31|214:88,1,101.999996887207,10|0,2:2|0:0,0:0:0:0:
279,124,147200,1,10,1:2:0:0:
144,241,147400,1,2,3:2:0:0:
232,291,147500,2,0,P|225:268|220:241,2,50.9999984436036,10|0|2,2:2|0:0|3:2,0:0:0:0:
158,365,147800,2,0,P|232:339|308:320,1,152.999995330811,10|10,2:2|3:2,0:0:0:0:
406,182,148300,1,2,2:2:0:0:
344,223,148400,2,0,P|276:194|287:114,1,152.999995330811,8|8,1:2|2:2,0:0:0:0:
431,60,148900,1,2,2:2:0:0:
367,16,149000,6,0,P|337:7|301:-9,2,50.9999984436036,10|0|0,3:2|0:0|0:0,0:0:0:0:
278,123,149300,2,0,P|224:138|166:164,1,101.999996887207,10|2,2:2|3:2,0:0:0:0:
52,53,149600,2,0,P|105:61|124:118,1,101.999996887207,10|2,1:2|2:2,0:0:0:0:
181,155,149900,2,0,P|170:184|161:218,2,50.9999984436036,10|0|2,2:2|0:0|3:2,0:0:0:0:
43,213,150200,2,0,P|67:278|87:369,2,152.999995330811,10|10|8,2:2|3:2|1:2,0:0:0:0:
294,317,151300,1,2,2:2:0:0:
208,384,151400,6,0,P|216:359|222:331,1,50.9999984436036,10|0,2:2|0:0,0:0:0:0:
467,147,152000,2,0,P|457:174|450:209,1,50.9999984436036,10|0,1:2|0:0,0:0:0:0:
512,241,152200,2,0,B|461:234|410:219|410:219|368:247,1,152.999995330811,2|2,3:2|3:2,0:0:0:0:
294,317,152600,2,0,B|205:309|241:367|141:359,2,152.999995330811,10|10|8,2:2|3:2|1:2,0:0:0:0:
67,170,153700,1,2,2:2:0:0:
155,216,153800,6,0,P|143:165|131:104,1,113.333333333333,10|2,3:2|2:2,0:0:0:0:
190,53,154100,2,0,P|246:55|261:110,1,113.333333333333,10|2,2:2|3:2,0:0:0:0:
350,182,154400,2,0,P|426:182|456:102,1,170,10|10,1:2|2:2,0:0:0:0:
283,225,154900,1,0,3:3:0:0:
345,273,155000,6,0,P|355:305|366:340,2,56.6666666666667,10|0|2,2:2|0:0|2:2,0:0:0:0:
193,247,155300,2,0,P|211:197|227:135,1,113.333333333333,8|2,3:2|2:2,0:0:0:0:
293,108,155600,1,10,1:2:0:0:
171,28,155800,2,0,P|94:38|97:120,1,170,2|2,2:2|2:2,0:0:0:0:
22,166,156200,6,0,P|40:212|56:278,1,113.333333333333,10|2,2:2|2:2,0:0:0:0:
188,333,156500,2,0,P|174:364|165:397,2,56.6666666666667,10|0|2,2:2|0:0|2:2,0:0:0:0:
131,283,156800,1,10,1:2:0:0:
277,194,157000,2,0,B|327:210|374:214|374:214|387:246|433:258,1,170,2|2,3:2|3:2,0:0:0:0:
429,336,157400,2,0,B|443:281|443:281|484:256|484:256|497:191,2,170,10|10|8,2:2|3:2|1:2,0:0:0:0:
265,102,158500,1,2,2:2:0:0:
325,47,158600,6,0,P|339:105|356:164,1,113.333333333333,10|2,3:2|2:2,0:0:0:0:
296,210,158900,2,0,P|240:224|213:271,1,113.333333333333,10|2,2:2|3:2,0:0:0:0:
95,331,159200,2,0,P|78:314|46:306,2,56.6666666666667,10|0|2,1:2|0:0|2:2,0:0:0:0:
148,384,159500,1,10,2:2:0:0:
213,269,159700,1,2,3:2:0:0:
257,330,159800,2,0,P|345:353|433:387,2,170,10|10|8,2:2|3:2|1:2,0:0:0:0:
50,139,161000,6,0,P|75:84|145:94,1,136,10|10,2:2|2:2,0:0:0:0:
268,217,161500,1,2,2:2:0:0:
213,269,161600,2,0,P|188:275|162:287,2,45.3333333333333,10|0|2,1:2|0:0|3:2,0:0:0:0:
342,227,161900,2,0,P|386:243|403:293,1,90.6666666666667,10|0,2:2|3:3,0:0:0:0:
241,146,162200,2,0,B|235:96|215:80|197:90|172:77|167:25,2,135.99999584961,10|10|10,2:2|3:2|1:2,0:0:0:0:
278,233,163400,6,0,P|284:207|288:193,1,33.9999989624024,2|0,2:2|0:0,0:0:0:0:
200,129,163700,2,0,P|205:151|210:174,1,45.3333333333333,2|0,2:2|0:0,0:0:0:0:
169,301,164000,6,0,P|160:262|154:241,1,56.6666666666667,2|0,2:2|0:0,0:0:0:0:
360,101,164300,2,0,P|350:137|342:173,1,67.9999979248048,2|0,2:2|0:0,0:0:0:0:
387,363,164600,6,0,P|396:320|409:278,1,79.3333309122722,2|0,2:2|0:0,0:0:0:0:
94,78,164900,2,0,P|106:119|117:167,1,90.6666666666667,2|0,2:2|0:0,0:0:0:0:
256,192,165200,5,2,2:2:0:0:
256,192,165800,6,0,B|250:142|230:126|212:136|187:123|182:71,1,135.99999584961,6|2,3:2|2:2,0:0:0:0:
63,15,166100,2,0,P|4:42|25:110,1,135.99999584961,8|2,2:2|3:2,0:0:0:0:
260,67,166400,2,0,P|294:57|334:42,1,67.9999979248048,10|0,1:2|0:0,0:0:0:0:
323,121,166600,1,2,2:2:0:0:
176,200,166700,2,0,B|136:219|87:230|87:230|64:277,1,135.99999584961,10|2,2:2|3:2,0:0:0:0:
345,377,167000,6,0,P|327:316|309:239,1,135.99999584961,10|0,2:2|0:0,0:0:0:0:
416,146,167300,2,0,B|424:107|424:107|466:72|466:72|472:28,1,135.99999584961,10|0,3:2|0:0,0:0:0:0:
366,55,167600,1,8,1:2:0:0:
512,183,167800,2,0,B|482:193|482:193|455:267|455:267|422:280,1,135.99999584961,2|0,2:2|0:0,0:0:0:0:
387,220,168100,1,2,2:2:0:0:
252,384,168200,6,0,B|222:352|222:352|120:326|121:326,1,135.99999584961,10|0,3:2|0:0,0:0:0:0:
12,237,168500,2,0,P|52:226|85:212,1,67.9999979248048,10|0,2:2|0:0,0:0:0:0:
60,305,168700,1,2,3:2:0:0:
162,206,168800,2,0,B|156:156|136:140|118:150|93:137|88:85,1,135.99999584961,8|2,1:2|2:2,0:0:0:0:
247,2,169100,2,0,P|237:33|228:73,2,67.9999979248048,10|0|2,2:2|0:0|3:2,0:0:0:0:
343,177,169400,6,0,P|407:167|428:93,1,135.99999584961,10|0,2:2|0:0,0:0:0:0:
295,241,169700,2,0,B|301:291|321:307|339:297|364:310|369:362,1,135.99999584961,10|0,3:2|0:0,0:0:0:0:
222,384,170000,2,0,P|186:370|150:358,1,67.9999979248048,8|0,1:2|0:0,0:0:0:0:
235,309,170200,1,0,0:0:0:0:
92,259,170300,2,0,P|165:235|226:205,1,135.99999584961,8|0,2:2|0:0,0:0:0:0:
406,118,170600,6,0,P|470:141|466:210,1,135.99999584961,10|2,3:2|2:2,0:0:0:0:
230,134,170900,2,0,P|219:100|211:63,1,67.9999979248048,10|0,2:2|0:0,0:0:0:0:
302,169,171100,1,2,3:2:0:0:
150,219,171200,2,0,B|184:228|184:228|214:302|214:302|249:313,1,135.99999584961,10|2,1:2|2:2,0:0:0:0:
422,355,171500,2,0,P|429:321|404:297,1,67.9999979248048,10|0,2:2|0:0,0:0:0:0:
302,169,171700,6,0,B|310:97|339:74|364:89|400:70|407:-3,1,203.999993774414,2|2,3:2|2:2,0:0:0:0:
231,0,172100,2,0,P|245:28|258:73,2,67.9999979248048,8|0|2,3:2|0:0|2:2,0:0:0:0:
365,122,172400,1,10,1:2:0:0:
150,219,172600,1,2,2:2:0:0:
302,169,172700,2,0,P|288:197|275:242,1,67.9999979248048,10|0,2:2|0:0,0:0:0:0:
215,278,172900,1,2,2:2:0:0:
410,384,173000,6,0,B|418:349|418:349|391:324,2,73.6666632944744,10|0|2,3:2|0:0|2:2,0:0:0:0:
311,295,173300,1,10,2:2:0:0:
466,169,173500,1,2,3:2:0:0:
440,239,173600,2,0,B|433:187|413:171|394:180|368:167|363:115,1,147.333326588949,4|2,1:2|2:2,0:0:0:0:
233,0,173900,2,0,P|221:69|197:145,1,147.333326588949,4|2,1:2|3:2,0:0:0:0:
62,193,174200,6,0,P|53:155|37:119,1,73.6666632944744,2|0,2:2|0:0,0:0:0:0:
263,242,174400,1,2,1:2:0:0:
199,286,174500,2,0,B|206:228|229:209|249:220|278:206|284:147,1,147.333326588949,2|2,3:2|2:2,0:0:0:0:
19,258,174800,2,0,P|17:292|54:318,1,73.6666632944744,2|0,1:2|0:0,0:0:0:0:
195,384,175000,1,8,2:3:0:0:
0,384,175100,2,0,P|62:357|142:332,1,147.333326588949,6|6,2:3|2:3,0:0:0:0:
360,225,175400,6,0,P|383:128|296:107,1,203.999993774414,6|0,3:2|0:0,0:0:0:0:
76,22,175900,1,0,3:3:0:0:
0,83,176000,2,0,B|45:74|84:60|84:60|132:83,1,135.99999584961,6|0,1:2|0:0,0:0:0:0:
230,180,176300,2,0,P|220:206|209:250,1,67.9999979248048,10|0,2:2|0:0,0:0:0:0:
144,283,176500,1,0,3:3:0:0:
290,367,176600,6,0,B|245:358|206:344|206:344|158:367,1,135.99999584961,10|0,2:2|0:0,0:0:0:0:
53,322,176900,2,0,P|33:259|95:232,1,135.99999584961,10|0,3:2|0:0,0:0:0:0:
230,180,177200,2,0,B|223:128|203:111|185:121|159:108|154:55,1,135.99999584961,10|0,1:2|0:0,0:0:0:0:
61,1,177500,2,0,P|38:25|51:67,2,67.9999979248048,10|0|0,2:2|0:0|0:0,0:0:0:0:
157,72,177800,6,0,P|217:46|285:30,1,135.99999584961,10|0,3:2|0:0,0:0:0:0:
387,132,178100,2,0,P|357:115|342:79,1,67.9999979248048,10|0,2:2|0:0,0:0:0:0:
459,105,178300,1,0,3:3:0:0:
320,210,178400,2,0,B|240:225|290:266|210:292,1,135.99999584961,10|0,1:2|0:0,0:0:0:0:
171,230,178700,1,10,2:2:0:0:
434,330,178900,6,0,P|406:228|385:125,1,203.999993774414,0|0,3:3|0:0,0:0:0:0:
243,62,179300,2,0,P|196:98|229:162,1,135.99999584961,10|0,3:2|0:0,0:0:0:0:
459,105,179600,2,0,P|472:65|481:23,2,67.9999979248048,10|0|0,1:2|0:0|0:0,0:0:0:0:
320,210,179900,2,0,P|288:221|254:256,1,67.9999979248048,10|0,2:2|0:0,0:0:0:0:
360,150,180100,1,0,0:0:0:0:
272,320,180200,6,0,B|262:248|235:225|210:239|174:221|168:148,1,203.999993774414,14|10,3:2|2:2,0:0:0:0:
341,286,180700,1,0,3:3:0:0:
173,377,180800,2,0,P|237:376|270:301,1,135.99999584961,10|0,1:2|0:0,0:0:0:0:
396,227,181100,2,0,P|460:228|493:303,1,135.99999584961,10|0,2:2|3:3,0:0:0:0:
320,210,181400,5,10,2:2:0:0:
450,57,181600,1,0,0:0:0:0:
501,112,181700,2,0,B|452:102|412:87|412:87|362:112,1,135.99999584961,10|0,3:2|0:0,0:0:0:0:
242,219,182000,2,0,B|204:225|177:241|177:241|160:209|127:180,1,135.99999584961,10|0,1:2|0:0,0:0:0:0:
261,81,182300,2,0,P|270:118|284:158,1,67.9999979248048,10|0,2:2|0:0,0:0:0:0:
320,210,182500,1,0,0:0:0:0:
486,188,182600,6,0,B|480:253|444:271|419:257|392:280|382:352,1,203.999993774414,10|10,3:2|2:2,0:0:0:0:
143,380,183100,1,0,3:3:0:0:
187,258,183200,2,0,B|222:270|270:279|270:279|303:330,1,135.99999584961,10|0,1:2|0:0,0:0:0:0:
115,231,183500,2,0,P|101:197|95:163,1,67.9999979248048,10|0,2:2|0:0,0:0:0:0:
225,192,183700,1,0,3:3:0:0:
57,297,183800,6,0,P|122:274|197:255,1,135.99999584961,10|2,2:2|2:2,0:0:0:0:
292,147,184100,2,0,P|324:158|362:168,2,67.9999979248048,10|0|2,3:2|0:0|2:2,0:0:0:0:
118,5,184400,2,0,P|61:23|78:86,1,135.99999584961,6|0,1:2|0:0,0:0:0:0:
149,108,184700,1,10,2:3:0:0:
0,251,184900,1,6,2:3:0:0:
73,372,185000,6,0,B|55:320|55:320|94:249|94:249|69:175,1,203.999993774414,6|10,3:2|2:2,0:0:0:0:
259,45,185500,1,0,3:3:0:0:
327,85,185600,2,0,P|337:52|350:21,2,67.9999979248048,10|0|0,1:2|0:0|0:0,0:0:0:0:
245,172,185900,2,0,P|177:163|149:98,1,135.99999584961,10|0,2:2|3:3,0:0:0:0:
317,214,186200,6,0,P|332:246|340:287,1,67.9999979248048,10|0,2:2|0:0,0:0:0:0:
472,342,186400,1,2,1:2:0:0:
419,287,186500,2,0,B|370:300|370:300|348:355|348:355|309:368,1,135.99999584961,10|2,3:2|2:2,0:0:0:0:
107,255,186800,2,0,P|76:245|35:229,1,67.9999979248048,10|0,1:2|0:0,0:0:0:0:
177,211,187000,1,0,1:1:0:0:
132,384,187100,2,0,P|142:356|153:316,2,67.9999979248048,10|0|0,2:2|0:0|0:0,0:0:0:0:
302,284,187400,6,0,B|307:220|343:202|367:216|394:193|404:122,1,198.333327280681,6|0,3:2|3:3,0:0:0:0:
470,169,188000,1,0,1:1:0:0:
238,83,188300,2,0,P|224:39|215:5,1,79.3333309122722,2|0,2:2|3:3,0:0:0:0:
379,41,188600,6,0,B|418:56|459:63|459:63|488:103,2,118.999996368408,0|2|2,0:0|3:2|1:2,0:0:0:0:
234,159,189400,1,0,0:0:0:0:
228,170,189500,2,0,P|187:183|140:204,1,79.3333309122722,2|0,2:2|0:0,0:0:0:0:
359,380,189800,6,0,L|350:341,1,31.1666676177979,2|0,3:2|0:0,0:0:0:0:
189,91,190400,6,0,L|198:52,1,31.1666676177979,2|0,3:2|0:0,0:0:0:0:
376,283,191000,5,2,3:2:0:0:
352,350,191100,1,2,2:2:0:0:
281,341,191200,1,2,2:2:0:0:
108,102,191600,5,2,3:2:0:0:
188,91,191700,1,2,2:2:0:0:
215,167,191800,1,2,2:2:0:0:
84,384,192200,6,0,L|99:343,1,31.1666676177979,2|0,3:2|0:0,0:0:0:0:
329,184,192700,1,0,3:3:0:0:
270,232,192800,2,0,B|321:223|374:208|374:208|427:237,1,152.999995330811,8|8,1:2|2:2,0:0:0:0:
201,186,193300,2,0,B|197:136|169:122|151:133|130:116|122:61,1,152.999995330811,0|0,3:3|0:0,0:0:0:0:
280,5,193700,6,0,P|292:64|237:87,1,124.666670471192,10|0,3:2|0:0,0:0:0:0:
121,200,194000,2,0,P|109:259|164:282,1,124.666670471192,0|0,1:1|0:0,0:0:0:0:
310,359,194300,2,0,P|300:328|292:298,2,62.3333352355958,2|0|2,2:2|0:0|2:2,0:0:0:0:
145,362,194600,6,0,B|177:350|177:350|200:264|200:264|233:253,1,158.666661824544,6|2,3:2|2:2,0:0:0:0:
381,118,194900,2,0,P|384:76|341:52,1,79.3333309122722,10|0,2:2|0:0,0:0:0:0:
283,79,195100,1,0,3:3:0:0:
432,186,195200,2,0,P|472:200|515:219,1,79.3333309122722,0|0,1:1|0:0,0:0:0:0:
292,299,195400,2,0,P|305:257|313:216,2,79.3333309122722,2|8|0,2:2|2:2|0:0,0:0:0:0:
401,272,195700,1,2,3:2:0:0:
242,195,195800,6,0,B|237:143|208:128|190:139|168:122|159:64,1,158.666661824544,2|2,2:2|2:2,0:0:0:0:
430,5,196100,2,0,P|444:79|361:113,1,158.666661824544,10|0,3:2|0:0,0:0:0:0:
283,79,196400,1,0,1:1:0:0:
484,272,196600,2,0,B|429:290|377:299|377:299|355:346,1,158.666661824544,2|0,2:2|0:0,0:0:0:0:
292,299,196900,1,2,2:2:0:0:
112,384,197000,6,0,P|69:368|24:352,1,79.3333309122722,2|0,3:2|0:0,0:0:0:0:
177,340,197200,1,2,2:2:0:0:
7,197,197300,2,0,P|22:238|30:280,2,79.3333309122722,10|0|2,2:2|0:0|3:2,0:0:0:0:
223,141,197600,2,0,P|231:102|245:65,1,79.3333309122722,2|0,1:2|0:0,0:0:0:0:
153,194,197800,1,2,2:2:0:0:
292,299,197900,2,0,P|263:263|230:259,1,79.3333309122722,10|0,2:2|0:0,0:0:0:0:
0,101,198100,6,0,P|107:108|140:0,1,237.999992736817,2|0,3:2|0:0,0:0:0:0:
313,146,198500,2,0,B|317:200|348:216|367:204|390:222|399:283,1,158.666661824544,8|0,3:2|0:0,0:0:0:0:
175,384,198800,2,0,P|189:342|199:293,2,79.3333309122722,4|0|0,1:2|0:0|0:0,0:0:0:0:
244,250,199100,1,8,2:2:0:0:
68,154,199300,1,2,2:2:0:0:
0,262,199400,6,0,B|45:253|99:233|99:233|121:253|161:251,1,158.666661824544,6|2,3:2|2:2,0:0:0:0:
313,146,199700,2,0,P|357:163|397:174,1,79.3333309122722,10|0,2:2|0:0,0:0:0:0:
343,257,199900,1,2,3:2:0:0:
158,159,200000,2,0,B|136:73|205:104|168:-1,1,158.666661824544,2|0,1:2|0:0,0:0:0:0:
323,34,200300,2,0,P|299:60|252:65,1,79.3333309122722,10|0,2:2|0:0,0:0:0:0:
158,159,200500,1,0,3:3:0:0:
68,154,200600,6,0,P|127:166|164:259,1,158.666661824544,2|2,2:2|2:2,0:0:0:0:
363,333,200900,2,0,P|349:285|341:248,2,79.3333309122722,10|0|2,3:2|0:0|2:2,0:0:0:0:
434,188,201200,2,0,P|443:229|410:261,1,79.3333309122722,2|0,1:2|0:0,0:0:0:0:
342,256,201400,1,2,2:2:0:0:
512,172,201500,2,0,P|438:151|357:115,1,158.666661824544,10|2,2:2|2:2,0:0:0:0:
205,13,201800,6,0,P|136:43|164:116,1,158.666661824544,6|2,3:2|0:0,0:0:0:0:
425,381,202100,2,0,B|421:327|390:311|371:323|348:305|339:244,1,158.666661824544,2|2,0:0|3:2,0:0:0:0:
147,256,202400,2,0,P|162:216|173:170,1,79.3333309122722,6|0,1:2|0:0,0:0:0:0:
228,262,202600,1,2,0:0:0:0:
103,324,202700,2,0,P|61:337|17:369,1,79.3333309122722,6|0,1:2|0:0,0:0:0:0:
290,106,202900,6,0,B|355:139|459:162|459:162|493:231|413:250,1,289.000005512238,2|2,0:0|1:2,0:0:0:0:
154,110,203300,2,0,P|141:68|126:17,2,79.3333309122722,10|0|0,2:3|0:0|0:0,0:0:0:0:
275,325,203600,1,2,1:2:0:0:
338,283,203700,1,0,0:0:0:0:
223,185,203800,1,10,1:3:0:0:
408,136,203900,2,0,P|391:175|379:229,1,79.3333309122722,4|0,2:3|0:0,0:0:0:0:
275,325,204100,1,2,2:2:0:0:
165,236,204200,6,0,P|182:275|194:329,1,79.3333309122722,6|0,3:2|0:0,0:0:0:0:
322,384,204400,1,2,2:2:0:0:
470,216,204500,2,0,B|420:233|365:239|365:239|333:290,1,158.666661824544,10|0,2:2|3:3,0:0:0:0:
157,384,204800,2,0,B|139:367|139:367|85:353,1,79.3333309122722,4|0,1:2|0:0,0:0:0:0:
13,235,205000,2,0,P|37:203|80:202,2,79.3333309122722,2|8|0,2:2|2:2|0:0,0:0:0:0:
139,158,205300,1,2,3:2:0:0:
223,284,205400,6,0,B|219:230|188:214|169:226|146:208|137:147,1,158.666661824544,2|2,2:2|2:2,0:0:0:0:
389,42,205700,2,0,P|363:107|343:199,1,158.666661824544,10|0,3:2|0:0,0:0:0:0:
443,263,206000,2,0,P|481:263|505:233,1,79.3333309122722,0|0,1:1|0:0,0:0:0:0:
436,188,206200,1,2,2:2:0:0:
302,311,206300,2,0,P|321:349|331:393,1,79.3333309122722,10|0,2:2|0:0,0:0:0:0:
363,261,206500,1,2,2:2:0:0:
213,186,206600,6,0,P|172:173|127:152,1,79.3333309122722,2|0,3:2|0:0,0:0:0:0:
363,261,206800,2,0,B|285:292|198:308|198:308|163:373,1,237.999992736817,2|2,2:2|3:2,0:0:0:0:
0,190,207200,2,0,P|37:201|74:217,1,79.3333309122722,2|0,1:2|0:0,0:0:0:0:
111,279,207400,1,2,2:2:0:0:
298,194,207500,2,0,P|282:158|274:120,1,79.3333309122722,10|0,2:2|0:0,0:0:0:0:
46,330,207700,6,0,P|145:295|281:263,1,237.999992736817,2|2,3:2|2:2,0:0:0:0:
466,180,208100,2,0,P|475:105|399:86,1,158.666661824544,10|2,3:2|2:2,0:0:0:0:
347,300,208400,2,0,P|362:329|377:382,1,79.3333309122722,6|0,1:2|0:0,0:0:0:0:
439,279,208600,1,2,2:2:0:0:
298,194,208700,2,0,P|334:206|384:218,2,79.3333309122722,10|0|2,2:2|0:0|2:2,0:0:0:0:
154,92,209000,6,0,B|105:112|46:122|46:122|25:178,1,158.666661824544,6|2,3:2|2:2,0:0:0:0:
229,106,209300,2,0,P|265:36|198:7,1,158.666661824544,10|2,2:2|3:2,0:0:0:0:
353,281,209600,6,0,B|402:301|461:311|461:311|482:367,1,158.666661824544,2|2,1:2|2:2,0:0:0:0:
278,295,209900,2,0,P|242:225|309:196,1,158.666661824544,10|2,2:2|3:2,0:0:0:0:
446,111,210200,6,0,B|401:88|348:79|348:79|318:54|321:14,1,158.666661824544,2|2,2:2|2:2,0:0:0:0:
512,68,210500,2,0,B|508:122|477:138|458:126|435:144|426:205,1,158.666661824544,10|2,3:2|2:2,0:0:0:0:
278,295,210800,2,0,P|238:308|196:328,1,79.3333309122722,2|0,1:2|0:0,0:0:0:0:
346,210,211000,1,2,2:2:0:0:
145,116,211100,2,0,P|161:150|174:201,2,79.3333309122722,10|0|2,2:2|0:0|2:2,0:0:0:0:
25,379,211400,6,0,P|68:306|146:314,1,158.666661824544,2|2,3:2|2:2,0:0:0:0:
362,382,211700,2,0,P|372:342|386:303,2,79.3333309122722,0|0|2,0:0|0:0|3:2,0:0:0:0:
278,295,212000,5,6,1:2:0:0:
224,242,212100,1,0,0:0:0:0:
239,169,212200,1,2,2:2:0:0:
331,128,212300,5,6,2:2:0:0:
357,58,212400,1,0,0:0:0:0:
306,4,212500,1,2,1:2:0:0:
225,7,212600,5,2,2:2:0:0:
203,39,212700,1,2,2:2:0:0:
214,64,212800,1,2,2:2:0:0:
228,74,212900,2,0,P|252:66|284:56,2,39.6666654561361,2|2|2,3:2|2:2|2:2,0:0:0:0:
124,184,213200,6,0,P|138:218|147:266,1,79.3333309122722,2|2,3:2|2:2,0:0:0:0:
299,349,213400,1,2,1:2:0:0:
220,249,213500,5,2,1:2:0:0:
328,192,213600,1,2,1:2:0:0:
197,317,213700,1,2,1:2:0:0:
446,381,213800,6,0,B|442:327|411:311|392:323|369:305|360:244,1,158.666661824544,6|2,3:2|2:2,0:0:0:0:
208,150,214100,2,0,P|219:118|228:68,2,79.3333309122722,10|0|0,2:2|0:0|3:3,0:0:0:0:
388,0,214400,2,0,B|433:23|486:32|486:32|516:57|513:97,1,158.666661824544,4|0,1:2|0:0,0:0:0:0:
328,192,214700,2,0,P|284:205|234:230,1,79.3333309122722,10|0,2:2|0:0,0:0:0:0:
361,123,214900,1,2,3:2:0:0:
161,0,215000,6,0,P|192:79|209:164,1,158.666661824544,6|2,2:2|2:2,0:0:0:0:
403,356,215300,2,0,P|480:333|489:262,1,158.666661824544,10|0,3:2|0:0,0:0:0:0:
330,316,215600,2,0,B|310:325|281:330|281:330|263:364,2,79.3333309122722,4|0|0,1:2|0:0|0:0,0:0:0:0:
437,154,215900,2,0,P|473:170|519:181,1,79.3333309122722,10|0,2:2|0:0,0:0:0:0:
402,225,216100,1,2,2:2:0:0:
485,350,216200,6,0,B|481:296|450:280|431:292|408:274|399:213,1,158.666661824544,6|2,3:2|2:2,0:0:0:0:
281,160,216500,2,0,P|241:148|217:114,2,79.3333309122722,10|0|0,2:2|0:0|3:3,0:0:0:0:
486,3,216800,2,0,P|460:67|435:161,1,158.666661824544,4|0,1:2|0:0,0:0:0:0:
222,286,217100,2,0,P|182:298|158:332,1,79.3333309122722,10|0,2:2|0:0,0:0:0:0:
294,245,217300,1,2,3:2:0:0:
45,151,217400,6,0,P|124:177|197:209,1,158.666661824544,6|2,2:2|2:2,0:0:0:0:
397,348,217700,2,0,P|464:306|428:233,1,158.666661824544,10|0,3:2|0:0,0:0:0:0:
281,160,218000,2,0,P|295:125|303:83,2,79.3333309122722,4|0|0,1:2|0:0|0:0,0:0:0:0:
96,309,218300,2,0,P|110:344|118:386,1,79.3333309122722,10|0,2:2|0:0,0:0:0:0:
198,311,218500,1,2,2:2:0:0:
0,250,218600,6,0,B|45:227|98:218|98:218|128:193|125:153,1,158.666661824544,6|2,3:2|2:2,0:0:0:0:
300,5,218900,2,0,P|373:31|382:105,1,158.666661824544,10|0,2:2|3:3,0:0:0:0:
156,98,219200,2,0,P|141:58|129:14,1,79.3333309122722,4|0,1:2|0:0,0:0:0:0:
379,190,219400,2,0,P|364:230|352:274,2,79.3333309122722,2|8|0,2:2|2:2|0:0,0:0:0:0:
468,143,219700,1,2,3:2:0:0:
414,329,219800,6,0,P|335:298|254:280,1,158.666661824544,6|2,2:2|2:2,0:0:0:0:
81,157,220100,2,0,B|57:168|30:174|30:174|13:207,2,79.3333309122722,10|0|0,3:2|0:0|0:0,0:0:0:0:
156,98,220400,1,4,1:2:0:0:
24,371,220600,2,0,B|28:317|59:301|78:313|101:295|110:234,1,158.666661824544,2|0,2:2|0:0,0:0:0:0:
167,197,220900,1,2,2:2:0:0:
56,81,221000,6,0,P|72:123|83:173,1,79.3333309122722,6|0,3:2|0:0,0:0:0:0:
210,261,221200,1,2,1:2:0:0:
301,153,221300,2,0,B|268:165|268:165|246:246|246:246|204:263,1,158.666661824544,2|2,2:2|3:2,0:0:0:0:
27,283,221600,2,0,B|51:294|78:300|78:300|95:333,2,79.3333309122722,6|0|2,1:2|0:0|2:2,0:0:0:0:
252,384,221900,2,0,B|297:361|350:352|350:352|380:327|377:287,1,158.666661824544,6|2,1:2|2:2,0:0:0:0:
512,173,222200,6,0,P|484:144|441:143,1,79.3333309122722,2|0,3:2|0:0,0:0:0:0:
294,224,222400,1,0,1:1:0:0:
348,98,222500,2,0,P|312:117|300:158,2,79.3333309122722,2|0|2,3:2|0:0|2:2,0:0:0:0:
452,362,222800,2,0,P|509:308|462:247,1,158.666661824544,4|0,3:2|1:1,0:0:0:0:
274,319,223100,1,2,1:2:0:0:
390,205,223200,1,0,1:1:0:0:
217,168,223300,1,2,1:2:0:0:
294,224,223400,6,0,B|290:170|259:154|240:166|217:148|208:87,1,158.666661824544,6|2,3:2|2:2,0:0:0:0:
431,119,223700,2,0,P|440:80|455:43,2,79.3333309122722,10|0|0,2:2|0:0|3:3,0:0:0:0:
214,244,224000,2,0,P|174:258|133:283,1,79.3333309122722,4|0,1:2|0:0,0:0:0:0:
26,70,224200,2,0,P|101:83|96:154,1,158.666661824544,2|0,2:2|0:0,0:0:0:0:
0,281,224500,1,2,3:2:0:0:
0,198,224600,6,0,B|19:206|43:209|43:209|67:241,1,79.3333309122722,6|0,2:2|0:0,0:0:0:0:
184,342,224800,1,2,1:2:0:0:
52,384,224900,2,0,P|65:349|76:305,2,79.3333309122722,10|0|0,2:2|0:0|3:3,0:0:0:0:
142,276,225200,1,4,1:2:0:0:
325,360,225400,1,2,2:2:0:0:
396,258,225500,2,0,P|366:270|314:285,1,79.3333309122722,10|0,2:2|0:0,0:0:0:0:
457,340,225700,1,2,2:2:0:0:
308,205,225800,6,0,P|307:160|337:141,2,79.3333309122722,6|0|2,3:2|0:0|2:2,0:0:0:0:
394,60,226100,2,0,P|439:59|458:89,1,79.3333309122722,10|0,2:2|0:0,0:0:0:0:
436,156,226300,1,2,3:2:0:0:
308,205,226400,2,0,B|263:182|210:173|210:173|180:148|183:108,1,158.666661824544,6|0,1:2|0:0,0:0:0:0:
36,53,226700,2,0,P|73:43|111:25,1,79.3333309122722,10|0,2:2|0:0,0:0:0:0:
186,52,226900,1,6,2:3:0:0:
34,209,227000,6,0,P|22:169|1:129,1,79.3333309122722,6|0,2:2|0:0,0:0:0:0:
106,181,227200,1,4,2:3:0:0:
0,291,227300,2,0,P|88:313|166:341,1,158.666661824544,12|2,2:3|3:2,0:0:0:0:
308,205,227600,2,0,P|268:220|248:258,1,79.3333309122722,4|0,1:2|0:0,0:0:0:0:
372,361,227800,1,0,3:3:0:0:
284,383,227900,2,0,P|297:342|306:301,2,79.3333309122722,8|0|4,2:3|0:0|2:3,0:0:0:0:
416,225,228200,5,14,3:2:0:0:
416,225,228500,2,0,P|390:151|367:58,1,158.666661824544,10|2,2:2|3:2,0:0:0:0:
187,0,228800,2,0,P|159:22|172:66,1,79.3333309122722,14|0,1:2|0:0,0:0:0:0:
211,160,229000,2,0,P|246:146|288:135,2,79.3333309122722,2|10|0,2:2|2:2|0:0,0:0:0:0:
167,228,229300,1,2,3:2:0:0:
353,329,229400,2,0,P|308:269|222:272,1,158.666661824544,10|2,2:2|2:2,0:0:0:0:
103,376,229700,2,0,P|119:340|129:301,2,79.3333309122722,10|0|2,3:2|0:0|2:2,0:0:0:0:
48,286,230000,6,0,P|87:225|167:228,1,158.666661824544,14|2,1:2|2:2,0:0:0:0:
293,169,230300,2,0,B|312:161|336:158|336:158|360:126,1,79.3333309122722,10|0,2:2|0:0,0:0:0:0:
336,232,230500,1,2,2:2:0:0:
177,146,230600,2,0,B|173:92|142:76|123:88|100:70|91:9,1,158.666661824544,10|2,3:2|2:2,0:0:0:0:
331,0,230900,2,0,P|316:35|308:87,1,79.3333309122722,10|0,2:2|0:0,0:0:0:0:
241,104,231100,1,2,3:2:0:0:
336,232,231200,2,0,B|381:209|434:200|434:200|464:175|461:135,1,158.666661824544,14|2,1:2|2:2,0:0:0:0:
216,265,231500,2,0,P|231:300|239:352,1,79.3333309122722,10|0,2:2|0:0,0:0:0:0:
429,384,231700,1,10,2:3:0:0:
389,316,231800,6,0,B|370:324|346:327|346:327|322:359,2,79.3333309122722,2|0|0,2:2|0:0|1:1,0:0:0:0:
173,384,232100,2,0,P|98:356|10:331,1,158.666661824544,2|0,3:2|0:0,0:0:0:0:
240,189,232400,2,0,P|228:217|215:267,1,79.3333309122722,2|0,1:2|0:0,0:0:0:0:
146,280,232600,1,2,1:2:0:0:
333,178,232700,2,0,B|329:124|298:108|279:120|256:102|247:41,1,158.666661824544,10|2,2:2|2:2,0:0:0:0:
133,0,233000,5,10,3:2:0:0:
133,0,233500,1,0,3:3:0:0:
59,27,233600,2,0,B|106:40|160:49|160:49|185:97,1,152.999995330811,8|8,1:2|2:2,0:0:0:0:
407,214,234100,1,0,3:3:0:0:
430,131,234200,2,0,P|381:150|319:165,1,101.999996887207,8|0,2:2|0:0,0:0:0:0:
275,215,234500,2,0,P|226:196|164:181,1,101.999996887207,8|0,3:2|0:0,0:0:0:0:
73,269,234800,2,0,P|91:339|171:337,1,152.999995330811,8|8,1:2|2:2,0:0:0:0:
17,211,235400,5,8,2:2:0:0:
17,211,235700,1,8,2:2:0:0:
164,71,236000,1,8,1:2:0:0:
94,199,236200,2,0,B|90:147|60:131|42:143|20:126|11:67,1,152.999995330811,0|0,3:3|3:3,0:0:0:0:
97,13,236600,2,0,P|142:23|162:79,1,101.999996887207,8|0,2:2|0:0,0:0:0:0:
221,123,236900,1,8,3:2:0:0:
