osu file format v14

[General]
AudioFilename: audio.mp3
AudioLeadIn: 0
PreviewTime: 35250
Countdown: 0
SampleSet: Soft
StackLeniency: 0.7
Mode: 0
LetterboxInBreaks: 0
WidescreenStoryboard: 1

[Editor]
Bookmarks: 200,24200,55400,74600,93800,105800,125000,144200,165800,187400,194600,213800,233000,237800
DistanceSpacing: 1
BeatDivisor: 12
GridSize: 32
TimelineZoom: 2.3

[Metadata]
Title:Plagiarism
TitleUnicode:盗作
Artist:Yorushika
ArtistUnicode:ヨルシカ
Creator:alevi
Version:Shiny Braixen's Hard
Source:
Tags:doraemonelf dora- shiny braixen brain exe galaxyskys galaxyskys_ japanese rock jrock j-rock pop j-pop jpop nabuna n-buna nbuna suis tousaku ナブナ スイ
BeatmapID:3817810
BeatmapSetID:1839117

[Difficulty]
HPDrainRate:4
CircleSize:4
OverallDifficulty:7.2
ApproachRate:8
SliderMultiplier:2.5
SliderTickRate:0.5

[Events]
//Background and Video events
0,0,"wKc7HlO0_4x (1).jpg",0,0
//Break Periods
2,81800,82850
2,163400,165050
2,192800,193850
//Storyboard Layer 0 (Background)
//Storyboard Layer 1 (Fail)
//Storyboard Layer 2 (Pass)
//Storyboard Layer 3 (Foreground)
//Storyboard Layer 4 (Overlay)
//Storyboard Sound Samples

[TimingPoints]
200,600,4,2,1,45,1,0
200,-250,4,2,1,45,0,0
4400,-250,4,2,1,60,0,0
4700,-250,4,2,2,60,0,0
5000,-166.666666666667,4,2,1,60,0,0
5500,-166.666666666667,4,2,2,60,0,0
7400,-166.666666666667,4,2,1,60,0,0
7600,-166.666666666667,4,2,2,60,0,0
9200,-166.666666666667,4,2,1,60,0,0
9700,-166.666666666667,4,2,2,60,0,0
9800,-166.666666666667,4,2,1,60,0,0
10100,-166.666666666667,4,2,2,60,0,0
11000,-166.666666666667,4,2,1,60,0,0
11200,-166.666666666667,4,2,2,60,0,0
12200,-166.666666666667,4,2,1,60,0,0
12400,-166.666666666667,4,2,2,60,0,0
14600,-166.666666666667,4,2,1,60,0,0
14800,-166.666666666667,4,2,2,60,0,0
14900,-166.666666666667,4,2,1,60,0,0
15100,-166.666666666667,4,2,2,60,0,0
15200,-166.666666666667,4,2,1,60,0,0
15500,-166.666666666667,4,2,2,60,0,0
17000,-166.666666666667,4,2,1,60,0,0
17200,-166.666666666667,4,2,2,60,0,0
17900,-166.666666666667,4,2,1,60,0,0
18200,-166.666666666667,4,2,2,60,0,0
19400,-166.666666666667,4,2,1,60,0,0
19700,-166.666666666667,4,2,2,60,0,0
20600,-166.666666666667,4,2,1,60,0,0
20800,-166.666666666667,4,2,2,60,0,0
21800,-166.666666666667,4,2,1,60,0,0
22000,-166.666666666667,4,2,2,60,0,0
22400,-166.666666666667,4,2,1,60,0,0
22600,-166.666666666667,4,2,2,60,0,0
23000,-166.666666666667,4,2,1,60,0,0
23600,-166.666666666667,4,2,2,60,0,0
24200,-142.857142857143,4,2,2,60,0,0
25300,-142.857142857143,4,2,1,60,0,0
25600,-142.857142857143,4,2,2,60,0,0
26000,-142.857142857143,4,2,1,60,0,0
26200,-142.857142857143,4,2,2,60,0,0
26600,-142.857142857143,4,2,1,60,0,0
26800,-142.857142857143,4,2,2,60,0,0
27700,-142.857142857143,4,2,1,60,0,0
28000,-142.857142857143,4,2,2,60,0,0
28400,-142.857142857143,4,2,1,60,0,0
28600,-142.857142857143,4,2,2,60,0,0
28900,-142.857142857143,4,2,1,60,0,0
29200,-142.857142857143,4,2,2,60,0,0
30200,-142.857142857143,4,2,1,60,0,0
30400,-142.857142857143,4,2,2,60,0,0
30800,-142.857142857143,4,2,1,60,0,0
31300,-142.857142857143,4,2,2,60,0,0
31400,-142.857142857143,4,2,1,65,0,0
31600,-142.857142857143,4,2,2,65,0,0
32600,-142.857142857143,4,2,1,65,0,0
32900,-142.857142857143,4,2,2,65,0,0
33200,-142.857142857143,4,2,1,65,0,0
33500,-142.857142857143,4,2,2,65,0,0
33800,-333.333333333334,4,2,2,65,0,0
35300,-250,4,2,1,75,0,0
35600,-250,4,2,2,75,0,0
35900,-250,4,2,1,75,0,0
36100,-250,4,2,2,75,0,0
36200,-100,4,2,1,85,0,1
36400,-100,4,2,2,85,0,1
36500,-100,4,2,3,85,0,1
36650,-100,4,2,3,85,0,1
36800,-100,4,2,3,85,0,1
37300,-100,4,2,2,85,0,1
37400,-100,4,2,1,85,0,1
37600,-100,4,2,2,85,0,1
37700,-100,4,2,3,85,0,1
37850,-100,4,2,3,85,0,1
38000,-100,4,2,3,85,0,1
38500,-100,4,2,2,85,0,1
38600,-100,4,2,1,85,0,1
38800,-100,4,2,2,85,0,1
38900,-100,4,2,3,85,0,1
39100,-100,4,2,2,85,0,1
39200,-100,4,2,3,85,0,1
39700,-100,4,2,4,85,0,1
40400,-100,4,2,3,85,0,1
40900,-100,4,2,2,85,0,1
41300,-100,4,2,4,85,0,1
41450,-100,4,2,4,85,0,1
41600,-100,4,2,4,85,0,1
42200,-100,4,2,1,85,0,1
42400,-100,4,2,4,85,0,1
43300,-100,4,2,8,85,0,1
44000,-100,4,2,4,85,0,1
44300,-100,4,2,5,85,0,1
44900,-100,4,2,1,85,0,1
45700,-100,4,2,2,85,0,1
45750,-100,4,2,2,85,0,0
45800,-100,4,2,1,85,0,1
46000,-100,4,2,2,85,0,1
46100,-100,4,2,3,85,0,1
46250,-100,4,2,3,85,0,1
46400,-100,4,2,6,85,0,1
46700,-100,4,2,4,85,0,1
47000,-100,4,2,1,85,0,1
47200,-100,4,2,2,85,0,1
47300,-100,4,2,3,85,0,1
47450,-100,4,2,3,85,0,1
47600,-100,4,2,3,85,0,1
48100,-100,4,2,2,85,0,1
48200,-100,4,2,1,85,0,1
48400,-100,4,2,2,85,0,1
48500,-100,4,2,3,85,0,1
48700,-100,4,2,2,85,0,1
48800,-100,4,2,3,85,0,1
49300,-100,4,2,4,85,0,1
50000,-100,4,2,3,85,0,1
50200,-100,4,2,4,85,0,1
50600,-100,4,2,2,85,0,1
50900,-100,4,2,4,85,0,1
51800,-100,4,2,1,85,0,1
52000,-100,4,2,4,85,0,1
52900,-100,4,2,1,85,0,1
53500,-100,4,2,5,85,0,1
53900,-100,4,2,1,85,0,1
54100,-100,4,2,2,85,0,1
55400,-125,4,2,2,75,0,0
55700,-125,4,2,5,75,0,0
55850,-125,4,2,5,75,0,0
56000,-125,4,2,5,75,0,0
57500,-125,4,2,6,75,0,0
57600,-125,4,2,2,75,0,0
57800,-125,4,2,1,75,0,0
58100,-125,4,2,5,75,0,0
58700,-125,4,2,6,75,0,0
59600,-125,4,2,4,75,0,0
59900,-125,4,2,2,75,0,0
60050,-125,4,2,2,75,0,0
60200,-125,4,2,7,75,0,0
60500,-125,4,2,5,75,0,0
62300,-125,4,2,6,75,0,0
62900,-125,4,2,5,75,0,0
63200,-125,4,2,3,75,0,0
63500,-125,4,2,6,75,0,0
64100,-125,4,2,2,75,0,0
64400,-125,4,2,1,75,0,0
64600,-125,4,2,2,75,0,0
65300,-125,4,2,5,75,0,0
65450,-125,4,2,5,75,0,0
65600,-125,4,2,5,75,0,0
67100,-125,4,2,6,75,0,0
67200,-125,4,2,2,75,0,0
67400,-125,4,2,1,75,0,0
67700,-125,4,2,5,75,0,0
68300,-125,4,2,6,75,0,0
69200,-125,4,2,7,75,0,0
69800,-125,4,2,8,75,0,0
70100,-125,4,2,5,75,0,0
70300,-125,4,2,1,75,0,0
70600,-125,4,2,2,75,0,0
70700,-125,4,2,6,75,0,0
70900,-125,4,2,2,75,0,0
71000,-125,4,2,1,75,0,0
71300,-125,4,2,5,75,0,0
72500,-125,4,2,4,75,0,0
72800,-125,4,2,5,75,0,0
73300,-125,4,2,2,75,0,0
74000,-125,4,2,1,75,0,0
74300,-125,4,2,4,75,0,0
74600,-166.666666666667,4,2,1,60,0,0
75100,-166.666666666667,4,2,2,60,0,0
77000,-166.666666666667,4,2,1,60,0,0
77200,-166.666666666667,4,2,2,60,0,0
79400,-166.666666666667,4,2,1,60,0,0
79700,-166.666666666667,4,2,2,60,0,0
80600,-166.666666666667,4,2,1,60,0,0
80800,-166.666666666667,4,2,2,60,0,0
81800,-166.666666666667,4,2,7,35,0,0
83000,-166.666666666667,4,2,8,35,0,0
83300,-166.666666666667,4,2,7,35,0,0
83600,-166.666666666667,4,2,1,55,0,0
83800,-166.666666666667,4,2,2,55,0,0
83900,-166.666666666667,4,2,1,55,0,0
84100,-166.666666666667,4,2,2,55,0,0
84200,-142.857142857143,4,2,9,65,0,0
84700,-142.857142857143,4,2,7,65,0,0
85400,-142.857142857143,4,2,8,65,0,0
85500,-142.857142857143,4,2,2,65,0,0
85600,-142.857142857143,4,2,1,65,0,0
85700,-142.857142857143,4,2,7,65,0,0
86000,-142.857142857143,4,2,8,65,0,0
86200,-142.857142857143,4,2,7,65,0,0
86600,-142.857142857143,4,2,8,65,0,0
87100,-142.857142857143,4,2,7,65,0,0
87800,-142.857142857143,4,2,8,65,0,0
87900,-142.857142857143,4,2,2,65,0,0
88100,-142.857142857143,4,2,8,65,0,0
88200,-142.857142857143,4,2,2,65,0,0
88400,-142.857142857143,4,2,8,65,0,0
88500,-142.857142857143,4,2,2,65,0,0
88700,-142.857142857143,4,2,8,65,0,0
88800,-142.857142857143,4,2,2,65,0,0
89000,-142.857142857143,4,2,8,65,0,0
89500,-142.857142857143,4,2,7,65,0,0
90200,-142.857142857143,4,2,8,65,0,0
90500,-142.857142857143,4,2,7,65,0,0
91400,-142.857142857143,4,2,1,65,0,0
91600,-142.857142857143,4,2,2,65,0,0
91700,-142.857142857143,4,2,1,65,0,0
91900,-142.857142857143,4,2,2,65,0,0
92000,-142.857142857143,4,2,1,65,0,0
92300,-142.857142857143,4,2,2,65,0,0
92600,-142.857142857143,4,2,1,65,0,0
92800,-142.857142857143,4,2,2,65,0,0
92900,-142.857142857143,4,2,1,65,0,0
93100,-142.857142857143,4,2,2,65,0,0
93200,-142.857142857143,4,2,1,65,0,0
93400,-142.857142857143,4,2,2,65,0,0
93800,-142.857142857143,4,2,10,60,0,0
94000,-142.857142857143,4,2,7,60,0,0
94900,-142.857142857143,4,2,8,60,0,0
95200,-142.857142857143,4,2,7,60,0,0
95600,-142.857142857143,4,2,8,60,0,0
95800,-142.857142857143,4,2,7,60,0,0
96200,-142.857142857143,4,2,8,60,0,0
96400,-142.857142857143,4,2,7,60,0,0
97300,-142.857142857143,4,2,8,60,0,0
97600,-142.857142857143,4,2,7,60,0,0
98000,-142.857142857143,4,2,8,60,0,0
98200,-142.857142857143,4,2,7,60,0,0
98500,-142.857142857143,4,2,8,60,0,0
98800,-142.857142857143,4,2,7,60,0,0
99800,-142.857142857143,4,2,8,60,0,0
100000,-142.857142857143,4,2,7,60,0,0
100400,-142.857142857143,4,2,8,60,0,0
100900,-142.857142857143,4,2,2,60,0,0
101000,-142.857142857143,4,2,8,65,0,0
101300,-142.857142857143,4,2,7,65,0,0
101900,-142.857142857143,4,2,8,65,0,0
101999,-142.857142857143,4,2,8,65,0,0
102100,-142.857142857143,4,2,1,65,0,0
102200,-142.857142857143,4,2,7,65,0,0
102500,-142.857142857143,4,2,3,65,0,0
102800,-142.857142857143,4,2,7,65,0,0
103100,-142.857142857143,4,2,11,65,0,0
103400,-100,4,2,2,75,0,0
104900,-142.857142857143,4,2,1,75,0,0
105200,-142.857142857143,4,2,4,75,0,0
105500,-142.857142857143,4,2,1,75,0,0
105700,-142.857142857143,4,2,2,75,0,0
105800,-100,4,2,1,85,0,1
106000,-100,4,2,2,85,0,1
106100,-100,4,2,3,85,0,1
106250,-100,4,2,3,85,0,1
106400,-100,4,2,3,85,0,1
106600,-100,4,2,2,85,0,1
106700,-100,4,2,3,85,0,1
106900,-100,4,2,2,85,0,1
107000,-100,4,2,1,85,0,1
107200,-100,4,2,2,85,0,1
107300,-100,4,2,3,85,0,1
107800,-100,4,2,4,85,0,1
108200,-100,4,2,1,85,0,1
108400,-100,4,2,2,85,0,1
108500,-100,4,2,3,85,0,1
108700,-100,4,2,2,85,0,1
108800,-100,4,2,3,85,0,1
109300,-100,4,2,4,85,0,1
110000,-100,4,2,3,85,0,1
110500,-100,4,2,2,85,0,1
110900,-100,4,2,4,85,0,1
111050,-100,4,2,4,85,0,1
111200,-100,4,2,4,85,0,1
111800,-100,4,2,1,85,0,1
112000,-100,4,2,4,85,0,1
112900,-100,4,2,8,85,0,1
113600,-100,4,2,4,85,0,1
113900,-100,4,2,5,85,0,1
114500,-100,4,2,1,85,0,1
115300,-100,4,2,2,85,0,1
115350,-100,4,2,2,85,0,0
115400,-100,4,2,1,85,0,1
115600,-100,4,2,2,85,0,1
115700,-100,4,2,3,85,0,1
115850,-100,4,2,3,85,0,1
116000,-100,4,2,6,85,0,1
116300,-100,4,2,3,85,0,1
116500,-100,4,2,2,85,0,1
116600,-100,4,2,1,85,0,1
116800,-100,4,2,2,85,0,1
116900,-100,4,2,3,85,0,1
117050,-100,4,2,3,85,0,1
117200,-100,4,2,3,85,0,1
117700,-100,4,2,2,85,0,1
117800,-100,4,2,1,85,0,1
118000,-100,4,2,2,85,0,1
118100,-100,4,2,3,85,0,1
118300,-100,4,2,2,85,0,1
118400,-100,4,2,3,85,0,1
118900,-100,4,2,4,85,0,1
119600,-100,4,2,3,85,0,1
119800,-100,4,2,4,85,0,1
120200,-100,4,2,2,85,0,1
120500,-100,4,2,4,85,0,1
123500,-100,4,2,1,85,0,1
123700,-100,4,2,2,85,0,1
125000,-111.111111111111,4,2,11,75,0,0
125300,-111.111111111111,4,2,6,75,0,0
125600,-111.111111111111,4,2,5,75,0,0
125900,-111.111111111111,4,2,6,75,0,0
126200,-111.111111111111,4,2,2,75,0,0
126500,-111.111111111111,4,2,6,75,0,0
126800,-111.111111111111,4,2,2,75,0,0
127100,-111.111111111111,4,2,6,75,0,0
127400,-111.111111111111,4,2,2,75,0,0
127700,-111.111111111111,4,2,6,75,0,0
128000,-111.111111111111,4,2,2,75,0,0
128300,-111.111111111111,4,2,6,75,0,0
128600,-111.111111111111,4,2,5,75,0,0
129200,-111.111111111111,4,2,9,75,0,0
129400,-111.111111111111,4,2,2,75,0,0
130100,-111.111111111111,4,2,6,75,0,0
130400,-111.111111111111,4,2,2,75,0,0
130700,-111.111111111111,4,2,6,75,0,0
131000,-111.111111111111,4,2,2,75,0,0
131300,-111.111111111111,4,2,6,75,0,0
131600,-111.111111111111,4,2,2,75,0,0
131900,-111.111111111111,4,2,6,75,0,0
132200,-111.111111111111,4,2,5,75,0,0
132800,-111.111111111111,4,2,4,75,0,0
133100,-111.111111111111,4,2,5,75,0,0
133300,-111.111111111111,4,2,3,75,0,0
133400,-111.111111111111,4,2,3,75,0,0
133899,-111.111111111111,4,2,3,75,0,0
134300,-111.111111111111,4,2,2,75,0,0
134600,-125,4,2,8,75,0,0
134900,-125,4,2,5,75,0,0
135200,-125,4,2,1,75,0,0
135500,-125,4,2,5,75,0,0
135700,-125,4,2,1,75,0,0
135800,-125,4,2,5,75,0,0
136400,-125,4,2,1,75,0,0
136700,-125,4,2,5,75,0,0
136850,-125,4,2,5,75,0,0
137000,-125,4,2,1,75,0,0
137300,-125,4,2,5,75,0,0
137600,-125,4,2,1,75,0,0
137900,-125,4,2,5,75,0,0
138100,-125,4,2,1,75,0,0
138200,-125,4,2,5,75,0,0
138800,-125,4,2,9,75,0,0
139000,-125,4,2,2,75,0,0
139400,-125,4,2,8,75,0,0
139700,-125,4,2,5,75,0,0
139850,-125,4,2,5,75,0,0
140000,-125,4,2,1,75,0,0
140300,-125,4,2,5,75,0,0
140500,-125,4,2,1,75,0,0
140600,-125,4,2,5,75,0,0
141200,-125,4,2,1,75,0,0
141500,-125,4,2,5,75,0,0
141700,-125,4,2,1,75,0,0
141800,-125,4,2,7,75,0,0
142400,-125,4,2,5,75,0,0
142900,-125,4,2,1,75,0,0
143200,-125,4,2,4,75,0,0
143300,-125,4,2,2,75,0,0
143600,-125,4,2,1,75,0,0
143800,-125,4,2,4,75,0,0
144200,-166.666666666667,4,2,1,60,0,0
144700,-166.666666666667,4,2,2,60,0,0
146600,-166.666666666667,4,2,1,60,0,0
146800,-166.666666666667,4,2,2,60,0,0
148100,-166.666666666667,4,2,1,60,0,0
148300,-166.666666666667,4,2,2,60,0,0
149000,-166.666666666667,4,2,1,60,0,0
149300,-166.666666666667,4,2,2,60,0,0
150200,-166.666666666667,4,2,1,60,0,0
150400,-166.666666666667,4,2,2,60,0,0
151400,-166.666666666667,4,2,1,60,0,0
151600,-166.666666666667,4,2,2,60,0,0
153800,-166.666666666667,4,2,1,60,0,0
154000,-166.666666666667,4,2,2,60,0,0
154100,-166.666666666667,4,2,1,60,0,0
154300,-166.666666666667,4,2,2,60,0,0
154400,-166.666666666667,4,2,1,60,0,0
154700,-166.666666666667,4,2,2,60,0,0
156200,-166.666666666667,4,2,1,60,0,0
156400,-166.666666666667,4,2,2,60,0,0
158600,-166.666666666667,4,2,1,60,0,0
158800,-166.666666666667,4,2,2,60,0,0
159800,-166.666666666667,4,2,1,60,0,0
160100,-166.666666666667,4,2,2,60,0,0
161000,-166.666666666667,4,2,1,60,0,0
161300,-166.666666666667,4,2,2,60,0,0
161600,-166.666666666667,4,2,1,60,0,0
161800,-166.666666666667,4,2,2,60,0,0
162200,-166.666666666667,4,2,1,60,0,0
162500,-166.666666666667,4,2,2,60,0,0
162699,-166.666666666667,4,2,2,60,0,0
162800,-166.666666666667,4,2,2,60,0,0
163400,-166.666666666667,4,2,2,40,0,0
164900,-166.666666666667,4,2,1,70,0,0
165800,-111.111111111111,4,2,1,70,0,0
166100,-111.111111111111,4,2,8,70,0,0
167800,-111.111111111111,4,2,7,70,0,0
168200,-111.111111111111,4,2,8,70,0,0
170600,-111.111111111111,4,2,7,70,0,0
172000,-111.111111111111,4,2,8,70,0,0
172300,-111.111111111111,4,2,7,70,0,0
173000,-111.111111111111,4,2,9,70,0,0
173900,-111.111111111111,4,2,6,70,0,0
175000,-111.111111111111,4,2,1,70,0,0
175400,-111.111111111111,4,2,3,70,0,0
176000,-111.111111111111,4,2,6,70,0,0
176300,-111.111111111111,4,2,7,70,0,0
176600,-111.111111111111,4,2,8,70,0,0
176900,-111.111111111111,4,2,7,70,0,0
177200,-111.111111111111,4,2,8,70,0,0
177500,-111.111111111111,4,2,7,70,0,0
177800,-111.111111111111,4,2,8,70,0,0
178100,-111.111111111111,4,2,7,70,0,0
178249,-111.111111111111,4,2,7,70,0,0
178400,-111.111111111111,4,2,8,70,0,0
178700,-111.111111111111,4,2,7,70,0,0
178849,-111.111111111111,4,2,7,70,0,0
179000,-111.111111111111,4,2,8,70,0,0
179300,-111.111111111111,4,2,7,70,0,0
179600,-111.111111111111,4,2,8,70,0,0
179900,-111.111111111111,4,2,7,70,0,0
180200,-111.111111111111,4,2,8,70,0,0
180500,-111.111111111111,4,2,7,70,0,0
180649,-111.111111111111,4,2,7,70,0,0
180800,-111.111111111111,4,2,8,70,0,0
181100,-111.111111111111,4,2,7,70,0,0
181249,-111.111111111111,4,2,7,70,0,0
181400,-111.111111111111,4,2,8,70,0,0
181700,-111.111111111111,4,2,7,70,0,0
182000,-111.111111111111,4,2,8,70,0,0
182300,-111.111111111111,4,2,7,70,0,0
182600,-111.111111111111,4,2,8,70,0,0
182900,-111.111111111111,4,2,7,70,0,0
183200,-111.111111111111,4,2,8,70,0,0
183500,-111.111111111111,4,2,7,70,0,0
183800,-111.111111111111,4,2,8,70,0,0
184000,-111.111111111111,4,2,7,70,0,0
184400,-111.111111111111,4,2,9,70,0,0
184700,-111.111111111111,4,2,2,70,0,0
185000,-111.111111111111,4,2,3,70,0,0
185300,-111.111111111111,4,2,7,70,0,0
185600,-111.111111111111,4,2,8,70,0,0
185900,-111.111111111111,4,2,7,70,0,0
186200,-111.111111111111,4,2,8,70,0,0
186400,-111.111111111111,4,2,7,70,0,0
186800,-111.111111111111,4,2,8,70,0,0
187100,-111.111111111111,4,2,4,70,0,0
187400,-111.111111111111,4,2,8,70,0,0
188900,-111.111111111111,4,2,2,70,0,0
189200,-111.111111111111,4,2,1,70,0,0
189500,-111.111111111111,4,2,2,70,0,0
189800,-85.4700854700855,4,2,1,70,0,0
191100,-111.111111111111,4,2,2,70,0,0
191600,-85.4700854700855,4,2,1,70,0,0
191700,-111.111111111111,4,2,2,70,0,0
192200,-111.111111111111,4,2,1,70,0,0
193700,-111.111111111111,4,2,3,75,0,0
194600,-99.9999999999999,4,2,1,85,0,1
194800,-99.9999999999999,4,2,2,85,0,1
194900,-99.9999999999999,4,2,3,85,0,1
195050,-99.9999999999999,4,2,3,85,0,1
195200,-99.9999999999999,4,2,3,85,0,1
195400,-99.9999999999999,4,2,4,85,0,1
195800,-99.9999999999999,4,2,1,85,0,1
196000,-99.9999999999999,4,2,2,85,0,1
196100,-99.9999999999999,4,2,3,85,0,1
196250,-99.9999999999999,4,2,3,85,0,1
196400,-99.9999999999999,4,2,3,85,0,1
196600,-99.9999999999999,4,2,4,85,0,1
197000,-99.9999999999999,4,2,1,85,0,1
197200,-99.9999999999999,4,2,2,85,0,1
197300,-99.9999999999999,4,2,3,85,0,1
197500,-99.9999999999999,4,2,2,85,0,1
197600,-99.9999999999999,4,2,3,85,0,1
198100,-99.9999999999999,4,2,4,85,0,1
198800,-99.9999999999999,4,2,3,85,0,1
199300,-99.9999999999999,4,2,2,85,0,1
199700,-99.9999999999999,4,2,4,85,0,1
199850,-99.9999999999999,4,2,4,85,0,1
200000,-99.9999999999999,4,2,4,85,0,1
200600,-99.9999999999999,4,2,1,85,0,1
200800,-99.9999999999999,4,2,4,85,0,1
201700,-99.9999999999999,4,2,8,85,0,1
202400,-99.9999999999999,4,2,4,85,0,1
202700,-99.9999999999999,4,2,5,85,0,1
203300,-99.9999999999999,4,2,1,85,0,1
204100,-99.9999999999999,4,2,2,85,0,1
204150,-99.9999999999999,4,2,2,85,0,0
204200,-99.9999999999999,4,2,1,85,0,1
204400,-99.9999999999999,4,2,2,85,0,1
204500,-99.9999999999999,4,2,3,85,0,1
204650,-99.9999999999999,4,2,3,85,0,1
204800,-99.9999999999999,4,2,6,85,0,1
205100,-99.9999999999999,4,2,4,85,0,1
205400,-99.9999999999999,4,2,1,85,0,1
205600,-99.9999999999999,4,2,2,85,0,1
205700,-99.9999999999999,4,2,3,85,0,1
205850,-99.9999999999999,4,2,3,85,0,1
206000,-99.9999999999999,4,2,3,85,0,1
206500,-99.9999999999999,4,2,2,85,0,1
206600,-99.9999999999999,4,2,1,85,0,1
206800,-99.9999999999999,4,2,2,85,0,1
206900,-99.9999999999999,4,2,3,85,0,1
207100,-99.9999999999999,4,2,2,85,0,1
207200,-99.9999999999999,4,2,3,85,0,1
207700,-99.9999999999999,4,2,4,85,0,1
208400,-99.9999999999999,4,2,3,85,0,1
208600,-99.9999999999999,4,2,4,85,0,1
209000,-99.9999999999999,4,2,2,85,0,1
209300,-99.9999999999999,4,2,4,85,0,1
212000,-99.9999999999999,4,2,7,85,0,1
212300,-99.9999999999999,4,2,6,85,0,1
212500,-99.9999999999999,4,2,2,85,0,1
213500,-99.9999999999999,4,2,1,85,0,1
213600,-99.9999999999999,4,2,2,85,0,1
213750,-99.9999999999999,4,2,2,85,0,0
213800,-90.9090909090909,4,2,11,85,0,1
214100,-90.9090909090909,4,2,6,85,0,1
214900,-90.9090909090909,4,2,2,85,0,1
214950,-90.9090909090909,4,2,2,85,0,0
215000,-90.9090909090909,4,2,9,85,0,1
215200,-90.9090909090909,4,2,2,85,0,1
215300,-90.9090909090909,4,2,6,85,0,1
215500,-90.9090909090909,4,2,6,85,0,1
215600,-90.9090909090909,4,2,4,85,0,1
215900,-90.9090909090909,4,2,6,85,0,1
216100,-90.9090909090909,4,2,2,85,0,1
216150,-90.9090909090909,4,2,2,85,0,0
216200,-90.9090909090909,4,2,9,85,0,1
216400,-90.9090909090909,4,2,2,85,0,1
216500,-90.9090909090909,4,2,6,85,0,1
216800,-90.9090909090909,4,2,4,85,0,1
217100,-90.9090909090909,4,2,6,85,0,1
217300,-90.9090909090909,4,2,2,85,0,1
217350,-90.9090909090909,4,2,2,85,0,0
217400,-90.9090909090909,4,2,9,85,0,1
217600,-90.9090909090909,4,2,2,85,0,1
217700,-90.9090909090909,4,2,6,85,0,1
217900,-90.9090909090909,4,2,6,85,0,1
218000,-90.9090909090909,4,2,4,85,0,1
218300,-90.9090909090909,4,2,6,85,0,1
218500,-90.9090909090909,4,2,2,85,0,1
218550,-90.9090909090909,4,2,2,85,0,0
218600,-90.9090909090909,4,2,9,85,0,1
218800,-90.9090909090909,4,2,2,85,0,1
218900,-90.9090909090909,4,2,6,85,0,1
219200,-90.9090909090909,4,2,4,85,0,1
219500,-90.9090909090909,4,2,5,85,0,1
219750,-90.9090909090909,4,2,5,85,0,0
219800,-90.9090909090909,4,2,9,85,0,1
220000,-90.9090909090909,4,2,2,85,0,1
220100,-90.9090909090909,4,2,6,85,0,1
220300,-90.9090909090909,4,2,6,85,0,1
220400,-90.9090909090909,4,2,4,85,0,1
220700,-90.9090909090909,4,2,5,85,0,1
220950,-90.9090909090909,4,2,5,85,0,0
221000,-90.9090909090909,4,2,9,85,0,1
221600,-90.9090909090909,4,2,3,85,0,1
221900,-90.9090909090909,4,2,6,85,0,1
222150,-90.9090909090909,4,2,6,85,0,0
222200,-90.9090909090909,4,2,6,85,0,1
222450,-90.9090909090909,4,2,6,85,0,0
222500,-90.9090909090909,4,2,6,85,0,1
222750,-90.9090909090909,4,2,6,85,0,0
222800,-90.9090909090909,4,2,9,85,0,1
223050,-90.9090909090909,4,2,9,85,0,0
223100,-90.9090909090909,4,2,9,85,0,1
223300,-90.9090909090909,4,2,2,85,0,1
223350,-90.9090909090909,4,2,2,85,0,0
223400,-90.9090909090909,4,2,8,85,0,1
223600,-90.9090909090909,4,2,2,85,0,1
223700,-90.9090909090909,4,2,6,85,0,1
224000,-90.9090909090909,4,2,9,85,0,1
224300,-90.9090909090909,4,2,5,85,0,1
224600,-90.9090909090909,4,2,9,85,0,1
224800,-90.9090909090909,4,2,2,85,0,1
224900,-90.9090909090909,4,2,6,85,0,1
225200,-90.9090909090909,4,2,9,85,0,1
225500,-90.9090909090909,4,2,6,85,0,1
225700,-90.9090909090909,4,2,2,85,0,1
225800,-90.9090909090909,4,2,9,85,0,1
226000,-90.9090909090909,4,2,2,85,0,1
226100,-90.9090909090909,4,2,6,85,0,1
226400,-90.9090909090909,4,2,9,85,0,1
226700,-90.9090909090909,4,2,6,85,0,1
226900,-90.9090909090909,4,2,1,85,0,1
227000,-90.9090909090909,4,2,4,85,0,1
227900,-90.9090909090909,4,2,5,85,0,1
228100,-90.9090909090909,4,2,1,85,0,1
228200,-100,4,2,8,85,0,0
228400,-100,4,2,2,85,0,0
228500,-100,4,2,8,85,0,0
228700,-100,4,2,2,85,0,0
228800,-100,4,2,12,85,0,0
229000,-100,4,2,1,85,0,0
229100,-100,4,2,7,85,0,0
229400,-100,4,2,8,85,0,0
229600,-100,4,2,7,85,0,0
229900,-100,4,2,1,85,0,0
230000,-100,4,2,7,85,0,0
230300,-100,4,2,8,85,0,0
230500,-100,4,2,2,85,0,0
230600,-100,4,2,8,85,0,0
230800,-100,4,2,7,85,0,0
231100,-100,4,2,1,85,0,0
231200,-100,4,2,7,85,0,0
231500,-100,4,2,8,85,0,0
231700,-100,4,2,2,85,0,0
231800,-100,4,2,2,65,0,0
232100,-100,4,2,1,65,0,0
232600,-100,4,2,4,65,0,0
233000,-100,4,2,2,60,0,0

[Colours]
Combo1 : 138,40,236
Combo2 : 145,13,145
Combo3 : 89,89,240
Combo4 : 176,176,176

[HitObjects]
50,8,200,6,0,B|54:14|54:26|54:26|48:41|38:88,1,83.3333333333333,8|0,3:2|3:3,0:0:0:0:
29,118,800,1,8,1:2:0:0:
186,157,1300,1,0,3:3:0:0:
186,157,1400,2,0,B|202:149|202:149|226:161|232:157,2,50,8|8|8,2:2|3:2|1:2,0:0:0:0:
33,264,3200,2,0,B|28:271|28:271|35:300,1,33.3333333333333,8|0,1:2|3:3,0:0:0:0:
117,351,3700,1,0,3:3:0:0:
117,351,3800,1,8,2:2:0:0:
213,344,4100,2,0,P|236:348|253:367,1,50,8|2,3:2|1:2,0:0:0:0:
253,367,5000,6,0,B|241:350|241:338|241:338|246:320|246:320|244:306|239:296,1,74.9999977111817,10|8,3:2|2:2,0:0:0:0:
207,188,5600,2,0,P|187:163|214:169,1,74.9999977111817,8|10,1:2|2:2,0:0:0:0:
318,206,6200,2,0,B|332:188|339:185|339:185|352:140,1,74.9999977111817,10|10,2:2|3:2,0:0:0:0:
369,30,6800,1,10,1:2:0:0:
140,9,7400,6,0,B|123:15|118:28|118:28|111:47|84:59,1,74.9999977111817,10|10,2:2|2:2,0:0:0:0:
25,153,8000,2,0,B|40:173|40:173|94:184,1,74.9999977111817,10|8,1:2|2:2,0:0:0:0:
201,170,8600,2,0,B|194:185|194:185|177:242,1,74.9999977111817,10|10,2:2|3:2,0:0:0:0:
128,342,9200,1,10,1:2:0:0:
351,369,9800,6,0,B|367:353|367:353|399:253,1,124.999996185303,10|2,3:2|3:2,0:0:0:0:
408,219,10400,1,10,1:2:0:0:
230,174,10900,1,2,3:2:0:0:
230,174,11000,2,0,B|227:140|227:140|207:105,1,74.9999977111817,10|10,2:2|3:2,0:0:0:0:
109,48,11600,1,8,1:2:0:0:
120,272,12200,6,0,B|107:234|94:221|94:221|25:155,1,149.999995422363,10|10,2:2|1:2,0:0:0:0:
16,44,13100,1,10,2:2:0:0:
91,68,13300,1,2,3:2:0:0:
91,68,13400,2,0,P|129:63|243:30,1,149.999995422363,10|8,2:2|1:2,0:0:0:0:
453,93,14600,6,0,B|462:110|454:129|454:129|444:135|433:160,1,74.9999977111817,10|10,3:2|2:2,0:0:0:0:
335,214,15200,2,0,B|327:240|327:240|341:290,1,74.9999977111817,10|10,1:2|2:2,0:0:0:0:
261,366,15800,2,0,B|247:353|247:353|220:371|220:371|195:373,1,74.9999977111817,10|10,2:2|3:2,0:0:0:0:
85,355,16400,1,8,1:2:0:0:
8,143,17000,6,0,B|31:144|44:152|48:174|65:186,1,74.9999977111817,10|10,2:2|2:2,0:0:0:0:
128,279,17600,2,0,P|155:286|179:246,1,74.9999977111817,10|10,1:2|2:2,0:0:0:0:
183,140,18200,2,0,B|182:109|182:109|195:95|220:82,1,74.9999977111817,10|10,2:2|3:2,0:0:0:0:
318,31,18800,1,8,1:2:0:0:
292,269,19400,6,0,B|312:278|312:278|320:294|320:294|353:309,1,74.9999977111817,10|10,3:2|2:2,0:0:0:0:
451,362,20000,2,0,B|463:345|463:345|476:286,1,74.9999977111817,10|10,1:2|2:2,0:0:0:0:
428,189,20600,2,0,P|417:160|438:181,1,74.9999977111817,10|10,2:2|3:2,0:0:0:0:
346,225,21200,1,10,1:2:0:0:
343,207,21800,6,0,P|327:184|363:98,1,124.999996185303,10|2,2:2|2:2,0:0:0:0:
390,96,22400,2,0,P|378:120|285:133,1,124.999996185303,10|2,1:2|3:2,0:0:0:0:
261,119,23000,2,0,P|288:118|345:191,1,124.999996185303,10|0,2:2|0:0,0:0:0:0:
345,227,23600,1,10,1:2:0:0:
345,227,24200,6,0,B|333:244|316:244|316:244|277:258|262:305|262:305|242:274|256:263|280:263,1,174.999994659424,14|10,3:2|1:2,0:0:0:0:
238,62,25300,2,0,B|226:42|212:31|212:31|185:31|158:46,1,87.499997329712,2|2,3:2|2:2,0:0:0:0:
154,58,25700,1,10,3:2:0:0:
31,61,26000,2,0,B|24:83|24:83|34:156,1,87.499997329712,10|10,1:2|2:2,0:0:0:0:
102,190,26500,1,2,2:2:0:0:
102,190,26600,6,0,B|128:199|128:199|160:235|160:235|58:277,1,174.999994659424,10|10,3:2|1:2,0:0:0:0:
18,50,27700,2,0,B|50:-3|50:-3|63:31,1,87.499997329712,2|2,3:2|2:2,0:0:0:0:
59,62,28100,1,10,3:2:0:0:
174,20,28400,1,10,1:2:0:0:
259,22,28600,1,2,2:2:0:0:
259,22,28700,2,0,B|276:40|276:40|259:78,1,58.3333315531413,10|2,2:2|2:2,0:0:0:0:
253,110,29000,6,0,B|274:105|274:105|323:123|323:123|363:125|363:125|363:125|373:141|373:141|380:150|380:150|371:149|360:151|357:153|357:155|358:162,1,174.999994659424,10|10,3:2|1:2,0:0:0:0:
257,339,30100,1,2,3:2:0:0:
257,339,30200,2,0,P|261:360|272:330,1,87.499997329712,10|10,2:2|3:2,0:0:0:0:
223,217,30800,2,0,B|245:210|268:192|268:192|282:216|299:217,1,87.499997329712,10|10,1:2|2:2,0:0:0:0:
414,194,31400,6,0,B|437:171|437:171|420:134|420:134|380:118|380:118|335:145|335:145|333:156,1,174.999994659424,10|10,3:2|1:2,0:0:0:0:
142,214,32500,1,2,3:2:0:0:
142,214,32600,2,0,B|113:208|113:208|93:192|93:192|59:174,2,87.499997329712,10|10|10,2:2|3:2|1:2,0:0:0:0:
263,233,33500,2,0,B|258:258|258:258|236:294,1,58.3333315531413,10|8,2:2|2:2,0:0:0:0:
227,297,33800,6,0,L|152:313,2,74.9999977111817,10|10|10,3:2|3:2|3:2,0:0:0:0:
307,357,35300,2,0,B|320:364|352:365|352:365|363:353|373:340|373:340|352:333,1,100,2|2,2:2|2:2,0:0:0:0:
323,265,36100,1,2,2:2:0:0:
323,265,36200,6,0,B|287:247|287:247|298:200|344:169|344:169|391:153|414:180,1,208.333333333333,6|0,3:2|3:3,0:0:0:0:
440,190,36800,2,0,B|470:185|477:180|477:180|490:165|509:82,1,125,0|8,1:1|2:2,0:0:0:0:
436,27,37400,6,0,B|404:9|404:9|356:19|320:55|320:55|270:68|241:31,1,208.333333333333,2|0,2:2|0:0,0:0:0:0:
220,24,38000,2,0,B|177:13|177:13|156:31|209:90,1,125,0|10,1:1|2:2,0:0:0:0:
256,152,38500,1,2,2:2:0:0:
256,152,38600,6,0,B|278:162|297:162|297:162|305:208,1,83.3333333333333,2|2,3:2|2:2,0:0:0:0:
304,244,38900,2,0,B|250:269|250:269|214:267,1,83.3333333333333,10|2,2:2|3:2,0:0:0:0:
196,249,39200,2,0,B|165:222|165:222|146:177,1,83.3333333333333,2|2,1:2|2:2,0:0:0:0:
126,147,39500,1,10,2:2:0:0:
76,205,39700,1,2,3:2:0:0:
76,205,39800,6,0,B|48:212|24:258|24:258|53:310,1,125,0|8,0:0|3:2,0:0:0:0:
143,360,40400,2,0,B|146:327|191:304|191:304|209:271|232:259|232:259|235:220|216:185,1,208.333333333333,4|2,1:2|2:2,0:0:0:0:
206,156,41000,6,0,B|233:115|283:120|283:120|314:64|386:82,1,208.333333333333,6|2,3:2|3:2,0:0:0:0:
420,92,41600,2,0,B|451:108|453:133|453:133|420:170|382:171,1,125,2|10,1:2|2:2,0:0:0:0:
344,270,42200,2,0,B|308:268|290:257|290:257|276:238|267:181,1,125,2|10,2:2|3:2,0:0:0:0:
230,86,42800,2,0,B|190:68|190:68|142:78,1,83.3333333333333,2|2,1:2|2:2,0:0:0:0:
113,81,43100,2,0,B|84:114|84:114|81:163,1,83.3333333333333,10|2,2:2|2:2,0:0:0:0:
92,189,43400,5,6,3:2:0:0:
23,278,43700,1,2,0:0:0:0:
106,353,44000,2,0,B|143:342|190:346|190:346|198:318|221:296,1,125,6|4,1:2|1:2,0:0:0:0:
264,359,44500,2,0,B|302:352|336:327|336:327|348:276|321:227,1,166.666666666667,2|10,0:0|2:3,0:0:0:0:
289,136,45200,1,2,1:2:0:0:
341,82,45400,1,10,1:3:0:0:
341,82,45500,2,0,P|387:82|410:125,1,83.3333333333333,6|2,2:3|2:2,0:0:0:0:
416,145,45800,6,0,B|426:176|426:176|392:247|392:247|330:250|304:205,1,208.333333333333,6|0,3:2|3:3,0:0:0:0:
287,179,46400,2,0,B|262:153|207:152|207:152|182:165|169:189,1,125,4|8,1:2|2:2,0:0:0:0:
95,254,47000,6,0,B|112:274|152:275|152:275|191:253|191:253|227:255|259:290|259:290|251:315,1,208.333333333333,2|0,2:2|0:0,0:0:0:0:
253,348,47600,2,0,B|286:377|339:363|339:363|378:374,1,125,0|10,1:1|2:2,0:0:0:0:
483,369,48200,6,0,B|512:364|528:342|528:342|522:308|483:272,1,125,2|10,3:2|2:2,0:0:0:0:
425,256,48700,1,2,3:2:0:0:
425,256,48800,2,0,B|395:261|373:244|373:244|368:209|394:163,1,125,2|10,1:2|2:2,0:0:0:0:
440,123,49300,1,2,3:2:0:0:
440,123,49400,5,2,2:2:0:0:
381,27,49700,1,10,3:2:0:0:
283,83,50000,2,0,B|259:114|259:114|251:162,1,83.3333333333333,6|2,1:2|2:2,0:0:0:0:
259,194,50300,1,10,2:2:0:0:
323,253,50500,1,2,2:2:0:0:
323,253,50600,6,0,B|340:322|340:322|327:382|327:382|229:312,1,250,6|2,3:2|1:2,0:0:0:0:
133,135,51700,1,2,3:2:0:0:
133,135,51800,6,0,B|171:112|171:112|186:57,1,83.3333333333333,2|2,2:2|2:2,0:0:0:0:
199,44,52100,2,0,B|224:15|224:15|246:13|246:13|277:33,1,83.3333333333333,10|2,3:2|2:2,0:0:0:0:
288,55,52400,2,0,B|297:90|297:90|392:113,1,125,2|10,1:2|2:2,0:0:0:0:
489,149,53000,6,0,B|470:131|470:131|240:195,1,250,0|6,3:3|1:2,0:0:0:0:
156,248,53900,2,0,P|130:213|116:163,1,83.3333333333333,2|2,2:2|1:2,0:0:0:0:
123,138,54200,1,0,0:0:0:0:
21,186,54500,1,2,3:2:0:0:
35,297,54800,2,0,P|65:331|109:316,1,83.3333333333333,2|8,1:2|1:3,0:0:0:0:
128,302,55100,2,0,B|157:254|157:254|162:213,1,83.3333333333333,6|0,2:3|0:0,0:0:0:0:
167,194,55400,6,0,B|192:135|262:120|262:120|268:91|249:74,1,166.666666666667,6|0,3:2|3:3,0:0:0:0:
233,53,56000,2,0,B|208:80|208:80|249:211,1,166.666666666667,2|0,1:2|3:3,0:0:0:0:
244,225,56600,1,2,2:2:0:0:
244,225,57200,5,2,1:2:0:0:
364,297,57500,1,10,2:2:0:0:
510,270,57800,1,2,3:2:0:0:
512,258,58400,5,2,1:2:0:0:
363,256,58700,1,10,2:2:0:0:
239,174,59000,1,2,2:2:0:0:
242,164,59600,6,0,B|262:182|262:182|266:325,1,166.666666666667,4|4,1:2|2:3,0:0:0:0:
267,349,60200,6,0,B|264:386|264:386|347:337|358:245,1,200,6|2,3:2|1:2,0:0:0:0:
475,55,61300,1,0,3:3:0:0:
475,55,61400,6,0,B|500:101|500:101|491:147,2,100,2|10|2,2:2|3:2|1:2,0:0:0:0:
416,8,62200,1,0,0:0:0:0:
416,8,62300,2,0,B|394:2|394:2|347:23,1,66.6666666666667,10|0,2:2|0:0,0:0:0:0:
341,58,62600,2,0,B|333:82|333:82|248:122|248:122|212:160,1,166.666666666667,0|0,3:3|3:3,0:0:0:0:
199,193,63200,6,0,B|161:205|161:205|99:206,1,100,6|6,1:2|1:2,0:0:0:0:
73,197,63600,1,0,0:0:0:0:
40,357,64000,1,0,1:1:0:0:
40,357,64100,2,0,P|91:373|149:375,1,100,2|2,3:2|1:2,0:0:0:0:
206,333,64600,1,10,1:3:0:0:
206,333,64700,2,0,B|231:328|240:341|240:341|247:365|261:363,1,66.6666666666667,6|0,2:3|0:0,0:0:0:0:
276,375,65000,6,0,B|313:379|313:379|359:358|384:268,1,166.666666666667,6|0,3:2|3:3,0:0:0:0:
397,237,65600,2,0,B|370:245|370:245|344:179|270:151,1,166.666666666667,2|0,1:2|3:3,0:0:0:0:
262,179,66200,1,2,2:2:0:0:
262,179,66800,5,2,1:2:0:0:
124,122,67100,1,10,2:2:0:0:
40,0,67400,1,2,3:2:0:0:
33,7,68000,5,2,1:2:0:0:
140,111,68300,1,10,2:2:0:0:
286,139,68600,1,2,2:2:0:0:
303,126,69200,6,0,B|252:71|252:71|161:64,1,166.666666666667,4|0,1:2|1:1,0:0:0:0:
135,62,69800,6,0,B|99:50|99:50|148:206,1,200,6|0,3:2|1:1,0:0:0:0:
301,342,70900,1,2,3:2:0:0:
301,342,71000,2,0,B|325:351|325:351|363:341|363:341|385:303,2,100,2|10|0,2:2|3:2|1:1,0:0:0:0:
242,295,71800,1,2,2:2:0:0:
242,295,71900,2,0,B|213:297|213:297|181:319,1,66.6666666666667,10|2,2:2|2:2,0:0:0:0:
147,339,72200,6,0,B|106:310|106:310|95:260,1,100,2|4,3:2|1:2,0:0:0:0:
146,200,72700,1,2,2:2:0:0:
146,200,72800,2,0,B|161:178|161:178|115:122,1,100,4|2,1:2|2:2,0:0:0:0:
64,66,73300,1,10,2:3:0:0:
64,66,73400,2,0,B|117:88|117:88|230:42,1,166.666666666667,2|0,2:2|0:0,0:0:0:0:
254,28,74000,2,0,B|286:24|286:24|355:58,1,100,2|10,1:2|2:2,0:0:0:0:
435,39,74600,6,0,B|442:56|442:56|426:88|426:88|437:108,1,74.9999977111817,10|8,3:2|2:2,0:0:0:0:
474,204,75200,2,0,B|461:239|461:239|414:228,1,74.9999977111817,10|10,1:2|2:2,0:0:0:0:
323,200,75800,2,0,B|294:203|294:203|252:226,1,74.9999977111817,10|10,2:2|3:2,0:0:0:0:
206,320,76400,1,10,1:2:0:0:
63,165,77000,6,0,P|49:152|69:102,1,74.9999977111817,10|10,2:2|2:2,0:0:0:0:
120,17,77600,2,0,B|145:17|156:28|156:28|174:68,1,74.9999977111817,10|10,1:2|2:2,0:0:0:0:
217,155,78200,2,0,L|200:238,1,74.9999977111817,10|10,2:2|3:2,0:0:0:0:
118,292,78800,1,10,1:2:0:0:
317,358,79400,6,0,B|345:343|345:343|362:305|362:305|404:272,1,124.999996185303,10|2,3:2|3:2,0:0:0:0:
432,254,80000,1,10,1:2:0:0:
261,239,80500,1,2,3:2:0:0:
261,239,80600,2,0,B|273:216|273:216|273:186|273:186|285:162,1,74.9999977111817,10|8,2:2|3:2,0:0:0:0:
271,64,81200,1,10,1:2:0:0:
66,99,83600,6,0,B|87:102|87:102|114:118,1,49.9999984741211,2|2,1:2|1:2,0:0:0:0:
142,131,83900,2,0,B|163:128|163:128|190:112,1,49.9999984741211,10|6,2:3|2:3,0:0:0:0:
217,94,84200,6,0,B|233:82|261:82|261:82|304:115|323:163,1,145.833328882853,14|2,3:2|3:2,0:0:0:0:
332,192,84800,1,10,1:2:0:0:
255,263,85100,1,10,2:2:0:0:
304,330,85300,1,2,3:2:0:0:
304,330,85400,2,0,P|327:335|373:296,1,87.499997329712,10|10,2:2|3:2,0:0:0:0:
332,192,86000,1,10,1:2:0:0:
493,73,86600,6,0,P|485:51|423:28,1,87.499997329712,10|8,3:2|2:2,0:0:0:0:
374,77,87100,1,2,3:2:0:0:
374,77,87200,1,10,1:2:0:0:
274,21,87500,1,10,2:2:0:0:
199,92,87800,6,0,L|137:64,1,58.3333315531413,10|2,2:2|2:2,0:0:0:0:
121,45,88100,2,0,P|100:42|57:63,1,58.3333315531413,10|2,3:2|2:2,0:0:0:0:
36,47,88400,2,0,P|21:64|30:126,1,87.499997329712,10|10,1:2|2:2,0:0:0:0:
13,219,89000,6,0,B|20:234|20:234|85:237|146:277,1,145.833328882853,10|2,3:2|3:2,0:0:0:0:
169,298,89600,1,10,1:2:0:0:
343,383,90100,1,2,3:2:0:0:
343,383,90200,2,0,B|337:375|337:375|334:329|358:292,1,87.499997329712,10|10,2:2|3:2,0:0:0:0:
295,202,90800,1,8,1:2:0:0:
110,45,91400,6,0,P|115:76|216:120,1,145.833328882853,2|2,3:2|3:2,0:0:0:0:
240,100,92000,2,0,P|210:90|121:155,1,145.833328882853,2|2,1:2|3:2,0:0:0:0:
112,186,92600,2,0,P|136:165|124:56,1,145.833328882853,2|2,2:2|2:2,0:0:0:0:
109,45,93200,1,2,1:2:0:0:
101,33,93800,6,0,B|117:25|117:25|140:21|169:34|169:34|191:26|234:53|234:53|218:61|195:57,1,174.999994659424,14|10,3:2|1:2,0:0:0:0:
67,192,94900,2,0,B|82:213|97:225|97:225|118:230|139:228,1,87.499997329712,2|2,3:2|2:2,0:0:0:0:
176,220,95300,1,10,3:2:0:0:
182,342,95600,2,0,B|195:350|195:350|214:347|277:335,1,87.499997329712,10|10,1:2|2:2,0:0:0:0:
308,276,96100,1,2,2:2:0:0:
308,276,96200,6,0,B|391:281|391:281|378:245|378:245|330:207,1,174.999994659424,10|10,3:2|1:2,0:0:0:0:
187,96,97300,2,0,B|157:100|157:100|137:119|137:119|138:160,1,87.499997329712,2|2,3:2|2:2,0:0:0:0:
155,183,97700,1,10,3:2:0:0:
183,293,98000,1,10,1:2:0:0:
256,271,98200,1,2,2:2:0:0:
256,271,98300,2,0,B|292:288|292:288|296:310,1,58.3333315531413,10|2,2:2|2:2,0:0:0:0:
300,326,98600,6,0,B|332:333|332:333|365:356|365:356|412:353|412:353|384:306,1,174.999994659424,10|10,3:2|1:2,0:0:0:0:
326,125,99700,2,0,B|356:119|356:119|373:97|373:97|401:100,1,87.499997329712,2|2,3:2|2:2,0:0:0:0:
436,115,100100,1,10,3:2:0:0:
499,209,100400,2,0,B|482:223|470:225|470:225|461:217|461:217|441:217,1,58.3333315531413,10|0,1:2|0:0,0:0:0:0:
416,216,100700,2,0,B|392:208|379:211|379:211|374:223|374:223|361:229,1,58.3333315531413,10|2,2:2|2:2,0:0:0:0:
333,245,101000,5,10,3:2:0:0:
258,159,101300,1,10,1:2:0:0:
145,177,101600,2,0,B|131:138|131:138|139:119|139:119|161:87,1,87.499997329712,10|10,1:2|1:2,0:0:0:0:
268,93,102200,1,8,2:2:0:0:
254,170,102400,1,0,1:1:0:0:
254,170,102500,2,0,B|254:188|254:188|223:250,1,87.499997329712,14|10,2:3|1:2,0:0:0:0:
196,323,103000,1,0,1:1:0:0:
196,323,103100,2,0,P|214:355|248:360,1,72.9166644414267,10|0,2:2|0:0,0:0:0:0:
265,355,103400,6,0,L|293:366,2,20.8333333333333,10|0|2,3:2|0:0|2:2,0:0:0:0:
284,362,104000,6,0,L|311:349,2,20.8333333333333,10|0|2,3:2|0:0|2:2,0:0:0:0:
302,352,104600,6,0,L|313:324,2,20.8333333333333,10|0|2,3:2|0:0|2:2,0:0:0:0:
309,332,105800,6,0,B|343:302|343:302|281:198|281:198|307:155,1,208.333333333333,6|0,3:2|3:3,0:0:0:0:
312,139,106400,2,0,P|304:116|380:113,1,125,0|10,1:1|2:2,0:0:0:0:
471,157,107000,2,0,B|459:91|459:91|444:71,1,83.3333333333333,2|2,2:2|2:2,0:0:0:0:
435,42,107300,2,0,B|377:6|377:6|353:4,1,83.3333333333333,10|0,3:2|0:0,0:0:0:0:
326,9,107600,1,2,1:2:0:0:
312,139,107900,6,0,B|268:143|268:143|175:126,1,125,10|2,2:2|3:2,0:0:0:0:
118,116,108400,1,2,2:2:0:0:
118,116,108500,2,0,B|99:140|87:146|86:147|86:147|98:170|97:191,1,83.3333333333333,10|2,2:2|3:2,0:0:0:0:
88,221,108800,1,2,1:2:0:0:
21,273,109000,1,2,2:2:0:0:
21,273,109100,1,10,2:2:0:0:
42,352,109300,1,2,3:2:0:0:
42,352,109400,6,0,B|78:349|78:349|96:330|96:330|131:334|131:334|164:314,1,125,0|8,0:0|3:2,0:0:0:0:
268,365,110000,2,0,B|279:346|276:315|276:315|263:261|300:213|300:213|306:185|286:164,1,208.333333333333,4|2,1:2|2:2,0:0:0:0:
296,133,110600,6,0,B|280:95|237:89|237:89|207:47|152:52|152:52|123:54|112:73,1,208.333333333333,6|2,3:2|3:2,0:0:0:0:
106,85,111200,1,2,1:2:0:0:
8,28,111500,1,10,2:2:0:0:
22,139,111800,2,0,B|34:159|31:182|31:182|2:219|11:268,1,125,2|10,2:2|3:2,0:0:0:0:
96,329,112400,2,0,B|83:307|85:283|85:283|116:244|107:193,1,125,2|10,1:2|2:2,0:0:0:0:
172,156,112900,1,2,2:2:0:0:
172,156,113000,5,6,3:2:0:0:
291,191,113300,1,2,0:0:0:0:
384,107,113600,2,0,B|405:125|417:151|417:151|415:174|415:174|442:220,1,125,6|6,1:2|1:2,0:0:0:0:
474,289,114100,2,0,B|449:307|449:307|413:307|413:307|349:335,1,125,2|2,0:0|1:2,0:0:0:0:
329,358,114500,1,10,2:3:0:0:
266,249,114800,1,2,1:2:0:0:
220,319,115000,1,10,1:3:0:0:
220,319,115100,2,0,B|181:345|181:345|166:337|138:345,1,83.3333333333333,6|2,2:3|2:2,0:0:0:0:
105,352,115400,6,0,B|82:365|56:364|56:364|-9:301|46:217,1,208.333333333333,6|0,3:2|3:3,0:0:0:0:
66,187,116000,2,0,B|98:129|98:129|83:102|74:70,1,125,4|10,1:2|2:2,0:0:0:0:
191,27,116600,6,0,B|234:15|273:37|273:37|274:118|339:144,1,208.333333333333,2|0,2:2|0:0,0:0:0:0:
367,157,117200,2,0,B|405:169|423:194|423:194|427:235|411:264,1,125,0|10,1:1|2:2,0:0:0:0:
337,254,117700,1,2,2:2:0:0:
337,254,117800,6,0,P|322:283|310:346,1,83.3333333333333,2|2,3:2|2:2,0:0:0:0:
307,363,118100,2,0,P|277:327|238:301,1,83.3333333333333,10|2,2:2|3:2,0:0:0:0:
215,308,118400,1,2,1:2:0:0:
150,349,118600,1,2,2:2:0:0:
150,349,118700,2,0,B|128:336|116:309|116:309|113:272|146:233,1,125,10|2,2:2|2:2,0:0:0:0:
203,193,119200,1,2,2:2:0:0:
203,193,119300,5,10,3:2:0:0:
304,252,119600,1,6,1:2:0:0:
361,202,119800,1,2,2:2:0:0:
361,202,119900,2,0,B|374:168|374:168|374:117,1,83.3333333333333,10|2,2:2|2:2,0:0:0:0:
369,79,120200,6,0,B|330:43|330:43|259:16|203:55|203:55|189:96|210:136,1,250,6|2,3:2|1:2,0:0:0:0:
337,284,121300,1,2,3:2:0:0:
337,284,121400,2,0,B|365:297|365:297|404:289|404:289|422:283|422:283|466:294,2,125,2|10|2,2:2|3:2|1:2,0:0:0:0:
241,223,122300,2,0,B|224:241|224:241|203:304,1,83.3333333333333,10|2,2:2|2:2,0:0:0:0:
202,334,122600,6,0,B|182:348|182:348|119:301|119:301|88:304,1,125,2|0,3:2|0:0,0:0:0:0:
18,222,123200,2,0,B|6:200|6:200|70:149|70:149|73:129,1,125,2|2,1:2|2:2,0:0:0:0:
144,109,123700,6,0,B|167:101|167:101|224:149|224:149|262:150,1,125,2|2,1:2|2:2,0:0:0:0:
284,136,124100,1,2,3:2:0:0:
345,187,124300,1,2,2:2:0:0:
345,187,124400,1,2,3:2:0:0:
419,186,124600,2,0,L|411:131,3,41.6666666666667,2|2|0|0,1:2|1:2|1:1|1:1,0:0:0:0:
447,212,125000,6,0,P|456:151|476:90,1,112.499996566773,6|10,3:2|2:2,0:0:0:0:
332,41,125600,2,0,P|323:102|303:163,1,112.499996566773,6|10,1:2|2:2,0:0:0:0:
439,225,126200,6,0,P|417:166|407:103,1,112.499996566773,2|10,2:2|3:2,0:0:0:0:
256,120,126800,2,0,P|277:177|287:241,1,112.499996566773,2|10,1:2|2:2,0:0:0:0:
438,247,127400,6,0,P|401:196|374:139,1,112.499996566773,2|10,3:2|2:2,0:0:0:0:
232,191,128000,2,0,P|268:240|296:298,1,112.499996566773,2|10,1:2|2:2,0:0:0:0:
444,271,128600,6,0,P|389:241|339:202,1,112.499996566773,2|10,2:2|3:2,0:0:0:0:
261,145,129200,1,6,1:2:0:0:
192,184,129400,1,2,2:2:0:0:
192,184,129500,1,2,2:2:0:0:
113,268,129800,6,0,P|136:209|149:145,1,112.499996566773,6|10,3:2|2:2,0:0:0:0:
52,55,130400,2,0,P|47:116|53:177,1,112.499996566773,2|10,1:2|2:2,0:0:0:0:
150,276,131000,6,0,P|163:214|166:148,1,112.499996566773,2|10,2:2|3:2,0:0:0:0:
65,61,131600,2,0,P|70:122|86:182,1,112.499996566773,2|10,1:2|2:2,0:0:0:0:
149,248,132200,5,2,3:2:0:0:
171,346,132500,1,10,2:2:0:0:
247,363,132700,1,2,3:2:0:0:
247,363,132800,2,0,P|267:305|279:243,1,112.499996566773,6|6,1:2|1:2,0:0:0:0:
243,190,133300,2,0,B|227:132|258:79|258:79|296:73,1,149.999995422363,2|2,3:2|2:2,0:0:0:0:
378,126,134000,1,6,1:2:0:0:
457,127,134200,1,2,2:2:0:0:
457,127,134300,2,0,B|477:90|477:90|473:43,1,74.9999977111817,10|2,2:3|2:2,0:0:0:0:
469,18,134600,5,6,3:2:0:0:
354,55,134900,2,0,B|299:71|299:71|278:60,1,66.6666666666667,10|0,2:2|3:3,0:0:0:0:
252,54,135200,2,0,B|217:49|199:58|199:58|177:86|177:106|177:106|192:128|182:171,1,166.666666666667,2|2,1:2|3:2,0:0:0:0:
159,196,135800,1,2,2:2:0:0:
87,173,136000,1,0,0:0:0:0:
87,173,136100,2,0,B|67:169|39:182|39:182|37:193|42:205,1,66.6666666666667,10|0,3:2|0:0,0:0:0:0:
45,240,136400,2,0,B|71:244|84:250|84:250|87:285|99:305|99:305|133:321|165:319,1,166.666666666667,2|0,1:2|0:0,0:0:0:0:
205,313,137000,6,0,B|233:307|233:307|313:330,1,100,2|10,3:2|2:2,0:0:0:0:
378,361,137500,1,0,3:3:0:0:
378,361,137600,2,0,B|396:349|396:349|424:263,1,100,2|10,1:2|2:2,0:0:0:0:
449,202,138100,1,2,3:2:0:0:
449,202,138200,2,0,B|438:162|400:146|400:146|307:160,1,166.666666666667,2|0,2:2|0:0,0:0:0:0:
271,160,138800,2,0,B|240:123|199:111|199:111|184:75|198:21,1,166.666666666667,6|2,1:2|2:2,0:0:0:0:
226,7,139400,6,0,B|249:-4|249:-4|298:-2|346:25|346:25|340:55|343:74,1,166.666666666667,6|0,3:2|3:3,0:0:0:0:
337,102,140000,2,0,B|319:158|319:158|288:161|272:176,1,100,2|10,1:2|2:2,0:0:0:0:
240,239,140500,2,0,B|226:272|252:303|252:303|277:317|305:307|305:307|328:276|317:233,1,200,2|0,3:2|0:0,0:0:0:0:
306,196,141200,1,2,1:2:0:0:
265,82,141500,1,10,2:2:0:0:
190,101,141700,1,2,2:2:0:0:
190,101,141800,2,0,B|163:103|145:126|145:126|137:169|137:169|124:195|73:214,1,166.666666666667,2|2,3:2|2:2,0:0:0:0:
45,226,142400,6,0,B|52:249|48:289|48:289|70:280|94:279,1,100,6|2,1:2|2:2,0:0:0:0:
153,327,142900,1,10,2:3:0:0:
153,327,143000,2,0,B|172:330|182:337|182:337|247:304,1,100,0|6,0:0|2:3,0:0:0:0:
275,234,143500,1,2,2:2:0:0:
275,234,143600,2,0,B|315:232|315:232|338:253,1,66.6666666666667,2|2,1:2|1:2,0:0:0:0:
356,283,143900,1,10,2:2:0:0:
433,318,144100,1,0,0:0:0:0:
433,318,144200,6,0,B|448:300|449:289|449:289|447:277|447:277|444:268|457:247,1,74.9999977111817,10|8,3:2|2:2,0:0:0:0:
484,149,144800,2,0,B|497:133|497:133|443:101,1,74.9999977111817,8|10,1:2|2:2,0:0:0:0:
356,130,145400,2,0,B|316:130|316:130|289:95,1,74.9999977111817,10|10,2:2|3:2,0:0:0:0:
230,28,146000,1,10,1:2:0:0:
87,160,146600,6,0,P|79:182|120:213,1,74.9999977111817,10|10,2:2|2:2,0:0:0:0:
209,201,147200,2,0,B|223:226|223:226|233:270,1,74.9999977111817,10|10,1:2|2:2,0:0:0:0:
253,366,147800,2,0,B|283:366|294:362|294:362|302:354|310:327,1,74.9999977111817,10|10,2:2|3:2,0:0:0:0:
322,235,148400,1,8,1:2:0:0:
465,103,149000,6,0,B|479:119|479:119|488:178|488:178|470:223,1,124.999996185303,10|2,3:2|3:2,0:0:0:0:
457,247,149600,1,10,1:2:0:0:
356,125,150100,1,2,3:2:0:0:
356,125,150200,6,0,B|357:138|357:138|342:172|342:172|317:190,1,74.9999977111817,10|10,2:2|3:2,0:0:0:0:
229,217,150800,1,8,1:2:0:0:
144,83,151300,1,2,2:2:0:0:
144,83,151400,6,0,B|124:107|124:107|88:137,1,74.9999977111817,10|10,2:2|2:2,0:0:0:0:
0,235,152000,2,0,P|21:241|51:294,1,74.9999977111817,10|10,1:2|2:2,0:0:0:0:
82,355,152500,1,2,3:2:0:0:
82,355,152600,2,0,B|105:375|127:379|127:379|147:368|159:368,1,74.9999977111817,10|10,2:2|3:2,0:0:0:0:
243,349,153200,1,8,1:2:0:0:
243,349,153800,6,0,B|251:326|251:326|247:307|247:307|258:275,1,74.9999977111817,10|10,3:2|2:2,0:0:0:0:
225,185,154400,2,0,B|220:162|220:162|249:112,1,74.9999977111817,10|10,1:2|2:2,0:0:0:0:
298,34,155000,2,0,P|319:27|376:28,1,74.9999977111817,10|8,2:2|3:2,0:0:0:0:
457,73,155600,1,10,1:2:0:0:
501,262,156200,6,0,B|481:274|466:269|466:269|453:249|428:239,1,74.9999977111817,10|10,2:2|2:2,0:0:0:0:
344,216,156800,2,0,P|316:224|312:272,1,74.9999977111817,10|8,1:2|2:2,0:0:0:0:
306,363,157400,2,0,L|225:337,1,74.9999977111817,10|10,2:2|3:2,0:0:0:0:
138,358,158000,1,8,1:2:0:0:
10,210,158600,6,0,B|43:201|87:137|87:137|91:120,1,124.999996185303,10|2,3:2|3:2,0:0:0:0:
87,88,159200,1,10,1:2:0:0:
252,108,159700,1,2,3:2:0:0:
252,108,159800,2,0,B|244:135|217:163|217:163|208:165,1,74.9999977111817,10|10,2:2|3:2,0:0:0:0:
217,262,160400,1,8,1:2:0:0:
403,340,161000,6,0,P|418:316|381:228,1,124.999996185303,10|2,2:2|2:2,0:0:0:0:
354,227,161600,2,0,P|367:251|462:264,1,124.999996185303,10|0,1:2|3:3,0:0:0:0:
486,250,162200,2,0,P|459:248|400:324,1,124.999996185303,10|0,2:2|0:0,0:0:0:0:
403,342,162800,1,10,1:2:0:0:
326,52,165800,6,0,P|343:33|413:72,1,112.499996566773,6|8,3:2|2:2,0:0:0:0:
463,122,166300,1,2,3:2:0:0:
463,122,166400,2,0,B|469:153|469:153|449:187|449:187|437:244,1,112.499996566773,10|10,1:2|2:2,0:0:0:0:
412,299,166900,1,2,3:2:0:0:
412,299,167000,2,0,L|331:339,1,74.9999977111817,10|0,2:2|0:0,0:0:0:0:
308,342,167300,2,0,L|227:315,1,74.9999977111817,10|0,3:2|0:0,0:0:0:0:
203,301,167600,1,8,1:2:0:0:
190,189,167900,1,8,2:2:0:0:
119,200,168100,1,2,2:2:0:0:
119,200,168200,6,0,B|86:182|86:182|109:99,1,112.499996566773,10|10,3:2|2:2,0:0:0:0:
159,57,168700,1,2,3:2:0:0:
159,57,168800,2,0,L|260:115,1,112.499996566773,8|10,1:2|2:2,0:0:0:0:
268,191,169300,1,2,3:2:0:0:
268,191,169400,2,0,B|288:185|288:185|337:201|337:201|373:181,2,112.499996566773,10|10|8,2:2|3:2|1:2,0:0:0:0:
156,177,170300,1,8,2:2:0:0:
72,252,170600,6,0,P|54:284|114:321,1,112.499996566773,10|10,3:2|2:2,0:0:0:0:
175,297,171100,1,2,3:2:0:0:
175,297,171200,2,0,B|202:294|213:289|213:289|248:333|283:342,1,112.499996566773,10|10,1:2|2:2,0:0:0:0:
341,369,171700,1,2,3:2:0:0:
341,369,171800,2,0,P|368:366|383:316,1,74.9999977111817,8|2,2:2|2:2,0:0:0:0:
377,290,172100,1,8,3:2:0:0:
302,206,172400,2,0,B|302:154|320:102|320:102|365:65|404:60,1,187.499994277954,10|2,1:2|2:2,0:0:0:0:
429,59,173000,6,0,B|456:61|463:70|463:70|450:122,1,74.9999977111817,10|2,3:2|2:2,0:0:0:0:
453,145,173300,1,10,2:2:0:0:
413,209,173500,1,2,3:2:0:0:
413,209,173600,2,0,B|401:241|401:241|417:294,1,74.9999977111817,4|2,1:2|2:2,0:0:0:0:
422,316,173900,2,0,B|390:328|390:328|339:316,1,74.9999977111817,4|2,1:2|3:2,0:0:0:0:
314,308,174200,5,2,2:2:0:0:
274,245,174400,1,2,1:2:0:0:
274,245,174500,1,2,3:2:0:0:
293,168,174700,1,2,2:2:0:0:
293,168,174800,2,0,P|279:131|202:103,1,112.499996566773,2|6,1:2|2:3,0:0:0:0:
133,23,175400,6,0,B|104:23|79:40|79:40|93:101|93:101|86:133|69:175,1,187.499994277954,6|0,3:2|3:3,0:0:0:0:
63,202,176000,2,0,B|59:231|70:257|70:257|96:242|146:228|146:228|173:249|175:273,1,187.499994277954,6|0,1:2|3:3,0:0:0:0:
168,305,176600,1,10,2:2:0:0:
228,357,176800,1,0,0:0:0:0:
228,357,176900,6,0,P|268:356|285:285,1,112.499996566773,10|10,3:2|1:2,0:0:0:0:
249,190,177500,1,10,2:2:0:0:
309,95,177800,6,0,B|333:74|382:66|382:66|410:76|434:96|434:96|437:134|451:155,1,187.499994277954,10|0,3:2|3:3,0:0:0:0:
452,179,178400,2,0,B|455:203|445:218|445:218|396:223|353:245|353:245|328:228|300:218,1,187.499994277954,10|0,1:2|3:3,0:0:0:0:
277,201,179000,2,0,B|259:182|259:182|250:133|250:133|219:101,2,112.499996566773,10|10|10,2:2|3:2|1:2,0:0:0:0:
218,290,179900,1,10,2:2:0:0:
107,267,180200,6,0,B|82:257|82:257|68:209|14:98,1,187.499994277954,14|0,3:2|3:3,0:0:0:0:
17,71,180800,2,0,B|30:56|32:35|32:35|88:20|185:53,1,187.499994277954,10|0,1:2|3:3,0:0:0:0:
214,59,181400,6,0,B|246:76|246:76|263:122,1,74.9999977111817,10|0,2:2|0:0,0:0:0:0:
269,148,181700,2,0,B|266:184|266:184|303:225,1,74.9999977111817,10|0,3:2|0:0,0:0:0:0:
321,237,182000,1,10,1:2:0:0:
308,348,182300,1,10,2:2:0:0:
417,372,182600,6,0,B|454:371|497:325|497:325|484:302,1,112.499996566773,10|10,3:2|2:2,0:0:0:0:
478,238,183100,1,0,3:3:0:0:
478,238,183200,2,0,B|472:217|472:217|406:213|376:239,1,112.499996566773,10|10,1:2|2:2,0:0:0:0:
337,293,183700,1,0,3:3:0:0:
337,293,183800,2,0,P|292:304|269:250,1,112.499996566773,10|10,2:2|3:2,0:0:0:0:
287,142,184400,1,6,1:2:0:0:
259,73,184600,1,0,0:0:0:0:
259,73,184700,2,0,B|222:71|222:71|205:103|161:135,1,112.499996566773,10|6,2:3|3:2,0:0:0:0:
118,37,185300,5,10,2:2:0:0:
21,37,185500,1,0,3:3:0:0:
21,37,185600,2,0,B|0:117|0:117|14:160,1,112.499996566773,10|10,1:2|2:2,0:0:0:0:
55,211,186100,1,0,3:3:0:0:
55,211,186200,2,0,B|47:258|47:258|25:270|25:270|15:319,2,112.499996566773,10|10|10,2:2|3:2|1:2,0:0:0:0:
126,180,187000,1,0,1:1:0:0:
126,180,187100,1,10,2:2:0:0:
184,275,187400,6,0,L|235:44,1,224.999993133545,6|0,3:2|1:1,0:0:0:0:
233,55,188600,2,0,B|285:14|285:14|340:10,2,112.499996566773,0|2|2,0:0|3:2|1:2,0:0:0:0:
431,333,189800,5,2,3:2:0:0:
435,337,190400,5,2,3:2:0:0:
439,341,191000,6,0,L|444:368,2,24.3750000929832,2|0|2,3:2|0:0|2:2,0:0:0:0:
443,345,191600,6,0,L|448:372,2,24.3750000929832,2|0|2,3:2|0:0|2:2,0:0:0:0:
443,345,192200,5,2,3:2:0:0:
183,63,194600,6,0,B|148:66|128:51|128:51|85:70|71:131|71:131|96:134|107:165,1,208.333333333333,6|0,3:2|3:3,0:0:0:0:
69,181,195200,2,0,B|51:199|40:221|40:221|52:252|94:289,1,125,0|8,1:1|2:2,0:0:0:0:
142,378,195800,6,0,B|176:351|186:287|186:287|203:338|260:369,1,208.333333333333,2|0,2:2|0:0,0:0:0:0:
290,375,196400,2,0,B|315:382|337:380|337:380|377:353|386:305,1,125,0|8,1:1|2:2,0:0:0:0:
421,247,196900,1,2,2:2:0:0:
421,247,197000,6,0,B|371:234|371:234|344:209,1,83.3333333333333,2|2,3:2|2:2,0:0:0:0:
321,180,197300,1,10,2:2:0:0:
402,147,197500,1,2,3:2:0:0:
402,147,197600,2,0,B|434:153|445:142|445:142|473:123|486:122,1,83.3333333333333,2|2,1:2|2:2,0:0:0:0:
504,100,197900,1,10,2:2:0:0:
456,37,198100,1,2,3:2:0:0:
456,37,198200,6,0,B|448:21|440:17|440:17|405:-1|370:6|370:6|364:20|349:25,1,125,0|8,0:0|3:2,0:0:0:0:
265,141,198800,2,0,B|220:160|165:156|165:156|128:129|101:61,1,208.333333333333,4|2,1:2|2:2,0:0:0:0:
118,29,199400,6,0,B|168:26|197:71|197:71|263:60|296:132,1,208.333333333333,6|2,3:2|3:2,0:0:0:0:
296,162,200000,1,2,1:2:0:0:
218,260,200300,1,10,2:2:0:0:
282,320,200500,1,0,3:3:0:0:
282,320,200600,2,0,B|314:318|314:318|373:293,1,83.3333333333333,2|2,2:2|2:2,0:0:0:0:
396,276,200900,2,0,P|402:243|455:232,1,83.3333333333333,10|2,3:2|2:2,0:0:0:0:
481,248,201200,2,0,L|461:154,1,83.3333333333333,2|2,1:2|2:2,0:0:0:0:
460,124,201500,1,10,2:2:0:0:
382,26,201800,5,6,3:2:0:0:
300,120,202100,1,2,0:0:0:0:
182,77,202400,2,0,B|173:107|173:107|180:136|180:136|161:208,1,125,6|6,1:2|1:2,0:0:0:0:
220,258,202900,2,0,B|208:279|187:283|187:283|178:314|160:334|100:330|107:284,1,166.666666666667,2|10,0:0|2:3,0:0:0:0:
122,169,203600,1,2,1:2:0:0:
59,210,203800,1,10,1:3:0:0:
59,210,203900,2,0,B|35:171|35:171|36:124,1,83.3333333333333,4|2,2:3|2:2,0:0:0:0:
36,99,204200,6,0,B|29:68|36:55|36:55|71:50|100:34|100:34|126:5|126:5|146:22|178:32,1,208.333333333333,6|0,3:2|3:3,0:0:0:0:
207,46,204800,2,0,B|233:33|241:0|241:0|274:12|315:10,1,125,4|8,1:2|2:2,0:0:0:0:
403,31,205400,6,0,B|401:62|382:75|382:75|360:71|338:77|338:77|322:110|298:117|298:117|299:152|299:152|314:169,1,208.333333333333,2|0,2:2|0:0,0:0:0:0:
333,193,206000,2,0,B|348:231|329:269|293:284|293:284|286:313,1,125,0|10,1:1|2:2,0:0:0:0:
211,361,206600,6,0,B|186:378|161:378|161:378|130:361|116:311,1,125,2|10,3:2|2:2,0:0:0:0:
60,270,207100,1,2,3:2:0:0:
60,270,207200,2,0,B|72:246|101:238|101:238|121:177|138:163,1,125,2|10,1:2|2:2,0:0:0:0:
166,99,207700,1,2,3:2:0:0:
166,99,207800,5,2,2:2:0:0:
280,150,208100,1,10,3:2:0:0:
379,73,208400,1,6,1:2:0:0:
308,27,208600,1,2,2:2:0:0:
308,27,208700,1,10,2:2:0:0:
212,107,209000,6,0,B|157:132|157:132|71:105|71:105|116:59|116:59|164:44,1,250,6|2,3:2|1:2,0:0:0:0:
358,12,210100,1,2,3:2:0:0:
358,12,210200,6,0,B|401:14|401:14|444:44,1,83.3333333333333,2|2,2:2|2:2,0:0:0:0:
465,63,210500,2,0,P|474:85|431:135,1,83.3333333333333,10|2,3:2|2:2,0:0:0:0:
409,149,210800,2,0,B|383:153|383:153|362:213|362:213|333:245,1,125,2|10,1:2|2:2,0:0:0:0:
262,339,211400,6,0,B|231:325|231:325|144:196|144:196|90:156,1,250,2|6,3:2|1:2,0:0:0:0:
139,42,212300,2,0,B|179:48|200:24|200:24|219:21,1,83.3333333333333,6|2,2:2|1:2,0:0:0:0:
257,13,212600,2,0,B|276:71|276:71|277:234|277:234|295:262,1,250,2|2,2:2|3:2,0:0:0:0:
368,354,213500,1,2,1:2:0:0:
448,357,213700,1,2,1:2:0:0:
448,357,213800,6,0,L|476:121,1,229.166673660279,6|0,3:2|3:3,0:0:0:0:
480,101,214400,1,4,1:2:0:0:
368,371,215000,6,0,L|396:132,1,229.166673660279,6|0,2:2|0:0,0:0:0:0:
408,123,215600,1,4,1:2:0:0:
277,384,216200,6,0,L|306:137,1,229.166673660279,6|0,3:2|3:3,0:0:0:0:
299,122,216800,1,4,1:2:0:0:
193,334,217400,6,0,L|221:93,1,229.166673660279,6|0,2:2|0:0,0:0:0:0:
236,82,218000,1,4,1:2:0:0:
109,376,218600,6,0,L|137:139,1,229.166673660279,6|0,3:2|3:3,0:0:0:0:
125,154,219200,1,4,1:2:0:0:
23,382,219800,6,0,L|51:143,1,229.166673660279,6|0,2:2|0:0,0:0:0:0:
43,143,220400,1,4,1:2:0:0:
140,45,220700,1,8,2:2:0:0:
218,22,220900,1,2,2:2:0:0:
218,22,221000,6,0,B|285:28|285:28|317:55,1,91.6666694641114,6|2,3:2|1:2,0:0:0:0:
334,77,221300,1,2,2:2:0:0:
459,90,221600,1,6,1:2:0:0:
478,167,221800,1,2,2:2:0:0:
478,167,221900,2,0,B|450:168|442:172|442:172|435:186|435:186|392:195,1,91.6666694641114,6|2,1:2|2:2,0:0:0:0:
363,200,222200,5,2,3:2:0:0:
297,163,222400,1,0,1:1:0:0:
297,163,222500,1,2,3:2:0:0:
211,254,222800,1,4,3:2:0:0:
138,226,223000,1,0,1:1:0:0:
138,226,223100,2,0,P|171:247|182:309,1,91.6666694641114,2|2,1:2|1:2,0:0:0:0:
181,336,223400,6,0,B|199:352|213:355|213:355|251:349|309:295,1,137.500004196167,6|10,3:2|2:2,0:0:0:0:
340,243,223900,1,0,3:3:0:0:
340,243,224000,2,0,P|361:160|381:109,1,137.500004196167,4|8,1:2|2:2,0:0:0:0:
462,127,224500,1,2,3:2:0:0:
462,127,224600,6,0,B|467:168|467:168|444:229,1,91.6666694641114,6|2,2:2|1:2,0:0:0:0:
430,246,224900,2,0,B|401:268|401:268|359:213,1,91.6666694641114,10|0,2:2|3:3,0:0:0:0:
343,196,225200,2,0,B|313:185|313:185|273:199|273:199|210:174,1,137.500004196167,4|10,1:2|2:2,0:0:0:0:
149,131,225700,1,2,2:2:0:0:
149,131,225800,5,6,3:2:0:0:
40,167,226100,1,10,2:2:0:0:
137,115,226400,1,6,1:2:0:0:
201,77,226600,1,0,0:0:0:0:
201,77,226700,2,0,P|214:33|263:10,1,91.6666694641114,10|6,2:2|2:3,0:0:0:0:
288,15,227000,5,6,2:2:0:0:
351,69,227200,1,4,2:3:0:0:
351,69,227300,1,12,2:3:0:0:
433,63,227500,1,2,3:2:0:0:
433,63,227600,2,0,B|427:104|389:249|389:249|368:260|350:277,1,229.166673660279,4|4,1:2|2:3,0:0:0:0:
331,289,228200,6,0,B|290:283|290:283|251:259|251:259|208:263,1,125,14|10,3:2|2:2,0:0:0:0:
147,312,228700,1,2,3:2:0:0:
147,312,228800,5,14,1:2:0:0:
75,268,229000,2,0,B|49:228|49:228|43:199|63:138,1,125,2|2,2:2|3:2,0:0:0:0:
78,114,229400,2,0,B|104:112|104:112|121:118|157:155,1,83.3333333333333,10|2,2:2|2:2,0:0:0:0:
167,184,229700,1,10,3:2:0:0:
244,152,229900,1,2,2:2:0:0:
244,152,230000,2,0,B|257:158|257:158|266:157|278:135|324:114,1,83.3333333333333,14|2,1:2|2:2,0:0:0:0:
351,100,230300,2,0,P|389:106|393:193,1,125,10|10,2:2|3:2,0:0:0:0:
330,281,230900,1,10,2:2:0:0:
311,355,231100,1,2,3:2:0:0:
311,355,231200,2,0,P|290:300|252:232,1,125,14|10,1:2|2:2,0:0:0:0:
206,183,231700,1,10,2:3:0:0:
206,183,231800,5,2,2:2:0:0:
242,109,232000,1,0,1:1:0:0:
242,109,232100,2,0,B|215:100|215:100|149:102,1,83.3333333333333,2|0,3:2|0:0,0:0:0:0:
123,122,232400,1,2,1:2:0:0:
50,90,232600,1,2,1:2:0:0:
50,90,232700,2,0,P|37:115|19:177,1,83.3333333333333,10|2,2:2|2:2,0:0:0:0:
28,208,233000,1,10,3:2:0:0:
