osu file format v14

[General]
AudioFilename: audio.mp3
AudioLeadIn: 0
PreviewTime: 35250
Countdown: 0
SampleSet: Soft
StackLeniency: 0.7
Mode: 0
LetterboxInBreaks: 0
WidescreenStoryboard: 1

[Editor]
Bookmarks: 200,24200,55400,74600,93800,105800,125000,144200,165800,187400,194600,213800,233000,237800
DistanceSpacing: 1.8
BeatDivisor: 6
GridSize: 32
TimelineZoom: 1.46

[Metadata]
Title:Plagiarism
TitleUnicode:盗作
Artist:Yorushika
ArtistUnicode:ヨルシカ
Creator:alevi
Version:GalaxySkys' Expert
Source:
Tags:doraemonelf dora- shiny braixen brain exe galaxyskys galaxyskys_ japanese rock jrock j-rock pop j-pop jpop nabuna n-buna nbuna suis tousaku ナブナ スイ
BeatmapID:3777002
BeatmapSetID:1839117

[Difficulty]
HPDrainRate:5
CircleSize:4.8
OverallDifficulty:8.5
ApproachRate:9.2
SliderMultiplier:3.1
SliderTickRate:1

[Events]
//Background and Video events
0,0,"wKc7HlO0_4x (1).jpg",0,0
//Break Periods
//Storyboard Layer 0 (Background)
//Storyboard Layer 1 (Fail)
//Storyboard Layer 2 (Pass)
//Storyboard Layer 3 (Foreground)
//Storyboard Layer 4 (Overlay)
//Storyboard Sound Samples

[TimingPoints]
200,600,4,2,1,45,1,0
200,-181.818181818181,4,2,1,45,0,0
4400,-181.818181818181,4,2,1,60,0,0
4700,-181.818181818181,4,2,2,60,0,0
5000,-133.333333333333,4,2,1,60,0,0
5500,-133.333333333333,4,2,2,60,0,0
7400,-133.333333333333,4,2,1,60,0,0
7600,-133.333333333333,4,2,2,60,0,0
9200,-133.333333333333,4,2,1,60,0,0
9700,-133.333333333333,4,2,2,60,0,0
9800,-133.333333333333,4,2,1,60,0,0
10100,-133.333333333333,4,2,2,60,0,0
11000,-133.333333333333,4,2,1,60,0,0
11200,-133.333333333333,4,2,2,60,0,0
12200,-133.333333333333,4,2,1,60,0,0
12400,-133.333333333333,4,2,2,60,0,0
14600,-133.333333333333,4,2,1,60,0,0
14800,-133.333333333333,4,2,2,60,0,0
14900,-133.333333333333,4,2,1,60,0,0
15100,-133.333333333333,4,2,2,60,0,0
15200,-133.333333333333,4,2,1,60,0,0
15500,-133.333333333333,4,2,2,60,0,0
17000,-133.333333333333,4,2,1,60,0,0
17200,-133.333333333333,4,2,2,60,0,0
17900,-133.333333333333,4,2,1,60,0,0
18200,-133.333333333333,4,2,2,60,0,0
19400,-133.333333333333,4,2,1,60,0,0
19700,-133.333333333333,4,2,2,60,0,0
20600,-133.333333333333,4,2,1,60,0,0
20800,-133.333333333333,4,2,2,60,0,0
21800,-133.333333333333,4,2,1,60,0,0
22000,-133.333333333333,4,2,2,60,0,0
22400,-133.333333333333,4,2,1,60,0,0
22600,-133.333333333333,4,2,2,60,0,0
23000,-133.333333333333,4,2,1,60,0,0
23600,-133.333333333333,4,2,2,60,0,0
24200,-142.857142857143,4,2,2,60,0,0
25300,-142.857142857143,4,2,1,60,0,0
25600,-142.857142857143,4,2,2,60,0,0
26000,-142.857142857143,4,2,1,60,0,0
26200,-142.857142857143,4,2,2,60,0,0
26600,-142.857142857143,4,2,1,60,0,0
26800,-142.857142857143,4,2,2,60,0,0
27700,-142.857142857143,4,2,1,60,0,0
28000,-142.857142857143,4,2,2,60,0,0
28400,-90.9090909090908,4,2,1,60,0,0
28600,-90.9090909090908,4,2,2,60,0,0
28900,-111.111111111111,4,2,1,60,0,0
29000,-142.857142857143,4,2,1,60,0,0
29200,-142.857142857143,4,2,2,60,0,0
30200,-142.857142857143,4,2,1,60,0,0
30400,-142.857142857143,4,2,2,60,0,0
30800,-142.857142857143,4,2,1,60,0,0
31300,-142.857142857143,4,2,2,60,0,0
31400,-142.857142857143,4,2,1,65,0,0
31600,-142.857142857143,4,2,2,65,0,0
32600,-142.857142857143,4,2,1,65,0,0
32900,-142.857142857143,4,2,2,65,0,0
33200,-142.857142857143,4,2,1,65,0,0
33500,-142.857142857143,4,2,2,65,0,0
33800,-71.4285714285714,4,2,2,65,0,0
33900,-71.4285714285714,4,2,2,5,0,0
34400,-71.4285714285714,4,2,2,65,0,0
34500,-71.4285714285714,4,2,2,5,0,0
35000,-71.4285714285714,4,2,2,65,0,0
35100,-71.4285714285714,4,2,2,5,0,0
35300,-71.4285714285714,4,2,1,75,0,0
35600,-71.4285714285714,4,2,2,75,0,0
35900,-71.4285714285714,4,2,1,75,0,0
36100,-71.4285714285714,4,2,2,75,0,0
36200,-76.9230769230769,4,2,1,85,0,1
36400,-76.9230769230769,4,2,2,85,0,1
36500,-76.9230769230769,4,2,3,85,0,1
37300,-76.9230769230769,4,2,2,85,0,1
37400,-76.9230769230769,4,2,1,85,0,1
37600,-76.9230769230769,4,2,2,85,0,1
37700,-76.9230769230769,4,2,3,85,0,1
38500,-76.9230769230769,4,2,2,85,0,1
38600,-76.9230769230769,4,2,1,85,0,1
38800,-76.9230769230769,4,2,2,85,0,1
38900,-76.9230769230769,4,2,3,85,0,1
39100,-76.9230769230769,4,2,2,85,0,1
39200,-76.9230769230769,4,2,3,85,0,1
39700,-76.9230769230769,4,2,4,85,0,1
40400,-76.9230769230769,4,2,3,85,0,1
40900,-76.9230769230769,4,2,2,85,0,1
41300,-76.9230769230769,4,2,4,85,0,1
42200,-76.9230769230769,4,2,1,85,0,1
42400,-76.9230769230769,4,2,4,85,0,1
43300,-76.9230769230769,4,2,8,85,0,1
44000,-83.3333333333333,4,2,4,85,0,1
44300,-83.3333333333333,4,2,5,85,0,1
44500,-71.4285714285714,4,2,5,85,0,1
44900,-71.4285714285714,4,2,1,85,0,1
45700,-71.4285714285714,4,2,2,85,0,1
45800,-76.9230769230769,4,2,1,85,0,1
46000,-76.9230769230769,4,2,2,85,0,1
46100,-76.9230769230769,4,2,3,85,0,1
46400,-76.9230769230769,4,2,6,85,0,1
46700,-76.9230769230769,4,2,4,85,0,1
47000,-76.9230769230769,4,2,1,85,0,1
47200,-76.9230769230769,4,2,2,85,0,1
47300,-76.9230769230769,4,2,3,85,0,1
48100,-76.9230769230769,4,2,2,85,0,1
48200,-76.9230769230769,4,2,1,85,0,1
48400,-76.9230769230769,4,2,2,85,0,1
48500,-76.9230769230769,4,2,3,85,0,1
48700,-76.9230769230769,4,2,2,85,0,1
48800,-76.9230769230769,4,2,3,85,0,1
49300,-76.9230769230769,4,2,4,85,0,1
50000,-76.9230769230769,4,2,3,85,0,1
50200,-76.9230769230769,4,2,4,85,0,1
50600,-76.9230769230769,4,2,2,85,0,1
50900,-76.9230769230769,4,2,4,85,0,1
51800,-76.9230769230769,4,2,1,85,0,1
52000,-76.9230769230769,4,2,4,85,0,1
52900,-76.9230769230769,4,2,1,85,0,1
53500,-76.9230769230769,4,2,5,85,0,1
53900,-76.9230769230769,4,2,1,85,0,1
54100,-76.9230769230769,4,2,2,85,0,1
55400,-90.9090909090909,4,2,2,75,0,0
55700,-90.9090909090909,4,2,5,75,0,0
57500,-90.9090909090909,4,2,6,75,0,0
57600,-90.9090909090909,4,2,2,75,0,0
57800,-90.9090909090909,4,2,1,75,0,0
58100,-90.9090909090909,4,2,5,75,0,0
58700,-90.9090909090909,4,2,6,75,0,0
59600,-90.9090909090909,4,2,4,75,0,0
59900,-90.9090909090909,4,2,2,75,0,0
60200,-90.9090909090909,4,2,7,75,0,0
60500,-90.9090909090909,4,2,5,75,0,0
62300,-90.9090909090909,4,2,6,75,0,0
62900,-90.9090909090909,4,2,5,75,0,0
63200,-76.9230769230769,4,2,3,75,0,0
63500,-76.9230769230769,4,2,6,75,0,0
63800,-90.9090909090909,4,2,6,75,0,0
64100,-90.9090909090909,4,2,2,75,0,0
64400,-90.9090909090909,4,2,1,75,0,0
64600,-90.9090909090909,4,2,2,75,0,0
65300,-90.9090909090909,4,2,5,75,0,0
67100,-90.9090909090909,4,2,6,75,0,0
67200,-90.9090909090909,4,2,2,75,0,0
67400,-90.9090909090909,4,2,1,75,0,0
67700,-90.9090909090909,4,2,5,75,0,0
68300,-90.9090909090909,4,2,6,75,0,0
69200,-90.9090909090909,4,2,7,75,0,0
69800,-90.9090909090909,4,2,8,75,0,0
70100,-90.9090909090909,4,2,5,75,0,0
70300,-90.9090909090909,4,2,1,75,0,0
70600,-90.9090909090909,4,2,2,75,0,0
70700,-90.9090909090909,4,2,6,75,0,0
70900,-90.9090909090909,4,2,2,75,0,0
71000,-90.9090909090909,4,2,1,75,0,0
71300,-90.9090909090909,4,2,5,75,0,0
72500,-90.9090909090909,4,2,4,75,0,0
72800,-90.9090909090909,4,2,5,75,0,0
73300,-90.9090909090909,4,2,2,75,0,0
74000,-90.9090909090909,4,2,1,75,0,0
74300,-90.9090909090909,4,2,4,75,0,0
74600,-133.333333333333,4,2,1,60,0,0
75100,-133.333333333333,4,2,2,60,0,0
77000,-133.333333333333,4,2,1,60,0,0
77200,-133.333333333333,4,2,2,60,0,0
79400,-133.333333333333,4,2,1,60,0,0
79700,-133.333333333333,4,2,2,60,0,0
80600,-133.333333333333,4,2,1,60,0,0
80800,-133.333333333333,4,2,2,60,0,0
81800,-133.333333333333,4,2,7,35,0,0
83000,-133.333333333333,4,2,8,35,0,0
83300,-133.333333333333,4,2,7,35,0,0
83600,-133.333333333333,4,2,1,55,0,0
83800,-133.333333333333,4,2,2,55,0,0
83900,-133.333333333333,4,2,1,55,0,0
84100,-133.333333333333,4,2,2,55,0,0
84200,-133.333333333333,4,2,9,65,0,0
84700,-133.333333333333,4,2,7,65,0,0
85400,-133.333333333333,4,2,8,65,0,0
85500,-133.333333333333,4,2,2,65,0,0
85600,-133.333333333333,4,2,1,65,0,0
85700,-133.333333333333,4,2,7,65,0,0
86000,-133.333333333333,4,2,8,65,0,0
86200,-133.333333333333,4,2,7,65,0,0
86600,-133.333333333333,4,2,8,65,0,0
87100,-133.333333333333,4,2,7,65,0,0
87800,-133.333333333333,4,2,8,65,0,0
87900,-133.333333333333,4,2,2,65,0,0
88100,-133.333333333333,4,2,8,65,0,0
88200,-133.333333333333,4,2,2,65,0,0
88400,-133.333333333333,4,2,8,65,0,0
88500,-133.333333333333,4,2,2,65,0,0
88700,-133.333333333333,4,2,8,65,0,0
88800,-133.333333333333,4,2,2,65,0,0
89000,-133.333333333333,4,2,8,65,0,0
89500,-133.333333333333,4,2,7,65,0,0
90200,-133.333333333333,4,2,8,65,0,0
90500,-133.333333333333,4,2,7,65,0,0
91400,-133.333333333333,4,2,1,65,0,0
91600,-133.333333333333,4,2,2,65,0,0
91700,-133.333333333333,4,2,1,65,0,0
91900,-133.333333333333,4,2,2,65,0,0
92000,-133.333333333333,4,2,1,65,0,0
92300,-133.333333333333,4,2,2,65,0,0
92600,-133.333333333333,4,2,1,65,0,0
92800,-133.333333333333,4,2,2,65,0,0
92900,-133.333333333333,4,2,1,65,0,0
93100,-133.333333333333,4,2,2,65,0,0
93200,-133.333333333333,4,2,1,65,0,0
93400,-133.333333333333,4,2,2,65,0,0
93800,-142.857142857143,4,2,10,60,0,0
94000,-142.857142857143,4,2,7,60,0,0
94900,-142.857142857143,4,2,8,60,0,0
95200,-142.857142857143,4,2,7,60,0,0
95600,-142.857142857143,4,2,8,60,0,0
95800,-142.857142857143,4,2,7,60,0,0
96200,-142.857142857143,4,2,8,60,0,0
96400,-142.857142857143,4,2,7,60,0,0
97300,-142.857142857143,4,2,8,60,0,0
97600,-142.857142857143,4,2,7,60,0,0
98000,-111.111111111111,4,2,8,60,0,0
98200,-111.111111111111,4,2,7,60,0,0
98500,-111.111111111111,4,2,8,60,0,0
98600,-142.857142857143,4,2,8,60,0,0
98800,-142.857142857143,4,2,7,60,0,0
99800,-142.857142857143,4,2,8,60,0,0
100000,-142.857142857143,4,2,7,60,0,0
100400,-142.857142857143,4,2,8,60,0,0
100900,-142.857142857143,4,2,2,60,0,0
101000,-142.857142857143,4,2,8,65,0,0
101300,-142.857142857143,4,2,7,65,0,0
101900,-142.857142857143,4,2,8,65,0,0
102100,-142.857142857143,4,2,1,65,0,0
102200,-142.857142857143,4,2,7,65,0,0
102500,-142.857142857143,4,2,3,65,0,0
102800,-142.857142857143,4,2,7,65,0,0
103100,-142.857142857143,4,2,11,65,0,0
103400,-66.6666666666667,4,2,2,75,0,0
104900,-71.4285714285714,4,2,1,75,0,0
105200,-71.4285714285714,4,2,4,75,0,0
105500,-71.4285714285714,4,2,1,75,0,0
105700,-71.4285714285714,4,2,2,75,0,0
105800,-76.9230769230769,4,2,1,85,0,1
106000,-76.9230769230769,4,2,2,85,0,1
106100,-76.9230769230769,4,2,3,85,0,1
106600,-76.9230769230769,4,2,2,85,0,1
106700,-76.9230769230769,4,2,3,85,0,1
106900,-76.9230769230769,4,2,2,85,0,1
107000,-76.9230769230769,4,2,1,85,0,1
107200,-76.9230769230769,4,2,2,85,0,1
107300,-76.9230769230769,4,2,3,85,0,1
107800,-76.9230769230769,4,2,4,85,0,1
108200,-76.9230769230769,4,2,1,85,0,1
108400,-76.9230769230769,4,2,2,85,0,1
108500,-76.9230769230769,4,2,3,85,0,1
108700,-76.9230769230769,4,2,2,85,0,1
108800,-76.9230769230769,4,2,3,85,0,1
109300,-76.9230769230769,4,2,4,85,0,1
110000,-76.9230769230769,4,2,3,85,0,1
110500,-76.9230769230769,4,2,2,85,0,1
110900,-76.9230769230769,4,2,4,85,0,1
111800,-76.9230769230769,4,2,1,85,0,1
112000,-76.9230769230769,4,2,4,85,0,1
112900,-76.9230769230769,4,2,8,85,0,1
113600,-83.3333333333333,4,2,4,85,0,1
113900,-83.3333333333333,4,2,5,85,0,1
114100,-71.4285714285714,4,2,5,85,0,1
114500,-71.4285714285714,4,2,1,85,0,1
115300,-71.4285714285714,4,2,2,85,0,1
115400,-76.9230769230769,4,2,1,85,0,1
115600,-76.9230769230769,4,2,2,85,0,1
115700,-76.9230769230769,4,2,3,85,0,1
116000,-76.9230769230769,4,2,6,85,0,1
116300,-76.9230769230769,4,2,3,85,0,1
116500,-76.9230769230769,4,2,2,85,0,1
116600,-76.9230769230769,4,2,1,85,0,1
116800,-76.9230769230769,4,2,2,85,0,1
116900,-76.9230769230769,4,2,3,85,0,1
117700,-76.9230769230769,4,2,2,85,0,1
117800,-76.9230769230769,4,2,1,85,0,1
118000,-76.9230769230769,4,2,2,85,0,1
118100,-76.9230769230769,4,2,3,85,0,1
118300,-76.9230769230769,4,2,2,85,0,1
118400,-76.9230769230769,4,2,3,85,0,1
118900,-76.9230769230769,4,2,4,85,0,1
119600,-76.9230769230769,4,2,3,85,0,1
119800,-76.9230769230769,4,2,4,85,0,1
120200,-76.9230769230769,4,2,2,85,0,1
120500,-76.9230769230769,4,2,4,85,0,1
123500,-76.9230769230769,4,2,1,85,0,1
123700,-76.9230769230769,4,2,2,85,0,1
125000,-76.9230769230769,4,2,11,75,0,0
125300,-76.9230769230769,4,2,6,75,0,0
125600,-76.9230769230769,4,2,5,75,0,0
125900,-76.9230769230769,4,2,6,75,0,0
126200,-76.9230769230769,4,2,2,75,0,0
126500,-76.9230769230769,4,2,6,75,0,0
126800,-76.9230769230769,4,2,2,75,0,0
127100,-76.9230769230769,4,2,6,75,0,0
127400,-76.9230769230769,4,2,2,75,0,0
127700,-76.9230769230769,4,2,6,75,0,0
128000,-76.9230769230769,4,2,2,75,0,0
128300,-76.9230769230769,4,2,6,75,0,0
128600,-76.9230769230769,4,2,5,75,0,0
129200,-76.9230769230769,4,2,9,75,0,0
129400,-76.9230769230769,4,2,2,75,0,0
130100,-76.9230769230769,4,2,6,75,0,0
130400,-76.9230769230769,4,2,2,75,0,0
130700,-76.9230769230769,4,2,6,75,0,0
131000,-76.9230769230769,4,2,2,75,0,0
131300,-76.9230769230769,4,2,6,75,0,0
131600,-76.9230769230769,4,2,2,75,0,0
131900,-76.9230769230769,4,2,6,75,0,0
132200,-76.9230769230769,4,2,5,75,0,0
132800,-76.9230769230769,4,2,4,75,0,0
133100,-76.9230769230769,4,2,5,75,0,0
133300,-76.9230769230769,4,2,3,75,0,0
134300,-90.9090909090909,4,2,2,75,0,0
134600,-76.9230769230769,4,2,8,75,0,0
134900,-76.9230769230769,4,2,5,75,0,0
135200,-76.9230769230769,4,2,1,75,0,0
135500,-76.9230769230769,4,2,5,75,0,0
135700,-76.9230769230769,4,2,1,75,0,0
135800,-76.9230769230769,4,2,5,75,0,0
136400,-76.9230769230769,4,2,1,75,0,0
136700,-76.9230769230769,4,2,5,75,0,0
137000,-76.9230769230769,4,2,1,75,0,0
137300,-76.9230769230769,4,2,5,75,0,0
137600,-76.9230769230769,4,2,1,75,0,0
137900,-76.9230769230769,4,2,5,75,0,0
138100,-76.9230769230769,4,2,1,75,0,0
138200,-76.9230769230769,4,2,5,75,0,0
138800,-76.9230769230769,4,2,9,75,0,0
139000,-76.9230769230769,4,2,2,75,0,0
139400,-76.9230769230769,4,2,8,75,0,0
139700,-76.9230769230769,4,2,5,75,0,0
140000,-76.9230769230769,4,2,1,75,0,0
140300,-76.9230769230769,4,2,5,75,0,0
140500,-76.9230769230769,4,2,1,75,0,0
140600,-76.9230769230769,4,2,5,75,0,0
141200,-76.9230769230769,4,2,1,75,0,0
141500,-76.9230769230769,4,2,5,75,0,0
141700,-76.9230769230769,4,2,1,75,0,0
141800,-76.9230769230769,4,2,7,75,0,0
142400,-76.9230769230769,4,2,5,75,0,0
142900,-76.9230769230769,4,2,1,75,0,0
143200,-76.9230769230769,4,2,4,75,0,0
143300,-76.9230769230769,4,2,2,75,0,0
143600,-76.9230769230769,4,2,1,75,0,0
143800,-76.9230769230769,4,2,4,75,0,0
144200,-133.333333333333,4,2,1,60,0,0
144700,-133.333333333333,4,2,2,60,0,0
146600,-133.333333333333,4,2,1,60,0,0
146800,-133.333333333333,4,2,2,60,0,0
148100,-133.333333333333,4,2,1,60,0,0
148300,-133.333333333333,4,2,2,60,0,0
149000,-133.333333333333,4,2,1,60,0,0
149300,-133.333333333333,4,2,2,60,0,0
150200,-133.333333333333,4,2,1,60,0,0
150400,-133.333333333333,4,2,2,60,0,0
151400,-133.333333333333,4,2,1,60,0,0
151600,-133.333333333333,4,2,2,60,0,0
153800,-133.333333333333,4,2,1,60,0,0
154000,-133.333333333333,4,2,2,60,0,0
154100,-133.333333333333,4,2,1,60,0,0
154300,-133.333333333333,4,2,2,60,0,0
154400,-133.333333333333,4,2,1,60,0,0
154700,-133.333333333333,4,2,2,60,0,0
156200,-133.333333333333,4,2,1,60,0,0
156400,-133.333333333333,4,2,2,60,0,0
158600,-133.333333333333,4,2,1,60,0,0
158800,-133.333333333333,4,2,2,60,0,0
159800,-133.333333333333,4,2,1,60,0,0
160100,-133.333333333333,4,2,2,60,0,0
161000,-133.333333333333,4,2,1,60,0,0
161300,-133.333333333333,4,2,2,60,0,0
161600,-133.333333333333,4,2,1,60,0,0
161800,-133.333333333333,4,2,2,60,0,0
162200,-133.333333333333,4,2,1,60,0,0
162500,-133.333333333333,4,2,2,60,0,0
163400,-181.818181818181,4,2,2,40,0,0
163600,-181.818181818181,4,2,2,5,0,0
163700,-166.666666666667,4,2,2,40,0,0
163900,-166.666666666667,4,2,2,5,0,0
164000,-153.846153846153,4,2,2,40,0,0
164200,-153.846153846153,4,2,2,5,0,0
164300,-133.333333333333,4,2,2,40,0,0
164500,-133.333333333333,4,2,2,5,0,0
164600,-117.647058823529,4,2,2,40,0,0
164800,-117.647058823529,4,2,2,5,0,0
164900,-105.263157894737,4,2,1,70,0,0
165100,-105.263157894737,4,2,1,5,0,0
165200,-95.2380952380952,4,2,1,70,0,0
165400,-95.2380952380952,4,2,1,5,0,0
165500,-86.9565217391304,4,2,1,70,0,0
165700,-86.9565217391304,4,2,1,5,0,0
165800,-83.3333333333333,4,2,1,70,0,0
166100,-83.3333333333333,4,2,8,70,0,0
167600,-100,4,2,8,70,0,0
167800,-100,4,2,7,70,0,0
167900,-90.9090909090909,4,2,7,70,0,0
168200,-83.3333333333333,4,2,8,70,0,0
170000,-100,4,2,8,70,0,0
170300,-90.9090909090909,4,2,8,70,0,0
170600,-83.3333333333333,4,2,7,70,0,0
172000,-83.3333333333333,4,2,8,70,0,0
172300,-83.3333333333333,4,2,7,70,0,0
172400,-100,4,2,7,70,0,0
172700,-90.9090909090909,4,2,7,70,0,0
173000,-83.3333333333333,4,2,9,70,0,0
173900,-76.9230769230769,4,2,6,70,0,0
175000,-76.9230769230769,4,2,1,70,0,0
175100,-100,4,2,1,70,0,0
175400,-100,4,2,3,70,0,0
176000,-90.9090909090909,4,2,6,70,0,0
176300,-90.9090909090909,4,2,7,70,0,0
176600,-90.9090909090909,4,2,8,70,0,0
176900,-90.9090909090909,4,2,7,70,0,0
177200,-100,4,2,8,70,0,0
177500,-100,4,2,7,70,0,0
177800,-100,4,2,8,70,0,0
178100,-100,4,2,7,70,0,0
178400,-90.9090909090909,4,2,8,70,0,0
178700,-90.9090909090909,4,2,7,70,0,0
179000,-90.9090909090909,4,2,8,70,0,0
179300,-90.9090909090909,4,2,7,70,0,0
179600,-90.9090909090909,4,2,8,70,0,0
179900,-90.9090909090909,4,2,7,70,0,0
180200,-100,4,2,8,70,0,0
180500,-100,4,2,7,70,0,0
180800,-90.9090909090909,4,2,8,70,0,0
181100,-90.9090909090909,4,2,7,70,0,0
181400,-90.9090909090909,4,2,8,70,0,0
181700,-90.9090909090909,4,2,7,70,0,0
182000,-90.9090909090909,4,2,8,70,0,0
182300,-90.9090909090909,4,2,7,70,0,0
182600,-100,4,2,8,70,0,0
182900,-100,4,2,7,70,0,0
183200,-90.9090909090909,4,2,8,70,0,0
183500,-90.9090909090909,4,2,7,70,0,0
183800,-90.9090909090909,4,2,8,70,0,0
184000,-90.9090909090909,4,2,7,70,0,0
184400,-83.3333333333333,4,2,9,70,0,0
184700,-83.3333333333333,4,2,2,70,0,0
185000,-100,4,2,3,70,0,0
185300,-100,4,2,7,70,0,0
185600,-100,4,2,8,70,0,0
185900,-100,4,2,7,70,0,0
186200,-100,4,2,8,70,0,0
186400,-100,4,2,7,70,0,0
186800,-100,4,2,8,70,0,0
187100,-100,4,2,4,70,0,0
187400,-100,4,2,8,70,0,0
188900,-100,4,2,2,70,0,0
189200,-100,4,2,1,70,0,0
189500,-100,4,2,2,70,0,0
189800,-66.6666666666667,4,2,1,70,0,0
189900,-66.6666666666667,4,2,1,5,0,0
190400,-66.6666666666667,4,2,1,70,0,0
190500,-66.6666666666667,4,2,1,5,0,0
191000,-66.6666666666667,4,2,1,70,0,0
191100,-66.6666666666667,4,2,2,70,0,0
191600,-66.6666666666667,4,2,1,70,0,0
191700,-66.6666666666667,4,2,2,70,0,0
192200,-66.6666666666667,4,2,1,70,0,0
192300,-66.6666666666667,4,2,1,5,0,0
192500,-66.6666666666667,4,2,1,70,0,0
192800,-133.333333333333,4,2,1,70,0,0
193700,-71.4285714285714,4,2,3,75,0,0
194600,-76.9230769230769,4,2,1,85,0,1
194800,-76.9230769230769,4,2,2,85,0,1
194900,-76.9230769230769,4,2,3,85,0,1
195400,-76.9230769230769,4,2,4,85,0,1
195800,-76.9230769230769,4,2,1,85,0,1
196000,-76.9230769230769,4,2,2,85,0,1
196100,-76.9230769230769,4,2,3,85,0,1
196600,-76.9230769230769,4,2,4,85,0,1
197000,-76.9230769230769,4,2,1,85,0,1
197200,-76.9230769230769,4,2,2,85,0,1
197300,-76.9230769230769,4,2,3,85,0,1
197500,-76.9230769230769,4,2,2,85,0,1
197600,-76.9230769230769,4,2,3,85,0,1
198100,-76.9230769230769,4,2,4,85,0,1
198800,-76.9230769230769,4,2,3,85,0,1
199300,-76.9230769230769,4,2,2,85,0,1
199700,-76.9230769230769,4,2,4,85,0,1
200600,-76.9230769230769,4,2,1,85,0,1
200800,-76.9230769230769,4,2,4,85,0,1
201700,-76.9230769230769,4,2,8,85,0,1
202400,-83.3333333333333,4,2,4,85,0,1
202700,-83.3333333333333,4,2,5,85,0,1
202900,-71.4285714285714,4,2,5,85,0,1
203300,-71.4285714285714,4,2,1,85,0,1
204100,-71.4285714285714,4,2,2,85,0,1
204200,-76.9230769230769,4,2,1,85,0,1
204400,-76.9230769230769,4,2,2,85,0,1
204500,-76.9230769230769,4,2,3,85,0,1
204800,-76.9230769230769,4,2,6,85,0,1
205100,-76.9230769230769,4,2,4,85,0,1
205400,-76.9230769230769,4,2,1,85,0,1
205600,-76.9230769230769,4,2,2,85,0,1
205700,-76.9230769230769,4,2,3,85,0,1
206500,-76.9230769230769,4,2,2,85,0,1
206600,-76.9230769230769,4,2,1,85,0,1
206800,-76.9230769230769,4,2,2,85,0,1
206900,-76.9230769230769,4,2,3,85,0,1
207100,-76.9230769230769,4,2,2,85,0,1
207200,-76.9230769230769,4,2,3,85,0,1
207700,-76.9230769230769,4,2,4,85,0,1
208400,-76.9230769230769,4,2,3,85,0,1
208600,-76.9230769230769,4,2,4,85,0,1
209000,-76.9230769230769,4,2,2,85,0,1
209300,-76.9230769230769,4,2,4,85,0,1
212000,-76.9230769230769,4,2,7,85,0,1
212300,-76.9230769230769,4,2,6,85,0,1
212500,-76.9230769230769,4,2,2,85,0,1
213500,-76.9230769230769,4,2,1,85,0,1
213600,-76.9230769230769,4,2,2,85,0,1
213800,-71.4285714285714,4,2,11,85,0,1
214100,-71.4285714285714,4,2,6,85,0,1
214900,-71.4285714285714,4,2,2,85,0,1
215000,-71.4285714285714,4,2,9,85,0,1
215200,-71.4285714285714,4,2,2,85,0,1
215300,-71.4285714285714,4,2,6,85,0,1
215600,-71.4285714285714,4,2,4,85,0,1
215900,-71.4285714285714,4,2,6,85,0,1
216100,-71.4285714285714,4,2,2,85,0,1
216200,-71.4285714285714,4,2,9,85,0,1
216400,-71.4285714285714,4,2,2,85,0,1
216500,-71.4285714285714,4,2,6,85,0,1
216800,-71.4285714285714,4,2,4,85,0,1
217100,-71.4285714285714,4,2,6,85,0,1
217300,-71.4285714285714,4,2,2,85,0,1
217400,-71.4285714285714,4,2,9,85,0,1
217600,-71.4285714285714,4,2,2,85,0,1
217700,-71.4285714285714,4,2,6,85,0,1
218000,-71.4285714285714,4,2,4,85,0,1
218300,-71.4285714285714,4,2,6,85,0,1
218500,-71.4285714285714,4,2,2,85,0,1
218600,-71.4285714285714,4,2,9,85,0,1
218800,-71.4285714285714,4,2,2,85,0,1
218900,-71.4285714285714,4,2,6,85,0,1
219200,-71.4285714285714,4,2,4,85,0,1
219500,-71.4285714285714,4,2,5,85,0,1
219800,-71.4285714285714,4,2,9,85,0,1
220000,-71.4285714285714,4,2,2,85,0,1
220100,-71.4285714285714,4,2,6,85,0,1
220400,-71.4285714285714,4,2,4,85,0,1
220700,-71.4285714285714,4,2,5,85,0,1
221000,-71.4285714285714,4,2,9,85,0,1
221600,-66.6666666666667,4,2,3,85,0,1
221900,-66.6666666666667,4,2,6,85,0,1
222800,-66.6666666666667,4,2,9,85,0,1
223300,-66.6666666666667,4,2,2,85,0,1
223400,-71.4285714285714,4,2,8,85,0,1
223600,-71.4285714285714,4,2,2,85,0,1
223700,-71.4285714285714,4,2,6,85,0,1
224000,-71.4285714285714,4,2,9,85,0,1
224300,-71.4285714285714,4,2,5,85,0,1
224600,-71.4285714285714,4,2,9,85,0,1
224800,-71.4285714285714,4,2,2,85,0,1
224900,-71.4285714285714,4,2,6,85,0,1
225200,-71.4285714285714,4,2,9,85,0,1
225500,-71.4285714285714,4,2,6,85,0,1
225700,-71.4285714285714,4,2,2,85,0,1
225800,-71.4285714285714,4,2,9,85,0,1
226000,-71.4285714285714,4,2,2,85,0,1
226100,-71.4285714285714,4,2,6,85,0,1
226400,-71.4285714285714,4,2,9,85,0,1
226700,-71.4285714285714,4,2,6,85,0,1
226900,-71.4285714285714,4,2,1,85,0,1
227000,-71.4285714285714,4,2,4,85,0,1
227900,-71.4285714285714,4,2,5,85,0,1
228100,-71.4285714285714,4,2,1,85,0,1
228200,-71.4285714285714,4,2,8,85,0,1
228400,-71.4285714285714,4,2,2,85,0,1
228500,-71.4285714285714,4,2,8,85,0,1
228700,-71.4285714285714,4,2,2,85,0,1
228800,-71.4285714285714,4,2,12,85,0,1
229000,-71.4285714285714,4,2,1,85,0,1
229100,-71.4285714285714,4,2,7,85,0,1
229400,-71.4285714285714,4,2,8,85,0,1
229600,-71.4285714285714,4,2,7,85,0,1
229900,-71.4285714285714,4,2,1,85,0,1
230000,-71.4285714285714,4,2,7,85,0,1
230300,-71.4285714285714,4,2,8,85,0,1
230500,-71.4285714285714,4,2,2,85,0,1
230600,-71.4285714285714,4,2,8,85,0,1
230800,-71.4285714285714,4,2,7,85,0,1
231100,-71.4285714285714,4,2,1,85,0,1
231200,-71.4285714285714,4,2,7,85,0,1
231500,-71.4285714285714,4,2,8,85,0,1
231700,-71.4285714285714,4,2,2,85,0,1
231800,-71.4285714285714,4,2,2,65,0,1
232100,-71.4285714285714,4,2,1,65,0,1
232400,-83.3333333333333,4,2,1,65,0,1
232600,-83.3333333333333,4,2,4,65,0,1
232700,-100,4,2,4,65,0,1
233000,-181.818181818181,4,2,2,60,0,0

[Colours]
Combo1 : 138,40,236
Combo2 : 145,13,145
Combo3 : 89,89,240
Combo4 : 176,176,176

[HitObjects]
208,323,200,6,0,P|274:327|313:335,1,85.2500026016236,8|8,3:2|2:2,0:0:0:0:
387,249,700,1,0,3:3:0:0:
375,232,800,2,0,P|309:228|270:220,1,85.2500026016236,8|8,1:2|2:2,0:0:0:0:
443,353,1300,1,0,3:3:0:0:
462,348,1400,2,0,P|471:283|479:261,1,85.2500026016236,8|8,2:2|3:2,0:0:0:0:
392,130,2000,1,8,1:2:0:0:
392,130,2300,1,8,2:2:0:0:
313,293,2600,6,0,P|247:297|208:305,1,85.2500026016236,8|8,2:2|2:2,0:0:0:0:
133,225,3100,1,0,0:0:0:0:
141,207,3200,2,0,P|185:200|204:194,1,56.8333350677491,8|0,1:2|3:3,0:0:0:0:
270,180,3500,1,8,2:2:0:0:
78,313,3700,1,0,3:3:0:0:
59,318,3800,2,0,P|50:253|42:231,1,85.2500026016236,8|8,2:2|3:2,0:0:0:0:
129,100,4400,1,2,1:2:0:0:
129,100,5000,6,0,P|178:110|266:119,1,116.250004434586,10|8,3:2|2:2,0:0:0:0:
286,285,5500,1,2,3:2:0:0:
271,307,5600,2,0,P|198:322|166:335,1,77.5000029563905,8|2,1:2|2:2,0:0:0:0:
114,352,5900,2,0,P|127:296|122:260,1,77.5000029563905,10|2,2:2|3:2,0:0:0:0:
72,216,6200,2,0,P|135:231|189:189,2,116.250004434586,10|10|10,2:2|3:2|1:2,0:0:0:0:
215,6,7100,1,8,2:2:0:0:
333,82,7300,1,2,2:2:0:0:
353,97,7400,6,0,B|368:140|368:140|342:193,1,77.5000029563905,10|2,2:2|2:2,0:0:0:0:
339,194,7700,1,10,2:2:0:0:
240,72,7900,1,2,2:2:0:0:
226,90,8000,2,0,P|170:107|131:114,1,77.5000029563905,10|2,1:2|3:2,0:0:0:0:
119,116,8300,1,8,2:2:0:0:
223,179,8500,1,2,3:2:0:0:
241,193,8600,2,0,P|227:239|225:279,1,77.5000029563905,10|0,2:2|0:0,0:0:0:0:
132,340,8900,2,0,P|122:280|109:256,1,77.5000029563905,10|2,3:2|2:2,0:0:0:0:
102,242,9200,1,10,1:2:0:0:
352,204,9500,1,8,2:2:0:0:
320,340,9700,1,2,2:2:0:0:
307,355,9800,6,0,P|247:344|219:341,1,77.5000029563905,10|0,3:2|0:0,0:0:0:0:
209,346,10100,1,10,2:2:0:0:
45,201,10300,1,2,3:2:0:0:
58,216,10400,2,0,P|118:205|146:202,1,77.5000029563905,10|2,1:2|2:2,0:0:0:0:
220,281,10700,2,0,P|160:270|124:271,1,77.5000029563905,10|2,2:2|3:2,0:0:0:0:
197,109,11000,2,0,P|220:144|207:189,1,77.5000029563905,10|2,2:2|2:2,0:0:0:0:
206,201,11300,1,10,3:2:0:0:
75,145,11500,1,2,2:2:0:0:
93,140,11600,1,8,1:2:0:0:
279,293,11900,1,8,2:2:0:0:
102,333,12100,1,2,2:2:0:0:
111,317,12200,6,0,P|146:296|196:310,1,77.5000029563905,10|2,2:2|2:2,0:0:0:0:
252,356,12500,2,0,P|287:367|335:331,1,77.5000029563905,10|2,2:2|2:2,0:0:0:0:
336,337,12800,1,10,1:2:0:0:
315,209,13000,1,2,3:2:0:0:
296,217,13100,1,10,2:2:0:0:
394,374,13300,1,2,3:2:0:0:
416,379,13400,2,0,P|424:298|423:271,1,77.5000029563905,10|2,2:2|2:2,0:0:0:0:
462,235,13700,2,0,P|452:177|448:141,1,77.5000029563905,10|2,3:2|2:2,0:0:0:0:
442,80,14000,1,8,1:2:0:0:
216,205,14500,1,2,2:2:0:0:
226,223,14600,6,0,P|277:230|321:235,1,77.5000029563905,10|2,3:2|2:2,0:0:0:0:
324,236,14900,1,10,2:2:0:0:
251,379,15100,1,2,3:2:0:0:
233,384,15200,2,0,P|218:335|230:299,1,77.5000029563905,10|0,1:2|0:0,0:0:0:0:
142,257,15500,2,0,P|150:321|124:352,1,77.5000029563905,10|2,2:2|3:2,0:0:0:0:
137,351,15800,1,10,2:2:0:0:
89,215,16000,1,2,2:2:0:0:
81,233,16100,2,0,P|21:243|-23:252,1,77.5000029563905,10|0,3:2|0:0,0:0:0:0:
3,265,16400,1,8,1:2:0:0:
265,112,16700,1,8,2:2:0:0:
136,52,16900,1,2,2:2:0:0:
117,67,17000,6,0,B|100:106|100:106|125:160,1,77.5000029563905,10|2,2:2|2:2,0:0:0:0:
194,185,17300,2,0,B|211:141|211:141|194:99,1,77.5000029563905,10|2,2:2|2:2,0:0:0:0:
185,99,17600,1,10,1:2:0:0:
128,249,17800,1,0,3:3:0:0:
148,261,17900,2,0,P|215:246|249:242,1,77.5000029563905,10|0,2:2|3:3,0:0:0:0:
313,274,18200,2,0,P|362:284|411:291,1,77.5000029563905,10|0,2:2|0:0,0:0:0:0:
411,289,18500,1,10,3:2:0:0:
355,82,18700,1,0,0:0:0:0:
340,96,18800,2,0,B|319:149|319:149|362:221,1,116.250004434586,8|8,1:2|2:2,0:0:0:0:
511,100,19300,1,2,2:2:0:0:
511,119,19400,6,0,P|468:126|416:137,1,77.5000029563905,10|0,3:2|0:0,0:0:0:0:
411,135,19700,1,10,2:2:0:0:
284,230,19900,1,2,3:2:0:0:
297,245,20000,2,0,P|360:230|389:224,1,77.5000029563905,10|2,1:2|2:2,0:0:0:0:
493,284,20300,2,0,P|473:226|470:186,1,77.5000029563905,10|2,2:2|3:2,0:0:0:0:
482,191,20600,1,10,2:2:0:0:
461,344,20800,1,2,2:2:0:0:
443,354,20900,2,0,P|386:357|367:313,1,77.5000029563905,10|2,3:2|2:2,0:0:0:0:
281,264,21200,2,0,P|316:305|300:347,1,77.5000029563905,10|2,1:2|2:2,0:0:0:0:
306,347,21500,1,10,2:2:0:0:
171,375,21700,1,2,2:2:0:0:
152,368,21800,6,0,P|92:378|63:387,1,77.5000029563905,10|2,2:2|2:2,0:0:0:0:
19,298,22100,2,0,P|11:224|11:190,1,77.5000029563905,10|2,2:2|2:2,0:0:0:0:
12,199,22400,1,10,1:2:0:0:
168,268,22600,1,2,3:2:0:0:
164,287,22700,1,10,2:2:0:0:
83,186,22900,1,2,3:2:0:0:
89,167,23000,2,0,P|152:176|230:181,1,116.250004434586,10|8,2:2|3:2,0:0:0:0:
449,107,23600,2,0,P|357:103|330:6,1,193.750007390976,10|0,1:2|0:0,0:0:0:0:
348,5,24200,5,14,3:2:0:0:
468,27,24400,1,2,2:2:0:0:
477,49,24500,2,0,L|465:126,1,72.3333311258952,10|2,2:2|3:2,0:0:0:0:
409,188,24800,2,0,L|426:275,1,72.3333311258952,10|2,1:2|2:2,0:0:0:0:
450,339,25100,1,10,2:2:0:0:
497,192,25300,1,2,3:2:0:0:
479,202,25400,2,0,L|399:188,1,72.3333311258952,8|2,2:2|2:2,0:0:0:0:
329,229,25700,2,0,L|242:241,1,72.3333311258952,10|2,3:2|2:2,0:0:0:0:
233,248,26000,1,10,1:2:0:0:
361,113,26200,1,2,2:2:0:0:
370,129,26300,1,10,2:2:0:0:
308,343,26500,1,2,2:2:0:0:
293,335,26600,6,0,P|324:305|365:316,1,72.3333311258952,10|2,3:2|2:2,0:0:0:0:
419,359,26900,2,0,P|371:332|374:306,1,72.3333311258952,10|2,2:2|3:2,0:0:0:0:
381,240,27200,2,0,P|388:288|365:307,1,72.3333311258952,10|2,1:2|2:2,0:0:0:0:
357,312,27500,1,10,2:2:0:0:
192,192,27700,1,2,3:2:0:0:
218,181,27800,2,0,P|264:175|304:166,1,72.3333311258952,8|2,2:2|2:2,0:0:0:0:
309,244,28100,2,0,P|263:250|223:259,1,72.3333311258952,10|2,3:2|2:2,0:0:0:0:
22,255,28400,2,0,P|77:249|139:235,1,113.666670135498,10|2,1:2|2:2,0:0:0:0:
157,323,28700,2,0,P|102:329|40:343,1,113.666670135498,10|2,2:2|2:2,0:0:0:0:
45,341,29000,5,10,3:2:0:0:
30,164,29200,1,2,2:2:0:0:
44,171,29300,2,0,P|89:150|94:102,1,72.3333311258952,10|2,2:2|3:2,0:0:0:0:
170,146,29600,2,0,P|174:94|151:66,1,72.3333311258952,10|2,1:2|2:2,0:0:0:0:
225,36,29900,2,0,P|180:10|141:14,1,72.3333311258952,10|2,2:2|3:2,0:0:0:0:
127,11,30200,1,10,2:2:0:0:
244,173,30400,1,2,2:2:0:0:
271,176,30500,2,0,P|342:158|362:157,1,72.3333311258952,10|2,3:2|2:2,0:0:0:0:
378,38,30800,2,0,P|319:56|280:61,1,72.3333311258952,10|0,1:2|0:0,0:0:0:0:
280,61,31100,1,10,2:2:0:0:
454,206,31300,1,2,2:2:0:0:
476,195,31400,6,0,P|490:127|502:102,1,72.3333311258952,10|2,3:2|2:2,0:0:0:0:
383,133,31700,2,0,P|376:188|366:214,1,72.3333311258952,10|2,2:2|3:2,0:0:0:0:
483,343,32000,2,0,P|497:275|509:250,1,72.3333311258952,10|2,1:2|2:2,0:0:0:0:
390,281,32300,2,0,P|383:336|373:362,1,72.3333311258952,10|2,2:2|3:2,0:0:0:0:
214,220,32600,2,0,P|269:211|308:194,1,72.3333311258952,10|0,2:2|0:0,0:0:0:0:
224,327,32900,2,0,P|169:336|130:353,1,72.3333311258952,10|0,3:2|0:0,0:0:0:0:
74,205,33200,2,0,P|129:196|168:179,1,72.3333311258952,10|0,1:2|0:0,0:0:0:0:
75,304,33500,2,0,P|20:313|-19:330,1,72.3333311258952,10|8,2:2|2:2,0:0:0:0:
211,127,33800,6,0,P|234:129|209:142,1,72.3333311258952,10|0,3:2|0:0,0:0:0:0:
29,22,34400,6,0,P|19:1|42:16,1,72.3333311258952,10|0,3:2|0:0,0:0:0:0:
48,229,35000,6,0,P|34:247|36:219,1,72.3333311258952,10|0,3:2|0:0,0:0:0:0:
422,115,35300,2,0,B|342:107|353:148|265:128,1,144.66666225179,2|0,2:2|0:0,0:0:0:0:
228,175,35600,2,0,P|210:122|243:86,1,72.3333311258952,2|0,2:2|0:0,0:0:0:0:
294,35,35800,1,2,2:2:0:0:
221,6,35900,2,0,P|303:66|388:40,1,144.66666225179,2|2,2:2|2:2,0:0:0:0:
507,18,36200,6,0,P|500:59|495:116,1,67.1666635920208,6|0,3:2|0:0,0:0:0:0:
510,169,36400,1,2,2:2:0:0:
420,223,36500,2,0,B|404:199|381:169|381:169|405:147|433:98,1,134.333327184042,10|0,2:2|3:3,0:0:0:0:
470,323,36800,2,0,B|394:333|406:274|305:295,1,134.333327184042,0|2,1:1|2:2,0:0:0:0:
246,228,37100,2,0,P|259:312|258:340,1,67.1666635920208,8|0,2:2|0:0,0:0:0:0:
128,343,37300,1,2,3:2:0:0:
60,272,37400,6,0,P|105:223|175:245,1,134.333327184042,2|2,2:2|2:2,0:0:0:0:
317,144,37700,2,0,P|224:150|198:83,1,134.333327184042,10|0,3:2|0:0,0:0:0:0:
65,9,38000,2,0,P|88:128|90:195,1,134.333327184042,0|2,1:1|2:2,0:0:0:0:
157,81,38300,2,0,P|166:17|172:4,2,67.1666635920208,10|0|2,2:2|0:0|2:2,0:0:0:0:
8,177,38600,6,0,P|81:178|169:196,1,134.333327184042,2|2,3:2|2:2,0:0:0:0:
318,221,38900,2,0,P|363:163|333:97,1,134.333327184042,10|2,2:2|3:2,0:0:0:0:
255,96,39200,2,0,P|271:166|271:202,2,67.1666635920208,2|0|2,1:2|0:0|2:2,0:0:0:0:
233,26,39500,1,10,2:2:0:0:
0,302,39700,6,0,P|23:265|198:277,1,201.499990776062,2|0,3:2|0:0,0:0:0:0:
270,369,40100,2,0,B|251:348|222:328|222:328|247:298|268:248,1,134.333327184042,8|0,3:2|0:0,0:0:0:0:
349,193,40400,2,0,P|362:251|374:314,1,67.1666635920208,4|0,1:2|0:0,0:0:0:0:
468,384,40600,1,0,0:0:0:0:
512,303,40700,2,0,B|423:295|459:342|338:323,1,134.333327184042,8|2,2:2|2:2,0:0:0:0:
313,315,41000,5,6,3:2:0:0:
512,127,41200,1,2,2:2:0:0:
460,71,41300,2,0,P|408:59|367:135,1,134.333327184042,10|2,2:2|3:2,0:0:0:0:
392,194,41600,2,0,P|466:174|513:171,1,67.1666635920208,2|0,1:2|0:0,0:0:0:0:
237,289,41800,1,2,2:2:0:0:
204,216,41900,2,0,P|329:236|388:255,1,134.333327184042,10|0,2:2|3:3,0:0:0:0:
297,125,42200,6,0,P|251:6|238:-53,1,134.333327184042,2|2,2:2|2:2,0:0:0:0:
173,85,42500,2,0,P|93:183|47:224,1,134.333327184042,10|2,3:2|2:2,0:0:0:0:
12,69,42800,2,0,P|103:90|125:96,1,67.1666635920208,2|0,1:2|0:0,0:0:0:0:
193,197,43000,1,2,2:2:0:0:
204,214,43100,2,0,P|186:288|185:311,1,67.1666635920208,10|0,2:2|0:0,0:0:0:0:
0,307,43300,1,2,2:2:0:0:
78,343,43400,6,0,B|118:285|118:285|64:219,1,134.333327184042,6|2,3:2|0:0,0:0:0:0:
71,150,43700,2,0,B|31:209|31:209|98:288,1,134.333327184042,2|2,0:0|3:2,0:0:0:0:
195,366,44000,2,0,P|276:345|302:348,1,61.9999981079102,6|0,1:2|0:0,0:0:0:0:
441,258,44200,1,0,0:0:0:0:
350,200,44300,2,0,P|366:259|374:297,1,61.9999981079102,4|0,1:2|0:0,0:0:0:0:
385,367,44500,6,0,B|445:313|354:251|448:183,1,144.66666225179,2|0,0:0|0:0,0:0:0:0:
203,219,44800,1,2,1:2:0:0:
275,228,44900,2,0,P|241:239|206:248,1,72.3333311258952,10|0,2:3|0:0,0:0:0:0:
22,286,45100,1,2,0:0:0:0:
42,218,45200,2,0,P|90:234|128:244,1,72.3333311258952,2|0,1:2|0:0,0:0:0:0:
302,294,45400,1,10,1:3:0:0:
253,351,45500,2,0,B|228:355|185:373|185:373|172:342|134:309,1,144.66666225179,6|2,2:3|2:2,0:0:0:0:
386,208,45800,6,0,P|377:289|379:313,1,67.1666635920208,6|0,3:2|0:0,0:0:0:0:
380,384,46000,1,2,2:2:0:0:
315,322,46100,2,0,P|422:302|495:279,1,134.333327184042,10|0,2:2|3:3,0:0:0:0:
512,181,46400,2,0,P|440:110|380:155,1,134.333327184042,4|2,1:2|2:2,0:0:0:0:
330,206,46700,6,0,B|392:179|392:179|356:55,1,134.333327184042,8|2,2:2|3:2,0:0:0:0:
259,20,47000,2,0,P|234:49|261:109,1,67.1666635920208,2|0,2:2|0:0,0:0:0:0:
287,125,47200,1,2,2:2:0:0:
337,68,47300,2,0,B|256:67|281:118|164:116,1,134.333327184042,10|0,3:2|0:0,0:0:0:0:
157,214,47600,2,0,P|80:198|34:198,1,67.1666635920208,0|0,1:1|0:0,0:0:0:0:
51,50,47800,1,2,2:2:0:0:
105,0,47900,2,0,B|128:27|156:47|156:47|131:68|101:134,1,134.333327184042,10|2,2:2|2:2,0:0:0:0:
16,168,48200,6,0,P|-2:97|-23:76,2,67.1666635920208,2|0|2,3:2|0:0|2:2,0:0:0:0:
0,259,48500,2,0,B|94:256|38:211|175:214,1,134.333327184042,10|2,2:2|3:2,0:0:0:0:
320,260,48800,2,0,P|238:238|278:159,1,134.333327184042,2|2,1:2|2:2,0:0:0:0:
271,127,49100,1,10,2:2:0:0:
492,335,49300,6,0,P|357:359|253:388,1,201.499990776062,2|2,3:2|2:2,0:0:0:0:
181,270,49700,2,0,B|202:304|227:322|227:322|208:350|197:397,1,134.333327184042,10|2,3:2|2:2,0:0:0:0:
0,345,50000,2,0,P|49:338|105:326,1,67.1666635920208,6|0,1:2|0:0,0:0:0:0:
138,353,50200,1,2,2:2:0:0:
131,378,50300,1,10,2:2:0:0:
0,136,50500,1,2,2:2:0:0:
0,234,50600,6,0,P|103:198|163:204,1,134.333327184042,6|2,3:2|2:2,0:0:0:0:
100,0,50900,2,0,P|79:107|44:156,1,134.333327184042,10|2,2:2|3:2,0:0:0:0:
255,177,51200,2,0,P|172:105|147:50,1,134.333327184042,2|2,1:2|2:2,0:0:0:0:
143,258,51500,2,0,P|212:234|246:232,1,67.1666635920208,10|0,2:2|0:0,0:0:0:0:
407,221,51700,1,2,3:2:0:0:
370,145,51800,6,0,P|303:239|292:308,1,134.333327184042,2|2,2:2|2:2,0:0:0:0:
474,367,52100,2,0,P|426:261|371:217,1,134.333327184042,10|2,3:2|2:2,0:0:0:0:
233,356,52400,2,0,P|269:332|329:337,2,67.1666635920208,2|0|2,1:2|0:0|2:2,0:0:0:0:
137,363,52700,2,0,P|48:346|45:262,1,134.333327184042,10|2,2:2|2:2,0:0:0:0:
15,170,53000,6,0,P|94:168|122:249,1,134.333327184042,0|2,3:3|2:2,0:0:0:0:
119,291,53300,1,0,0:0:0:0:
109,0,53500,1,2,3:2:0:0:
185,54,53600,2,0,P|87:80|25:82,1,134.333327184042,6|2,1:2|2:2,0:0:0:0:
210,177,53900,2,0,P|229:108|252:77,1,67.1666635920208,2|0,2:2|0:0,0:0:0:0:
288,1,54100,6,0,B|284:130|378:76|360:228,1,201.499990776062,2|2,1:2|2:2,0:0:0:0:
512,138,54500,2,0,P|462:82|394:114,1,134.333327184042,2|2,3:2|2:2,0:0:0:0:
292,171,54800,1,2,1:2:0:0:
512,271,55000,1,8,1:3:0:0:
468,353,55100,2,0,L|482:211,1,134.333327184042,6|0,2:3|0:0,0:0:0:0:
205,248,55400,6,0,B|251:220|269:183|269:183|307:212|356:217,1,170.500005203247,6|8,3:2|2:2,0:0:0:0:
161,314,55900,1,0,3:3:0:0:
142,337,56000,2,0,B|112:318|73:301|73:301|98:174,1,170.500005203247,2|8,1:2|2:2,0:0:0:0:
327,358,56500,1,0,3:3:0:0:
385,323,56600,2,0,L|247:343,1,113.666670135498,2|0,2:2|0:0,0:0:0:0:
171,253,56900,2,0,P|219:204|282:236,1,113.666670135498,10|0,3:2|0:0,0:0:0:0:
402,209,57200,2,0,P|335:191|331:121,1,113.666670135498,2|0,1:2|0:0,0:0:0:0:
234,36,57500,2,0,P|252:102|193:140,1,113.666670135498,10|2,2:2|2:2,0:0:0:0:
328,73,57800,6,0,B|433:64|380:147|521:130,1,170.500005203247,2|10,3:2|2:2,0:0:0:0:
479,0,58200,2,0,P|464:64|462:93,1,56.8333350677491,2|2,2:2|3:2,0:0:0:0:
323,177,58400,2,0,P|426:193|469:214,1,113.666670135498,2|0,1:2|0:0,0:0:0:0:
512,216,58700,1,10,2:2:0:0:
256,20,58900,1,0,3:3:0:0:
215,99,59000,2,0,P|315:73|356:45,1,113.666670135498,2|0,2:2|0:0,0:0:0:0:
111,80,59300,2,0,P|109:51|127:20,2,56.8333350677491,8|0|0,3:2|0:0|0:0,0:0:0:0:
159,149,59600,2,0,P|99:102|38:139,1,113.666670135498,4|0,1:2|0:0,0:0:0:0:
0,160,59900,2,0,P|19:220|20:246,1,56.8333350677491,10|0,2:3|0:0,0:0:0:0:
30,351,60100,1,4,2:3:0:0:
0,284,60200,6,0,B|106:259|68:361|206:310,1,170.500005203247,6|8,3:2|2:2,0:0:0:0:
413,258,60700,1,0,3:3:0:0:
386,238,60800,2,0,B|351:267|314:286|314:286|343:327|366:392,1,170.500005203247,2|8,1:2|2:2,0:0:0:0:
388,141,61300,1,0,3:3:0:0:
316,160,61400,2,0,P|432:188|469:194,1,113.666670135498,2|0,2:2|0:0,0:0:0:0:
204,61,61700,2,0,P|149:84|59:102,1,113.666670135498,10|0,3:2|0:0,0:0:0:0:
284,0,62000,2,0,B|314:49|314:49|283:131,1,113.666670135498,2|0,1:2|0:0,0:0:0:0:
224,262,62300,2,0,B|187:216|187:216|234:127,1,113.666670135498,10|0,2:2|0:0,0:0:0:0:
445,241,62600,6,0,B|409:236|382:224|382:224|334:249|334:249|301:236|243:228,1,170.500005203247,0|10,3:3|2:2,0:0:0:0:
137,125,63000,2,0,P|148:192|153:230,1,56.8333350677491,0|0,0:0|3:3,0:0:0:0:
43,305,63200,2,0,P|-6:278|16:213,1,134.333327184042,6|0,1:2|0:0,0:0:0:0:
78,190,63500,1,6,1:2:0:0:
220,367,63700,2,0,P|306:350|434:341,1,201.499990776062,0|0,3:3|1:1,0:0:0:0:
497,319,64100,2,0,P|484:374|486:403,2,56.8333350677491,2|2|2,3:2|2:2|2:2,0:0:0:0:
341,147,64400,1,2,1:2:0:0:
288,200,64500,1,0,0:0:0:0:
316,274,64600,1,10,1:3:0:0:
340,288,64700,2,0,P|398:275|462:274,1,113.666670135498,6|0,2:3|0:0,0:0:0:0:
512,167,65000,6,0,P|463:94|357:134,1,170.500005203247,6|8,3:2|2:2,0:0:0:0:
239,148,65500,1,0,3:3:0:0:
257,168,65600,2,0,B|282:128|313:97|313:97|285:64|268:25,1,170.500005203247,2|8,1:2|2:2,0:0:0:0:
45,140,66100,1,0,3:3:0:0:
114,114,66200,2,0,P|31:122|-12:130,1,113.666670135498,2|0,2:2|0:0,0:0:0:0:
145,229,66500,2,0,P|179:153|194:111,1,113.666670135498,10|0,3:2|0:0,0:0:0:0:
31,215,66800,2,0,P|79:282|107:316,1,113.666670135498,2|0,1:2|0:0,0:0:0:0:
179,361,67100,1,10,2:2:0:0:
355,196,67300,1,2,2:2:0:0:
289,245,67400,6,0,P|386:269|510:282,1,170.500005203247,2|10,3:2|2:2,0:0:0:0:
492,205,67800,2,0,P|485:160|485:132,1,56.8333350677491,2|2,2:2|3:2,0:0:0:0:
429,79,68000,2,0,P|360:85|363:152,1,113.666670135498,2|0,1:2|0:0,0:0:0:0:
355,196,68300,1,10,2:2:0:0:
245,26,68500,1,0,3:3:0:0:
187,77,68600,2,0,P|276:60|327:45,1,113.666670135498,2|0,2:2|0:0,0:0:0:0:
162,204,68900,2,0,P|78:189|18:182,1,113.666670135498,8|0,3:2|0:0,0:0:0:0:
103,67,69200,2,0,P|117:134|101:156,2,56.8333350677491,4|0|0,1:2|0:0|0:0,0:0:0:0:
29,37,69500,2,0,P|106:26|129:-15,1,113.666670135498,2|0,2:2|1:1,0:0:0:0:
259,102,69800,6,0,P|235:180|225:235,1,113.666670135498,6|0,3:2|0:0,0:0:0:0:
219,287,70100,1,10,2:2:0:0:
96,150,70300,1,2,3:2:0:0:
0,210,70400,2,0,P|79:194|123:177,1,113.666670135498,0|2,1:1|2:2,0:0:0:0:
125,315,70700,2,0,P|55:292|21:292,1,56.8333350677491,10|0,2:2|0:0,0:0:0:0:
7,282,70900,1,2,3:2:0:0:
34,384,71000,2,0,B|130:375|86:324|208:312,1,170.500005203247,2|10,2:2|3:2,0:0:0:0:
269,309,71400,2,0,P|261:346|253:377,1,56.8333350677491,0|2,0:0|2:2,0:0:0:0:
362,374,71600,2,0,P|353:303|312:233,1,113.666670135498,0|2,1:1|2:2,0:0:0:0:
426,174,71900,2,0,P|423:234|444:299,1,113.666670135498,10|2,2:2|2:2,0:0:0:0:
467,346,72200,5,2,3:2:0:0:
269,309,72400,1,2,2:2:0:0:
269,309,72500,1,4,1:2:0:0:
326,133,72700,1,2,2:2:0:0:
224,214,72800,2,0,B|295:230|295:230|355:158,1,113.666670135498,4|2,1:2|2:2,0:0:0:0:
492,188,73100,2,0,B|431:175|431:175|388:221,1,113.666670135498,2|10,2:2|2:3,0:0:0:0:
361,282,73400,2,0,P|369:185|381:148,1,113.666670135498,2|4,2:2|2:3,0:0:0:0:
398,82,73700,1,4,2:3:0:0:
156,151,73900,1,0,0:0:0:0:
177,168,74000,2,0,P|263:153|316:150,1,113.666670135498,2|0,1:2|1:1,0:0:0:0:
340,27,74300,2,0,P|258:44|208:50,1,113.666670135498,10|0,2:2|0:0,0:0:0:0:
69,37,74600,6,0,P|141:50|133:108,1,116.250004434586,10|8,3:2|2:2,0:0:0:0:
18,185,75100,1,2,3:2:0:0:
29,206,75200,2,0,P|106:196|130:197,1,77.5000029563905,10|2,1:2|2:2,0:0:0:0:
188,238,75500,2,0,P|175:182|180:146,1,77.5000029563905,10|2,2:2|3:2,0:0:0:0:
249,96,75800,2,0,P|267:152|263:200,1,77.5000029563905,10|2,2:2|2:2,0:0:0:0:
267,197,76100,1,10,3:2:0:0:
179,50,76300,1,2,2:2:0:0:
191,63,76400,2,0,P|265:67|331:73,1,116.250004434586,10|8,1:2|2:2,0:0:0:0:
454,145,76900,1,2,2:2:0:0:
458,169,77000,6,0,P|445:228|439:275,1,77.5000029563905,10|2,2:2|2:2,0:0:0:0:
443,274,77300,1,10,2:2:0:0:
262,124,77500,1,2,2:2:0:0:
254,143,77600,2,0,P|205:153|152:164,1,77.5000029563905,10|0,1:2|3:3,0:0:0:0:
93,242,77900,2,0,P|152:229|194:223,1,77.5000029563905,10|2,2:2|3:2,0:0:0:0:
265,217,78200,2,0,P|284:265|281:303,1,77.5000029563905,10|2,2:2|2:2,0:0:0:0:
220,377,78500,2,0,P|205:338|204:291,1,77.5000029563905,10|2,3:2|2:2,0:0:0:0:
211,284,78800,1,10,1:2:0:0:
0,224,79100,1,10,2:2:0:0:
26,339,79300,1,0,0:0:0:0:
39,354,79400,6,0,P|99:343|127:340,1,77.5000029563905,10|0,3:2|0:0,0:0:0:0:
140,338,79700,1,10,2:2:0:0:
227,185,79900,1,2,3:2:0:0:
218,212,80000,2,0,L|118:193,1,77.5000029563905,10|2,1:2|2:2,0:0:0:0:
25,277,80300,2,0,P|85:266|125:261,1,77.5000029563905,10|2,2:2|3:2,0:0:0:0:
89,107,80600,2,0,P|66:142|79:187,1,77.5000029563905,10|2,2:2|2:2,0:0:0:0:
81,200,80900,1,8,3:2:0:0:
260,122,81100,1,2,2:2:0:0:
239,117,81200,1,10,1:2:0:0:
0,158,81500,2,0,P|6:206|12:244,1,77.5000029563905,10|0,2:2|0:0,0:0:0:0:
12,259,81800,5,8,2:2:0:0:
145,224,82000,5,2,2:2:0:0:
122,220,82100,1,10,2:2:0:0:
149,308,82300,5,0,0:0:0:0:
174,311,82400,1,10,2:2:0:0:
261,254,82600,5,2,2:2:0:0:
236,249,82700,1,10,2:2:0:0:
304,342,82900,5,2,2:2:0:0:
328,348,83000,2,0,B|353:310|353:310|332:252,1,77.5000029563905,10|0,2:2|0:0,0:0:0:0:
379,234,83300,2,0,B|356:266|356:266|378:316,1,77.5000029563905,10|2,2:2|2:2,0:0:0:0:
386,316,83600,1,2,1:2:0:0:
330,121,83800,1,2,1:2:0:0:
305,127,83900,1,10,2:3:0:0:
491,194,84100,1,6,2:3:0:0:
510,202,84200,6,0,P|524:138|532:110,1,77.5000029563905,14|0,3:2|0:0,0:0:0:0:
512,106,84500,1,8,2:2:0:0:
407,33,84700,1,2,3:2:0:0:
426,29,84800,2,0,L|474:15,2,38.7500014781952,10|2|2,1:2|2:2|2:2,0:0:0:0:
356,120,85100,2,0,L|300:137,2,38.7500014781952,10|2|2,2:2|2:2|3:2,0:0:0:0:
443,106,85400,2,0,L|454:156,2,38.7500014781952,10|2|2,2:2|2:2|2:2,0:0:0:0:
339,37,85700,2,0,L|328:-14,2,38.7500014781952,10|2|2,3:2|2:2|2:2,0:0:0:0:
343,58,86000,1,10,1:2:0:0:
208,32,86200,1,2,2:2:0:0:
230,29,86300,1,10,2:2:0:0:
203,143,86500,1,2,2:2:0:0:
196,161,86600,6,0,P|150:152|104:148,1,77.5000029563905,10|2,3:2|2:2,0:0:0:0:
17,64,86900,2,0,P|77:78|130:81,1,77.5000029563905,8|2,2:2|3:2,0:0:0:0:
118,81,87200,1,10,1:2:0:0:
105,265,87400,1,2,2:2:0:0:
84,259,87500,2,0,P|73:196|58:152,1,77.5000029563905,10|2,2:2|3:2,0:0:0:0:
164,164,87800,2,0,P|147:206|129:212,2,38.7500014781952,10|2|2,2:2|2:2|2:2,0:0:0:0:
225,225,88100,2,0,P|181:254|169:256,2,38.7500014781952,10|2|2,3:2|2:2|2:2,0:0:0:0:
245,312,88400,2,0,P|201:311|184:305,2,38.7500014781952,10|2|2,1:2|2:2|2:2,0:0:0:0:
184,375,88700,2,0,P|148:348|151:337,2,38.7500014781952,10|2|2,2:2|2:2|2:2,0:0:0:0:
255,384,89000,6,0,P|307:372|352:371,1,77.5000029563905,10|2,3:2|2:2,0:0:0:0:
349,368,89300,1,8,2:2:0:0:
475,213,89500,1,2,3:2:0:0:
465,234,89600,2,0,P|394:229|362:224,1,77.5000029563905,10|2,1:2|2:2,0:0:0:0:
300,187,89900,2,0,P|313:242|316:288,1,77.5000029563905,10|2,2:2|3:2,0:0:0:0:
317,286,90200,1,10,2:2:0:0:
437,84,90400,1,0,0:0:0:0:
452,99,90500,2,0,P|441:161|441:188,1,77.5000029563905,10|2,3:2|2:2,0:0:0:0:
356,151,90800,2,0,P|367:88|365:48,1,77.5000029563905,8|2,1:2|2:2,0:0:0:0:
363,52,91100,1,8,2:2:0:0:
179,117,91300,1,2,2:2:0:0:
198,110,91400,6,0,P|258:120|302:130,1,77.5000029563905,2|2,3:2|2:2,0:0:0:0:
292,131,91700,1,2,2:2:0:0:
139,202,91900,1,2,3:2:0:0:
118,190,92000,2,0,P|108:135|97:92,1,77.5000029563905,2|0,1:2|0:0,0:0:0:0:
99,91,92300,1,2,2:2:0:0:
122,276,92500,1,2,3:2:0:0:
99,277,92600,1,2,2:2:0:0:
240,204,92800,1,2,2:2:0:0:
256,219,92900,2,0,P|247:291|247:317,1,77.5000029563905,10|2,3:3|2:2,0:0:0:0:
245,316,93200,1,2,1:2:0:0:
427,295,93400,1,10,2:3:0:0:
408,278,93500,2,0,P|349:290|320:295,1,77.5000029563905,6|0,2:3|0:0,0:0:0:0:
312,296,93800,5,14,3:2:0:0:
134,348,94000,1,2,2:2:0:0:
151,359,94100,2,0,L|140:270,1,72.3333311258952,10|2,2:2|3:2,0:0:0:0:
207,221,94400,2,0,L|216:135,1,72.3333311258952,10|2,1:2|2:2,0:0:0:0:
220,122,94700,1,10,2:2:0:0:
43,209,94900,1,2,3:2:0:0:
61,220,95000,2,0,L|138:207,1,72.3333311258952,8|2,2:2|2:2,0:0:0:0:
215,284,95300,2,0,L|307:294,1,72.3333311258952,10|2,3:2|2:2,0:0:0:0:
312,296,95600,1,10,1:2:0:0:
387,138,95800,1,2,2:2:0:0:
362,143,95900,1,10,2:2:0:0:
475,296,96100,1,2,2:2:0:0:
492,295,96200,6,0,P|478:253|437:244,1,72.3333311258952,10|2,3:2|2:2,0:0:0:0:
369,258,96500,2,0,P|424:256|433:232,1,72.3333311258952,10|2,2:2|3:2,0:0:0:0:
458,170,96800,2,0,P|429:209|440:236,1,72.3333311258952,10|2,1:2|2:2,0:0:0:0:
446,245,97100,1,10,2:2:0:0:
405,41,97300,1,2,3:2:0:0:
382,56,97400,2,0,P|336:64|295:68,1,72.3333311258952,8|2,2:2|2:2,0:0:0:0:
300,163,97700,2,0,P|362:152|392:152,1,72.3333311258952,10|2,3:2|2:2,0:0:0:0:
202,67,98000,2,0,P|156:75|101:82,1,92.9999971618653,10|2,1:2|2:2,0:0:0:0:
100,186,98300,2,0,P|165:172|196:171,1,92.9999971618653,10|2,2:2|2:2,0:0:0:0:
208,171,98600,5,10,3:2:0:0:
5,87,98800,1,2,2:2:0:0:
0,110,98900,2,0,P|15:189|15:208,1,72.3333311258952,10|2,2:2|3:2,0:0:0:0:
117,253,99200,2,0,P|102:174|102:155,1,72.3333311258952,10|2,1:2|2:2,0:0:0:0:
1,270,99500,2,0,P|13:317|13:361,1,72.3333311258952,10|2,2:2|3:2,0:0:0:0:
18,364,99800,1,10,2:2:0:0:
233,237,100000,1,2,2:2:0:0:
242,261,100100,2,0,P|204:297|175:291,1,72.3333311258952,10|2,3:2|2:2,0:0:0:0:
87,210,100400,2,0,P|125:223|118:280,1,72.3333311258952,10|0,1:2|0:0,0:0:0:0:
117,384,100700,2,0,P|112:316|131:299,1,72.3333311258952,10|2,2:2|2:2,0:0:0:0:
286,360,101000,6,0,P|232:350|200:346,1,72.3333311258952,10|0,3:2|0:0,0:0:0:0:
310,230,101300,2,0,P|386:243|403:243,1,72.3333311258952,10|0,1:2|0:0,0:0:0:0:
474,358,101600,2,0,P|393:342|378:343,1,72.3333311258952,10|0,1:2|0:0,0:0:0:0:
380,335,101900,1,10,1:2:0:0:
478,189,102100,1,10,2:3:0:0:
501,194,102200,1,8,2:2:0:0:
370,266,102400,1,0,1:1:0:0:
351,263,102500,2,0,P|366:197|373:162,1,72.3333311258952,14|0,2:3|0:0,0:0:0:0:
371,169,102800,1,10,1:2:0:0:
512,265,103000,1,0,1:1:0:0:
495,279,103100,2,0,P|437:267|396:261,1,72.3333311258952,10|0,2:2|0:0,0:0:0:0:
268,256,103400,6,0,P|251:275|257:245,2,77.5000029563905,10|2|2,3:2|2:2|2:2,0:0:0:0:
461,173,104000,6,0,P|487:178|458:187,2,77.5000029563905,10|2|2,3:2|2:2|2:2,0:0:0:0:
284,62,104600,6,0,P|278:37|299:59,2,77.5000029563905,10|2|2,3:2|2:2|2:2,0:0:0:0:
255,176,104900,2,0,P|301:125|388:129,1,144.66666225179,2|0,2:2|0:0,0:0:0:0:
418,55,105200,2,0,P|457:92|451:125,1,72.3333311258952,10|0,2:2|0:0,0:0:0:0:
460,222,105400,1,2,2:2:0:0:
495,167,105500,2,0,L|480:327,1,144.66666225179,10|6,2:3|2:3,0:0:0:0:
401,384,105800,6,0,P|360:380|334:335,1,67.1666635920208,6|0,3:2|0:0,0:0:0:0:
392,313,106000,1,2,2:2:0:0:
230,384,106100,2,0,P|205:279|252:246,1,134.333327184042,10|0,2:2|3:3,0:0:0:0:
291,196,106400,2,0,B|339:205|339:205|366:237|366:237|449:251,1,134.333327184042,0|2,1:1|2:2,0:0:0:0:
512,169,106700,2,0,P|506:137|498:81,1,67.1666635920208,10|0,2:2|0:0,0:0:0:0:
444,43,106900,1,2,3:2:0:0:
413,116,107000,6,0,P|316:105|309:31,1,134.333327184042,2|2,2:2|2:2,0:0:0:0:
243,26,107300,2,0,P|170:17|132:92,1,134.333327184042,10|0,3:2|0:0,0:0:0:0:
0,103,107600,2,0,P|77:114|111:122,1,67.1666635920208,2|0,1:2|0:0,0:0:0:0:
202,86,107800,1,2,2:2:0:0:
59,10,107900,2,0,P|74:113|76:201,1,134.333327184042,10|2,2:2|2:2,0:0:0:0:
23,227,108200,6,0,B|113:213|73:258|183:239,1,134.333327184042,2|2,3:2|2:2,0:0:0:0:
357,164,108500,2,0,B|330:143|309:111|309:111|276:135|211:151,1,134.333327184042,10|2,2:2|3:2,0:0:0:0:
224,225,108800,2,0,P|240:295|240:331,2,67.1666635920208,2|0|2,1:2|0:0|2:2,0:0:0:0:
181,110,109100,1,10,2:2:0:0:
470,354,109300,6,0,P|391:273|311:320,1,201.499990776062,2|0,3:2|0:0,0:0:0:0:
270,374,109700,2,0,P|255:294|242:193,1,134.333327184042,8|0,3:2|0:0,0:0:0:0:
143,191,110000,2,0,L|130:262,1,67.1666635920208,4|0,1:2|0:0,0:0:0:0:
68,384,110200,1,0,0:0:0:0:
12,301,110300,2,0,B|100:297|59:334|190:325,1,134.333327184042,8|2,2:2|2:2,0:0:0:0:
213,302,110600,5,6,3:2:0:0:
26,43,110800,1,2,2:2:0:0:
63,124,110900,2,0,B|91:100|119:82|119:82|99:48|78:-14,1,134.333327184042,10|2,2:2|3:2,0:0:0:0:
0,192,111200,2,0,P|91:206|121:212,1,67.1666635920208,2|0,1:2|0:0,0:0:0:0:
246,146,111400,1,2,2:2:0:0:
162,135,111500,2,0,P|190:218|196:285,1,134.333327184042,10|0,2:2|3:3,0:0:0:0:
391,241,111800,6,0,P|305:223|244:195,1,134.333327184042,2|2,2:2|2:2,0:0:0:0:
183,384,112100,2,0,P|240:318|295:279,1,134.333327184042,10|2,3:2|2:2,0:0:0:0:
432,337,112400,2,0,P|347:353|327:356,1,67.1666635920208,2|0,1:2|0:0,0:0:0:0:
461,178,112600,1,2,2:2:0:0:
494,265,112700,2,0,P|501:200|512:175,1,67.1666635920208,10|0,2:2|0:0,0:0:0:0:
324,92,112900,1,2,2:2:0:0:
271,146,113000,6,0,B|338:172|338:172|391:129,1,134.333327184042,6|2,3:2|0:0,0:0:0:0:
495,40,113300,2,0,B|432:12|432:12|377:55,1,134.333327184042,2|2,0:0|3:2,0:0:0:0:
188,185,113600,2,0,P|177:106|172:87,1,61.9999981079102,6|0,1:2|0:0,0:0:0:0:
84,33,113800,1,2,0:0:0:0:
13,65,113900,2,0,P|116:83|132:89,1,61.9999981079102,6|0,1:2|0:0,0:0:0:0:
274,89,114100,6,0,B|192:69|210:142|110:108,1,144.66666225179,2|0,0:0|0:0,0:0:0:0:
85,243,114400,1,2,1:2:0:0:
17,232,114500,2,0,P|87:215|128:214,1,72.3333311258952,10|0,2:3|0:0,0:0:0:0:
210,295,114700,1,2,0:0:0:0:
163,349,114800,2,0,P|145:310|157:249,1,72.3333311258952,2|0,1:2|0:0,0:0:0:0:
322,193,115000,1,10,1:3:0:0:
390,233,115100,2,0,B|416:206|437:194|437:194|361:216|301:211,1,144.66666225179,6|2,2:3|2:2,0:0:0:0:
232,384,115400,6,0,P|240:319|245:280,1,67.1666635920208,6|0,3:2|0:0,0:0:0:0:
257,227,115600,1,2,2:2:0:0:
170,234,115700,2,0,B|255:246|350:263,1,134.333327184042,10|0,2:2|3:3,0:0:0:0:
472,384,116000,2,0,P|352:362|303:356,1,134.333327184042,4|2,1:2|2:2,0:0:0:0:
469,137,116300,2,0,P|455:205|454:230,1,67.1666635920208,10|0,2:2|0:0,0:0:0:0:
444,312,116500,1,2,3:2:0:0:
245,162,116600,6,0,B|332:154|296:208|428:192,1,134.333327184042,2|2,2:2|2:2,0:0:0:0:
508,73,116900,2,0,B|480:62|446:41|446:41|419:78|388:100,1,134.333327184042,10|0,3:2|0:0,0:0:0:0:
333,112,117200,2,0,P|314:35|304:11,1,67.1666635920208,0|0,1:1|0:0,0:0:0:0:
165,38,117400,1,2,2:2:0:0:
242,0,117500,2,0,P|224:125|204:186,1,134.333327184042,10|2,2:2|2:2,0:0:0:0:
156,261,117800,6,0,P|68:242|25:241,2,67.1666635920208,2|0|2,3:2|0:0|2:2,0:0:0:0:
102,159,118100,2,0,P|31:163|6:248,1,134.333327184042,10|2,2:2|3:2,0:0:0:0:
0,367,118400,2,0,P|72:366|103:309,1,134.333327184042,2|2,1:2|2:2,0:0:0:0:
90,244,118700,1,10,2:2:0:0:
374,384,118900,6,0,B|242:377|311:313|179:303,1,201.499990776062,2|2,3:2|2:2,0:0:0:0:
315,153,119300,2,0,B|357:197|357:197|326:286,1,134.333327184042,10|2,3:2|2:2,0:0:0:0:
90,244,119600,2,0,P|139:237|195:225,1,67.1666635920208,6|0,1:2|0:0,0:0:0:0:
255,222,119800,1,2,2:2:0:0:
248,247,119900,1,10,2:2:0:0:
100,142,120100,1,2,2:2:0:0:
21,247,120200,6,0,P|93:167|152:193,1,134.333327184042,6|2,3:2|2:2,0:0:0:0:
252,111,120500,2,0,P|146:88|139:24,1,134.333327184042,10|2,2:2|3:2,0:0:0:0:
25,4,120800,2,0,P|43:102|-8:140,1,134.333327184042,2|2,1:2|2:2,0:0:0:0:
172,230,121100,2,0,P|269:209|290:212,1,67.1666635920208,10|0,2:2|0:0,0:0:0:0:
395,185,121300,1,2,3:2:0:0:
304,108,121400,2,0,P|328:227|335:293,1,134.333327184042,2|2,2:2|2:2,0:0:0:0:
280,381,121700,2,0,P|346:319|404:340,1,134.333327184042,10|2,3:2|2:2,0:0:0:0:
493,313,122000,2,0,P|481:391|483:425,2,67.1666635920208,2|0|2,1:2|0:0|2:2,0:0:0:0:
512,197,122300,2,0,B|427:204|464:255|365:253,1,134.333327184042,10|2,2:2|2:2,0:0:0:0:
175,248,122600,6,0,B|238:216|238:216|311:285,1,134.333327184042,2|2,3:2|2:2,0:0:0:0:
327,319,122900,1,0,0:0:0:0:
323,114,123100,1,2,3:2:0:0:
381,173,123200,2,0,P|293:150|213:149,1,134.333327184042,2|2,1:2|2:2,0:0:0:0:
38,89,123500,2,0,P|129:54|144:38,1,67.1666635920208,2|0,2:2|0:0,0:0:0:0:
178,1,123700,6,0,B|152:109|253:90|194:212,1,201.499990776062,2|2,1:2|2:2,0:0:0:0:
11,226,124100,2,0,P|94:179|144:227,1,134.333327184042,2|2,3:2|2:2,0:0:0:0:
202,337,124400,1,2,3:2:0:0:
244,356,124500,1,0,0:0:0:0:
289,340,124600,1,2,1:2:0:0:
327,311,124700,1,2,1:2:0:0:
366,299,124800,1,0,1:1:0:0:
409,312,124900,1,0,1:1:0:0:
473,361,125000,6,0,B|499:337|499:337|487:282,1,67.1666635920208,6|0,3:2|0:0,0:0:0:0:
465,142,125200,1,0,0:0:0:0:
409,192,125300,2,0,P|315:193|269:118,1,134.333327184042,10|0,2:2|3:3,0:0:0:0:
194,20,125600,2,0,B|253:57|253:57|219:166,1,134.333327184042,6|0,1:2|0:0,0:0:0:0:
197,195,125900,1,10,2:2:0:0:
58,79,126100,1,0,3:3:0:0:
156,76,126200,6,0,P|83:101|1:116,1,134.333327184042,2|0,2:2|0:0,0:0:0:0:
22,258,126500,2,0,P|112:233|163:226,1,134.333327184042,10|0,3:2|0:0,0:0:0:0:
308,185,126800,2,0,P|342:261|287:304,1,134.333327184042,2|0,1:2|0:0,0:0:0:0:
210,376,127100,2,0,P|179:302|228:255,1,134.333327184042,10|0,2:2|0:0,0:0:0:0:
462,321,127400,6,0,B|410:371|410:371|323:349,1,134.333327184042,2|0,3:2|0:0,0:0:0:0:
250,320,127700,1,10,2:2:0:0:
414,135,127900,1,0,3:3:0:0:
410,263,128000,2,0,P|393:196|380:100,1,134.333327184042,2|0,1:2|0:0,0:0:0:0:
271,30,128300,2,0,P|259:132|235:209,1,134.333327184042,10|0,2:2|3:3,0:0:0:0:
224,230,128600,5,2,2:2:0:0:
106,40,128800,1,0,0:0:0:0:
0,111,128900,2,0,P|89:88|167:65,1,134.333327184042,10|0,3:2|0:0,0:0:0:0:
215,113,129200,2,0,P|186:203|183:220,1,67.1666635920208,6|0,1:2|0:0,0:0:0:0:
159,280,129400,1,2,2:2:0:0:
84,157,129500,2,0,P|111:258|124:331,1,134.333327184042,2|2,2:2|2:2,0:0:0:0:
41,384,129800,6,0,B|-24:346|-24:346|24:263,1,134.333327184042,6|0,3:2|0:0,0:0:0:0:
40,233,130100,1,10,2:2:0:0:
257,305,130300,1,0,3:3:0:0:
141,340,130400,2,0,P|246:322|320:317,1,134.333327184042,2|0,1:2|0:0,0:0:0:0:
486,327,130700,2,0,P|411:316|399:218,1,134.333327184042,10|0,2:2|3:3,0:0:0:0:
407,42,131000,6,0,P|408:149|351:166,1,134.333327184042,2|0,2:2|0:0,0:0:0:0:
213,241,131300,2,0,P|299:183|346:222,1,134.333327184042,10|0,3:2|0:0,0:0:0:0:
417,223,131600,1,2,1:2:0:0:
172,52,131800,1,0,0:0:0:0:
71,98,131900,2,0,P|156:81|237:70,1,134.333327184042,10|0,2:2|0:0,0:0:0:0:
301,12,132200,6,0,P|288:78|293:107,1,67.1666635920208,2|0,3:2|0:0,0:0:0:0:
243,184,132400,1,2,2:2:0:0:
234,151,132500,1,10,2:2:0:0:
406,329,132700,1,2,3:2:0:0:
391,225,132800,2,0,B|346:283|346:283|407:358,1,134.333327184042,6|2,1:2|2:2,0:0:0:0:
472,356,133100,1,6,1:2:0:0:
507,108,133300,6,0,B|389:105|456:218|279:195,1,201.499990776062,2|2,3:2|3:2,0:0:0:0:
251,77,133700,1,2,2:2:0:0:
335,65,133800,2,0,P|313:140|303:164,1,67.1666635920208,0|2,0:0|3:2,0:0:0:0:
241,384,134000,2,0,P|222:311|210:228,1,134.333327184042,6|2,1:2|2:2,0:0:0:0:
58,202,134300,2,0,P|45:300|30:353,1,113.666670135498,10|2,2:3|2:2,0:0:0:0:
261,171,134600,6,0,P|184:181|102:211,1,134.333327184042,6|0,3:2|0:0,0:0:0:0:
0,145,134900,2,0,P|47:94|116:127,1,134.333327184042,10|0,2:2|3:3,0:0:0:0:
224,300,135200,2,0,P|162:316|127:264,1,134.333327184042,2|0,1:2|0:0,0:0:0:0:
130,195,135500,1,10,2:2:0:0:
348,315,135700,1,2,3:2:0:0:
242,374,135800,6,0,P|361:342|420:337,1,134.333327184042,2|0,2:2|0:0,0:0:0:0:
490,233,136100,2,0,P|389:222|313:181,1,134.333327184042,10|0,3:2|0:0,0:0:0:0:
290,38,136400,2,0,B|345:76|345:76|296:189,1,134.333327184042,2|0,1:2|0:0,0:0:0:0:
210,265,136700,2,0,B|154:231|154:231|206:123,1,134.333327184042,10|0,2:2|0:0,0:0:0:0:
191,350,137000,6,0,B|92:346|152:389|22:381,1,134.333327184042,2|0,3:2|0:0,0:0:0:0:
16,315,137300,1,10,2:2:0:0:
382,252,137500,1,0,3:3:0:0:
382,384,137600,2,0,P|363:317|342:230,1,134.333327184042,2|0,1:2|0:0,0:0:0:0:
277,87,137900,2,0,P|265:189|241:266,1,134.333327184042,10|2,2:2|3:2,0:0:0:0:
224,282,138200,5,2,2:2:0:0:
106,40,138400,1,0,0:0:0:0:
4,85,138500,2,0,P|95:73|175:56,1,134.333327184042,10|0,3:2|0:0,0:0:0:0:
201,120,138800,2,0,P|186:199|183:220,1,67.1666635920208,6|0,1:2|0:0,0:0:0:0:
64,266,139000,1,2,2:2:0:0:
11,207,139100,2,0,P|72:156|149:196,1,134.333327184042,2|2,2:2|2:2,0:0:0:0:
181,344,139400,6,0,B|125:318|125:318|167:217,1,134.333327184042,6|0,3:2|0:0,0:0:0:0:
188,185,139700,1,10,2:2:0:0:
389,264,139900,1,0,3:3:0:0:
462,198,140000,2,0,B|378:191|411:247|306:239,1,134.333327184042,2|0,1:2|0:0,0:0:0:0:
364,364,140300,2,0,P|436:368|430:267,1,134.333327184042,10|2,2:2|3:2,0:0:0:0:
261,222,140600,6,0,P|209:275|246:345,1,134.333327184042,2|0,2:2|0:0,0:0:0:0:
372,152,140900,2,0,P|314:97|250:120,1,134.333327184042,10|0,3:2|0:0,0:0:0:0:
188,142,141200,1,2,1:2:0:0:
485,89,141400,1,0,0:0:0:0:
423,0,141500,2,0,L|446:169,1,134.333327184042,10|2,2:2|2:2,0:0:0:0:
252,94,141800,6,0,P|329:80|350:76,1,67.1666635920208,2|0,3:2|0:0,0:0:0:0:
433,200,142000,1,0,0:0:0:0:
372,152,142100,2,0,P|360:220|356:260,1,67.1666635920208,6|0,1:2|0:0,0:0:0:0:
400,336,142300,1,2,2:2:0:0:
472,316,142400,2,0,P|410:300|301:283,1,134.333327184042,6|2,1:2|2:2,0:0:0:0:
267,293,142700,1,2,2:2:0:0:
160,72,142900,6,0,B|126:177|246:172|181:297,1,201.499990776062,10|10,2:3|1:2,0:0:0:0:
14,296,143300,1,6,2:3:0:0:
106,293,143400,2,0,P|44:319|10:322,1,67.1666635920208,0|2,0:0|2:2,0:0:0:0:
0,189,143600,2,0,P|105:222|178:231,1,134.333327184042,2|2,1:2|1:2,0:0:0:0:
366,94,143900,2,0,P|264:113|189:134,1,134.333327184042,10|0,2:2|0:0,0:0:0:0:
111,157,144200,6,0,P|126:65|129:19,1,116.250004434586,10|8,3:2|2:2,0:0:0:0:
285,169,144700,1,2,3:2:0:0:
276,184,144800,2,0,P|203:199|171:212,1,77.5000029563905,8|2,1:2|2:2,0:0:0:0:
124,268,145100,2,0,P|197:280|227:291,1,77.5000029563905,10|2,2:2|3:2,0:0:0:0:
220,286,145400,1,10,2:2:0:0:
56,202,145600,1,0,0:0:0:0:
37,220,145700,2,0,P|20:258|37:295,1,77.5000029563905,10|2,3:2|2:2,0:0:0:0:
49,306,146000,1,10,1:2:0:0:
185,161,146300,1,8,2:2:0:0:
4,123,146500,1,2,2:2:0:0:
14,138,146600,6,0,P|76:150|108:159,1,77.5000029563905,10|2,2:2|2:2,0:0:0:0:
111,157,146900,1,10,2:2:0:0:
275,0,147100,1,0,0:0:0:0:
266,15,147200,2,0,P|208:26|169:33,1,77.5000029563905,10|2,1:2|3:2,0:0:0:0:
167,38,147500,1,10,2:2:0:0:
349,6,147700,1,2,3:2:0:0:
367,20,147800,2,0,P|353:66|351:106,1,77.5000029563905,10|0,2:2|0:0,0:0:0:0:
277,181,148100,2,0,P|267:121|254:97,1,77.5000029563905,10|2,3:2|2:2,0:0:0:0:
248,87,148400,1,8,1:2:0:0:
484,65,148700,1,8,2:2:0:0:
472,166,148900,1,2,2:2:0:0:
459,181,149000,6,0,P|399:170|371:167,1,77.5000029563905,10|0,3:2|0:0,0:0:0:0:
362,166,149300,1,10,2:2:0:0:
236,331,149500,1,2,3:2:0:0:
256,340,149600,2,0,P|316:329|344:326,1,77.5000029563905,10|2,1:2|2:2,0:0:0:0:
401,255,149900,2,0,P|341:244|308:237,1,77.5000029563905,10|2,2:2|3:2,0:0:0:0:
234,176,150200,2,0,P|242:213|247:254,1,77.5000029563905,10|2,2:2|2:2,0:0:0:0:
241,272,150500,1,10,3:2:0:0:
105,170,150700,1,2,2:2:0:0:
124,167,150800,1,8,1:2:0:0:
273,348,151100,1,8,2:2:0:0:
106,323,151300,1,2,2:2:0:0:
104,305,151400,6,0,P|145:278|188:292,1,77.5000029563905,10|2,2:2|2:2,0:0:0:0:
273,348,151700,2,0,P|236:367|200:356,1,77.5000029563905,10|2,2:2|2:2,0:0:0:0:
185,352,152000,1,10,1:2:0:0:
303,241,152200,1,2,3:2:0:0:
325,245,152300,2,0,P|336:298|341:356,1,77.5000029563905,10|2,2:2|3:2,0:0:0:0:
413,379,152600,2,0,P|421:298|430:274,1,77.5000029563905,10|0,2:2|0:0,0:0:0:0:
435,281,152900,1,10,3:2:0:0:
302,370,153100,1,2,2:2:0:0:
302,370,153200,1,8,1:2:0:0:
275,116,153700,1,2,2:2:0:0:
285,134,153800,6,0,P|336:141|380:146,1,77.5000029563905,10|2,3:2|2:2,0:0:0:0:
383,147,154100,1,10,2:2:0:0:
261,260,154300,1,2,3:2:0:0:
240,258,154400,2,0,P|229:195|227:157,1,77.5000029563905,10|0,1:2|0:0,0:0:0:0:
150,245,154700,2,0,P|162:296|162:352,1,77.5000029563905,10|0,2:2|3:3,0:0:0:0:
164,346,155000,1,10,2:2:0:0:
8,186,155200,1,2,2:2:0:0:
1,206,155300,2,0,P|52:195|96:192,1,77.5000029563905,8|2,3:2|2:2,0:0:0:0:
170,190,155600,2,0,P|164:116|172:84,1,77.5000029563905,10|2,1:2|2:2,0:0:0:0:
175,87,155900,1,8,2:2:0:0:
28,55,156100,1,2,2:2:0:0:
24,78,156200,6,0,P|80:103|116:88,1,77.5000029563905,10|2,2:2|2:2,0:0:0:0:
213,26,156500,2,0,P|164:5|119:28,1,77.5000029563905,10|2,2:2|2:2,0:0:0:0:
118,23,156800,1,10,1:2:0:0:
249,119,157000,1,2,3:2:0:0:
262,139,157100,2,0,P|329:124|363:120,1,77.5000029563905,8|2,2:2|3:2,0:0:0:0:
416,58,157400,2,0,P|344:44|316:33,1,77.5000029563905,10|2,2:2|2:2,0:0:0:0:
258,43,157700,2,0,P|254:21|244:-13,2,38.7500014781952,10|0|2,3:2|0:0|2:2,0:0:0:0:
171,93,158000,2,0,P|179:112|185:137,2,38.7500014781952,8|0|0,1:2|0:0|0:0,0:0:0:0:
166,75,158300,1,8,2:2:0:0:
324,167,158500,1,2,2:2:0:0:
323,188,158600,6,0,P|284:192|232:203,1,77.5000029563905,10|2,3:2|2:2,0:0:0:0:
219,205,158900,1,10,2:2:0:0:
279,357,159100,1,2,3:2:0:0:
303,361,159200,2,0,P|295:297|294:253,1,77.5000029563905,10|2,1:2|2:2,0:0:0:0:
165,262,159500,2,0,P|177:322|179:362,1,77.5000029563905,10|2,2:2|3:2,0:0:0:0:
176,360,159800,1,10,2:2:0:0:
24,199,160000,1,0,0:0:0:0:
16,181,160100,2,0,P|67:157|93:165,1,77.5000029563905,10|2,3:2|2:2,0:0:0:0:
158,189,160400,2,0,P|206:191|232:166,1,77.5000029563905,8|0,1:2|0:0,0:0:0:0:
245,149,160700,1,8,2:2:0:0:
26,17,160900,1,0,0:0:0:0:
13,35,161000,6,0,B|28:78|32:109,1,77.5000029563905,10|0,2:2|0:0,0:0:0:0:
105,177,161300,2,0,B|109:137|124:94,1,77.5000029563905,10|2,2:2|2:2,0:0:0:0:
139,88,161600,1,10,1:2:0:0:
246,244,161800,1,2,3:2:0:0:
238,220,161900,1,10,2:2:0:0:
81,267,162100,1,0,3:3:0:0:
85,290,162200,2,0,P|144:299|228:304,1,116.250004434586,10|10,2:2|3:2,0:0:0:0:
489,170,162800,2,0,P|382:175|380:277,1,193.750007390976,10|0,1:2|0:0,0:0:0:0:
337,376,163400,6,0,P|341:346|355:315,1,56.8333350677491,2|0,2:2|0:0,0:0:0:0:
278,206,163700,6,0,P|290:240|297:281,1,61.9999981079102,2|0,2:2|0:0,0:0:0:0:
210,378,164000,6,0,P|236:308|240:284,1,67.1666635920208,2|0,2:2|0:0,0:0:0:0:
159,178,164300,6,0,P|178:232|183:283,1,77.5000029563905,2|0,2:2|0:0,0:0:0:0:
132,373,164600,6,0,P|65:358|14:359,1,87.8333350086212,2|0,2:2|0:0,0:0:0:0:
0,237,164900,6,0,P|43:232|103:217,1,98.1666640453339,2|0,2:2|0:0,0:0:0:0:
330,330,165200,6,0,P|263:315|197:310,1,108.499996688843,2|0,2:2|0:0,0:0:0:0:
175,170,165500,6,0,P|218:165|297:141,1,118.833335599899
472,152,165800,6,0,P|390:143|370:85,1,123.99999621582,6|2,3:2|2:2,0:0:0:0:
268,0,166100,2,0,P|259:74|253:108,1,61.9999981079102,8|0,2:2|0:0,0:0:0:0:
248,166,166300,1,2,3:2:0:0:
177,68,166400,2,0,L|324:90,1,123.99999621582,10|2,1:2|2:2,0:0:0:0:
356,47,166700,1,10,2:2:0:0:
64,137,166900,1,2,3:2:0:0:
62,1,167000,6,0,P|90:91|101:159,1,123.99999621582,10|0,2:2|0:0,0:0:0:0:
8,264,167300,2,0,P|73:212|114:242,1,123.99999621582,10|0,3:2|0:0,0:0:0:0:
228,306,167600,2,0,P|170:294|110:290,1,103.333333333333,8|2,1:2|2:2,0:0:0:0:
198,177,167900,2,0,P|212:222|193:253,2,56.8333350677491,8|0|2,2:2|0:0|2:2,0:0:0:0:
121,132,168200,6,0,P|224:141|259:84,1,123.99999621582,10|0,3:2|0:0,0:0:0:0:
311,167,168500,2,0,P|332:106|307:61,1,61.9999981079102,10|0,2:2|0:0,0:0:0:0:
319,10,168700,1,2,3:2:0:0:
200,42,168800,2,0,P|307:75|351:77,1,123.99999621582,8|2,1:2|2:2,0:0:0:0:
493,207,169100,2,0,P|432:211|374:232,1,123.99999621582,10|2,2:2|3:2,0:0:0:0:
294,255,169400,5,10,2:2:0:0:
456,113,169600,1,0,0:0:0:0:
389,9,169700,2,0,P|415:131|421:178,1,123.99999621582,10|0,3:2|0:0,0:0:0:0:
246,109,170000,2,0,B|288:72|288:72|344:97,1,103.333333333333,8|0,1:2|0:0,0:0:0:0:
249,207,170300,2,0,B|178:204|214:164|100:157,1,113.666670135498,8|0,2:2|0:0,0:0:0:0:
54,140,170600,6,0,P|72:215|76:250,1,61.9999981079102,10|0,3:2|0:0,0:0:0:0:
98,338,170800,1,2,2:2:0:0:
31,304,170900,2,0,P|80:263|156:297,1,123.99999621582,10|2,2:2|3:2,0:0:0:0:
196,356,171200,2,0,P|264:344|348:330,1,123.99999621582,10|2,1:2|2:2,0:0:0:0:
388,326,171500,1,10,2:2:0:0:
328,162,171700,1,2,3:2:0:0:
311,265,171800,6,0,P|301:172|278:109,1,123.99999621582,8|2,2:2|2:2,0:0:0:0:
481,257,172100,2,0,P|462:357|465:428,1,123.99999621582,8|2,3:2|2:2,0:0:0:0:
493,187,172400,2,0,B|413:175|451:224|345:205,1,103.333333333333,10|2,1:2|2:2,0:0:0:0:
191,186,172700,2,0,P|229:139|290:152,1,113.666670135498,10|2,2:2|2:2,0:0:0:0:
256,296,173000,6,0,P|245:227|238:203,2,61.9999981079102,10|0|2,3:2|0:0|2:2,0:0:0:0:
194,347,173300,2,0,P|117:333|36:328,1,123.99999621582,10|2,2:2|3:2,0:0:0:0:
0,253,173600,2,0,P|62:240|80:229,1,61.9999981079102,4|0,1:2|0:0,0:0:0:0:
191,186,173800,1,2,2:2:0:0:
169,253,173900,2,0,P|122:214|157:133,1,134.333327184042,4|2,1:2|3:2,0:0:0:0:
258,6,174200,6,0,P|246:76|164:85,1,134.333327184042,2|2,2:2|1:2,0:0:0:0:
8,57,174500,2,0,P|65:35|119:105,1,134.333327184042,2|2,3:2|2:2,0:0:0:0:
134,148,174800,1,2,1:2:0:0:
4,342,175000,1,8,2:3:0:0:
131,368,175100,2,0,P|47:355|-2:349,1,103.333333333333,6|6,2:3|2:3,0:0:0:0:
45,246,175400,6,0,B|148:228|93:304|220:287,1,155,6|0,3:2|0:0,0:0:0:0:
410,265,175900,1,0,3:3:0:0:
359,196,176000,2,0,P|375:260|382:331,1,113.666670135498,6|0,1:2|0:0,0:0:0:0:
385,384,176300,1,10,2:2:0:0:
265,167,176500,1,0,3:3:0:0:
177,229,176600,2,0,P|271:201|324:198,1,113.666670135498,10|0,2:2|0:0,0:0:0:0:
369,54,176900,2,0,P|301:81|220:81,1,113.666670135498,10|0,3:2|0:0,0:0:0:0:
94,120,177200,2,0,P|166:126|182:170,1,103.333333333333,10|0,1:2|0:0,0:0:0:0:
178,146,177500,1,10,2:2:0:0:
333,370,177700,1,0,0:0:0:0:
355,307,177800,6,0,P|241:344|252:394,1,155,10|10,3:2|2:2,0:0:0:0:
9,213,178300,1,0,3:3:0:0:
28,228,178400,2,0,B|60:188|7:146|77:88,1,113.666670135498,10|0,1:2|0:0,0:0:0:0:
133,225,178700,2,0,B|179:261|126:303|158:343,1,113.666670135498,10|0,2:2|3:3,0:0:0:0:
240,232,179000,2,0,P|346:248|433:258,2,170.500005203247,10|10|10,2:2|3:2|1:2,0:0:0:0:
329,30,179800,1,0,0:0:0:0:
348,120,179900,2,0,P|362:37|386:-7,1,113.666670135498,10|0,2:2|0:0,0:0:0:0:
118,216,180200,6,0,P|184:161|270:202,1,155,14|10,3:2|2:2,0:0:0:0:
483,299,180700,1,0,3:3:0:0:
469,211,180800,2,0,P|453:285|445:338,1,113.666670135498,10|0,1:2|0:0,0:0:0:0:
356,384,181100,2,0,P|344:296|328:238,1,113.666670135498,10|0,2:2|3:3,0:0:0:0:
273,217,181400,2,0,P|358:218|379:180,1,113.666670135498,10|0,2:2|0:0,0:0:0:0:
426,97,181700,2,0,P|359:81|320:126,1,113.666670135498,10|0,3:2|0:0,0:0:0:0:
182,213,182000,2,0,B|230:169|230:169|192:38,1,170.500005203247,10|10,1:2|2:2,0:0:0:0:
54,242,182500,1,0,0:0:0:0:
0,179,182600,6,0,P|85:155|143:150,1,103.333333333333,10|0,3:2|0:0,0:0:0:0:
99,152,182900,1,10,2:2:0:0:
419,298,183100,1,0,3:3:0:0:
402,181,183200,2,0,P|389:262|387:311,1,113.666670135498,10|0,1:2|0:0,0:0:0:0:
232,294,183500,2,0,P|281:251|346:297,1,113.666670135498,10|0,2:2|3:3,0:0:0:0:
376,368,183800,2,0,P|302:351|272:348,2,56.8333350677491,10|0|2,2:2|0:0|2:2,0:0:0:0:
454,378,184100,1,10,3:2:0:0:
263,155,184300,1,2,2:2:0:0:
154,207,184400,2,0,P|252:184|312:186,1,123.99999621582,6|0,1:2|0:0,0:0:0:0:
438,116,184700,2,0,P|304:93|273:75,1,123.99999621582,10|6,2:3|2:3,0:0:0:0:
329,292,185000,6,0,P|395:290|427:205,1,155,6|10,3:2|2:2,0:0:0:0:
198,29,185500,1,0,3:3:0:0:
95,94,185600,2,0,B|187:84|159:128|266:115,1,155,10|10,1:2|2:2,0:0:0:0:
465,44,186100,1,0,3:3:0:0:
405,0,186200,2,0,P|386:66|386:85,1,51.6666666666667,10|0,2:2|0:0,0:0:0:0:
438,182,186400,1,2,1:2:0:0:
309,144,186500,2,0,P|371:134|438:112,1,103.333333333333,10|2,3:2|2:2,0:0:0:0:
490,105,186800,1,10,1:2:0:0:
186,55,187000,1,0,1:1:0:0:
243,3,187100,2,0,P|228:108|225:145,1,103.333333333333,10|0,2:2|0:0,0:0:0:0:
127,235,187400,6,0,P|215:184|258:220,1,155,6|0,3:2|0:0,0:0:0:0:
368,40,187900,1,0,3:3:0:0:
373,58,188000,2,0,B|284:67|320:108|211:105,1,155,0|2,1:1|2:2,0:0:0:0:
19,49,188500,1,0,3:3:0:0:
21,66,188600,1,0,0:0:0:0:
176,207,188800,1,0,0:0:0:0:
173,189,188900,1,2,3:2:0:0:
14,335,189100,1,0,0:0:0:0:
19,356,189200,2,0,P|118:335|183:333,1,155,2|2,1:2|2:2,0:0:0:0:
325,299,189700,1,0,0:0:0:0:
325,299,189800,6,0,P|296:301|322:294,1,77.5000029563905,2|0,3:2|0:0,0:0:0:0:
336,125,190400,6,0,P|360:140|335:130,1,77.5000029563905,2|0,3:2|0:0,0:0:0:0:
438,307,191000,6,0,P|445:278|443:305,2,77.5000029563905,2|2|2,3:2|2:2|2:2,0:0:0:0:
273,210,191600,6,0,P|250:228|271:206,2,77.5000029563905,2|2|2,3:2|2:2|2:2,0:0:0:0:
437,167,192200,6,0,P|461:182|436:172,1,77.5000029563905,2|0,3:2|0:0,0:0:0:0:
280,88,192500,1,8,2:2:0:0:
462,52,192700,1,0,3:3:0:0:
447,65,192800,2,0,P|391:52|353:47,1,77.5000029563905,8|0,1:2|0:0,0:0:0:0:
355,43,193100,1,8,2:2:0:0:
229,170,193300,1,0,3:3:0:0:
246,183,193400,6,0,P|315:171|349:171,1,77.5000029563905,8|0,2:2|0:0,0:0:0:0:
445,134,193700,2,0,P|385:183|401:291,1,144.66666225179,10|0,3:2|0:0,0:0:0:0:
337,314,194000,2,0,P|353:336|406:342,1,72.3333311258952,0|0,1:1|0:0,0:0:0:0:
454,286,194200,1,0,0:0:0:0:
377,246,194300,2,0,B|340:245|304:231|304:231|252:278|208:281,1,144.66666225179,2|2,2:2|2:2,0:0:0:0:
202,200,194600,6,0,L|103:189,1,67.1666635920208,6|0,3:2|0:0,0:0:0:0:
0,174,194800,1,2,2:2:0:0:
36,81,194900,2,0,P|68:180|68:274,1,134.333327184042,10|0,2:2|3:3,0:0:0:0:
16,295,195200,2,0,B|84:297|70:255|174:262,1,134.333327184042,0|2,1:1|2:2,0:0:0:0:
202,200,195500,2,0,P|216:274|215:302,1,67.1666635920208,8|0,2:2|0:0,0:0:0:0:
280,379,195700,1,2,3:2:0:0:
384,314,195800,6,0,P|332:261|276:289,1,134.333327184042,2|2,2:2|2:2,0:0:0:0:
442,374,196100,2,0,B|493:331|493:331|453:223,1,134.333327184042,10|0,3:2|0:0,0:0:0:0:
391,57,196400,2,0,B|346:106|346:106|377:171,1,134.333327184042,0|2,1:1|2:2,0:0:0:0:
457,184,196700,2,0,P|464:140|490:88,2,67.1666635920208,8|0|2,2:2|0:0|2:2,0:0:0:0:
384,254,197000,6,0,B|303:250|342:210|235:210,1,134.333327184042,2|2,3:2|2:2,0:0:0:0:
151,153,197300,2,0,P|193:92|270:132,1,134.333327184042,10|2,2:2|3:2,0:0:0:0:
339,165,197600,2,0,P|345:128|351:95,2,67.1666635920208,2|0|2,1:2|0:0|2:2,0:0:0:0:
319,254,197900,1,10,2:2:0:0:
498,81,198100,6,0,P|446:14|324:50,1,201.499990776062,2|0,3:2|0:0,0:0:0:0:
276,143,198500,2,0,P|262:44|251:-17,1,134.333327184042,8|0,3:2|0:0,0:0:0:0:
72,168,198800,2,0,P|143:181|167:191,1,67.1666635920208,4|0,1:2|0:0,0:0:0:0:
209,136,199000,1,0,0:0:0:0:
164,63,199100,2,0,B|72:71|123:101|5:104,1,134.333327184042,8|2,2:2|2:2,0:0:0:0:
2,44,199400,5,6,3:2:0:0:
122,302,199600,1,2,2:2:0:0:
9,309,199700,2,0,P|130:287|183:285,1,134.333327184042,10|2,2:2|3:2,0:0:0:0:
297,221,200000,2,0,P|291:292|295:323,1,67.1666635920208,2|0,1:2|0:0,0:0:0:0:
291,364,200200,1,0,0:0:0:0:
184,349,200300,2,0,B|238:297|238:297|338:330,1,134.333327184042,10|0,2:2|3:3,0:0:0:0:
449,350,200600,6,0,B|376:329|376:329|355:226,1,134.333327184042,2|2,2:2|2:2,0:0:0:0:
289,100,200900,2,0,B|307:172|307:172|228:242,1,134.333327184042,10|2,3:2|2:2,0:0:0:0:
77,205,201200,2,0,P|166:187|188:185,1,67.1666635920208,2|0,1:2|0:0,0:0:0:0:
215,73,201400,1,2,2:2:0:0:
138,49,201500,2,0,P|154:118|163:156,1,67.1666635920208,10|0,2:2|0:0,0:0:0:0:
27,329,201700,1,2,2:2:0:0:
0,256,201800,6,0,B|88:247|50:296|159:286,1,134.333327184042,6|2,3:2|0:0,0:0:0:0:
271,303,202100,2,0,P|195:280|225:222,1,134.333327184042,2|2,0:0|3:2,0:0:0:0:
303,174,202400,2,0,P|367:198|404:206,1,61.9999981079102,6|0,1:2|0:0,0:0:0:0:
451,332,202600,1,2,0:0:0:0:
386,366,202700,2,0,P|377:335|387:297,1,61.9999981079102,6|0,1:2|0:0,0:0:0:0:
481,257,202900,6,0,B|432:247|432:247|381:284|381:284|296:271,1,144.66666225179,2|0,0:0|0:0,0:0:0:0:
176,200,203200,1,2,1:2:0:0:
247,208,203300,2,0,P|172:229|129:237,1,72.3333311258952,10|0,2:3|0:0,0:0:0:0:
8,245,203500,1,0,0:0:0:0:
78,289,203600,2,0,P|91:234|87:189,1,72.3333311258952,2|0,1:2|0:0,0:0:0:0:
238,284,203800,1,10,1:3:0:0:
253,351,203900,2,0,B|228:355|184:375|184:375|172:342|134:309,1,144.66666225179,4|2,2:3|2:2,0:0:0:0:
385,194,204200,6,0,P|376:275|378:299,1,67.1666635920208,6|0,3:2|0:0,0:0:0:0:
380,384,204400,1,2,2:2:0:0:
315,322,204500,2,0,P|422:302|495:279,1,134.333327184042,10|0,2:2|3:3,0:0:0:0:
500,207,204800,2,0,P|437:138|374:179,1,134.333327184042,4|2,1:2|2:2,0:0:0:0:
319,217,205100,2,0,L|304:134,1,67.1666635920208,8|0,2:2|0:0,0:0:0:0:
328,32,205300,1,2,3:2:0:0:
427,51,205400,6,0,P|331:75|245:88,1,134.333327184042,2|2,2:2|2:2,0:0:0:0:
210,216,205700,2,0,P|323:241|383:268,1,134.333327184042,10|0,3:2|0:0,0:0:0:0:
237,30,206000,2,0,P|217:115|217:151,1,67.1666635920208,0|0,1:1|0:0,0:0:0:0:
78,192,206200,1,2,2:2:0:0:
0,140,206300,2,0,P|78:81|132:122,1,134.333327184042,10|2,2:2|2:2,0:0:0:0:
227,155,206600,6,0,P|309:138|328:138,2,67.1666635920208,2|0|2,3:2|0:0|2:2,0:0:0:0:
169,255,206900,2,0,P|157:150|139:83,1,134.333327184042,10|2,2:2|3:2,0:0:0:0:
282,245,207200,2,0,P|268:310|263:377,1,134.333327184042,2|2,1:2|2:2,0:0:0:0:
345,374,207500,1,10,2:2:0:0:
7,285,207700,6,0,B|119:253|88:366|225:321,1,201.499990776062,2|2,3:2|2:2,0:0:0:0:
345,216,208100,2,0,P|301:152|216:193,1,134.333327184042,10|2,3:2|2:2,0:0:0:0:
161,245,208400,2,0,P|219:252|260:268,1,67.1666635920208,6|0,1:2|0:0,0:0:0:0:
298,277,208600,1,2,2:2:0:0:
298,277,208700,1,10,2:2:0:0:
104,46,208900,1,2,2:2:0:0:
225,42,209000,6,0,P|118:85|60:100,1,134.333327184042,6|2,3:2|2:2,0:0:0:0:
281,146,209300,2,0,P|303:73|341:-5,1,134.333327184042,10|2,2:2|3:2,0:0:0:0:
182,149,209600,2,0,P|213:219|232:307,1,134.333327184042,2|2,1:2|2:2,0:0:0:0:
169,370,209900,2,0,P|250:341|273:346,1,67.1666635920208,10|0,2:2|0:0,0:0:0:0:
385,333,210100,1,2,3:2:0:0:
336,383,210200,6,0,P|312:299|370:273,1,134.333327184042,2|2,2:2|2:2,0:0:0:0:
504,194,210500,2,0,P|477:249|386:229,1,134.333327184042,10|2,3:2|2:2,0:0:0:0:
333,208,210800,2,0,P|347:134|359:102,2,67.1666635920208,2|0|2,1:2|0:0|2:2,0:0:0:0:
261,257,211100,2,0,B|182:255|210:205|103:202,1,134.333327184042,10|2,2:2|2:2,0:0:0:0:
34,135,211400,6,0,B|90:162|90:162|62:254,1,134.333327184042,2|2,3:2|2:2,0:0:0:0:
11,315,211700,2,0,P|76:265|143:299,1,134.333327184042,0|2,0:0|3:2,0:0:0:0:
193,350,212000,1,6,1:2:0:0:
255,373,212100,1,0,0:0:0:0:
324,369,212200,1,2,2:2:0:0:
370,316,212300,1,6,2:2:0:0:
431,302,212400,1,0,0:0:0:0:
467,318,212500,1,2,1:2:0:0:
477,326,212600,6,0,P|495:254|510:233,2,67.1666635920208,2|2|2,2:2|2:2|2:2,0:0:0:0:
388,244,212900,2,0,P|370:172|355:151,2,67.1666635920208,2|2|2,3:2|2:2|2:2,0:0:0:0:
512,126,213200,2,0,P|441:80|379:120,1,134.333327184042,2|2,3:2|1:2,0:0:0:0:
217,149,213500,1,2,1:2:0:0:
286,177,213600,1,2,1:2:0:0:
349,145,213700,1,2,1:2:0:0:
355,133,213800,6,0,P|345:58|354:30,1,72.3333311258952,6|0,3:2|0:0,0:0:0:0:
341,0,214000,1,2,2:2:0:0:
449,21,214100,2,0,P|349:45|244:49,1,144.66666225179,10|0,2:2|3:3,0:0:0:0:
119,39,214400,2,0,B|184:1|184:1|231:73,1,144.66666225179,4|0,1:2|0:0,0:0:0:0:
223,139,214700,2,0,P|130:154|96:164,1,72.3333311258952,10|0,2:2|0:0,0:0:0:0:
0,184,214900,1,2,3:2:0:0:
33,12,215000,6,0,P|68:129|77:198,1,144.66666225179,6|2,2:2|2:2,0:0:0:0:
273,248,215300,2,0,B|183:215|183:215|108:280,1,144.66666225179,10|0,3:2|0:0,0:0:0:0:
6,341,215600,2,0,B|97:370|97:370|149:337,1,144.66666225179,4|0,1:2|0:0,0:0:0:0:
223,297,215900,2,0,P|240:352|245:380,1,72.3333311258952,10|0,2:2|0:0,0:0:0:0:
362,375,216100,1,2,2:2:0:0:
440,238,216200,6,0,B|419:221|400:176|400:176|362:207|311:223,1,144.66666225179,6|2,3:2|2:2,0:0:0:0:
421,326,216500,2,0,B|452:348|478:374|478:374|491:336|524:299,1,144.66666225179,10|0,2:2|3:3,0:0:0:0:
495,107,216800,2,0,B|436:93|436:93|406:107|406:107|331:91,1,144.66666225179,4|0,1:2|0:0,0:0:0:0:
197,68,217100,2,0,P|214:154|213:179,1,72.3333311258952,10|0,2:2|0:0,0:0:0:0:
180,283,217300,1,2,3:2:0:0:
70,252,217400,6,0,B|128:190|128:190|245:229,1,144.66666225179,6|2,2:2|2:2,0:0:0:0:
359,276,217700,2,0,B|276:256|276:256|251:135,1,144.66666225179,10|0,3:2|0:0,0:0:0:0:
234,17,218000,2,0,B|258:98|258:98|166:180,1,144.66666225179,4|0,1:2|0:0,0:0:0:0:
0,81,218300,2,0,P|78:69|101:60,1,72.3333311258952,10|0,2:2|0:0,0:0:0:0:
178,51,218500,1,2,2:2:0:0:
123,166,218600,6,0,P|107:61|74:-16,1,144.66666225179,6|2,3:2|2:2,0:0:0:0:
264,197,218900,2,0,P|242:266|234:338,1,144.66666225179,10|0,2:2|3:3,0:0:0:0:
11,240,219200,2,0,B|59:227|59:227|98:244|98:244|178:221,1,144.66666225179,4|2,1:2|2:2,0:0:0:0:
307,104,219500,2,0,P|240:98|209:87,1,72.3333311258952,8|0,2:2|0:0,0:0:0:0:
85,100,219700,1,2,3:2:0:0:
123,166,219800,6,0,B|181:114|181:114|123:26,1,144.66666225179,6|2,2:2|2:2,0:0:0:0:
47,43,220100,2,0,B|-8:101|-8:101|56:187,1,144.66666225179,10|0,3:2|0:0,0:0:0:0:
306,223,220400,2,0,P|218:175|169:214,1,144.66666225179,4|2,1:2|2:2,0:0:0:0:
69,218,220700,2,0,P|92:286|99:330,1,72.3333311258952,8|0,2:2|0:0,0:0:0:0:
116,384,220900,1,2,2:2:0:0:
0,367,221000,6,0,B|57:351|57:351|93:364|93:364|193:337,1,144.66666225179,6|2,3:2|1:2,0:0:0:0:
214,334,221300,1,2,2:2:0:0:
464,96,221500,1,2,3:2:0:0:
507,228,221600,2,0,B|464:160|464:160|375:216,1,155.000005912781,6|2,1:2|2:2,0:0:0:0:
178,153,221900,2,0,B|243:194|243:194|299:128,1,155.000005912781,6|2,1:2|2:2,0:0:0:0:
418,0,222200,6,0,P|403:77|402:110,1,77.5000029563905,2|0,3:2|0:0,0:0:0:0:
345,177,222400,1,0,1:1:0:0:
314,57,222500,2,0,P|473:96|534:98,1,155.000005912781,2|2,3:2|2:2,0:0:0:0:
320,249,222800,2,0,P|244:259|170:282,1,155.000005912781,4|0,3:2|1:1,0:0:0:0:
49,140,223100,1,2,1:2:0:0:
92,69,223200,1,0,1:1:0:0:
173,82,223300,1,2,1:2:0:0:
254,159,223400,6,0,P|272:10|288:-52,1,144.66666225179,6|2,3:2|2:2,0:0:0:0:
89,220,223700,2,0,B|146:208|146:208|175:230|175:230|268:213,1,144.66666225179,10|0,2:2|3:3,0:0:0:0:
428,169,224000,2,0,B|376:110|376:110|297:150,1,144.66666225179,4|2,1:2|2:2,0:0:0:0:
187,291,224300,2,0,P|203:370|204:408,1,72.3333311258952,8|0,2:2|0:0,0:0:0:0:
313,383,224500,1,2,3:2:0:0:
442,323,224600,6,0,P|318:305|237:279,1,144.66666225179,6|2,2:2|1:2,0:0:0:0:
29,132,224900,2,0,P|132:114|210:88,1,144.66666225179,10|0,2:2|3:3,0:0:0:0:
81,319,225200,2,0,B|27:261|27:261|90:155,1,144.66666225179,4|2,1:2|2:2,0:0:0:0:
240,238,225500,2,0,P|228:335|233:366,1,72.3333311258952,10|0,2:2|0:0,0:0:0:0:
230,384,225700,1,2,2:2:0:0:
55,380,225800,6,0,B|113:321|113:321|222:363,1,144.66666225179,6|2,3:2|2:2,0:0:0:0:
409,343,226100,2,0,B|363:390|363:390|268:359,1,144.66666225179,10|2,2:2|3:2,0:0:0:0:
153,213,226400,2,0,P|246:188|261:182,1,72.3333311258952,6|0,1:2|0:0,0:0:0:0:
345,160,226600,1,0,0:0:0:0:
320,235,226700,2,0,P|293:138|284:117,1,72.3333311258952,10|0,2:2|0:0,0:0:0:0:
478,328,226900,1,6,2:3:0:0:
477,252,227000,6,0,B|393:237|416:316|297:301,1,144.66666225179,6|4,2:2|2:3,0:0:0:0:
194,25,227300,2,0,B|242:86|242:86|191:180,1,144.66666225179,12|2,2:3|3:2,0:0:0:0:
123,247,227600,2,0,B|70:190|70:190|123:109,1,144.66666225179,4|0,1:2|3:3,0:0:0:0:
353,234,227900,2,0,P|280:216|206:204,1,144.66666225179,8|4,2:3|2:3,0:0:0:0:
299,68,228200,6,0,P|394:49|475:13,1,144.66666225179,14|2,3:2|2:2,0:0:0:0:
512,12,228500,1,10,2:2:0:0:
429,326,228700,1,2,3:2:0:0:
471,173,228800,2,0,B|530:221|530:221|480:323,1,144.66666225179,14|2,1:2|2:2,0:0:0:0:
304,307,229100,2,0,B|316:231|316:231|429:224,1,144.66666225179,10|2,2:2|3:2,0:0:0:0:
512,364,229400,6,0,B|440:391|440:391|377:296,1,144.66666225179,10|2,2:2|2:2,0:0:0:0:
130,214,229700,2,0,B|202:182|202:182|254:248,1,144.66666225179,10|2,3:2|2:2,0:0:0:0:
250,340,230000,1,14,1:2:0:0:
0,234,230200,1,2,2:2:0:0:
143,290,230300,2,0,P|36:272|-38:270,1,144.66666225179,10|2,2:2|2:2,0:0:0:0:
81,74,230600,6,0,B|157:61|157:61|193:119|193:119|324:102,1,216.999993377686,10|10,3:2|2:2,0:0:0:0:
502,43,231100,1,2,3:2:0:0:
412,1,231200,2,0,P|445:133|450:169,1,144.66666225179,14|2,1:2|2:2,0:0:0:0:
258,253,231500,2,0,P|355:158|384:136,1,144.66666225179,10|10,2:2|2:3,0:0:0:0:
512,287,231800,6,0,P|381:249|347:235,1,144.66666225179,2|0,2:2|1:1,0:0:0:0:
261,42,232100,2,0,P|245:146|209:219,1,144.66666225179,2|0,3:2|0:0,0:0:0:0:
113,367,232400,2,0,P|82:274|51:219,1,123.99999621582,2|2,1:2|1:2,0:0:0:0:
15,156,232700,2,0,L|141:170,1,103.333333333333,10|2,2:2|2:2,0:0:0:0:
132,181,233000,6,0,L|51:171,1,56.8333350677491,10|2,3:2|2:2,0:0:0:0:
54,171,233300,1,8,2:2:0:0:
185,130,233500,1,0,3:3:0:0:
185,130,233600,1,8,1:2:0:0:
22,280,233900,1,8,2:2:0:0:
157,325,234100,1,0,3:3:0:0:
176,320,234200,2,0,P|185:255|193:233,1,85.2500026016236,8|8,2:2|3:2,0:0:0:0:
75,113,234800,1,8,1:2:0:0:
75,113,235100,1,8,2:2:0:0:
22,280,235400,6,0,P|116:267|131:267,1,85.2500026016236,8|8,2:2|2:2,0:0:0:0:
266,164,235900,1,0,0:0:0:0:
247,168,236000,2,0,P|191:161|165:156,1,56.8333350677491,8|0,1:2|3:3,0:0:0:0:
124,149,236300,1,8,2:2:0:0:
312,259,236500,1,0,3:3:0:0:
312,259,236600,1,8,2:2:0:0:
102,338,236900,1,8,3:2:0:0:
